osu file format v14

[General]
AudioFilename: audio.mp3
AudioLeadIn: 0
PreviewTime: 15981
Countdown: 0
SampleSet: Normal
StackLeniency: 0.4
Mode: 0
LetterboxInBreaks: 0
WidescreenStoryboard: 0

[Editor]
Bookmarks: 5882,45040
DistanceSpacing: 0.8
BeatDivisor: 3
GridSize: 8
TimelineZoom: 3.299999

[Metadata]
Title:Big Brother
TitleUnicode:Big Brother
Artist:x0o0x_
ArtistUnicode:x0o0x_
Creator:Luscent
Version:Thoughtcrime
Source:
Tags:☻ XYXYZ x0o0x xo0ox_ xo0ox susumu hirasawa cover KAKU P-MODEL yokespai 404 aimnotfound dada japanese novelty female vocal
BeatmapID:2341682
BeatmapSetID:1120687

[Difficulty]
HPDrainRate:5
CircleSize:5
OverallDifficulty:8
ApproachRate:8.5
SliderMultiplier:1.6
SliderTickRate:1

[Events]
//Background and Video events
0,0,"bg.jpg",0,0
//Break Periods
2,103328,106243
2,128592,132769
//Storyboard Layer 0 (Background)
//Storyboard Layer 1 (Fail)
//Storyboard Layer 2 (Pass)
//Storyboard Layer 3 (Foreground)
//Storyboard Layer 4 (Overlay)
//Storyboard Sound Samples

[TimingPoints]
813,315.789473684211,4,1,0,65,1,0
813,-100,4,1,0,65,0,0
5865,-83.3333333333333,4,1,0,65,0,0
87970,-83.3333333333333,4,1,0,65,0,1
98076,-100,4,1,0,65,0,0
108181,-83.3333333333333,4,1,0,65,0,0
171339,-83.3333333333333,4,1,0,65,0,1
191549,-66.6666666666667,4,1,0,65,0,1
196602,-66.6666666666667,4,1,0,65,0,0

[Colours]
Combo1 : 17,254,176
Combo2 : 104,175,247
Combo3 : 23,102,234
Combo4 : 177,17,200

[HitObjects]
64,240,813,6,0,B|136:240|136:240|160:280|224:280,1,160
256,336,1286,1,0,0:0:0:0:
301,279,1444,2,0,B|352:280|376:240,1,80
440,248,1681,1,2,0:0:0:0:
440,248,1760,2,0,L|440:144,1,80
440,104,2076,1,0,0:0:0:0:
208,24,2234,6,0,B|144:96|208:176|208:176,1,160,2|0,0:0|0:0,0:0:0:0:
307,171,2707,1,0,0:0:0:0:
307,171,2865,2,0,B|304:176|344:136|336:72,2,80,0|0|2,0:0|0:0|0:0,0:0:0:0:
64,240,3339,6,0,B|136:240|136:240|160:280|224:280,1,160,2|0,0:0|0:0,0:0:0:0:
296,288,3813,1,0,0:0:0:0:
208,200,3970,2,0,B|184:160|208:112,1,80
224,88,4207,1,2,0:2:0:0:
256,72,4286,1,2,0:2:0:0:
296,56,4365,1,2,0:2:0:0:
336,56,4444,1,2,0:2:0:0:
376,64,4523,1,2,0:2:0:0:
408,88,4602,6,0,L|408:144,3,53.3333333333333
384,336,5076,1,0,0:0:0:0:
384,336,5155,1,0,0:0:0:0:
384,336,5234,1,0,0:0:0:0:
496,280,5391,1,0,0:0:0:0:
496,280,5470,1,0,0:0:0:0:
496,280,5549,1,4,0:2:0:0:
344,232,5707,1,4,0:2:0:0:
48,272,5865,6,0,B|88:320|136:320|136:320|176:288|240:304,1,191.999994140625,8|8,3:0|0:0,0:0:0:0:
200,376,6339,1,2,3:0:0:0:
120,240,6497,2,0,B|88:184|128:128,1,95.9999970703126,4|0,3:0|0:0,0:0:0:0:
232,144,6734,1,0,0:0:0:0:
232,144,6813,2,0,B|264:200|224:256,1,95.9999970703126,8|2,0:0|3:0,0:0:0:0:
32,32,7128,5,4,3:0:0:0:
24,192,7286,1,0,0:0:0:0:
176,192,7444,5,8,0:0:0:0:
176,88,7602,1,2,3:0:0:0:
328,32,7760,5,4,3:0:0:0:
336,192,7918,1,0,0:0:0:0:
488,192,8076,5,8,0:0:0:0:
488,88,8234,1,2,0:0:0:0:
312,264,8391,6,0,B|352:312|400:312|400:312|440:280|504:296,1,191.999994140625,8|8,3:0|0:0,0:0:0:0:
456,360,8865,1,2,3:0:0:0:
200,264,9023,2,0,B|160:312|112:312,1,95.9999970703126,4|0,3:0|0:0,0:0:0:0:
72,304,9260,1,0,0:0:0:0:
40,264,9339,1,8,0:0:0:0:
32,216,9418,1,0,0:0:0:0:
48,168,9497,1,2,3:0:0:0:
80,136,9576,1,0,0:0:0:0:
128,128,9655,6,0,L|200:128,2,63.9999980468751,4|0|0,3:0|0:0|0:0,0:0:0:0:
128,128,9970,1,8,0:0:0:0:
384,128,10128,1,2,3:0:0:0:
384,128,10207,1,0,0:0:0:0:
384,128,10286,1,4,3:0:0:0:
256,16,10444,1,0,0:0:0:0:
256,16,10523,1,0,0:0:0:0:
256,16,10602,1,8,0:0:0:0:
128,128,10760,1,0,0:0:0:0:
352,304,10918,6,0,B|392:264|384:216|384:216|376:168|432:104,1,191.999994140625,8|8,3:0|0:0,0:0:0:0:
464,200,11391,1,2,3:0:0:0:
97,129,11549,2,0,B|135:170|127:218,1,95.9999970703126,4|0,3:0|0:0,0:0:0:0:
160,304,11786,1,0,0:0:0:0:
160,304,11865,2,0,B|120:264|128:216|128:216,1,95.9999970703126,8|2,0:0|3:0,0:0:0:0:
48,360,12181,5,4,3:0:0:0:
208,240,12339,1,0,0:0:0:0:
48,200,12497,1,8,0:0:0:0:
48,280,12655,1,2,3:0:0:0:
256,296,12813,5,4,3:0:0:0:
160,184,12970,1,0,0:0:0:0:
256,72,13128,1,8,0:0:0:0:
352,184,13285,1,2,0:0:0:0:
48,56,13444,6,0,B|120:72|120:72|184:64|216:8,1,191.999994140625,8|8,3:0|0:0,0:0:0:0:
256,144,13918,1,2,3:0:0:0:
432,64,14076,2,0,B|376:72|352:120|352:120,1,95.9999970703126,4|0,3:0|0:0,0:0:0:0:
344,160,14313,1,0,0:0:0:0:
355,206,14391,1,8,0:0:0:0:
387,240,14470,1,0,0:0:0:0:
433,255,14549,1,2,3:0:0:0:
479,245,14628,1,0,0:0:0:0:
512,208,14707,6,0,B|480:176|440:176|440:176,2,63.9999980468751,4|0|0,3:0|3:0|3:0,0:0:0:0:
376,352,15023,2,0,B|408:320|464:320|464:320,1,95.9999970703126,8|2,0:0|3:0,0:0:0:0:
256,352,15339,1,4,3:0:0:0:
216,328,15417,1,0,0:0:0:0:
192,288,15496,1,0,0:0:0:0:
200,240,15575,1,0,0:0:0:0:
232,208,15654,1,8,0:0:0:0:
280,208,15734,1,0,0:0:0:0:
320,184,15812,1,0,0:0:0:0:
344,144,15891,1,0,0:0:0:0:
336,96,15970,6,0,B|288:48|232:48|232:48|152:96,1,191.999994140625,8|8,3:0|0:0,0:0:0:0:
256,272,16444,1,2,3:0:0:0:
496,296,16602,2,0,B|520:248|496:200|496:200,1,95.9999970703126,4|0,3:0|0:0,0:0:0:0:
384,200,16918,2,0,B|360:248|384:296|384:296,1,95.9999970703126,8|2,0:0|3:0,0:0:0:0:
256,352,17234,5,4,3:0:0:0:
440,248,17391,1,0,0:0:0:0:
256,125,17549,1,8,0:0:0:0:
72,232,17706,1,2,3:0:0:0:
341,86,17865,6,0,B|311:115|286:86|256:125|256:125|226:86|201:115|171:86,1,191.999994140625,4|8,3:0|0:0,0:0:0:0:
256,208,18339,1,0,0:0:0:0:
112,24,18497,2,0,B|72:64|80:120,1,95.9999970703126,8|0,3:0|0:0,0:0:0:0:
432,111,18813,2,0,B|432:120|440:64|400:24,1,95.9999970703126,8|2,0:0|3:0,0:0:0:0:
136,152,19128,5,4,3:0:0:0:
208,32,19286,1,0,0:0:0:0:
376,152,19444,1,8,0:0:0:0:
304,32,19602,1,2,3:0:0:0:
40,224,19760,6,0,B|128:224|128:224|152:272|232:264,1,191.999994140625,4|8,3:0|0:0,0:0:0:0:
256,352,20234,1,2,3:0:0:0:
384,224,20391,2,0,B|353:271|272:264,1,95.9999970703126,4|0,3:0|3:0,0:0:0:0:
152,320,20707,1,8,0:0:0:0:
360,320,20865,1,0,3:0:0:0:
192,96,21023,6,0,L|192:192,1,95.9999970703126,8|0,3:0|0:0,0:0:0:0:
320,192,21339,2,0,L|320:96,1,95.9999970703126,8|2,0:0|3:0,0:0:0:0:
144,32,21655,2,0,B|96:64|120:144,1,95.9999970703126,4|0,3:0|0:0,0:0:0:0:
368,256,21970,2,0,B|416:224|392:144,1,95.9999970703126,8|2,0:0|3:0,0:0:0:0:
112,192,22286,5,4,3:0:0:0:
256,192,22444,1,0,0:0:0:0:
184,304,22602,1,8,0:0:0:0:
40,304,22760,1,2,3:0:0:0:
255,343,22918,2,0,B|319:343|319:190|256:191|256:191,1,191.999994140625,4|8,3:0|0:0,0:0:0:0:
184,224,23391,1,0,0:0:0:0:
80,32,23549,6,0,B|120:64|176:56,1,95.9999970703126,8|0,3:0|0:0,0:0:0:0:
408,128,23865,2,0,L|304:128,1,95.9999970703126,8|2,0:0|3:0,0:0:0:0:
104,128,24181,2,0,L|200:128,1,95.9999970703126,4|0,3:0|0:0,0:0:0:0:
432,32,24497,2,0,B|392:64|336:56,1,95.9999970703126,8|2,0:0|3:0,0:0:0:0:
192,208,24813,1,4,3:0:0:0:
320,208,24970,1,0,0:0:0:0:
136,280,25128,1,8,0:0:0:0:
376,280,25286,1,2,3:0:0:0:
256,312,25444,5,2,3:2:0:0:
256,272,25523,1,2,3:2:0:0:
256,232,25602,1,2,3:2:0:0:
256,192,25681,1,2,3:2:0:0:
256,152,25760,2,2,L|256:112,5,31.9999990234375,2|2|2|2|2|2,3:2|3:2|3:2|3:2|3:2|3:2,3:2:0:0:
256,80,26076,6,0,B|216:40|160:40|160:40|128:72|64:80,1,191.999994140625,8|8,3:0|0:0,0:0:0:0:
128,184,26549,1,2,3:0:0:0:
336,176,26707,2,0,B|376:136|376:80|376:80|344:48|336:-16,1,191.999994140625,4|8,3:0|0:0,0:0:0:0:
272,24,27181,1,2,3:0:0:0:
424,176,27339,6,0,B|448:144|448:80|448:80,1,95.9999970703126,4|0,3:0|0:0,0:0:0:0:
312,256,27655,1,8,0:0:0:0:
416,256,27813,1,2,3:0:0:0:
88,176,27970,2,0,B|64:144|64:80|64:80,1,95.9999970703126,4|0,3:0|0:0,0:0:0:0:
200,256,28286,1,8,0:0:0:0:
96,256,28444,1,0,0:0:0:0:
208,344,28602,6,0,L|304:344,2,95.9999970703126,8|0|8,3:0|0:0|0:0,0:0:0:0:
376,368,29076,1,2,3:0:0:0:
152,304,29234,2,0,B|104:272|96:224|96:224|136:192|136:120,1,191.999994140625,4|8,3:0|0:0,0:0:0:0:
288,224,29707,1,2,3:0:0:0:
192,80,29865,6,0,B|240:112|248:160|248:160|208:192|208:264,1,191.999994140625,4|8,3:0|0:0,0:0:0:0:
56,160,30339,1,2,3:0:0:0:
360,32,30497,2,0,L|464:32,1,95.9999970703126,4|0,3:0|3:0,0:0:0:0:
152,32,30813,2,0,L|48:32,1,95.9999970703126,8|0,0:0|3:0,0:0:0:0:
392,104,31128,6,0,L|288:104,1,95.9999970703126,8|0,3:0|0:0,0:0:0:0:
120,104,31444,2,0,L|224:104,1,95.9999970703126,8|2,0:0|3:0,0:0:0:0:
424,176,31760,2,0,L|312:176,1,95.9999970703126,4|0,3:0|0:0,0:0:0:0:
88,176,32076,1,8,0:0:0:0:
184,176,32234,1,2,3:0:0:0:
40,272,32391,5,4,3:0:0:0:
136,272,32549,1,0,0:0:0:0:
240,352,32707,2,0,B|312:344|312:216|240:208,1,191.999994140625,8|4,0:0|3:0,0:0:0:0:
216,280,33181,1,0,0:0:0:0:
160,104,33339,2,0,B|128:152|160:208|160:208,1,95.9999970703126,8|0,0:0|0:0,0:0:0:0:
496,232,33655,6,0,B|432:160|312:152|312:152,1,191.999994140625,8|8,3:0|0:0,0:0:0:0:
256,144,34128,1,2,3:0:0:0:
488,72,34286,2,0,B|396:41|288:94|288:94,1,191.999994140625,4|8,3:0|0:0,0:0:0:0:
256,144,34760,1,2,3:0:0:0:
16,232,34918,6,0,B|80:160|200:152|200:152,1,191.999994140625,4|8,3:0|0:0,0:0:0:0:
256,144,35391,1,2,3:0:0:0:
24,72,35549,2,0,B|115:41|223:94|223:94,1,191.999994140625,4|8,3:0|0:0,0:0:0:0:
256,144,36023,1,0,3:0:0:0:
208,200,36181,5,8,3:0:0:0:
208,280,36339,1,0,0:0:0:0:
304,280,36497,1,8,3:1:0:0:
304,200,36655,1,0,3:0:0:0:
144,240,36813,2,0,B|128:288|144:328|144:328,1,95.9999970703126,0|0,1:0|0:0,0:0:0:0:
368,240,37128,2,0,B|384:192|368:152|368:152,1,95.9999970703126,8|0,1:0|0:0,0:0:0:0:
144,240,37444,2,0,L|144:360,1,95.9999970703126
368,240,37760,2,0,L|368:144,1,95.9999970703126,8|0,1:0|0:0,0:0:0:0:
144,336,38076,5,0,0:0:0:0:
368,240,38234,1,0,0:0:0:0:
72,192,38391,2,0,B|56:240|72:288|72:288,1,95.9999970703126,8|0,1:0|0:0,0:0:0:0:
368,144,38707,5,2,3:0:0:0:
144,240,38865,1,2,3:0:0:0:
440,288,39023,2,0,B|456:240|440:192|440:192,1,95.9999970703126,8|2,1:0|3:0,0:0:0:0:
256,192,39339,5,2,3:0:0:0:
256,96,39497,1,2,3:0:0:0:
256,288,39655,1,8,1:0:0:0:
40,24,39970,6,0,B|88:72|136:64|136:64|176:32|240:40,1,191.999994140625,8|8,3:0|3:1,0:0:0:0:
256,144,40444,1,0,3:0:0:0:
384,64,40602,2,0,B|344:32|280:40,1,95.9999970703126,0|0,1:0|0:0,0:0:0:0:
120,224,40918,2,0,B|160:256|224:248,1,95.9999970703126,8|0,1:0|0:0,0:0:0:0:
392,224,41234,2,0,B|352:256|288:248,1,95.9999970703126
128,344,41549,5,8,1:0:0:0:
301,249,41707,1,0,0:0:0:0:
121,130,41865,2,0,B|97:178|121:226|121:226,1,95.9999970703126
384,344,42181,5,8,1:0:0:0:
211,249,42339,1,0,0:0:0:0:
391,130,42497,2,0,B|415:178|391:226|391:226,1,95.9999970703126,2|2,3:0|3:0,0:0:0:0:
128,344,42813,5,8,1:0:0:0:
301,249,42970,1,2,3:0:0:0:
211,249,43128,1,2,3:0:0:0:
384,344,43286,1,2,3:0:0:0:
256,176,43444,1,8,1:0:0:0:
504,8,43760,5,0,3:0:0:0:
384,64,43918,1,0,3:0:0:0:
424,72,43997,1,0,3:0:0:0:
464,80,44075,1,0,3:0:0:0:
384,128,44234,1,0,3:0:0:0:
424,136,44313,1,0,3:0:0:0:
464,144,44391,1,0,3:0:0:0:
384,192,44550,1,0,3:0:0:0:
424,200,44629,1,0,3:0:0:0:
464,208,44707,1,0,3:0:0:0:
384,256,44865,1,0,3:0:0:0:
424,264,44944,1,0,3:0:0:0:
464,272,45023,6,0,B|424:320|376:320|376:320|336:288|272:304,1,191.999994140625,8|8,3:0|0:0,0:0:0:0:
312,376,45497,1,2,3:0:0:0:
392,240,45655,2,0,B|424:184|384:128|384:128,1,95.9999970703126,4|0,3:0|0:0,0:0:0:0:
280,144,45892,1,0,0:0:0:0:
280,144,45971,2,0,B|248:200|288:256|288:256,1,95.9999970703126,8|2,0:0|3:0,0:0:0:0:
480,32,46286,5,4,3:0:0:0:
488,192,46444,1,0,0:0:0:0:
336,192,46602,5,8,0:0:0:0:
336,88,46760,1,2,3:0:0:0:
184,32,46918,5,4,3:0:0:0:
176,192,47076,1,0,0:0:0:0:
24,192,47234,5,8,0:0:0:0:
24,88,47392,1,2,0:0:0:0:
200,264,47549,6,0,B|160:312|112:312|112:312|72:280|8:296,1,191.999994140625,8|8,3:0|0:0,0:0:0:0:
56,360,48023,1,2,3:0:0:0:
312,264,48181,2,0,B|352:312|400:312|400:312,1,95.9999970703126,4|0,3:0|0:0,0:0:0:0:
440,304,48418,1,0,0:0:0:0:
472,264,48497,1,8,0:0:0:0:
480,216,48576,1,0,0:0:0:0:
464,168,48655,1,2,3:0:0:0:
432,136,48734,1,0,0:0:0:0:
384,128,48813,6,0,L|312:128,2,63.9999980468751,4|0|0,3:0|0:0|0:0,0:0:0:0:
384,128,49128,1,8,0:0:0:0:
128,128,49286,1,2,3:0:0:0:
128,128,49365,1,0,0:0:0:0:
128,128,49444,1,4,3:0:0:0:
256,16,49602,1,0,0:0:0:0:
256,16,49681,1,0,0:0:0:0:
256,16,49760,1,8,0:0:0:0:
384,128,49918,1,0,0:0:0:0:
160,304,50076,6,0,B|120:264|128:216|128:216|136:168|80:104,1,191.999994140625,8|8,3:0|0:0,0:0:0:0:
48,200,50549,1,2,3:0:0:0:
414,129,50707,2,0,B|376:170|384:218,1,95.9999970703126,4|0,3:0|0:0,0:0:0:0:
352,304,50944,1,0,0:0:0:0:
352,304,51023,2,0,B|392:264|384:216|384:216,1,95.9999970703126,8|2,0:0|3:0,0:0:0:0:
464,360,51339,5,4,3:0:0:0:
304,240,51497,1,0,0:0:0:0:
464,240,51655,1,8,0:0:0:0:
304,360,51813,1,2,3:0:0:0:
48,240,51970,5,4,3:0:0:0:
208,360,52128,1,0,0:0:0:0:
208,240,52286,1,8,0:0:0:0:
48,360,52444,1,2,0:0:0:0:
304,240,52602,6,0,B|358:208|366:144|366:144|350:72,1,191.999994140625,8|8,3:0|0:0,0:0:0:0:
256,144,53076,1,2,3:0:0:0:
80,64,53234,2,0,B|136:72|160:120|160:120,1,95.9999970703126,4|0,3:0|0:0,0:0:0:0:
168,160,53471,1,0,0:0:0:0:
157,206,53549,1,8,0:0:0:0:
125,240,53628,1,0,0:0:0:0:
79,255,53707,1,2,3:0:0:0:
33,245,53786,1,0,0:0:0:0:
0,208,53865,6,0,B|32:176|72:176|72:176,2,63.9999980468751,4|0|0,3:0|3:0|3:0,0:0:0:0:
136,352,54181,2,0,B|104:320|48:320|48:320,1,95.9999970703126,8|2,0:0|3:0,0:0:0:0:
256,352,54497,1,4,3:0:0:0:
296,328,54575,1,0,0:0:0:0:
320,288,54654,1,0,0:0:0:0:
312,240,54733,1,0,0:0:0:0:
280,208,54812,1,8,0:0:0:0:
232,208,54892,1,0,0:0:0:0:
192,184,54970,1,0,0:0:0:0:
168,144,55049,1,0,0:0:0:0:
176,96,55128,6,0,B|224:48|280:48|280:48|360:96,1,191.999994140625,8|8,3:0|0:0,0:0:0:0:
256,272,55602,1,2,3:0:0:0:
96,136,55760,2,0,B|72:88|96:40|96:40,1,95.9999970703126,4|0,3:0|0:0,0:0:0:0:
416,40,56076,2,0,B|440:88|416:136|416:136,1,95.9999970703126,8|2,0:0|3:0,0:0:0:0:
256,352,56392,5,4,3:0:0:0:
72,248,56549,1,0,0:0:0:0:
256,125,56707,1,8,0:0:0:0:
440,232,56864,1,2,3:0:0:0:
171,86,57023,6,0,B|201:115|226:86|256:125|256:125|286:86|311:115|341:86,1,191.999994140625,4|8,3:0|0:0,0:0:0:0:
256,208,57497,1,0,0:0:0:0:
416,40,57655,2,0,L|416:144,1,95.9999970703126,8|0,3:0|0:0,0:0:0:0:
96,136,57970,2,0,L|96:40,1,95.9999970703126,8|2,0:0|3:0,0:0:0:0:
328,168,58286,5,4,3:0:0:0:
256,48,58444,1,0,0:0:0:0:
184,232,58602,1,8,0:0:0:0:
256,352,58760,1,2,3:0:0:0:
472,224,58918,6,0,B|384:224|384:224|360:272|280:264,1,191.999994140625,4|8,3:0|0:0,0:0:0:0:
256,352,59392,1,2,3:0:0:0:
128,224,59549,2,0,B|159:271|240:264,1,95.9999970703126,4|0,3:0|3:0,0:0:0:0:
376,320,59865,1,8,0:0:0:0:
136,320,60023,1,0,3:0:0:0:
320,96,60181,6,0,L|320:192,1,95.9999970703126,8|0,3:0|0:0,0:0:0:0:
192,192,60497,2,0,L|192:96,1,95.9999970703126,8|2,0:0|3:0,0:0:0:0:
368,32,60813,6,0,B|416:64|392:144|392:144,1,95.9999970703126,4|0,3:0|0:0,0:0:0:0:
144,256,61128,2,0,B|96:224|120:144|120:144,1,95.9999970703126,8|2,0:0|3:0,0:0:0:0:
400,192,61444,5,4,3:0:0:0:
256,192,61602,1,0,0:0:0:0:
112,272,61760,1,8,0:0:0:0:
256,272,61918,1,2,3:0:0:0:
240,344,62076,2,0,B|176:328|175:272|176:216|240:200,1,191.999994140625,4|8,3:0|0:0,0:0:0:0:
328,224,62549,1,0,0:0:0:0:
432,32,62707,6,0,B|392:64|336:56|336:56,1,95.9999970703126,8|0,3:0|0:0,0:0:0:0:
104,128,63023,2,0,L|208:128,1,95.9999970703126,8|2,0:0|3:0,0:0:0:0:
408,128,63339,2,0,L|312:128,1,95.9999970703126,4|0,3:0|0:0,0:0:0:0:
80,32,63655,2,0,B|120:64|176:56|176:56,1,95.9999970703126,8|2,0:0|3:0,0:0:0:0:
320,208,63971,1,4,3:0:0:0:
192,208,64128,1,0,0:0:0:0:
136,280,64286,1,8,0:0:0:0:
376,280,64444,1,2,3:0:0:0:
256,312,64602,5,2,3:2:0:0:
256,272,64681,1,2,3:2:0:0:
256,232,64760,1,2,3:2:0:0:
256,192,64839,1,2,3:2:0:0:
256,152,64918,2,2,L|256:112,5,31.9999990234375,2|2|2|2|2|2,3:2|3:2|3:2|3:2|3:2|3:2,3:2:0:0:
256,96,65234,6,0,B|296:56|352:56|352:56|384:88|448:96,1,191.999994140625,8|8,3:0|0:0,0:0:0:0:
384,184,65707,1,2,3:0:0:0:
176,176,65865,2,0,B|136:136|136:80|136:80|168:48|176:-16,1,191.999994140625,4|8,3:0|0:0,0:0:0:0:
240,24,66339,1,2,3:0:0:0:
88,176,66497,6,0,B|64:144|64:80|64:80,1,95.9999970703126,4|0,3:0|0:0,0:0:0:0:
200,256,66813,1,8,0:0:0:0:
96,256,66971,1,2,3:0:0:0:
424,176,67128,2,0,B|448:144|448:80|448:80,1,95.9999970703126,4|0,3:0|0:0,0:0:0:0:
312,256,67444,1,8,0:0:0:0:
416,256,67602,1,0,0:0:0:0:
304,344,67760,6,0,L|208:344,2,95.9999970703126,8|0|8,3:0|0:0|0:0,0:0:0:0:
136,368,68234,1,2,3:0:0:0:
360,304,68392,2,0,B|408:272|416:224|416:224|376:192|376:120,1,191.999994140625,4|8,3:0|0:0,0:0:0:0:
224,224,68865,1,2,3:0:0:0:
320,80,69023,6,0,B|272:112|264:160|264:160|304:192|304:264,1,191.999994140625,4|8,3:0|0:0,0:0:0:0:
456,160,69497,1,2,3:0:0:0:
152,32,69655,2,0,L|48:32,1,95.9999970703126,4|0,3:0|3:0,0:0:0:0:
360,32,69971,2,0,L|464:32,1,95.9999970703126,8|0,0:0|3:0,0:0:0:0:
120,104,70286,5,8,3:0:0:0:
216,104,70443,1,0,0:0:0:0:
392,104,70602,2,0,L|288:104,1,95.9999970703126,8|2,0:0|3:0,0:0:0:0:
88,176,70918,2,0,L|200:176,1,95.9999970703126,4|0,3:0|0:0,0:0:0:0:
424,176,71234,1,8,0:0:0:0:
328,176,71392,1,2,3:0:0:0:
472,272,71549,5,4,3:0:0:0:
376,272,71707,1,0,0:0:0:0:
272,352,71865,2,0,B|200:344|200:216|272:208,1,191.999994140625,8|4,0:0|3:0,0:0:0:0:
296,280,72339,1,0,0:0:0:0:
352,104,72497,2,0,B|384:152|352:208|352:208,1,95.9999970703126,8|0,0:0|0:0,0:0:0:0:
16,232,72813,6,0,B|80:160|200:152|200:152,1,191.999994140625,8|8,3:0|0:0,0:0:0:0:
256,144,73286,1,2,3:0:0:0:
24,72,73444,2,0,B|116:41|224:94|224:94,1,191.999994140625,4|8,3:0|0:0,0:0:0:0:
256,144,73918,1,2,3:0:0:0:
496,232,74076,2,0,B|432:160|312:152|312:152,1,191.999994140625,4|8,3:0|0:0,0:0:0:0:
256,144,74549,1,2,3:0:0:0:
488,72,74707,2,0,B|397:41|289:94|289:94,1,191.999994140625,4|8,3:0|0:0,0:0:0:0:
256,144,75181,1,0,3:0:0:0:
304,200,75339,5,8,3:0:0:0:
304,280,75497,1,0,0:0:0:0:
208,280,75655,1,8,3:1:0:0:
208,200,75813,1,0,3:0:0:0:
368,240,75971,2,0,B|384:288|368:328|368:328,1,95.9999970703126,0|0,1:0|0:0,0:0:0:0:
144,240,76286,2,0,B|128:192|144:152|144:152,1,95.9999970703126,8|0,1:0|0:0,0:0:0:0:
368,240,76602,2,0,L|368:360,1,95.9999970703126
144,240,76918,2,0,L|144:144,1,95.9999970703126,8|0,1:0|0:0,0:0:0:0:
368,336,77234,5,0,0:0:0:0:
144,240,77392,1,0,0:0:0:0:
440,192,77549,2,0,B|456:240|440:288|440:288,1,95.9999970703126,8|0,1:0|0:0,0:0:0:0:
144,144,77865,5,2,3:0:0:0:
368,240,78023,1,2,3:0:0:0:
72,288,78181,2,0,B|56:240|72:192|72:192,1,95.9999970703126,8|2,1:0|3:0,0:0:0:0:
256,192,78497,5,2,3:0:0:0:
256,288,78655,1,2,3:0:0:0:
256,96,78813,1,8,1:0:0:0:
472,24,79128,6,0,B|424:72|376:64|376:64|336:32|272:40,1,191.999994140625,8|8,3:0|3:1,0:0:0:0:
256,144,79602,1,0,3:0:0:0:
128,64,79760,2,0,B|168:32|232:40,1,95.9999970703126,0|0,1:0|0:0,0:0:0:0:
392,224,80076,2,0,B|352:256|288:248,1,95.9999970703126,8|0,1:0|0:0,0:0:0:0:
120,224,80392,2,0,B|160:256|224:248,1,95.9999970703126
384,344,80707,5,8,1:0:0:0:
211,249,80865,1,0,0:0:0:0:
391,130,81023,2,0,B|415:178|391:226|391:226,1,95.9999970703126
128,344,81339,5,8,1:0:0:0:
301,249,81497,1,0,0:0:0:0:
121,130,81655,2,0,B|97:178|121:226|121:226,1,95.9999970703126,2|2,3:0|3:0,0:0:0:0:
384,344,81971,5,8,1:0:0:0:
211,249,82128,1,2,3:0:0:0:
301,249,82286,1,2,3:0:0:0:
128,344,82444,1,2,3:0:0:0:
256,176,82602,1,8,1:0:0:0:
312,80,82918,6,0,L|200:80,1,95.9999970703126,0|0,3:2|2:0,0:0:0:0:
328,96,83234,2,0,L|216:96,1,95.9999970703126,0|0,3:0|2:0,0:0:0:0:
344,112,83549,2,0,L|232:112,1,95.9999970703126,0|0,3:0|2:0,0:0:0:0:
360,128,83865,1,0,3:0:0:0:
200,216,84023,1,0,0:0:0:0:
280,320,84181,6,0,L|376:320,1,95.9999970703126,0|0,3:0|2:0,0:0:0:0:
264,304,84497,1,0,3:0:0:0:
416,384,84655,1,0,0:0:0:0:
296,216,84813,6,0,L|200:216,1,95.9999970703126,0|0,3:0|2:0,0:0:0:0:
312,200,85129,1,0,3:0:0:0:
160,280,85287,1,0,0:0:0:0:
264,104,85444,5,0,3:0:0:0:
416,184,85602,1,0,0:0:0:0:
280,120,85760,2,0,L|376:120,1,95.9999970703126,0|0,3:0|2:0,0:0:0:0:
296,136,86076,2,0,L|392:136,1,95.9999970703126,0|0,3:0|2:0,0:0:0:0:
312,152,86391,2,0,L|408:152,1,95.9999970703126,0|0,3:0|2:0,0:0:0:0:
328,168,86707,2,0,L|424:168,1,95.9999970703126,0|0,3:0|2:0,0:0:0:0:
344,184,87023,2,0,L|440:184,1,95.9999970703126,0|0,3:0|2:0,0:0:0:0:
424,272,87339,5,2,1:3:0:0:
392,312,87418,1,2,1:3:0:0:
352,336,87497,1,2,1:3:0:0:
304,320,87576,1,2,1:3:0:0:
256,328,87655,1,2,1:3:0:0:
208,320,87734,1,2,1:3:0:0:
160,336,87813,1,2,1:3:0:0:
120,312,87892,1,2,1:3:0:0:
88,272,87970,6,0,B|80:216|41:179|41:179,1,95.9999970703126,4|0,1:2|0:0,0:0:0:0:
128,184,88286,2,0,B|101:134|52:112|52:112,1,95.9999970703126,8|0,0:0|0:0,0:0:0:0:
136,88,88602,2,0,B|93:50|40:46|40:46,1,95.9999970703126,0|0,3:0|0:0,0:0:0:0:
152,248,88918,5,8,0:0:0:0:
208,88,89076,1,0,0:0:0:0:
256,144,89234,5,0,0:0:0:0:
256,248,89391,1,0,3:0:0:0:
360,248,89549,5,8,0:0:0:0:
304,88,89707,1,0,0:0:0:0:
408,144,89865,5,2,1:3:0:0:
448,168,89944,1,2,1:3:0:0:
496,152,90023,1,2,1:3:0:0:
480,200,90102,1,2,1:3:0:0:
496,248,90181,1,2,1:3:0:0:
480,296,90260,1,2,1:3:0:0:
496,336,90339,1,2,1:3:0:0:
456,368,90418,1,2,1:3:0:0:
408,360,90497,6,0,B|376:328|312:328|312:328,1,95.9999970703126,4|0,0:2|0:0,0:0:0:0:
104,304,90813,2,0,B|136:272|200:272|200:272,1,95.9999970703126,8|0,0:0|0:0,0:0:0:0:
408,200,91128,2,0,B|376:168|312:168|312:168,1,95.9999970703126,0|0,3:0|0:0,0:0:0:0:
104,144,91444,2,0,B|136:112|200:112|200:112,1,95.9999970703126,8|0,0:0|0:0,0:0:0:0:
360,112,91760,1,0,3:0:0:0:
360,248,91918,1,0,0:0:0:0:
152,192,92076,1,8,0:0:0:0:
152,56,92234,1,0,0:0:0:0:
432,56,92391,5,2,1:3:0:0:
384,48,92470,1,2,1:3:0:0:
336,64,92549,1,2,1:3:0:0:
304,104,92628,1,2,1:3:0:0:
256,120,92707,1,2,1:3:0:0:
208,104,92786,1,2,1:3:0:0:
176,64,92865,1,2,1:3:0:0:
128,48,92944,1,2,1:3:0:0:
80,56,93023,6,0,B|48:104|80:160|80:160,1,95.9999970703126,4|0,0:2|0:0,0:0:0:0:
426,148,93339,2,0,B|458:100|426:44|426:44,1,95.9999970703126,8|0,0:0|0:0,0:0:0:0:
104,216,93655,1,0,3:0:0:0:
256,216,93813,1,0,0:0:0:0:
408,216,93970,1,8,0:0:0:0:
256,216,94128,1,0,0:0:0:0:
320,360,94286,5,0,3:0:0:0:
192,328,94444,1,0,0:0:0:0:
304,344,94602,2,0,L|208:344,1,95.9999970703126,8|0,0:0|0:0,0:0:0:0:
192,160,94918,5,2,1:3:0:0:
232,136,94997,1,2,1:3:0:0:
280,136,95076,1,2,1:3:0:0:
320,160,95155,1,2,1:3:0:0:
320,224,95234,1,2,1:3:0:0:
280,248,95313,1,2,1:3:0:0:
232,248,95392,1,2,1:3:0:0:
192,224,95471,1,2,1:3:0:0:
128,272,95549,6,0,B|88:232|104:160|104:160,1,95.9999970703126,4|0,0:2|0:0,0:0:0:0:
24,240,95865,1,8,0:0:0:0:
128,112,96023,1,0,0:0:0:0:
256,192,96181,1,0,3:0:0:0:
488,144,96339,1,0,0:0:0:0:
384,272,96497,1,8,0:0:0:0:
256,192,96655,1,0,0:0:0:0:
384,112,96813,6,0,B|424:152|408:224,1,95.9999970703126,0|0,3:0|0:0,0:0:0:0:
128,272,97128,2,0,B|88:232|104:160,1,95.9999970703126,8|0,0:0|0:0,0:0:0:0:
256,32,97444,5,2,1:3:0:0:
256,72,97523,1,2,1:3:0:0:
256,112,97602,1,2,1:3:0:0:
256,152,97681,1,2,1:3:0:0:
256,192,97760,1,2,1:3:0:0:
256,232,97839,1,2,1:3:0:0:
256,272,97918,1,2,1:3:0:0:
256,312,97997,1,2,1:3:0:0:
256,352,98076,6,0,B|200:352|144:352|144:352|96:304,1,160,4|8,0:2|0:2,0:0:0:0:
40,288,98549,1,0,2:0:0:0:
104,248,98707,2,0,B|200:248,1,80,0|0,3:0|0:0,0:0:0:0:
408,216,99023,2,0,B|312:216,1,80,8|0,0:2|2:0,0:0:0:0:
104,184,99339,2,0,B|200:184,1,80,0|0,3:0|0:0,0:0:0:0:
408,152,99655,2,0,B|312:152,1,80,8|0,0:2|2:0,0:0:0:0:
104,120,99970,2,0,B|200:120,1,80,0|0,3:0|0:0,0:0:0:0:
408,88,100286,2,0,B|312:88,1,80,8|0,0:2|2:0,0:0:0:0:
104,56,100602,6,0,B|200:56,1,80,0|0,3:0|0:0,0:0:0:0:
408,88,100918,2,0,B|312:88,1,80,8|0,0:2|2:0,0:0:0:0:
104,120,101234,2,0,B|200:120,1,80,0|0,3:0|0:0,0:0:0:0:
408,152,101550,2,0,B|312:152,1,80,8|0,0:2|2:0,0:0:0:0:
104,184,101865,2,0,B|200:184,1,80,0|0,3:0|0:0,0:0:0:0:
408,216,102181,2,0,B|312:216,1,80,8|0,0:2|2:0,0:0:0:0:
104,248,102497,2,0,B|200:248,1,80,0|0,3:0|0:0,0:0:0:0:
408,280,102813,1,8,0:2:0:0:
328,280,102970,1,0,2:0:0:0:
104,312,103128,5,0,3:0:0:0:
256,192,106918,12,0,107865,0:0:0:0:
48,272,108181,6,0,B|88:320|136:320|136:320|176:288|240:304,1,191.999994140625,12|8,3:2|0:0,0:0:0:0:
256,368,108655,1,2,3:0:0:0:
184,232,108813,2,0,B|160:184|184:136|184:136,1,95.9999970703126,4|0,3:0|0:0,0:0:0:0:
328,144,109128,2,0,B|352:192|328:240|328:240,1,95.9999970703126,8|2,0:0|3:0,0:0:0:0:
104,32,109444,5,4,3:0:0:0:
256,88,109602,1,0,0:0:0:0:
112,184,109760,5,8,0:0:0:0:
256,192,109918,1,2,3:0:0:0:
408,352,110076,5,4,3:0:0:0:
256,296,110234,1,0,0:0:0:0:
400,200,110392,5,8,0:0:0:0:
256,192,110550,1,0,0:0:0:0:
176,344,110707,6,0,B|128:320|120:272|120:272|152:224|118:172,1,191.999994140625,8|8,3:0|0:0,0:0:0:0:
56,224,111181,1,2,3:0:0:0:
200,152,111339,2,0,B|200:56,1,95.9999970703126,4|0,3:0|0:0,0:0:0:0:
336,216,111655,2,0,B|336:312,1,95.9999970703126,8|2,0:0|3:0,0:0:0:0:
96,248,111970,5,4,3:0:0:0:
208,216,112128,1,0,0:0:0:0:
408,184,112286,5,8,0:0:0:0:
296,152,112444,1,2,3:0:0:0:
144,0,112602,5,4,3:0:0:0:
128,48,112681,1,0,3:0:0:0:
160,88,112760,1,0,3:0:0:0:
208,88,112839,1,0,3:0:0:0:
256,104,112918,1,8,0:0:0:0:
304,88,112997,1,0,3:0:0:0:
352,88,113076,1,0,3:0:0:0:
384,48,113155,1,0,3:0:0:0:
368,0,113234,6,0,B|456:0|480:72|448:144|448:144,1,191.999994140625,8|8,3:0|0:0,0:0:0:0:
376,184,113707,1,2,3:0:0:0:
488,288,113865,2,0,B|520:240|488:192|488:192,1,95.9999970703126,4|0,3:0|0:0,0:0:0:0:
296,256,114181,2,0,B|264:304|296:352|296:352,1,95.9999970703126,8|2,0:0|3:0,0:0:0:0:
200,352,114497,5,4,3:0:0:0:
88,352,114655,1,0,0:0:0:0:
24,232,114813,1,8,0:0:0:0:
136,232,114971,1,2,3:0:0:0:
248,128,115128,2,0,L|248:80,2,47.9999985351563,4|0|0,3:0|0:0|0:0,0:0:0:0:
136,128,115444,1,8,0:0:0:0:
136,32,115602,1,0,0:0:0:0:
384,32,115760,6,0,B|408:80|376:136,1,95.9999970703126,8|0,3:0|0:0,0:0:0:0:
336,192,115997,1,0,0:0:0:0:
336,192,116076,2,0,L|440:192,1,95.9999970703126,8|2,0:0|3:0,0:0:0:0:
480,288,116391,1,4,3:0:0:0:
352,344,116549,1,0,0:0:0:0:
160,344,116707,1,8,0:0:0:0:
32,288,116865,1,2,3:0:0:0:
256,256,117023,6,0,L|256:144,1,95.9999970703126,4|0,3:0|0:0,0:0:0:0:
256,120,117260,1,0,0:0:0:0:
256,80,117339,1,8,0:0:0:0:
144,160,117497,1,2,3:0:0:0:
432,24,117655,5,4,3:0:0:0:
400,64,117734,1,0,3:0:0:0:
352,80,117813,1,0,3:0:0:0:
304,64,117891,1,0,3:0:0:0:
256,80,117970,1,8,0:0:0:0:
208,64,118049,1,0,3:0:0:0:
160,80,118127,1,0,3:0:0:0:
112,64,118206,1,0,3:0:0:0:
80,24,118286,6,0,B|32:72|64:136|64:136|104:120,1,143.999995605469,8|0,3:0|0:0,0:0:0:0:
88,224,118602,2,0,B|16:224|-8:168,1,95.9999970703126,8|2,0:0|3:0,0:0:0:0:
3,187,118839,1,0,0:0:0:0:
3,187,118918,1,4,3:0:0:0:
128,344,119076,1,0,0:0:0:0:
144,176,119234,1,8,0:0:0:0:
32,288,119391,1,2,3:0:0:0:
208,208,119549,6,0,L|312:208,1,95.9999970703126,4|0,3:0|0:0,0:0:0:0:
304,304,119865,2,0,L|208:304,1,95.9999970703126,8|2,0:0|3:0,0:0:0:0:
208,208,120181,5,6,3:0:0:0:
144,304,120338,1,0,0:0:0:0:
304,208,120497,1,8,0:0:0:0:
368,304,120654,1,0,0:0:0:0:
432,24,120813,6,0,B|480:72|448:136|448:136|408:120,1,143.999995605469,8|0,3:0|0:0,0:0:0:0:
424,224,121129,2,0,B|496:224|520:168,1,95.9999970703126,8|2,0:0|3:0,0:0:0:0:
508,187,121366,1,0,0:0:0:0:
508,187,121445,1,4,3:0:0:0:
384,344,121603,1,0,0:0:0:0:
368,176,121761,1,8,0:0:0:0:
480,288,121918,1,2,3:0:0:0:
304,208,122076,6,0,B|256:216|208:208,1,95.9999970703126,6|0,3:0|0:0,0:0:0:0:
208,112,122391,2,0,B|256:104|304:112,1,95.9999970703126,8|2,0:0|3:0,0:0:0:0:
296,288,122707,5,4,3:0:0:0:
248,304,122786,1,0,3:0:0:0:
200,288,122865,1,0,3:0:0:0:
152,272,122944,1,0,3:0:0:0:
136,224,123023,1,8,0:0:0:0:
152,176,123102,1,0,3:0:0:0:
120,136,123181,1,0,3:0:0:0:
72,128,123260,1,0,3:0:0:0:
40,168,123339,6,0,B|104:248|224:200,1,191.999994140625,8|8,3:0|0:0,0:0:0:0:
472,168,123813,1,2,3:0:0:0:
472,168,123970,2,0,B|408:248|288:200,1,191.999994140625,4|8,3:0|0:0,0:0:0:0:
128,296,124444,1,2,3:0:0:0:
128,296,124602,2,0,B|184:288|224:320,1,95.9999970703126,4|0,3:0|0:0,0:0:0:0:
384,296,124918,2,0,B|328:288|288:320,1,95.9999970703126,8|2,0:0|3:0,0:0:0:0:
352,368,125234,1,4,3:0:0:0:
256,256,125391,1,0,0:0:0:0:
256,256,125470,1,0,0:0:0:0:
256,256,125549,1,8,0:0:0:0:
160,368,125707,1,0,0:0:0:0:
40,264,125865,6,0,B|96:248|112:184,1,95.9999970703126,8|0,3:0|0:0,0:0:0:0:
80,128,126102,1,0,0:0:0:0:
80,128,126181,2,0,B|112:88|192:104,1,95.9999970703126,8|2,0:0|3:0,0:0:0:0:
256,104,126497,1,4,3:0:0:0:
432,104,126655,1,0,0:0:0:0:
336,176,126813,1,8,0:0:0:0:
176,176,126970,1,2,3:0:0:0:
320,264,127128,6,0,B|384:264|424:216,1,95.9999970703126,6|0,3:0|0:0,0:0:0:0:
496,216,127365,1,0,0:0:0:0:
496,216,127444,2,0,L|496:328,1,95.9999970703126,8|2,0:0|3:0,0:0:0:0:
440,368,127760,5,4,3:0:0:0:
392,384,127839,1,0,3:0:0:0:
344,368,127918,1,0,3:0:0:0:
304,336,127997,1,0,3:0:0:0:
256,328,128076,1,8,0:0:0:0:
208,336,128155,1,0,3:0:0:0:
168,368,128234,1,0,3:0:0:0:
120,384,128313,1,0,3:0:0:0:
72,368,128392,1,0,0:0:0:0:
48,88,133444,6,0,B|48:136|128:136|128:136|168:104|232:104,1,191.999994140625,8|8,3:0|0:0,0:0:0:0:
256,192,133918,1,2,3:0:0:0:
392,136,134076,2,0,B|352:104|288:104,1,95.9999970703126,4|0,3:0|0:0,0:0:0:0:
302,104,134313,1,0,0:0:0:0:
302,104,134391,1,8,0:0:0:0:
256,288,134549,1,2,3:0:0:0:
168,192,134707,6,0,B|144:240|168:288,1,95.9999970703126,4|0,3:0|0:0,0:0:0:0:
344,280,135023,2,0,B|368:232|344:184,1,95.9999970703126,8|2,0:0|3:0,0:0:0:0:
112,240,135339,5,4,3:0:0:0:
296,352,135497,1,0,0:0:0:0:
216,352,135655,1,8,0:0:0:0:
400,240,135813,1,2,0:0:0:0:
112,312,135970,6,0,B|64:312|64:312|64:280|112:232|56:160,1,191.999994140625,8|8,3:0|0:0,0:0:0:0:
184,40,136444,2,0,L|184:144,1,95.9999970703126,2|4,3:0|3:0,0:0:0:0:
208,232,136760,1,0,0:0:0:0:
256,248,136839,1,0,0:0:0:0:
304,232,136918,1,8,0:0:0:0:
336,192,136997,1,0,0:0:0:0:
376,160,137076,1,2,3:0:0:0:
424,152,137155,1,0,0:0:0:0:
472,168,137234,6,0,L|472:248,2,63.9999980468751,4|0|0,3:0|3:0|3:0,0:0:0:0:
392,320,137549,2,0,L|392:200,1,95.9999970703126,8|2,0:0|3:0,0:0:0:0:
280,360,137865,5,4,3:0:0:0:
240,328,137944,1,0,3:0:0:0:
192,312,138023,1,0,3:0:0:0:
144,304,138102,1,0,3:0:0:0:
176,272,138181,1,8,0:0:0:0:
224,264,138260,1,0,3:0:0:0:
272,248,138339,1,0,3:0:0:0:
312,216,138418,1,0,3:0:0:0:
320,168,138497,6,0,B|304:120|256:112|256:112|208:152|128:128,1,191.999994140625,8|8,3:0|0:0,0:0:0:0:
192,56,138970,1,2,3:0:0:0:
384,120,139128,2,0,B|408:72|384:16,1,95.9999970703126,4|0,3:0|0:0,0:0:0:0:
388,26,139365,1,0,0:0:0:0:
388,26,139444,1,8,0:0:0:0:
488,160,139602,1,2,3:0:0:0:
360,264,139760,6,0,B|280:264|280:264|248:208|168:208,1,191.999994140625,4|8,3:0|0:0,0:0:0:0:
40,296,140234,1,2,3:0:0:0:
120,296,140391,2,0,B|200:296|200:296|232:352|312:352,1,191.999994140625,4|8,3:0|0:0,0:0:0:0:
368,352,140865,1,2,0:0:0:0:
472,136,141023,6,0,B|520:224|472:320,1,191.999994140625,8|8,3:0|0:0,0:0:0:0:
304,136,141497,2,0,B|352:136|352:136|376:112|424:112,1,95.9999970703126,2|4,3:0|3:0,0:0:0:0:
400,32,141813,1,0,0:0:0:0:
352,16,141891,1,0,0:0:0:0:
304,24,141970,1,8,0:0:0:0:
256,40,142049,1,0,0:0:0:0:
208,24,142128,1,2,3:0:0:0:
160,16,142207,1,0,0:0:0:0:
112,32,142286,6,0,L|112:96,2,63.9999980468751,4|0|0,3:0|3:0|3:0,0:0:0:0:
112,32,142602,1,8,0:0:0:0:
48,128,142760,1,2,3:0:0:0:
48,128,142839,1,0,0:0:0:0:
48,128,142918,1,4,3:0:0:0:
152,200,143076,1,0,3:0:0:0:
152,200,143155,1,0,3:0:0:0:
152,200,143234,1,8,0:0:0:0:
64,264,143391,1,0,3:0:0:0:
192,296,143549,6,0,B|144:296|119:336|119:336|0:336,1,191.999994140625,8|8,3:0|0:0,0:0:0:0:
256,376,144023,1,2,3:0:0:0:
320,296,144181,2,0,B|336:248|320:200,1,95.9999970703126,4|0,3:0|0:0,0:0:0:0:
192,201,144497,2,0,B|176:249|192:297,1,95.9999970703126,8|2,0:0|3:0,0:0:0:0:
384,336,144813,5,4,3:0:0:0:
496,336,144970,1,0,0:0:0:0:
496,216,145128,1,8,0:0:0:0:
384,216,145285,1,2,3:0:0:0:
256,152,145444,2,0,B|352:152|352:152|376:96|456:96,1,191.999994140625,4|8,3:0|0:0,0:0:0:0:
496,96,145918,1,0,0:0:0:0:
312,56,146076,6,0,B|216:56|216:56|192:112|112:112,1,191.999994140625,8|8,3:0|0:0,0:0:0:0:
136,32,146549,1,2,3:0:0:0:
72,80,146707,2,0,L|72:184,1,95.9999970703126,4|0,3:0|0:0,0:0:0:0:
192,256,147023,1,8,0:0:0:0:
192,160,147181,1,2,3:0:0:0:
24,280,147339,6,0,B|72:280|72:280|72:320|120:320|120:344|120:344|176:344|176:376,1,191.999994140625,4|8,3:0|0:0,0:0:0:0:
256,360,147813,1,2,3:0:0:0:
336,360,147970,2,0,B|336:344|392:344|392:344|392:320|440:320|440:280|440:280|488:280,1,191.999994140625,4|8,3:0|0:0,0:0:0:0:
184,240,148444,1,0,3:0:0:0:
184,240,148602,6,0,L|184:120,1,95.9999970703126,8|0,3:0|0:0,0:0:0:0:
328,240,148918,2,0,L|328:120,1,95.9999970703126,8|2,0:0|3:0,0:0:0:0:
104,272,149234,2,0,L|104:144,1,95.9999970703126,4|0,3:0|0:0,0:0:0:0:
408,272,149549,2,0,L|408:144,1,95.9999970703126,8|2,0:0|3:0,0:0:0:0:
256,72,149865,5,4,3:0:0:0:
192,144,150023,1,0,0:0:0:0:
256,216,150181,1,8,0:0:0:0:
320,144,150339,1,2,3:0:0:0:
344,72,150497,2,0,B|288:72|264:48|264:48|248:48|248:48|224:72|155:71,1,191.999994140625,4|8,3:0|0:0,0:0:0:0:
16,120,150970,1,0,0:0:0:0:
16,120,151128,6,0,B|-8:168|16:232,1,95.9999970703126,8|0,3:0|0:0,0:0:0:0:
128,208,151444,1,8,0:0:0:0:
128,112,151602,1,2,3:0:0:0:
496,120,151760,2,0,B|520:168|496:232,1,95.9999970703126,4|0,3:0|0:0,0:0:0:0:
384,208,152076,1,8,0:0:0:0:
384,112,152234,1,2,3:0:0:0:
160,288,152391,6,0,B|256:328|346:290,1,191.999994140625,4|8,3:0|0:0,0:0:0:0:
304,200,152865,1,2,3:0:0:0:
304,200,153023,2,0,L|208:200,1,95.9999970703126,4|0,3:0|3:0,0:0:0:0:
208,376,153339,2,0,L|304:376,1,95.9999970703126,8|0,0:0|3:0,0:0:0:0:
400,368,153655,6,0,B|496:320|464:184,1,191.999994140625,8|8,3:0|0:0,0:0:0:0:
368,224,154128,1,2,3:0:0:0:
432,104,154286,2,0,B|368:104|368:104|336:152|256:152,1,191.999994140625,4|8,3:0|0:0,0:0:0:0:
176,96,154760,1,2,3:0:0:0:
176,96,154918,6,0,B|152:48|176:0,1,95.9999970703126,4|0,3:0|0:0,0:0:0:0:
336,8,155234,2,0,B|358:52|334:100,1,95.9999970703126,8|2,0:0|3:0,0:0:0:0:
120,192,155549,1,4,3:0:0:0:
256,56,155707,1,0,0:0:0:0:
392,192,155865,1,8,0:0:0:0:
256,328,156023,1,0,0:0:0:0:
192,376,156181,6,0,B|144:352|136:296|144:240|192:216,1,191.999994140625,8|8,3:0|0:0,0:0:0:0:
321,216,156655,1,2,3:0:0:0:
321,216,156813,2,0,B|368:240|376:296|368:352|320:376,1,191.999994140625,4|8,3:0|0:0,0:0:0:0:
88,128,157286,1,2,3:0:0:0:
88,128,157444,6,0,B|120:152|200:152,1,95.9999970703126,4|0,3:0|0:0,0:0:0:0:
256,208,157760,1,8,0:0:0:0:
256,128,157918,1,2,3:0:0:0:
424,128,158076,2,0,B|392:152|312:152,1,95.9999970703126,4|0,3:0|3:0,0:0:0:0:
256,208,158391,1,8,0:0:0:0:
256,128,158549,1,0,3:0:0:0:
144,208,158707,6,0,L|144:304,1,95.9999970703126,8|0,3:0|0:0,0:0:0:0:
368,176,159023,2,0,L|368:80,1,95.9999970703126,8|2,0:0|3:0,0:0:0:0:
144,304,159339,2,0,L|256:304,1,95.9999970703126,4|0,3:0|0:0,0:0:0:0:
368,80,159655,2,0,L|256:80,1,95.9999970703126,8|2,0:0|3:0,0:0:0:0:
480,208,159970,5,4,3:0:0:0:
464,312,160128,1,0,0:0:0:0:
376,248,160286,1,8,0:0:0:0:
360,352,160444,1,2,3:0:0:0:
200,240,160602,2,0,B|152:216|144:168|144:168|176:160|192:120|192:120|176:72,1,191.999994140625,4|8,3:0|0:0,0:0:0:0:
312,240,161076,1,0,0:0:0:0:
312,240,161234,6,0,B|360:216|368:168|368:168|336:160|320:120|320:120|336:72,1,191.999994140625,8|8,3:0|0:0,0:0:0:0:
94,63,161707,1,2,3:0:0:0:
94,63,161865,2,0,B|134:95|190:95,1,95.9999970703126,4|0,3:0|0:0,0:0:0:0:
418,63,162181,2,0,B|378:95|322:95,1,95.9999970703126,8|2,0:0|3:0,0:0:0:0:
112,176,162497,5,4,3:0:0:0:
304,176,162655,1,0,0:0:0:0:
208,176,162813,1,8,0:0:0:0:
400,176,162970,1,2,3:0:0:0:
304,328,163128,2,0,B|256:352|200:328,1,95.9999970703126,4|0,3:0|3:0,0:0:0:0:
256,264,163444,1,8,0:0:0:0:
56,136,163760,6,0,B|56:24|200:24,1,191.999994140625,8|8,3:0|3:1,0:0:0:0:
256,24,164234,1,0,3:0:0:0:
328,24,164391,2,0,B|456:24|456:136,2,191.999994140625,0|8|0,1:0|1:0|0:0,0:0:0:0:
256,24,165181,1,0,0:0:0:0:
256,104,165339,1,8,1:0:0:0:
336,104,165497,1,0,0:0:0:0:
192,160,165655,2,0,L|80:160,1,95.9999970703126
320,216,165970,2,0,L|432:216,1,95.9999970703126,8|0,1:0|0:0,0:0:0:0:
216,352,166286,5,2,3:0:0:0:
344,296,166444,1,2,3:0:0:0:
168,296,166602,1,8,1:0:0:0:
296,352,166760,1,2,3:0:0:0:
256,192,166918,5,2,3:0:0:0:
256,264,167076,1,2,3:0:0:0:
256,120,167234,1,8,1:0:0:0:
48,264,167549,6,0,B|184:264|184:368,1,191.999994140625,8|8,3:0|3:1,0:0:0:0:
256,368,168023,1,0,3:0:0:0:
328,364,168181,2,0,B|328:264|464:264,2,191.999994140625,0|8|0,1:0|1:0|0:0,0:0:0:0:
216,152,169128,1,8,1:0:0:0:
216,232,169286,1,0,0:0:0:0:
296,232,169444,1,0,0:0:0:0:
296,152,169602,1,0,0:0:0:0:
144,192,169760,5,8,1:0:0:0:
256,296,169918,1,0,0:0:0:0:
368,192,170076,2,0,L|368:88,1,95.9999970703126,2|2,3:0|3:0,0:0:0:0:
144,192,170391,2,0,L|144:296,1,95.9999970703126,8|2,1:0|3:0,0:0:0:0:
440,152,170707,2,0,L|440:40,1,95.9999970703126,2|2,3:0|3:0,0:0:0:0:
72,232,171023,2,0,L|72:344,1,95.9999970703126,8|0,1:0|0:0,0:0:0:0:
32,136,171339,5,4,3:2:0:0:
216,232,171497,1,0,0:0:0:0:
216,232,171576,1,0,0:0:0:0:
216,232,171655,1,0,3:0:0:0:
144,368,171813,1,0,0:0:0:0:
144,368,171892,1,0,0:0:0:0:
144,368,171971,1,0,3:0:0:0:
368,368,172128,1,0,0:0:0:0:
368,368,172207,1,0,0:0:0:0:
368,368,172286,1,0,3:0:0:0:
296,232,172444,1,0,0:0:0:0:
296,232,172523,1,0,0:0:0:0:
296,232,172602,1,0,3:0:0:0:
480,136,172760,6,0,L|488:72,2,47.9999985351563,0|0|0,0:0|0:0|3:0,0:0:0:0:
368,272,173076,1,0,0:0:0:0:
368,272,173155,1,0,0:0:0:0:
368,272,173234,1,0,3:0:0:0:
32,136,173391,6,0,L|24:72,2,47.9999985351563,0|0|0,0:0|0:0|3:0,0:0:0:0:
144,272,173707,1,0,0:0:0:0:
144,272,173786,1,0,0:0:0:0:
144,272,173865,1,0,3:0:0:0:
296,120,174023,5,0,0:0:0:0:
256,112,174102,1,0,0:0:0:0:
216,120,174181,1,0,3:0:0:0:
216,264,174339,1,0,0:0:0:0:
256,272,174418,1,0,0:0:0:0:
296,264,174497,1,0,3:0:0:0:
128,200,174655,5,0,0:0:0:0:
120,160,174734,1,0,0:0:0:0:
112,120,174813,1,0,3:0:0:0:
384,200,174970,1,0,0:0:0:0:
392,160,175049,1,0,0:0:0:0:
400,120,175128,1,0,3:0:0:0:
256,16,175286,1,0,0:0:0:0:
256,16,175365,1,0,0:0:0:0:
256,16,175444,1,0,3:0:0:0:
80,216,175602,1,0,0:0:0:0:
80,216,175681,1,0,0:0:0:0:
80,216,175760,5,2,1:3:0:0:
128,200,175839,1,2,1:3:0:0:
176,216,175918,1,2,1:3:0:0:
208,256,175997,1,2,1:3:0:0:
256,280,176076,1,2,1:3:0:0:
304,256,176155,1,2,1:3:0:0:
336,216,176234,1,2,1:3:0:0:
384,200,176313,1,2,1:3:0:0:
432,216,176391,6,0,B|432:312|392:312,1,95.9999970703126,4|0,1:2|0:0,0:0:0:0:
103,303,176707,2,0,B|79:303|79:207,1,95.9999970703126,8|0,0:0|0:0,0:0:0:0:
312,312,177023,1,0,3:0:0:0:
200,280,177181,1,0,0:0:0:0:
200,72,177339,1,8,0:0:0:0:
312,104,177497,1,0,0:0:0:0:
168,344,177655,5,0,3:0:0:0:
144,232,177813,1,0,0:0:0:0:
344,40,177970,1,8,0:0:0:0:
368,152,178128,1,0,0:0:0:0:
64,240,178286,5,2,1:3:0:0:
72,192,178365,1,2,1:3:0:0:
104,160,178444,1,2,1:3:0:0:
152,152,178523,1,2,1:3:0:0:
200,168,178602,1,2,1:3:0:0:
232,208,178681,1,2,1:3:0:0:
264,248,178760,1,2,1:3:0:0:
312,264,178839,1,2,1:3:0:0:
360,248,178918,6,0,B|408:248|432:216|432:216|480:272|424:336,1,191.999994140625,4|8,0:2|0:0,0:0:0:0:
312,344,179391,1,0,0:0:0:0:
512,304,179549,2,0,B|528:240|496:192,1,95.9999970703126,0|0,3:0|0:0,0:0:0:0:
304,104,179865,2,0,B|288:168|320:216,1,95.9999970703126,8|0,0:0|0:0,0:0:0:0:
416,32,180181,5,0,3:0:0:0:
416,136,180339,1,0,0:0:0:0:
96,136,180497,1,8,0:0:0:0:
96,32,180655,1,0,0:0:0:0:
256,32,180813,5,2,1:3:0:0:
256,72,180891,1,2,1:3:0:0:
256,112,180970,1,2,1:3:0:0:
256,152,181049,1,2,1:3:0:0:
256,192,181128,1,2,1:3:0:0:
256,232,181207,1,2,1:3:0:0:
256,272,181286,1,2,1:3:0:0:
256,312,181365,1,2,1:3:0:0:
256,352,181444,6,0,L|160:352,1,95.9999970703126,4|0,0:2|0:0,0:0:0:0:
344,288,181760,2,0,L|440:288,1,95.9999970703126,8|0,0:0|0:0,0:0:0:0:
168,216,182076,2,0,L|72:216,1,95.9999970703126,0|0,3:0|0:0,0:0:0:0:
168,280,182391,5,8,0:0:0:0:
352,192,182549,1,0,0:0:0:0:
168,120,182707,2,0,L|168:216,1,95.9999970703126,0|0,3:0|0:0,0:0:0:0:
344,288,183023,1,8,0:0:0:0:
256,160,183181,1,0,0:0:0:0:
480,80,183339,5,2,1:3:0:0:
440,112,183418,1,2,1:3:0:0:
392,104,183497,1,2,1:3:0:0:
352,72,183576,1,2,1:3:0:0:
312,48,183655,1,2,1:3:0:0:
264,64,183734,1,2,1:3:0:0:
216,80,183813,1,2,1:3:0:0:
168,64,183891,1,2,1:3:0:0:
128,32,183970,6,0,B|104:80|128:128,1,95.9999970703126,4|0,0:2|0:0,0:0:0:0:
386,124,184286,2,0,B|410:76|386:28,1,95.9999970703126,8|0,0:0|0:0,0:0:0:0:
184,208,184602,1,0,3:0:0:0:
328,208,184760,1,0,0:0:0:0:
256,136,184918,1,8,0:0:0:0:
256,280,185076,1,0,0:0:0:0:
104,280,185234,5,0,3:0:0:0:
176,328,185391,1,0,0:0:0:0:
408,280,185549,1,8,0:0:0:0:
336,328,185706,1,0,0:0:0:0:
64,336,185865,5,2,1:3:0:0:
40,296,185944,1,2,1:3:0:0:
40,248,186023,1,2,1:3:0:0:
80,216,186102,1,2,1:3:0:0:
64,168,186181,1,2,1:3:0:0:
56,120,186260,1,2,1:3:0:0:
88,80,186339,1,2,1:3:0:0:
136,64,186418,1,2,1:3:0:0:
184,80,186497,6,0,L|288:80,1,95.9999970703126,4|0,1:2|0:0,0:0:0:0:
360,192,186813,2,0,L|256:192,1,95.9999970703126,8|0,0:0|0:0,0:0:0:0:
184,304,187128,2,0,L|288:304,1,95.9999970703126,0|0,3:0|0:0,0:0:0:0:
184,80,187444,1,8,0:0:0:0:
184,304,187602,1,0,0:0:0:0:
360,192,187760,5,0,3:0:0:0:
264,192,187918,1,0,0:0:0:0:
440,304,188076,1,8,0:0:0:0:
440,80,188234,1,0,0:0:0:0:
160,114,188391,2,0,B|112:114|56:66,1,95.9999970703126,2|2,1:3|1:3,0:0:0:0:
352,114,188707,2,0,B|400:114|456:66,1,95.9999970703126,2|2,1:3|1:3,0:0:0:0:
256,264,189023,5,4,0:2:0:0:
120,200,189181,2,0,L|64:208,2,47.9999985351563,0|0|8,0:0|0:0|0:0,0:0:0:0:
392,200,189497,2,0,L|448:208,2,47.9999985351563,0|0|0,0:0|0:0|3:0,0:0:0:0:
176,288,189813,1,0,0:0:0:0:
176,288,189891,1,0,0:0:0:0:
176,288,189970,1,8,0:0:0:0:
336,288,190128,1,0,0:0:0:0:
336,288,190206,1,0,0:0:0:0:
336,288,190286,1,0,3:0:0:0:
256,368,190444,5,0,0:0:0:0:
256,232,190602,1,8,0:0:0:0:
256,96,190760,1,0,0:0:0:0:
88,104,190918,5,2,1:3:0:0:
120,144,190997,1,2,1:3:0:0:
160,168,191076,1,2,1:3:0:0:
208,152,191155,1,2,1:3:0:0:
256,160,191234,1,2,1:3:0:0:
304,152,191313,1,2,1:3:0:0:
352,168,191392,1,2,1:3:0:0:
392,144,191471,1,2,1:3:0:0:
408,104,191549,6,0,B|376:48|272:48,1,120.000004577637,4|0,1:2|0:0,0:0:0:0:
304,240,191786,1,0,0:0:0:0:
304,240,191865,2,0,B|272:184|168:184,1,120.000004577637,8|0,0:0|0:0,0:0:0:0:
80,328,192102,1,0,0:0:0:0:
80,328,192181,2,0,L|200:328,1,120.000004577637,0|0,3:0|0:0,0:0:0:0:
296,360,192497,1,8,0:0:0:0:
296,360,192655,1,0,0:0:0:0:
456,264,192813,6,0,L|456:136,1,120.000004577637,0|0,3:0|0:0,0:0:0:0:
296,200,193049,1,0,0:0:0:0:
296,200,193128,2,0,L|296:72,1,120.000004577637,8|0,0:0|0:0,0:0:0:0:
136,136,193365,1,0,0:0:0:0:
136,136,193444,2,0,L|136:8,1,120.000004577637,2|2,1:3|1:3,0:0:0:0:
24,80,193760,1,2,1:3:0:0:
24,80,193918,1,2,1:3:0:0:
312,32,194076,5,4,0:2:0:0:
192,112,194234,2,0,L|256:128,1,60.0000022888184
336,144,194391,1,8,0:0:0:0:
216,224,194549,2,0,L|280:240,1,60.0000022888184
360,256,194707,1,0,3:0:0:0:
240,336,194865,2,0,L|304:352,1,60.0000022888184
384,368,195023,1,8,0:0:0:0:
168,360,195181,1,0,0:0:0:0:
464,192,195339,5,0,3:0:0:0:
368,192,195497,1,0,0:0:0:0:
48,192,195655,1,8,0:0:0:0:
144,192,195813,1,0,0:0:0:0:
256,32,195970,5,2,1:3:0:0:
256,72,196049,1,2,1:3:0:0:
256,112,196128,1,2,1:3:0:0:
256,152,196207,1,2,1:3:0:0:
256,192,196286,1,2,1:3:0:0:
256,232,196365,1,2,1:3:0:0:
256,272,196444,1,2,1:3:0:0:
256,312,196523,1,2,1:3:0:0:
256,352,196602,1,0,0:0:0:0:
