osu file format v14

[General]
AudioFilename: ..mp3
AudioLeadIn: 0
PreviewTime: 49438
Countdown: 0
SampleSet: Normal
StackLeniency: 0.7
Mode: 1
LetterboxInBreaks: 0
WidescreenStoryboard: 1

[Editor]
Bookmarks: 7333,79448,94217,110833,169909
DistanceSpacing: 0.9
BeatDivisor: 4
GridSize: 32
TimelineZoom: 2.2

[Metadata]
Title:------
TitleUnicode:------
Artist:x0o0x_
ArtistUnicode:x0o0x_
Creator:nyanmi-1828
Version:Muzukashii
Source:
Tags:☻ utau xxxx わかめ wakame blank untitled 無題 aiueo ゲスト guest すべあな Subeana 全てあなたの所為です japanese electronic デフォ子 Defoko 唄音ウタ Utane Uta XYXYZ
BeatmapID:2359489
BeatmapSetID:1128229

[Difficulty]
HPDrainRate:6
CircleSize:5
OverallDifficulty:4
ApproachRate:5
SliderMultiplier:1.4
SliderTickRate:1

[Events]
//Background and Video events
0,0,"BG.jpg",0,0
//Break Periods
2,94421,99714
2,184768,191329
//Storyboard Layer 0 (Background)
//Storyboard Layer 1 (Fail)
//Storyboard Layer 2 (Pass)
//Storyboard Layer 3 (Foreground)
//Storyboard Layer 4 (Overlay)
//Storyboard Sound Samples

[TimingPoints]
68,461.538461538462,4,1,0,50,1,0
68,-133.333333333333,4,1,0,50,0,0
6760,-128.205128205128,4,1,0,50,0,0
6875,-123.456790123457,4,1,0,50,0,0
6991,-119.047619047619,4,1,0,50,0,0
7221,-111.111111111111,4,1,0,50,0,0
7452,-100,4,1,0,60,0,0
22221,-111.111111111111,4,1,0,40,0,0
24068,-125,4,1,0,60,0,0
31221,-117.647058823529,4,1,0,65,0,0
31452,-111.111111111111,4,1,0,70,0,0
38837,-100,4,1,0,75,0,0
46683,-96.1538461538461,4,1,0,75,0,0
46914,-94.3396226415094,4,1,0,75,0,0
47144,-92.5925925925926,4,1,0,75,0,0
47375,-90.9090909090909,4,1,0,75,0,0
47606,-89.2857142857143,4,1,0,75,0,0
47837,-87.719298245614,4,1,0,75,0,0
48068,-83.3333333333333,4,1,0,75,0,0
49452,-100,4,1,0,75,0,0
49914,-90.9090909090909,4,1,0,80,0,1
79452,-111.111111111111,4,1,0,50,0,0
100914,-100,4,1,0,60,0,0
108991,-111.111111111111,4,1,0,60,0,0
110837,-100,4,1,0,60,0,0
125606,-100,4,1,0,80,0,1
153298,-100,4,1,0,15,0,0
155144,-133.333333333333,4,1,0,25,0,0
162528,-111.111111111111,4,1,0,60,0,0
168067,-83.3333333333333,4,1,0,60,0,0
169221,-89.2857142857143,4,1,0,60,0,0
169451,-92.5925925925926,4,1,0,60,0,0
169567,-94.3396226415094,4,1,0,60,0,0
169682,-96.1538461538461,4,1,0,60,0,0
169914,-100,4,1,0,60,0,1
184683,-133.333333333333,4,1,0,60,0,0
195759,-166.666666666667,4,1,0,60,0,0
197605,-100,4,1,0,70,0,0
199452,-100,4,1,0,80,0,1
214221,-100,4,1,0,60,0,0
216067,-133.333333333333,4,1,0,40,0,0

[HitObjects]
374,227,68,5,0,0:0:0:0:
370,214,529,1,0,0:0:0:0:
405,242,991,1,0,0:0:0:0:
397,246,1452,1,0,0:0:0:0:
374,227,1914,1,0,0:0:0:0:
413,255,2375,1,0,0:0:0:0:
411,246,2837,1,0,0:0:0:0:
413,242,3298,1,0,0:0:0:0:
374,227,3760,1,0,0:0:0:0:
399,262,4221,1,0,0:0:0:0:
397,247,4683,1,0,0:0:0:0:
396,245,5144,1,0,0:0:0:0:
374,227,5606,1,0,0:0:0:0:
370,218,6068,1,0,0:0:0:0:
403,251,6529,5,0,0:0:0:0:
366,215,6760,1,8,0:0:0:0:
366,215,6875,1,8,0:0:0:0:
348,199,6991,1,8,0:0:0:0:
377,220,7221,1,0,0:0:0:0:
422,238,7452,1,4,0:0:0:0:
377,260,8144,1,8,0:0:0:0:
414,265,8375,1,0,0:0:0:0:
419,270,8837,1,0,0:0:0:0:
414,265,9298,1,0,0:0:0:0:
414,265,9529,1,8,0:0:0:0:
415,281,9760,1,0,0:0:0:0:
433,251,9991,1,8,0:0:0:0:
422,266,10221,1,0,0:0:0:0:
422,266,10452,1,0,0:0:0:0:
422,266,10683,1,0,0:0:0:0:
422,266,10798,1,8,0:0:0:0:
416,255,11144,1,0,0:0:0:0:
390,236,11375,1,8,0:0:0:0:
384,241,11606,1,0,0:0:0:0:
393,225,11952,1,8,0:0:0:0:
384,241,12068,1,0,0:0:0:0:
373,229,12298,1,8,0:0:0:0:
373,229,12529,1,0,0:0:0:0:
358,219,12991,1,0,0:0:0:0:
358,220,13221,1,8,0:0:0:0:
358,220,13452,1,0,0:0:0:0:
425,256,13798,1,8,0:0:0:0:
382,236,13914,1,0,0:0:0:0:
405,265,14144,1,8,0:0:0:0:
384,240,14375,1,0,0:0:0:0:
386,239,14606,1,8,0:0:0:0:
365,249,14837,1,0,0:0:0:0:
365,249,15529,1,8,0:0:0:0:
376,257,15760,1,0,0:0:0:0:
376,257,16221,1,0,0:0:0:0:
361,240,16683,1,0,0:0:0:0:
361,240,17029,1,8,0:0:0:0:
361,240,17144,1,0,0:0:0:0:
361,240,17375,1,8,0:0:0:0:
372,237,17606,1,0,0:0:0:0:
361,240,17837,1,8,0:0:0:0:
366,240,18068,1,0,0:0:0:0:
373,227,18529,1,0,0:0:0:0:
375,241,18760,1,0,0:0:0:0:
399,242,18991,1,0,0:0:0:0:
418,236,19106,1,8,0:0:0:0:
405,249,19337,1,8,0:0:0:0:
408,248,19452,1,0,0:0:0:0:
363,231,19683,1,8,0:0:0:0:
425,257,19914,1,0,0:0:0:0:
383,242,20375,1,0,0:0:0:0:
414,252,20606,1,8,0:0:0:0:
410,249,20721,1,8,0:0:0:0:
412,251,20837,1,0,0:0:0:0:
417,244,21068,1,8,0:0:0:0:
418,245,21298,1,0,0:0:0:0:
407,241,21529,1,8,0:0:0:0:
414,242,21760,1,0,0:0:0:0:
424,247,22221,1,8,0:0:0:0:
424,248,22337,1,8,0:0:0:0:
426,250,22568,1,8,0:0:0:0:
426,251,22798,1,8,0:0:0:0:
401,250,23029,1,8,0:0:0:0:
405,215,23375,1,8,0:0:0:0:
379,222,24068,1,0,0:0:0:0:
379,222,24991,1,0,0:0:0:0:
389,227,25221,1,8,0:0:0:0:
389,227,25452,1,0,0:0:0:0:
389,227,25683,1,8,0:0:0:0:
348,214,25914,1,0,0:0:0:0:
370,241,26144,1,0,0:0:0:0:
406,237,26375,1,8,0:0:0:0:
362,220,26606,1,8,0:0:0:0:
363,221,26837,1,0,0:0:0:0:
377,213,27298,1,0,0:0:0:0:
377,215,27529,1,8,0:0:0:0:
377,215,27760,1,0,0:0:0:0:
369,215,28221,1,8,0:0:0:0:
369,215,28683,1,0,0:0:0:0:
352,207,28914,1,8,0:0:0:0:
352,211,29144,1,0,0:0:0:0:
352,211,29375,1,8,0:0:0:0:
354,209,29606,1,0,0:0:0:0:
352,207,29837,1,0,0:0:0:0:
352,211,30068,1,8,0:0:0:0:
352,231,30298,1,0,0:0:0:0:
354,232,30529,1,8,0:0:0:0:
352,236,30991,1,8,0:0:0:0:
354,235,31221,1,8,0:0:0:0:
354,232,31452,1,0,0:0:0:0:
378,231,32375,1,0,0:0:0:0:
383,234,32606,1,0,0:0:0:0:
383,234,32837,1,8,0:0:0:0:
383,235,33068,1,8,0:0:0:0:
383,235,33298,1,0,0:0:0:0:
363,231,33529,1,0,0:0:0:0:
363,232,33760,1,8,0:0:0:0:
363,234,33991,1,0,0:0:0:0:
363,235,34221,1,8,0:0:0:0:
366,220,34683,1,8,0:0:0:0:
376,233,34914,1,8,0:0:0:0:
376,233,35144,1,0,0:0:0:0:
375,235,35606,1,8,0:0:0:0:
352,192,35837,1,8,0:0:0:0:
376,233,36068,1,0,0:0:0:0:
403,247,36298,1,0,0:0:0:0:
403,247,36529,1,8,0:0:0:0:
403,247,36760,1,8,0:0:0:0:
403,247,36991,1,0,0:0:0:0:
392,231,37221,1,0,0:0:0:0:
392,231,37452,1,8,0:0:0:0:
392,231,37683,1,0,0:0:0:0:
392,231,37914,1,0,0:0:0:0:
379,217,38375,1,8,0:0:0:0:
383,222,38606,1,8,0:0:0:0:
383,222,38837,1,4,0:0:0:0:
423,214,39183,1,4,0:0:0:0:
383,222,39529,1,4,0:0:0:0:
400,243,39875,1,8,0:0:0:0:
400,243,39991,1,0,0:0:0:0:
417,261,40221,1,8,0:0:0:0:
371,235,40683,1,4,0:0:0:0:
422,214,41029,1,4,0:0:0:0:
378,235,41375,1,4,0:0:0:0:
382,222,41721,1,8,0:0:0:0:
382,223,41837,1,0,0:0:0:0:
378,230,42068,1,8,0:0:0:0:
379,230,42529,1,4,0:0:0:0:
401,234,43452,1,0,0:0:0:0:
380,219,43683,1,0,0:0:0:0:
380,219,43914,1,8,0:0:0:0:
380,219,44144,1,8,0:0:0:0:
382,223,44375,1,0,0:0:0:0:
405,232,44606,1,0,0:0:0:0:
405,232,44837,1,8,0:0:0:0:
408,261,45068,1,0,0:0:0:0:
408,261,45298,1,8,0:0:0:0:
373,249,45760,1,8,0:0:0:0:
373,249,45991,1,8,0:0:0:0:
373,249,46221,1,0,0:0:0:0:
386,242,46683,1,8,0:0:0:0:
383,241,46914,1,8,0:0:0:0:
389,251,47144,1,0,0:0:0:0:
386,242,47375,1,0,0:0:0:0:
389,251,47606,1,8,0:0:0:0:
389,251,47837,1,8,0:0:0:0:
340,236,48068,5,4,0:0:0:0:
344,239,48298,1,4,0:0:0:0:
344,239,48529,1,4,0:0:0:0:
344,239,48760,1,4,0:0:0:0:
344,239,48991,1,4,0:0:0:0:
374,240,49452,1,8,0:0:0:0:
374,248,49683,1,8,0:0:0:0:
388,243,49914,1,4,0:0:0:0:
400,248,50837,1,0,0:0:0:0:
416,256,51068,1,8,0:0:0:0:
416,256,51183,1,8,0:0:0:0:
402,236,51298,1,8,0:0:0:0:
402,236,51529,1,8,0:0:0:0:
411,251,51760,1,0,0:0:0:0:
411,251,51991,1,8,0:0:0:0:
411,254,52221,1,0,0:0:0:0:
411,254,52452,1,8,0:0:0:0:
411,251,52683,1,0,0:0:0:0:
390,244,53144,1,8,0:0:0:0:
390,244,53375,1,8,0:0:0:0:
390,244,53606,1,0,0:0:0:0:
395,248,53837,1,0,0:0:0:0:
396,248,54068,1,8,0:0:0:0:
396,248,54298,1,8,0:0:0:0:
409,250,54529,1,0,0:0:0:0:
409,250,54644,1,0,0:0:0:0:
409,250,54760,1,0,0:0:0:0:
409,250,54991,1,8,0:0:0:0:
409,250,55221,1,0,0:0:0:0:
409,250,55683,1,0,0:0:0:0:
409,250,55914,1,8,0:0:0:0:
409,250,56144,1,8,0:0:0:0:
409,250,56375,1,0,0:0:0:0:
404,240,56837,1,8,0:0:0:0:
404,241,57068,1,8,0:0:0:0:
404,241,57298,1,4,0:0:0:0:
389,238,58221,1,0,0:0:0:0:
391,250,58337,1,0,0:0:0:0:
391,250,58452,1,0,0:0:0:0:
387,252,58683,1,8,0:0:0:0:
386,248,58914,1,8,0:0:0:0:
386,248,59144,1,0,0:0:0:0:
386,248,59375,1,0,0:0:0:0:
391,233,59606,1,8,0:0:0:0:
391,233,59837,1,8,0:0:0:0:
391,233,60068,1,0,0:0:0:0:
405,243,60529,1,8,0:0:0:0:
407,245,60760,1,8,0:0:0:0:
408,247,60991,1,0,0:0:0:0:
406,229,61452,1,8,0:0:0:0:
406,229,61683,1,8,0:0:0:0:
406,229,61914,1,0,0:0:0:0:
401,239,62144,1,8,0:0:0:0:
384,224,62260,1,8,0:0:0:0:
401,239,62375,1,8,0:0:0:0:
416,256,62606,1,8,0:0:0:0:
408,234,62837,1,0,0:0:0:0:
408,234,63068,1,0,0:0:0:0:
408,234,63298,1,8,0:0:0:0:
408,234,63529,1,8,0:0:0:0:
408,234,63760,1,0,0:0:0:0:
408,234,64221,1,8,0:0:0:0:
408,234,64452,1,8,0:0:0:0:
388,243,64683,1,4,0:0:0:0:
448,288,65144,1,8,0:0:0:0:
392,249,65375,1,0,0:0:0:0:
400,248,65606,1,0,0:0:0:0:
416,288,65837,1,8,0:0:0:0:
416,288,65952,1,8,0:0:0:0:
402,236,66068,1,8,0:0:0:0:
402,236,66298,1,8,0:0:0:0:
411,251,66529,1,0,0:0:0:0:
411,251,66760,1,8,0:0:0:0:
411,254,66991,1,0,0:0:0:0:
411,254,67221,1,8,0:0:0:0:
411,251,67452,1,0,0:0:0:0:
390,244,67914,1,8,0:0:0:0:
390,244,68144,1,8,0:0:0:0:
390,244,68375,1,0,0:0:0:0:
396,248,68837,1,8,0:0:0:0:
396,248,69068,1,8,0:0:0:0:
409,250,69298,1,0,0:0:0:0:
409,250,69414,1,0,0:0:0:0:
409,250,69529,1,0,0:0:0:0:
409,250,69760,1,8,0:0:0:0:
409,250,70221,1,0,0:0:0:0:
409,250,70452,1,0,0:0:0:0:
409,250,70683,1,8,0:0:0:0:
409,250,70914,1,8,0:0:0:0:
409,250,71144,1,0,0:0:0:0:
404,240,71606,1,8,0:0:0:0:
404,241,71837,1,8,0:0:0:0:
404,241,72068,1,0,0:0:0:0:
389,238,72760,1,8,0:0:0:0:
389,238,72991,1,0,0:0:0:0:
384,256,73106,1,0,0:0:0:0:
391,250,73221,1,0,0:0:0:0:
387,252,73452,1,8,0:0:0:0:
386,248,73683,1,8,0:0:0:0:
386,248,73914,1,0,0:0:0:0:
386,248,74144,1,0,0:0:0:0:
391,233,74375,1,8,0:0:0:0:
391,233,74606,1,8,0:0:0:0:
391,233,74837,1,0,0:0:0:0:
405,243,75298,1,8,0:0:0:0:
407,245,75529,1,8,0:0:0:0:
408,247,75760,1,0,0:0:0:0:
406,229,76452,1,8,0:0:0:0:
406,229,76683,1,0,0:0:0:0:
401,239,76914,1,8,0:0:0:0:
416,224,77029,1,8,0:0:0:0:
401,239,77144,1,8,0:0:0:0:
419,245,77375,1,8,0:0:0:0:
408,234,77606,1,0,0:0:0:0:
408,234,77837,1,0,0:0:0:0:
408,234,78068,1,8,0:0:0:0:
408,234,78298,1,8,0:0:0:0:
408,234,78529,1,0,0:0:0:0:
411,243,79452,1,8,0:0:0:0:
417,238,80375,1,8,0:0:0:0:
384,228,80837,1,0,0:0:0:0:
392,233,81298,1,8,0:0:0:0:
398,234,82221,1,8,0:0:0:0:
405,230,83144,1,8,0:0:0:0:
405,247,84068,1,8,0:0:0:0:
402,247,84529,1,0,0:0:0:0:
405,247,84991,1,8,0:0:0:0:
389,244,86837,1,8,0:0:0:0:
367,222,87529,1,8,0:0:0:0:
363,232,88221,1,8,0:0:0:0:
396,227,88914,1,8,0:0:0:0:
372,231,89606,1,8,0:0:0:0:
383,239,90298,1,8,0:0:0:0:
416,256,90529,1,8,0:0:0:0:
416,261,91221,1,8,0:0:0:0:
390,229,91914,1,8,0:0:0:0:
412,252,92606,1,8,0:0:0:0:
416,256,93298,5,8,0:0:0:0:
413,226,93991,1,8,0:0:0:0:
413,226,94221,5,0,0:0:0:0:
392,238,100914,5,0,0:0:0:0:
392,238,101144,1,8,0:0:0:0:
354,232,101606,1,4,0:0:0:0:
384,224,102068,1,8,0:0:0:0:
378,231,102529,1,0,0:0:0:0:
383,234,102760,1,0,0:0:0:0:
383,234,102991,1,8,0:0:0:0:
383,235,103221,1,8,0:0:0:0:
383,235,103452,1,0,0:0:0:0:
363,231,103683,1,0,0:0:0:0:
363,232,103914,1,8,0:0:0:0:
363,234,104144,1,0,0:0:0:0:
409,245,104375,1,8,0:0:0:0:
384,224,105068,1,8,0:0:0:0:
376,233,105298,1,0,0:0:0:0:
376,233,106221,1,0,0:0:0:0:
403,247,106452,1,0,0:0:0:0:
403,247,106683,1,8,0:0:0:0:
403,247,106914,1,8,0:0:0:0:
403,247,107144,1,0,0:0:0:0:
392,231,107375,1,0,0:0:0:0:
392,231,107606,1,8,0:0:0:0:
392,231,107837,1,8,0:0:0:0:
392,231,108068,1,0,0:0:0:0:
392,243,110837,1,0,0:0:0:0:
397,243,111760,1,0,0:0:0:0:
418,254,112683,1,0,0:0:0:0:
396,251,113144,1,8,0:0:0:0:
405,251,113375,1,0,0:0:0:0:
408,252,113606,1,0,0:0:0:0:
395,249,114068,1,8,0:0:0:0:
396,247,114298,1,8,0:0:0:0:
396,249,114529,1,0,0:0:0:0:
414,250,115221,1,8,0:0:0:0:
414,254,115452,1,0,0:0:0:0:
389,235,115914,1,8,0:0:0:0:
389,235,116144,1,8,0:0:0:0:
398,242,116375,1,0,0:0:0:0:
414,247,116837,1,8,0:0:0:0:
406,245,117068,1,8,0:0:0:0:
428,257,117298,1,0,0:0:0:0:
406,245,117991,1,8,0:0:0:0:
406,245,118221,1,0,0:0:0:0:
404,250,118914,1,8,0:0:0:0:
404,251,119144,1,0,0:0:0:0:
423,262,119837,1,0,0:0:0:0:
423,263,120068,1,0,0:0:0:0:
424,252,120760,1,8,0:0:0:0:
414,248,120991,1,0,0:0:0:0:
414,249,121683,1,0,0:0:0:0:
414,248,121914,1,0,0:0:0:0:
394,241,122144,1,0,0:0:0:0:
394,245,122375,1,8,0:0:0:0:
403,254,122606,1,8,0:0:0:0:
405,252,122837,1,0,0:0:0:0:
400,250,123298,1,8,0:0:0:0:
394,245,123529,1,8,0:0:0:0:
414,255,123760,1,0,0:0:0:0:
402,241,123991,1,8,0:0:0:0:
453,236,124221,1,0,0:0:0:0:
426,228,124452,1,8,0:0:0:0:
426,234,124683,1,0,0:0:0:0:
408,219,125144,1,8,0:0:0:0:
408,219,125375,1,8,0:0:0:0:
388,243,125606,1,4,0:0:0:0:
400,248,126529,1,0,0:0:0:0:
416,256,126760,1,8,0:0:0:0:
416,256,126875,1,8,0:0:0:0:
402,236,126991,1,8,0:0:0:0:
402,236,127221,1,8,0:0:0:0:
411,251,127452,1,0,0:0:0:0:
411,251,127683,1,8,0:0:0:0:
411,254,127914,1,0,0:0:0:0:
411,254,128144,1,8,0:0:0:0:
411,251,128375,1,0,0:0:0:0:
390,244,128837,1,8,0:0:0:0:
390,244,129068,1,8,0:0:0:0:
390,244,129298,1,0,0:0:0:0:
395,248,129529,1,0,0:0:0:0:
396,248,129760,1,8,0:0:0:0:
396,248,129991,1,8,0:0:0:0:
409,250,130221,1,0,0:0:0:0:
409,250,130337,1,0,0:0:0:0:
409,250,130452,1,0,0:0:0:0:
409,250,130683,1,8,0:0:0:0:
409,250,130914,1,0,0:0:0:0:
409,250,131375,1,0,0:0:0:0:
409,250,131606,1,8,0:0:0:0:
409,250,131837,1,8,0:0:0:0:
409,250,132068,1,0,0:0:0:0:
404,240,132529,1,8,0:0:0:0:
404,241,132760,1,8,0:0:0:0:
404,241,132991,1,4,0:0:0:0:
389,238,133914,1,0,0:0:0:0:
391,250,134029,1,0,0:0:0:0:
391,250,134144,1,0,0:0:0:0:
387,252,134375,1,8,0:0:0:0:
386,248,134606,1,8,0:0:0:0:
386,248,134837,1,0,0:0:0:0:
386,248,135068,1,0,0:0:0:0:
391,233,135298,1,8,0:0:0:0:
391,233,135529,1,8,0:0:0:0:
391,233,135760,1,0,0:0:0:0:
405,243,136221,1,8,0:0:0:0:
407,245,136452,1,8,0:0:0:0:
408,247,136683,1,0,0:0:0:0:
406,229,137144,1,8,0:0:0:0:
406,229,137375,1,8,0:0:0:0:
406,229,137606,1,0,0:0:0:0:
401,239,137837,1,8,0:0:0:0:
384,224,137952,1,8,0:0:0:0:
401,239,138068,1,8,0:0:0:0:
416,256,138298,1,8,0:0:0:0:
408,234,138529,1,0,0:0:0:0:
408,234,138760,1,0,0:0:0:0:
408,234,138991,1,8,0:0:0:0:
408,234,139221,1,8,0:0:0:0:
408,234,139452,1,0,0:0:0:0:
408,234,139914,1,8,0:0:0:0:
408,234,140144,1,8,0:0:0:0:
388,243,140375,1,4,0:0:0:0:
448,288,140837,1,8,0:0:0:0:
392,249,141068,1,0,0:0:0:0:
400,248,141298,1,0,0:0:0:0:
416,288,141529,1,8,0:0:0:0:
416,288,141644,1,8,0:0:0:0:
402,236,141760,1,8,0:0:0:0:
402,236,141991,1,8,0:0:0:0:
411,251,142221,1,0,0:0:0:0:
411,251,142452,1,8,0:0:0:0:
411,254,142683,1,0,0:0:0:0:
411,254,142914,1,8,0:0:0:0:
411,251,143144,1,0,0:0:0:0:
390,244,143606,1,8,0:0:0:0:
390,244,143837,1,8,0:0:0:0:
390,244,144068,1,0,0:0:0:0:
396,248,144529,1,8,0:0:0:0:
396,248,144760,1,8,0:0:0:0:
409,250,144991,1,0,0:0:0:0:
409,250,145106,1,0,0:0:0:0:
409,250,145221,1,0,0:0:0:0:
409,250,145452,1,8,0:0:0:0:
409,250,145914,1,0,0:0:0:0:
409,250,146144,1,0,0:0:0:0:
409,250,146375,1,8,0:0:0:0:
409,250,146606,1,8,0:0:0:0:
409,250,146837,1,0,0:0:0:0:
404,240,147298,1,8,0:0:0:0:
404,241,147529,1,8,0:0:0:0:
404,241,147760,1,0,0:0:0:0:
389,238,148452,1,8,0:0:0:0:
389,238,148683,1,0,0:0:0:0:
384,256,148798,1,0,0:0:0:0:
391,250,148914,1,0,0:0:0:0:
387,252,149144,1,8,0:0:0:0:
386,248,149375,1,8,0:0:0:0:
386,248,149606,1,0,0:0:0:0:
386,248,149837,1,0,0:0:0:0:
391,233,150068,1,8,0:0:0:0:
391,233,150298,1,8,0:0:0:0:
391,233,150529,1,0,0:0:0:0:
405,243,150991,1,8,0:0:0:0:
407,245,151221,1,8,0:0:0:0:
408,247,151452,1,0,0:0:0:0:
384,256,152144,1,0,0:0:0:0:
352,224,152375,1,8,0:0:0:0:
384,224,152606,1,8,0:0:0:0:
384,224,152837,1,0,0:0:0:0:
384,224,153068,1,8,0:0:0:0:
256,192,153298,12,0,154914,0:0:0:0:
327,219,155144,5,8,0:0:0:0:
348,233,156991,1,8,0:0:0:0:
347,226,158837,1,8,0:0:0:0:
345,226,160683,1,8,0:0:0:0:
314,243,162529,5,0,0:0:0:0:
404,251,162991,1,8,0:0:0:0:
378,237,163452,1,0,0:0:0:0:
404,251,163914,1,8,0:0:0:0:
387,247,164375,1,0,0:0:0:0:
402,246,164837,1,8,0:0:0:0:
387,247,165298,1,0,0:0:0:0:
402,246,165760,1,8,0:0:0:0:
375,233,166221,1,0,0:0:0:0:
395,266,166683,1,8,0:0:0:0:
386,245,168068,5,4,0:0:0:0:
398,250,168414,1,4,0:0:0:0:
399,249,168760,1,4,0:0:0:0:
394,237,169221,1,8,0:0:0:0:
394,237,169452,1,8,0:0:0:0:
394,237,169568,1,8,0:0:0:0:
394,237,169683,1,8,0:0:0:0:
425,252,169914,1,0,0:0:0:0:
394,237,170606,1,0,0:0:0:0:
394,237,170721,1,0,0:0:0:0:
415,261,170837,1,0,0:0:0:0:
416,256,171068,1,0,0:0:0:0:
424,267,171298,1,8,0:0:0:0:
412,256,171529,1,8,0:0:0:0:
412,256,171760,1,0,0:0:0:0:
423,252,172221,1,8,0:0:0:0:
416,260,172337,1,8,0:0:0:0:
419,261,172568,1,8,0:0:0:0:
419,261,172683,1,0,0:0:0:0:
403,249,172914,1,8,0:0:0:0:
421,264,173144,1,8,0:0:0:0:
408,257,173606,1,0,0:0:0:0:
416,256,173837,1,0,0:0:0:0:
412,264,174068,1,8,0:0:0:0:
401,252,174529,1,0,0:0:0:0:
416,256,174760,1,0,0:0:0:0:
439,272,174991,1,8,0:0:0:0:
408,264,175106,1,8,0:0:0:0:
409,265,175337,1,8,0:0:0:0:
409,266,175452,1,0,0:0:0:0:
411,269,175683,1,0,0:0:0:0:
403,249,175914,1,8,0:0:0:0:
412,251,176375,1,0,0:0:0:0:
412,252,176837,1,8,0:0:0:0:
400,244,177298,1,0,0:0:0:0:
416,256,177991,1,8,0:0:0:0:
410,240,178221,1,0,0:0:0:0:
412,241,178452,1,8,0:0:0:0:
435,246,178683,1,0,0:0:0:0:
435,246,178798,1,8,0:0:0:0:
416,244,179144,1,0,0:0:0:0:
416,256,179837,1,8,0:0:0:0:
392,238,180068,1,0,0:0:0:0:
386,231,180298,1,0,0:0:0:0:
399,239,180529,1,0,0:0:0:0:
399,239,180644,1,8,0:0:0:0:
408,244,180991,1,0,0:0:0:0:
409,233,181683,1,0,0:0:0:0:
415,241,181914,1,0,0:0:0:0:
428,263,182144,1,8,0:0:0:0:
406,251,182375,1,0,0:0:0:0:
406,251,182491,1,8,0:0:0:0:
402,238,182837,1,8,0:0:0:0:
402,240,183068,1,0,0:0:0:0:
402,240,183298,1,8,0:0:0:0:
402,240,183529,1,0,0:0:0:0:
406,251,183760,1,0,0:0:0:0:
406,249,183875,1,8,0:0:0:0:
413,250,184221,1,8,0:0:0:0:
413,250,184452,1,8,0:0:0:0:
102,375,184568,1,8,0:0:0:0:
390,214,192529,5,8,0:0:0:0:
389,225,193452,1,8,0:0:0:0:
389,225,194375,1,8,0:0:0:0:
389,210,195298,1,8,0:0:0:0:
256,192,195760,12,8,197375,0:0:0:0:
383,224,197606,5,4,0:0:0:0:
380,235,197837,1,8,0:0:0:0:
380,235,198068,1,8,0:0:0:0:
393,237,198414,1,8,0:0:0:0:
393,237,198644,1,8,0:0:0:0:
373,223,198991,1,8,0:0:0:0:
377,227,199221,1,0,0:0:0:0:
388,243,199452,1,4,0:0:0:0:
400,248,200375,1,0,0:0:0:0:
416,256,200606,1,8,0:0:0:0:
416,256,200721,1,8,0:0:0:0:
402,236,200837,1,8,0:0:0:0:
402,236,201068,1,8,0:0:0:0:
411,251,201298,1,0,0:0:0:0:
411,251,201529,1,8,0:0:0:0:
411,254,201760,1,0,0:0:0:0:
411,254,201991,1,8,0:0:0:0:
411,251,202221,1,0,0:0:0:0:
390,244,202683,1,8,0:0:0:0:
390,244,202914,1,8,0:0:0:0:
390,244,203144,1,0,0:0:0:0:
396,248,203606,1,8,0:0:0:0:
396,248,203837,1,8,0:0:0:0:
409,250,204068,1,0,0:0:0:0:
409,250,204298,1,8,0:0:0:0:
416,256,204414,1,8,0:0:0:0:
409,250,204529,1,8,0:0:0:0:
409,250,204760,1,8,0:0:0:0:
416,288,204991,1,0,0:0:0:0:
409,250,205221,1,8,0:0:0:0:
409,250,205452,1,8,0:0:0:0:
409,250,205683,1,8,0:0:0:0:
409,250,205914,1,0,0:0:0:0:
404,240,206375,1,8,0:0:0:0:
404,241,206606,1,8,0:0:0:0:
404,241,206837,1,0,0:0:0:0:
389,238,207760,1,0,0:0:0:0:
391,250,207875,1,0,0:0:0:0:
391,250,207991,1,0,0:0:0:0:
387,252,208221,1,8,0:0:0:0:
386,248,208452,1,8,0:0:0:0:
386,248,208683,1,0,0:0:0:0:
386,248,208914,1,0,0:0:0:0:
391,233,209144,1,8,0:0:0:0:
391,233,209375,1,8,0:0:0:0:
391,233,209606,1,0,0:0:0:0:
405,243,210068,1,8,0:0:0:0:
407,245,210298,1,8,0:0:0:0:
408,247,210529,1,0,0:0:0:0:
406,229,210991,1,8,0:0:0:0:
406,229,211221,1,8,0:0:0:0:
401,239,211683,1,8,0:0:0:0:
384,224,211798,1,8,0:0:0:0:
401,239,211914,1,8,0:0:0:0:
416,256,212144,1,8,0:0:0:0:
408,234,212375,1,0,0:0:0:0:
408,234,212606,1,0,0:0:0:0:
408,234,212837,1,8,0:0:0:0:
408,234,213068,1,8,0:0:0:0:
384,256,213183,1,8,0:0:0:0:
408,234,213298,1,8,0:0:0:0:
408,234,213760,1,8,0:0:0:0:
388,243,214221,1,8,0:0:0:0:
414,256,216068,5,8,0:0:0:0:
360,222,217914,1,8,0:0:0:0:
355,239,219760,1,8,0:0:0:0:
344,221,220683,1,8,0:0:0:0:
344,221,221144,1,8,0:0:0:0:
344,221,221606,1,8,0:0:0:0:
369,231,223452,1,8,0:0:0:0:
360,222,225298,1,8,0:0:0:0:
