osu file format v14

[General]
AudioFilename: ..mp3
AudioLeadIn: 0
PreviewTime: 49438
Countdown: 0
SampleSet: Normal
StackLeniency: 0.7
Mode: 1
LetterboxInBreaks: 0
WidescreenStoryboard: 0

[Editor]
Bookmarks: 7333,79448,94217,110833,169909
DistanceSpacing: 0.9
BeatDivisor: 16
GridSize: 32
TimelineZoom: 2.2

[Metadata]
Title:------
TitleUnicode:------
Artist:x0o0x_
ArtistUnicode:x0o0x_
Creator:nyanmi-1828
Version:Inner Oni
Source:
Tags:☻ utau xxxx わかめ wakame blank untitled 無題 aiueo ゲスト guest すべあな Subeana 全てあなたの所為です japanese electronic デフォ子 Defoko 唄音ウタ Utane Uta XYXYZ
BeatmapID:2357140
BeatmapSetID:1128229

[Difficulty]
HPDrainRate:6
CircleSize:5
OverallDifficulty:6
ApproachRate:5
SliderMultiplier:1.4
SliderTickRate:1

[Events]
//Background and Video events
0,0,"BG.jpg",0,0
//Break Periods
2,94421,99714
2,184768,191329
//Storyboard Layer 0 (Background)
//Storyboard Layer 1 (Fail)
//Storyboard Layer 2 (Pass)
//Storyboard Layer 3 (Foreground)
//Storyboard Layer 4 (Overlay)
//Storyboard Sound Samples

[TimingPoints]
68,461.538461538462,4,1,0,50,1,0
68,-133.333333333333,4,1,0,50,0,0
6760,-128.205128205128,4,1,0,50,0,0
6875,-123.456790123457,4,1,0,50,0,0
6991,-119.047619047619,4,1,0,50,0,0
7106,-114.942528735632,4,1,0,50,0,0
7221,-111.111111111111,4,1,0,50,0,0
7452,-100,4,1,0,60,0,0
22221,-111.111111111111,4,1,0,40,0,0
24068,-125,4,1,0,60,0,0
31221,-117.647058823529,4,1,0,65,0,0
31452,-111.111111111111,4,1,0,70,0,0
38837,-100,4,1,0,75,0,0
46452,-97.0873786407767,4,1,0,75,0,0
46683,-94.3396226415094,4,1,0,75,0,0
46914,-91.743119266055,4,1,0,75,0,0
47144,-89.2857142857143,4,1,0,75,0,0
47375,-86.9565217391304,4,1,0,75,0,0
47606,-84.7457627118644,4,1,0,75,0,0
47837,-82.6446280991736,4,1,0,75,0,0
48068,-76.9230769230769,4,1,0,75,0,0
49452,-100,4,1,0,75,0,0
49914,-90.9090909090909,4,1,0,80,0,1
79452,-111.111111111111,4,1,0,50,0,0
100914,-100,4,1,0,60,0,0
108991,-111.111111111111,4,1,0,60,0,0
110837,-100,4,1,0,60,0,0
125606,-90.9090909090909,4,1,0,80,0,1
153298,-100,4,1,0,15,0,0
155144,-133.333333333333,4,1,0,25,0,0
162528,-111.111111111111,4,1,0,60,0,0
168067,-71.4285714285714,4,1,0,60,0,0
169105,-80.6451612903226,4,1,0,60,0,0
169221,-81.9672131147541,4,1,0,60,0,0
169336,-83.3333333333333,4,1,0,60,0,0
169451,-84.7457627118644,4,1,0,60,0,0
169567,-86.2068965517241,4,1,0,60,0,0
169682,-87.719298245614,4,1,0,60,0,0
169798,-89.2857142857143,4,1,0,60,0,0
169914,-90.9090909090909,4,1,0,60,0,1
184683,-133.333333333333,4,1,0,60,0,0
195759,-200,4,1,0,60,0,0
197605,-100,4,1,0,70,0,0
199452,-90.9090909090909,4,1,0,80,0,1
214221,-90.9090909090909,4,1,0,60,0,0
216067,-133.333333333333,4,1,0,40,0,0
216096,-131.578947368421,4,1,0,40,0,0
217913,-133.333333333333,4,1,0,40,0,0
217942,-131.578947368421,4,1,0,40,0,0
219759,-133.333333333333,4,1,0,40,0,0
219788,-131.578947368421,4,1,0,40,0,0
220682,-133.333333333333,4,1,0,40,0,0
221634,-131.578947368421,4,1,0,40,0,0
223451,-133.333333333333,4,1,0,40,0,0
223480,-131.578947368421,4,1,0,40,0,0
225298,-133.333333333333,4,1,0,40,0,0
225326,-131.578947368421,4,1,0,40,0,0

[HitObjects]
374,227,68,5,0,0:0:0:0:
416,224,298,1,8,0:0:0:0:
348,199,529,1,0,0:0:0:0:
416,224,644,1,8,0:0:0:0:
422,211,875,1,8,0:0:0:0:
394,223,1221,1,8,0:0:0:0:
348,199,1452,1,0,0:0:0:0:
394,223,1568,1,8,0:0:0:0:
374,227,1914,1,0,0:0:0:0:
419,251,2144,1,8,0:0:0:0:
348,199,2375,1,0,0:0:0:0:
419,228,2491,1,8,0:0:0:0:
414,214,2721,1,8,0:0:0:0:
412,224,3068,1,8,0:0:0:0:
348,199,3298,1,0,0:0:0:0:
419,228,3414,1,8,0:0:0:0:
408,255,3529,1,8,0:0:0:0:
374,227,3760,1,0,0:0:0:0:
419,228,3991,1,8,0:0:0:0:
348,199,4221,1,0,0:0:0:0:
419,228,4337,1,8,0:0:0:0:
430,252,4568,1,8,0:0:0:0:
399,235,4914,1,8,0:0:0:0:
348,199,5144,1,0,0:0:0:0:
393,224,5260,1,8,0:0:0:0:
374,227,5606,1,0,0:0:0:0:
393,224,5837,1,8,0:0:0:0:
348,199,6068,1,0,0:0:0:0:
393,224,6183,1,8,0:0:0:0:
396,221,6414,1,8,0:0:0:0:
366,215,6760,1,8,0:0:0:0:
366,215,6875,1,8,0:0:0:0:
348,199,6991,1,0,0:0:0:0:
374,224,7106,1,8,0:0:0:0:
377,220,7221,1,0,0:0:0:0:
422,238,7452,1,4,0:0:0:0:
377,260,7683,1,0,0:0:0:0:
377,260,7914,1,8,0:0:0:0:
409,241,8260,1,8,0:0:0:0:
414,265,8375,1,0,0:0:0:0:
414,265,8606,1,8,0:0:0:0:
414,265,8837,1,0,0:0:0:0:
414,265,8952,1,8,0:0:0:0:
414,265,9298,1,0,0:0:0:0:
414,265,9529,1,8,0:0:0:0:
414,265,9644,1,8,0:0:0:0:
414,265,9760,1,0,0:0:0:0:
414,265,9991,1,8,0:0:0:0:
422,266,10221,1,0,0:0:0:0:
422,266,10337,1,0,0:0:0:0:
422,266,10452,1,8,0:0:0:0:
422,266,10683,1,0,0:0:0:0:
422,266,10798,1,8,0:0:0:0:
388,260,10914,1,0,0:0:0:0:
388,260,11029,1,8,0:0:0:0:
416,255,11144,1,0,0:0:0:0:
390,236,11375,1,8,0:0:0:0:
384,241,11606,1,0,0:0:0:0:
394,224,11721,1,8,0:0:0:0:
393,225,11952,1,8,0:0:0:0:
384,241,12068,1,0,0:0:0:0:
373,229,12183,1,0,0:0:0:0:
373,229,12298,1,8,0:0:0:0:
373,229,12529,1,0,0:0:0:0:
373,229,12644,1,8,0:0:0:0:
368,224,12875,1,8,0:0:0:0:
358,219,12991,1,0,0:0:0:0:
391,203,13106,1,0,0:0:0:0:
358,220,13221,1,8,0:0:0:0:
358,220,13337,1,8,0:0:0:0:
358,220,13452,1,0,0:0:0:0:
382,232,13568,1,8,0:0:0:0:
380,232,13798,1,8,0:0:0:0:
382,236,13914,1,0,0:0:0:0:
366,216,14029,1,8,0:0:0:0:
385,239,14260,1,8,0:0:0:0:
384,240,14375,1,0,0:0:0:0:
372,228,14491,1,8,0:0:0:0:
386,239,14606,1,8,0:0:0:0:
365,249,14837,1,0,0:0:0:0:
365,249,15068,1,0,0:0:0:0:
365,249,15298,1,8,0:0:0:0:
367,232,15644,1,8,0:0:0:0:
376,257,15760,1,0,0:0:0:0:
376,257,15991,1,8,0:0:0:0:
376,257,16221,1,0,0:0:0:0:
376,257,16337,1,8,0:0:0:0:
361,240,16683,1,0,0:0:0:0:
361,240,16798,1,0,0:0:0:0:
361,240,16914,1,8,0:0:0:0:
361,240,17029,1,8,0:0:0:0:
361,240,17144,1,0,0:0:0:0:
361,240,17375,1,8,0:0:0:0:
386,238,17491,1,8,0:0:0:0:
372,237,17606,1,0,0:0:0:0:
361,240,17837,1,8,0:0:0:0:
366,240,18068,1,0,0:0:0:0:
366,240,18183,1,8,0:0:0:0:
366,240,18298,1,8,0:0:0:0:
373,227,18529,1,0,0:0:0:0:
373,227,18644,1,8,0:0:0:0:
375,241,18760,1,0,0:0:0:0:
399,242,18991,1,0,0:0:0:0:
418,236,19106,1,8,0:0:0:0:
405,249,19337,1,8,0:0:0:0:
408,248,19452,1,0,0:0:0:0:
363,231,19568,1,0,0:0:0:0:
363,231,19683,1,8,0:0:0:0:
425,257,19914,1,0,0:0:0:0:
425,257,20029,1,8,0:0:0:0:
439,236,20144,1,8,0:0:0:0:
383,242,20375,1,0,0:0:0:0:
414,252,20606,1,8,0:0:0:0:
410,249,20721,1,8,0:0:0:0:
412,251,20837,1,0,0:0:0:0:
417,244,20952,1,8,0:0:0:0:
418,245,21183,1,0,0:0:0:0:
418,245,21298,1,0,0:0:0:0:
407,241,21414,1,8,0:0:0:0:
414,241,21644,1,8,0:0:0:0:
414,242,21760,1,0,0:0:0:0:
402,255,21991,1,0,0:0:0:0:
424,247,22221,1,8,0:0:0:0:
424,248,22337,1,8,0:0:0:0:
426,250,22568,1,8,0:0:0:0:
426,251,22798,1,8,0:0:0:0:
401,250,23029,1,8,0:0:0:0:
405,215,23375,1,8,0:0:0:0:
379,222,24068,1,0,0:0:0:0:
418,258,24414,1,0,0:0:0:0:
418,258,24529,1,8,0:0:0:0:
379,222,24760,1,8,0:0:0:0:
379,222,24991,1,0,0:0:0:0:
389,227,25221,1,8,0:0:0:0:
389,227,25337,1,8,0:0:0:0:
389,227,25452,1,0,0:0:0:0:
389,227,25683,1,8,0:0:0:0:
348,214,25914,1,0,0:0:0:0:
370,241,26144,1,0,0:0:0:0:
406,237,26375,1,8,0:0:0:0:
362,220,26606,1,8,0:0:0:0:
363,221,26837,1,0,0:0:0:0:
377,213,27298,1,0,0:0:0:0:
377,215,27529,1,8,0:0:0:0:
377,215,27760,1,0,0:0:0:0:
363,208,28106,1,0,0:0:0:0:
369,215,28221,1,8,0:0:0:0:
369,215,28452,1,8,0:0:0:0:
369,215,28683,1,0,0:0:0:0:
352,207,28914,1,8,0:0:0:0:
352,211,29029,1,8,0:0:0:0:
352,211,29144,1,0,0:0:0:0:
352,211,29375,1,8,0:0:0:0:
354,209,29606,1,0,0:0:0:0:
352,207,29837,1,0,0:0:0:0:
352,211,30068,1,8,0:0:0:0:
352,231,30298,1,0,0:0:0:0:
354,232,30529,1,8,0:0:0:0:
352,236,30991,1,8,0:0:0:0:
354,235,31221,1,8,0:0:0:0:
354,232,31452,1,0,0:0:0:0:
360,237,31798,1,0,0:0:0:0:
360,237,31914,1,8,0:0:0:0:
360,235,32144,1,8,0:0:0:0:
378,231,32375,1,0,0:0:0:0:
383,234,32606,1,0,0:0:0:0:
383,234,32721,1,0,0:0:0:0:
383,234,32837,1,8,0:0:0:0:
383,235,33068,1,8,0:0:0:0:
383,235,33298,1,0,0:0:0:0:
363,231,33529,1,0,0:0:0:0:
363,232,33760,1,8,0:0:0:0:
363,234,33991,1,0,0:0:0:0:
363,235,34221,1,8,0:0:0:0:
366,220,34683,1,8,0:0:0:0:
376,233,34914,1,8,0:0:0:0:
376,233,35144,1,0,0:0:0:0:
369,236,35491,1,0,0:0:0:0:
375,235,35606,1,8,0:0:0:0:
376,233,35837,1,8,0:0:0:0:
376,233,36068,1,0,0:0:0:0:
376,233,36183,1,0,0:0:0:0:
403,247,36298,1,0,0:0:0:0:
403,247,36529,1,8,0:0:0:0:
403,247,36760,1,8,0:0:0:0:
403,247,36991,1,0,0:0:0:0:
392,231,37221,1,0,0:0:0:0:
384,233,37337,1,0,0:0:0:0:
392,231,37452,1,8,0:0:0:0:
392,231,37683,1,0,0:0:0:0:
392,231,37914,1,0,0:0:0:0:
379,217,38375,1,8,0:0:0:0:
383,222,38606,1,8,0:0:0:0:
383,222,38837,1,4,0:0:0:0:
383,222,39183,1,4,0:0:0:0:
383,222,39529,1,4,0:0:0:0:
400,243,39875,1,8,0:0:0:0:
400,243,39991,1,0,0:0:0:0:
417,261,40221,1,8,0:0:0:0:
362,243,40452,1,8,0:0:0:0:
382,254,40568,1,8,0:0:0:0:
371,235,40683,1,0,0:0:0:0:
372,234,40914,1,8,0:0:0:0:
372,234,41029,1,0,0:0:0:0:
388,229,41260,1,8,0:0:0:0:
378,235,41375,1,0,0:0:0:0:
382,221,41606,1,0,0:0:0:0:
382,222,41721,1,8,0:0:0:0:
382,223,41837,1,0,0:0:0:0:
378,229,41952,1,0,0:0:0:0:
378,230,42068,1,8,0:0:0:0:
379,229,42298,1,8,0:0:0:0:
379,230,42529,1,4,0:0:0:0:
410,236,42875,1,0,0:0:0:0:
410,236,42991,1,8,0:0:0:0:
380,219,43221,1,8,0:0:0:0:
401,234,43452,1,0,0:0:0:0:
380,219,43683,1,0,0:0:0:0:
380,219,43798,1,8,0:0:0:0:
380,219,43914,1,8,0:0:0:0:
380,219,44144,1,8,0:0:0:0:
382,223,44375,1,0,0:0:0:0:
405,232,44606,1,0,0:0:0:0:
404,233,44721,1,0,0:0:0:0:
405,232,44837,1,8,0:0:0:0:
404,233,45068,1,0,0:0:0:0:
404,233,45298,1,8,0:0:0:0:
373,249,45760,1,8,0:0:0:0:
373,249,45875,1,0,0:0:0:0:
373,249,45991,1,8,0:0:0:0:
373,249,46106,1,8,0:0:0:0:
373,249,46221,1,0,0:0:0:0:
386,242,46452,1,0,0:0:0:0:
386,242,46683,1,8,0:0:0:0:
383,241,46914,1,8,0:0:0:0:
389,251,47144,1,0,0:0:0:0:
386,242,47375,1,0,0:0:0:0:
389,251,47606,1,8,0:0:0:0:
389,251,47837,1,8,0:0:0:0:
340,236,48068,5,4,0:0:0:0:
344,239,48298,1,4,0:0:0:0:
344,239,48529,1,4,0:0:0:0:
344,239,48760,1,4,0:0:0:0:
344,239,48991,1,4,0:0:0:0:
374,240,49452,1,8,0:0:0:0:
374,248,49568,1,8,0:0:0:0:
374,248,49683,1,8,0:0:0:0:
388,243,49914,1,4,0:0:0:0:
393,250,50260,1,0,0:0:0:0:
386,245,50375,1,8,0:0:0:0:
392,249,50606,1,0,0:0:0:0:
400,248,50837,1,0,0:0:0:0:
408,253,50952,1,8,0:0:0:0:
408,253,51068,1,0,0:0:0:0:
402,236,51183,1,0,0:0:0:0:
402,236,51298,1,8,0:0:0:0:
402,236,51529,1,8,0:0:0:0:
401,255,51644,1,8,0:0:0:0:
411,251,51760,1,0,0:0:0:0:
411,251,51991,1,8,0:0:0:0:
411,251,52106,1,8,0:0:0:0:
411,254,52221,1,0,0:0:0:0:
411,254,52452,1,8,0:0:0:0:
411,251,52683,1,0,0:0:0:0:
390,244,53029,1,0,0:0:0:0:
390,244,53144,1,8,0:0:0:0:
390,244,53375,1,8,0:0:0:0:
390,244,53606,1,0,0:0:0:0:
395,248,53837,1,0,0:0:0:0:
396,248,53952,1,0,0:0:0:0:
396,248,54068,1,8,0:0:0:0:
396,248,54298,1,8,0:0:0:0:
409,250,54529,1,0,0:0:0:0:
409,250,54644,1,0,0:0:0:0:
409,250,54760,1,0,0:0:0:0:
409,250,54991,1,8,0:0:0:0:
409,250,55221,1,8,0:0:0:0:
409,250,55337,1,8,0:0:0:0:
409,250,55452,1,0,0:0:0:0:
409,250,55683,1,0,0:0:0:0:
409,250,55914,1,8,0:0:0:0:
409,250,56144,1,8,0:0:0:0:
409,250,56375,1,0,0:0:0:0:
404,239,56491,1,0,0:0:0:0:
404,240,56721,1,0,0:0:0:0:
404,240,56837,1,8,0:0:0:0:
404,241,57068,1,8,0:0:0:0:
404,241,57298,1,4,0:0:0:0:
388,238,57644,1,0,0:0:0:0:
389,238,57760,1,8,0:0:0:0:
389,238,57991,1,0,0:0:0:0:
389,238,58221,1,0,0:0:0:0:
391,250,58337,1,8,0:0:0:0:
391,250,58452,1,0,0:0:0:0:
387,252,58683,1,8,0:0:0:0:
386,248,58914,1,8,0:0:0:0:
386,248,59029,1,8,0:0:0:0:
386,248,59144,1,0,0:0:0:0:
386,248,59375,1,0,0:0:0:0:
386,248,59491,1,0,0:0:0:0:
391,233,59606,1,8,0:0:0:0:
391,233,59721,1,0,0:0:0:0:
391,233,59837,1,8,0:0:0:0:
391,233,59952,1,8,0:0:0:0:
391,233,60068,1,0,0:0:0:0:
405,242,60298,1,0,0:0:0:0:
405,242,60414,1,0,0:0:0:0:
405,243,60529,1,8,0:0:0:0:
407,245,60760,1,8,0:0:0:0:
408,247,60991,1,0,0:0:0:0:
406,229,61337,1,0,0:0:0:0:
406,229,61452,1,8,0:0:0:0:
406,229,61683,1,8,0:0:0:0:
406,229,61914,1,0,0:0:0:0:
401,239,62144,1,8,0:0:0:0:
401,239,62260,1,0,0:0:0:0:
401,239,62375,1,8,0:0:0:0:
410,250,62606,1,0,0:0:0:0:
408,234,62837,1,0,0:0:0:0:
408,234,62952,1,0,0:0:0:0:
408,234,63068,1,0,0:0:0:0:
408,234,63298,1,8,0:0:0:0:
408,234,63529,1,8,0:0:0:0:
408,234,63644,1,8,0:0:0:0:
408,234,63760,1,0,0:0:0:0:
408,234,63991,1,8,0:0:0:0:
408,234,64106,1,8,0:0:0:0:
408,234,64221,1,0,0:0:0:0:
408,234,64337,1,8,0:0:0:0:
408,234,64452,1,8,0:0:0:0:
388,243,64683,1,4,0:0:0:0:
393,250,65029,1,0,0:0:0:0:
386,245,65144,1,8,0:0:0:0:
392,249,65375,1,0,0:0:0:0:
400,248,65606,1,0,0:0:0:0:
408,253,65721,1,8,0:0:0:0:
408,253,65837,1,0,0:0:0:0:
402,236,65952,1,0,0:0:0:0:
402,236,66068,1,8,0:0:0:0:
402,236,66298,1,8,0:0:0:0:
401,255,66414,1,8,0:0:0:0:
411,251,66529,1,0,0:0:0:0:
411,251,66760,1,8,0:0:0:0:
424,264,66875,1,0,0:0:0:0:
411,254,66991,1,8,0:0:0:0:
411,254,67221,1,8,0:0:0:0:
411,251,67452,1,0,0:0:0:0:
390,244,67798,1,0,0:0:0:0:
390,244,67914,1,8,0:0:0:0:
390,244,68144,1,8,0:0:0:0:
390,244,68375,1,0,0:0:0:0:
396,248,68721,1,0,0:0:0:0:
396,248,68837,1,8,0:0:0:0:
396,248,69068,1,8,0:0:0:0:
409,250,69298,1,0,0:0:0:0:
409,250,69414,1,0,0:0:0:0:
409,250,69529,1,0,0:0:0:0:
409,250,69760,1,8,0:0:0:0:
409,250,69991,1,8,0:0:0:0:
409,250,70106,1,8,0:0:0:0:
409,250,70221,1,0,0:0:0:0:
409,250,70452,1,0,0:0:0:0:
409,250,70683,1,8,0:0:0:0:
409,250,70914,1,8,0:0:0:0:
409,250,71144,1,0,0:0:0:0:
404,239,71260,1,0,0:0:0:0:
404,240,71491,1,0,0:0:0:0:
404,240,71606,1,8,0:0:0:0:
404,241,71837,1,8,0:0:0:0:
404,241,72068,1,0,0:0:0:0:
388,238,72414,1,0,0:0:0:0:
389,238,72529,1,8,0:0:0:0:
389,238,72760,1,8,0:0:0:0:
389,238,72991,1,0,0:0:0:0:
391,250,73106,1,8,0:0:0:0:
391,250,73221,1,0,0:0:0:0:
387,252,73452,1,8,0:0:0:0:
386,248,73683,1,8,0:0:0:0:
386,248,73798,1,8,0:0:0:0:
386,248,73914,1,0,0:0:0:0:
386,248,74029,1,8,0:0:0:0:
386,248,74144,1,0,0:0:0:0:
391,233,74375,1,8,0:0:0:0:
391,233,74606,1,8,0:0:0:0:
391,233,74721,1,8,0:0:0:0:
391,233,74837,1,0,0:0:0:0:
415,259,74952,1,8,0:0:0:0:
405,242,75068,1,0,0:0:0:0:
405,242,75183,1,0,0:0:0:0:
405,243,75298,1,8,0:0:0:0:
407,245,75529,1,8,0:0:0:0:
408,247,75760,1,0,0:0:0:0:
406,229,76106,1,0,0:0:0:0:
406,229,76221,1,8,0:0:0:0:
406,229,76452,1,8,0:0:0:0:
406,229,76683,1,0,0:0:0:0:
401,239,76914,1,8,0:0:0:0:
401,239,77029,1,0,0:0:0:0:
401,239,77144,1,8,0:0:0:0:
419,245,77375,1,8,0:0:0:0:
408,234,77606,1,0,0:0:0:0:
408,234,77837,1,0,0:0:0:0:
408,234,78068,1,8,0:0:0:0:
408,234,78298,1,8,0:0:0:0:
408,234,78414,1,8,0:0:0:0:
408,234,78529,1,0,0:0:0:0:
399,236,78760,1,8,0:0:0:0:
409,251,78991,1,0,0:0:0:0:
411,243,79452,1,8,0:0:0:0:
415,245,79568,1,0,0:0:0:0:
417,238,79798,1,0,0:0:0:0:
417,238,80029,1,8,0:0:0:0:
417,238,80260,1,8,0:0:0:0:
417,252,80375,1,0,0:0:0:0:
384,228,80721,1,8,0:0:0:0:
384,228,80952,1,0,0:0:0:0:
384,228,81068,1,8,0:0:0:0:
392,233,81298,1,8,0:0:0:0:
393,235,81529,1,0,0:0:0:0:
393,235,81644,1,8,0:0:0:0:
393,235,81760,1,0,0:0:0:0:
395,239,81875,1,0,0:0:0:0:
398,234,82106,1,8,0:0:0:0:
398,234,82221,1,0,0:0:0:0:
397,221,82452,1,8,0:0:0:0:
399,221,82683,1,0,0:0:0:0:
400,221,82798,1,8,0:0:0:0:
405,230,83144,1,8,0:0:0:0:
405,231,83375,1,0,0:0:0:0:
405,231,83491,1,8,0:0:0:0:
405,231,83606,1,0,0:0:0:0:
405,231,83721,1,0,0:0:0:0:
405,247,83952,1,8,0:0:0:0:
405,247,84068,1,0,0:0:0:0:
396,216,84183,1,0,0:0:0:0:
394,254,84298,1,8,0:0:0:0:
394,254,84414,1,0,0:0:0:0:
402,247,84529,1,8,0:0:0:0:
405,245,84644,1,8,0:0:0:0:
405,245,84760,1,0,0:0:0:0:
405,247,84991,1,8,0:0:0:0:
389,222,85221,1,0,0:0:0:0:
415,249,85452,1,8,0:0:0:0:
415,249,85568,1,0,0:0:0:0:
390,237,85798,1,8,0:0:0:0:
414,242,86029,1,8,0:0:0:0:
413,245,86144,1,0,0:0:0:0:
373,239,86375,1,8,0:0:0:0:
397,242,86606,1,8,0:0:0:0:
389,244,86837,1,0,0:0:0:0:
397,245,87068,1,0,0:0:0:0:
367,222,87529,1,8,0:0:0:0:
404,238,87760,1,0,0:0:0:0:
363,232,88221,1,8,0:0:0:0:
370,238,88452,1,8,0:0:0:0:
396,227,88914,1,0,0:0:0:0:
396,227,89144,1,8,0:0:0:0:
372,231,89606,1,0,0:0:0:0:
375,229,89837,1,0,0:0:0:0:
383,239,90298,1,8,0:0:0:0:
383,239,90529,1,0,0:0:0:0:
405,269,90644,1,8,0:0:0:0:
407,258,90760,1,0,0:0:0:0:
397,269,90991,1,8,0:0:0:0:
416,261,91221,1,8,0:0:0:0:
433,249,91452,1,0,0:0:0:0:
390,229,91914,1,8,0:0:0:0:
391,234,92144,1,0,0:0:0:0:
412,252,92375,1,0,0:0:0:0:
412,252,92606,1,8,0:0:0:0:
412,252,92952,1,8,0:0:0:0:
413,257,93183,1,8,0:0:0:0:
414,257,93414,1,8,0:0:0:0:
412,252,93760,1,8,0:0:0:0:
412,252,93991,1,8,0:0:0:0:
413,226,94221,5,0,0:0:0:0:
392,238,100914,5,0,0:0:0:0:
392,238,101144,1,8,0:0:0:0:
416,239,101375,1,0,0:0:0:0:
354,232,101606,1,4,0:0:0:0:
360,237,101952,1,0,0:0:0:0:
360,237,102068,1,8,0:0:0:0:
360,235,102298,1,8,0:0:0:0:
378,231,102529,1,0,0:0:0:0:
383,234,102760,1,0,0:0:0:0:
383,234,102875,1,0,0:0:0:0:
383,234,102991,1,8,0:0:0:0:
383,235,103221,1,8,0:0:0:0:
383,235,103452,1,0,0:0:0:0:
363,231,103683,1,0,0:0:0:0:
363,232,103914,1,8,0:0:0:0:
363,234,104144,1,0,0:0:0:0:
409,245,104375,1,0,0:0:0:0:
401,260,104606,1,8,0:0:0:0:
407,247,104837,1,8,0:0:0:0:
386,230,104952,1,8,0:0:0:0:
384,224,105068,1,8,0:0:0:0:
376,233,105298,1,0,0:0:0:0:
369,236,105644,1,0,0:0:0:0:
375,235,105760,1,8,0:0:0:0:
376,233,105991,1,8,0:0:0:0:
376,233,106221,1,0,0:0:0:0:
376,233,106337,1,0,0:0:0:0:
403,247,106452,1,0,0:0:0:0:
403,247,106683,1,8,0:0:0:0:
403,247,106914,1,8,0:0:0:0:
403,247,107144,1,0,0:0:0:0:
392,231,107375,1,0,0:0:0:0:
384,233,107491,1,0,0:0:0:0:
392,231,107606,1,8,0:0:0:0:
392,231,107837,1,8,0:0:0:0:
392,231,108068,1,0,0:0:0:0:
410,263,108298,1,8,0:0:0:0:
410,263,108529,1,0,0:0:0:0:
410,263,108644,1,8,0:0:0:0:
410,238,108991,1,8,0:0:0:0:
412,237,109106,1,0,0:0:0:0:
415,240,109221,1,8,0:0:0:0:
385,231,109452,1,8,0:0:0:0:
385,231,109683,1,8,0:0:0:0:
385,231,109914,1,8,0:0:0:0:
385,231,110029,1,8,0:0:0:0:
364,243,110144,1,8,0:0:0:0:
405,243,110260,1,0,0:0:0:0:
392,243,110837,1,0,0:0:0:0:
405,243,111183,1,0,0:0:0:0:
392,239,111298,1,8,0:0:0:0:
392,243,111529,1,0,0:0:0:0:
397,243,111760,1,0,0:0:0:0:
405,243,111991,1,8,0:0:0:0:
405,243,112106,1,0,0:0:0:0:
405,243,112221,1,8,0:0:0:0:
418,254,112452,1,0,0:0:0:0:
418,254,112683,1,0,0:0:0:0:
395,249,112914,1,0,0:0:0:0:
395,249,113029,1,0,0:0:0:0:
396,251,113144,1,8,0:0:0:0:
405,251,113375,1,8,0:0:0:0:
408,252,113606,1,0,0:0:0:0:
395,249,114068,1,8,0:0:0:0:
396,247,114298,1,8,0:0:0:0:
396,249,114529,1,0,0:0:0:0:
419,247,114875,1,0,0:0:0:0:
414,250,114991,1,8,0:0:0:0:
414,250,115221,1,8,0:0:0:0:
414,254,115452,1,0,0:0:0:0:
389,235,115683,1,0,0:0:0:0:
389,235,115798,1,0,0:0:0:0:
389,235,115914,1,8,0:0:0:0:
389,235,116144,1,8,0:0:0:0:
398,242,116375,1,0,0:0:0:0:
424,264,116491,1,0,0:0:0:0:
414,247,116721,1,0,0:0:0:0:
414,247,116837,1,8,0:0:0:0:
406,245,117068,1,8,0:0:0:0:
428,257,117298,1,0,0:0:0:0:
406,245,117414,1,0,0:0:0:0:
406,245,117529,1,8,0:0:0:0:
406,245,117644,1,0,0:0:0:0:
407,245,117760,1,8,0:0:0:0:
406,245,117991,1,8,0:0:0:0:
406,245,118221,1,0,0:0:0:0:
409,239,118568,1,0,0:0:0:0:
409,239,118683,1,8,0:0:0:0:
404,250,118914,1,8,0:0:0:0:
404,251,119144,1,0,0:0:0:0:
412,245,119491,1,0,0:0:0:0:
412,246,119606,1,8,0:0:0:0:
423,262,119837,1,0,0:0:0:0:
423,263,120068,1,0,0:0:0:0:
424,251,120414,1,0,0:0:0:0:
424,251,120529,1,8,0:0:0:0:
424,252,120760,1,8,0:0:0:0:
414,248,120991,1,0,0:0:0:0:
414,248,121221,1,0,0:0:0:0:
414,249,121337,1,0,0:0:0:0:
414,249,121452,1,8,0:0:0:0:
414,249,121683,1,8,0:0:0:0:
414,248,121914,1,0,0:0:0:0:
394,241,122144,1,0,0:0:0:0:
394,245,122375,1,8,0:0:0:0:
403,254,122606,1,8,0:0:0:0:
405,252,122837,1,0,0:0:0:0:
408,238,123183,1,0,0:0:0:0:
400,250,123298,1,8,0:0:0:0:
394,245,123529,1,8,0:0:0:0:
414,255,123760,1,0,0:0:0:0:
402,241,123991,1,8,0:0:0:0:
453,236,124221,1,8,0:0:0:0:
426,228,124337,1,0,0:0:0:0:
426,234,124568,1,0,0:0:0:0:
406,218,124914,1,8,0:0:0:0:
407,220,125029,1,8,0:0:0:0:
408,219,125144,1,0,0:0:0:0:
408,219,125260,1,8,0:0:0:0:
409,220,125375,1,0,0:0:0:0:
388,243,125606,1,4,0:0:0:0:
393,250,125952,1,0,0:0:0:0:
386,245,126068,1,8,0:0:0:0:
392,249,126298,1,0,0:0:0:0:
400,248,126529,1,0,0:0:0:0:
408,253,126644,1,8,0:0:0:0:
408,253,126760,1,0,0:0:0:0:
402,236,126875,1,0,0:0:0:0:
402,236,126991,1,8,0:0:0:0:
402,236,127221,1,8,0:0:0:0:
401,255,127337,1,8,0:0:0:0:
411,251,127452,1,0,0:0:0:0:
411,251,127683,1,8,0:0:0:0:
411,251,127798,1,8,0:0:0:0:
411,254,127914,1,0,0:0:0:0:
411,254,128144,1,8,0:0:0:0:
411,251,128375,1,0,0:0:0:0:
390,244,128721,1,0,0:0:0:0:
390,244,128837,1,8,0:0:0:0:
390,244,129068,1,8,0:0:0:0:
390,244,129298,1,0,0:0:0:0:
395,248,129529,1,0,0:0:0:0:
396,248,129644,1,0,0:0:0:0:
396,248,129760,1,8,0:0:0:0:
396,248,129991,1,8,0:0:0:0:
409,250,130221,1,0,0:0:0:0:
409,250,130337,1,0,0:0:0:0:
409,250,130452,1,0,0:0:0:0:
409,250,130683,1,8,0:0:0:0:
409,250,130914,1,8,0:0:0:0:
409,250,131029,1,8,0:0:0:0:
409,250,131144,1,0,0:0:0:0:
409,250,131375,1,0,0:0:0:0:
409,250,131606,1,8,0:0:0:0:
409,250,131837,1,8,0:0:0:0:
409,250,132068,1,0,0:0:0:0:
404,239,132183,1,0,0:0:0:0:
404,240,132414,1,0,0:0:0:0:
404,240,132529,1,8,0:0:0:0:
404,241,132760,1,8,0:0:0:0:
404,241,132991,1,4,0:0:0:0:
388,238,133337,1,0,0:0:0:0:
389,238,133452,1,8,0:0:0:0:
389,238,133683,1,0,0:0:0:0:
389,238,133914,1,0,0:0:0:0:
391,250,134029,1,8,0:0:0:0:
391,250,134144,1,0,0:0:0:0:
401,241,134260,1,0,0:0:0:0:
387,252,134375,1,8,0:0:0:0:
386,248,134606,1,8,0:0:0:0:
395,257,134721,1,8,0:0:0:0:
386,248,134837,1,0,0:0:0:0:
386,248,135068,1,0,0:0:0:0:
401,252,135183,1,0,0:0:0:0:
391,233,135298,1,8,0:0:0:0:
401,252,135414,1,0,0:0:0:0:
391,233,135529,1,8,0:0:0:0:
391,233,135644,1,8,0:0:0:0:
391,233,135760,1,0,0:0:0:0:
405,242,135991,1,0,0:0:0:0:
405,242,136106,1,0,0:0:0:0:
405,243,136221,1,8,0:0:0:0:
407,245,136452,1,8,0:0:0:0:
408,247,136683,1,0,0:0:0:0:
406,229,137029,1,0,0:0:0:0:
406,229,137144,1,8,0:0:0:0:
406,229,137375,1,8,0:0:0:0:
406,229,137606,1,0,0:0:0:0:
401,239,137837,1,8,0:0:0:0:
401,239,137952,1,0,0:0:0:0:
401,239,138068,1,8,0:0:0:0:
410,250,138298,1,0,0:0:0:0:
408,234,138529,1,0,0:0:0:0:
408,234,138644,1,0,0:0:0:0:
408,234,138760,1,0,0:0:0:0:
408,234,138991,1,8,0:0:0:0:
408,234,139221,1,8,0:0:0:0:
408,234,139337,1,8,0:0:0:0:
408,234,139452,1,0,0:0:0:0:
408,234,139683,1,8,0:0:0:0:
413,257,139798,1,0,0:0:0:0:
408,234,139914,1,0,0:0:0:0:
408,234,140029,1,8,0:0:0:0:
408,234,140144,1,8,0:0:0:0:
388,243,140375,1,4,0:0:0:0:
393,250,140721,1,0,0:0:0:0:
386,245,140837,1,8,0:0:0:0:
392,249,141068,1,0,0:0:0:0:
400,248,141298,1,0,0:0:0:0:
408,253,141414,1,8,0:0:0:0:
408,253,141529,1,0,0:0:0:0:
402,236,141644,1,0,0:0:0:0:
402,236,141760,1,8,0:0:0:0:
402,236,141991,1,8,0:0:0:0:
401,255,142106,1,8,0:0:0:0:
411,251,142221,1,0,0:0:0:0:
411,251,142452,1,8,0:0:0:0:
424,264,142568,1,0,0:0:0:0:
411,254,142683,1,8,0:0:0:0:
411,254,142914,1,8,0:0:0:0:
411,251,143144,1,0,0:0:0:0:
390,244,143491,1,0,0:0:0:0:
390,244,143606,1,8,0:0:0:0:
390,244,143837,1,8,0:0:0:0:
390,244,144068,1,0,0:0:0:0:
396,248,144414,1,0,0:0:0:0:
396,248,144529,1,8,0:0:0:0:
396,248,144760,1,8,0:0:0:0:
418,250,144875,1,8,0:0:0:0:
409,250,144991,1,0,0:0:0:0:
409,250,145221,1,0,0:0:0:0:
409,250,145452,1,8,0:0:0:0:
411,245,145568,1,0,0:0:0:0:
409,250,145683,1,8,0:0:0:0:
409,250,145798,1,8,0:0:0:0:
409,250,145914,1,0,0:0:0:0:
409,250,146144,1,0,0:0:0:0:
409,250,146375,1,8,0:0:0:0:
409,250,146606,1,8,0:0:0:0:
409,250,146837,1,0,0:0:0:0:
404,239,146952,1,0,0:0:0:0:
404,240,147183,1,0,0:0:0:0:
404,240,147298,1,8,0:0:0:0:
404,241,147529,1,8,0:0:0:0:
404,241,147760,1,0,0:0:0:0:
388,238,148106,1,0,0:0:0:0:
389,238,148221,1,8,0:0:0:0:
389,238,148452,1,8,0:0:0:0:
389,238,148683,1,0,0:0:0:0:
391,250,148798,1,8,0:0:0:0:
391,250,148914,1,0,0:0:0:0:
387,252,149144,1,8,0:0:0:0:
386,248,149375,1,8,0:0:0:0:
386,248,149606,1,0,0:0:0:0:
397,223,149721,1,0,0:0:0:0:
386,248,149837,1,0,0:0:0:0:
391,233,150068,1,8,0:0:0:0:
391,233,150298,1,8,0:0:0:0:
391,233,150414,1,8,0:0:0:0:
391,233,150529,1,0,0:0:0:0:
415,259,150644,1,8,0:0:0:0:
405,242,150760,1,0,0:0:0:0:
405,242,150875,1,0,0:0:0:0:
405,243,150991,1,8,0:0:0:0:
407,245,151221,1,8,0:0:0:0:
408,247,151452,1,0,0:0:0:0:
406,229,151798,1,0,0:0:0:0:
406,229,151914,1,8,0:0:0:0:
406,229,152144,1,8,0:0:0:0:
406,229,152375,1,0,0:0:0:0:
401,239,152606,1,8,0:0:0:0:
401,239,152721,1,0,0:0:0:0:
401,239,152837,1,8,0:0:0:0:
419,245,153068,1,8,0:0:0:0:
256,192,153298,12,0,154914,0:0:0:0:
327,219,155144,5,8,0:0:0:0:
348,233,156991,1,8,0:0:0:0:
347,226,158837,1,8,0:0:0:0:
345,226,160683,1,8,0:0:0:0:
314,243,162529,1,0,0:0:0:0:
341,238,162760,1,8,0:0:0:0:
404,251,162991,1,8,0:0:0:0:
378,236,163221,1,8,0:0:0:0:
378,237,163452,1,0,0:0:0:0:
378,237,163683,1,8,0:0:0:0:
404,251,163914,1,8,0:0:0:0:
388,247,164144,1,8,0:0:0:0:
387,247,164375,1,0,0:0:0:0:
387,247,164606,1,8,0:0:0:0:
402,246,164837,1,8,0:0:0:0:
388,247,165068,1,8,0:0:0:0:
387,247,165298,1,0,0:0:0:0:
387,247,165529,1,8,0:0:0:0:
402,246,165760,1,8,0:0:0:0:
388,247,165991,1,8,0:0:0:0:
375,233,166221,1,0,0:0:0:0:
380,241,166452,1,8,0:0:0:0:
395,266,166683,1,8,0:0:0:0:
380,241,166914,1,8,0:0:0:0:
395,266,167375,1,8,0:0:0:0:
395,258,167837,1,8,0:0:0:0:
386,245,168068,1,4,0:0:0:0:
398,250,168414,1,4,0:0:0:0:
399,249,168760,1,4,0:0:0:0:
409,249,169106,1,0,0:0:0:0:
394,237,169221,1,8,0:0:0:0:
394,237,169337,1,0,0:0:0:0:
394,237,169452,1,8,0:0:0:0:
394,237,169568,1,8,0:0:0:0:
394,237,169683,1,0,0:0:0:0:
425,252,169798,1,8,0:0:0:0:
425,252,169914,1,0,0:0:0:0:
423,239,170144,1,0,0:0:0:0:
425,252,170375,1,8,0:0:0:0:
419,250,170491,1,0,0:0:0:0:
418,252,170606,1,8,0:0:0:0:
415,262,170721,1,8,0:0:0:0:
415,261,170837,1,0,0:0:0:0:
415,261,171068,1,0,0:0:0:0:
424,267,171183,1,0,0:0:0:0:
424,267,171298,1,8,0:0:0:0:
412,256,171529,1,8,0:0:0:0:
412,256,171760,1,0,0:0:0:0:
428,279,171875,1,0,0:0:0:0:
422,270,172106,1,0,0:0:0:0:
423,252,172221,1,8,0:0:0:0:
416,260,172337,1,8,0:0:0:0:
416,262,172452,1,0,0:0:0:0:
419,261,172683,1,0,0:0:0:0:
430,255,172798,1,0,0:0:0:0:
403,249,172914,1,8,0:0:0:0:
421,264,173144,1,0,0:0:0:0:
421,264,173260,1,0,0:0:0:0:
421,264,173491,1,8,0:0:0:0:
408,257,173606,1,0,0:0:0:0:
433,266,173952,1,0,0:0:0:0:
412,264,174068,1,8,0:0:0:0:
425,273,174183,1,8,0:0:0:0:
414,264,174298,1,0,0:0:0:0:
401,252,174529,1,0,0:0:0:0:
438,271,174760,1,0,0:0:0:0:
439,272,174991,1,8,0:0:0:0:
408,264,175106,1,8,0:0:0:0:
409,265,175337,1,8,0:0:0:0:
409,266,175452,1,0,0:0:0:0:
411,269,175683,1,0,0:0:0:0:
403,249,175914,1,8,0:0:0:0:
405,251,176029,1,0,0:0:0:0:
412,251,176260,1,0,0:0:0:0:
412,251,176375,1,0,0:0:0:0:
425,256,176606,1,0,0:0:0:0:
412,252,176837,1,8,0:0:0:0:
425,256,176952,1,8,0:0:0:0:
425,256,177068,1,0,0:0:0:0:
400,244,177298,1,8,0:0:0:0:
405,235,177644,1,0,0:0:0:0:
405,235,177760,1,8,0:0:0:0:
405,237,177991,1,0,0:0:0:0:
410,240,178221,1,0,0:0:0:0:
427,243,178337,1,8,0:0:0:0:
412,241,178452,1,8,0:0:0:0:
435,246,178683,1,0,0:0:0:0:
435,246,178798,1,8,0:0:0:0:
416,244,179144,1,0,0:0:0:0:
393,245,179491,1,8,0:0:0:0:
393,245,179606,1,8,0:0:0:0:
392,235,179837,1,0,0:0:0:0:
392,238,180068,1,0,0:0:0:0:
416,244,180183,1,0,0:0:0:0:
386,231,180298,1,8,0:0:0:0:
399,239,180529,1,0,0:0:0:0:
399,239,180644,1,8,0:0:0:0:
400,241,180875,1,8,0:0:0:0:
400,241,180991,1,0,0:0:0:0:
397,240,181221,1,8,0:0:0:0:
408,234,181337,1,8,0:0:0:0:
409,233,181452,1,8,0:0:0:0:
409,233,181568,1,8,0:0:0:0:
409,233,181683,1,0,0:0:0:0:
415,241,181914,1,0,0:0:0:0:
415,241,182029,1,0,0:0:0:0:
428,263,182144,1,8,0:0:0:0:
406,251,182375,1,0,0:0:0:0:
406,251,182491,1,8,0:0:0:0:
406,251,182721,1,0,0:0:0:0:
402,238,182837,1,8,0:0:0:0:
402,240,182952,1,8,0:0:0:0:
402,240,183068,1,0,0:0:0:0:
402,240,183183,1,0,0:0:0:0:
402,240,183298,1,8,0:0:0:0:
402,240,183414,1,0,0:0:0:0:
402,240,183529,1,0,0:0:0:0:
402,240,183644,1,8,0:0:0:0:
406,251,183760,1,0,0:0:0:0:
406,249,183875,1,8,0:0:0:0:
414,252,184106,1,0,0:0:0:0:
413,250,184221,1,8,0:0:0:0:
413,250,184337,1,8,0:0:0:0:
413,250,184452,1,8,0:0:0:0:
413,250,184568,1,8,0:0:0:0:
390,214,192529,5,8,0:0:0:0:
389,225,193452,1,8,0:0:0:0:
389,225,194375,1,8,0:0:0:0:
389,210,195298,1,8,0:0:0:0:
256,192,195760,12,8,197375,0:0:0:0:
383,224,197606,5,4,0:0:0:0:
380,235,197837,1,8,0:0:0:0:
380,235,198068,1,8,0:0:0:0:
383,234,198183,1,8,0:0:0:0:
393,237,198414,1,8,0:0:0:0:
393,237,198644,1,8,0:0:0:0:
393,237,198760,1,0,0:0:0:0:
373,223,198991,1,8,0:0:0:0:
376,227,199106,1,8,0:0:0:0:
377,227,199221,1,0,0:0:0:0:
388,243,199452,1,4,0:0:0:0:
393,250,199798,1,0,0:0:0:0:
386,245,199914,1,8,0:0:0:0:
392,249,200144,1,8,0:0:0:0:
400,248,200375,1,0,0:0:0:0:
408,253,200491,1,8,0:0:0:0:
408,253,200606,1,0,0:0:0:0:
402,236,200721,1,0,0:0:0:0:
402,236,200837,1,8,0:0:0:0:
442,258,201068,1,8,0:0:0:0:
417,264,201183,1,8,0:0:0:0:
400,248,201298,1,0,0:0:0:0:
411,251,201529,1,8,0:0:0:0:
411,251,201644,1,8,0:0:0:0:
411,254,201760,1,0,0:0:0:0:
411,254,201991,1,8,0:0:0:0:
411,251,202221,1,0,0:0:0:0:
390,244,202568,1,0,0:0:0:0:
390,244,202683,1,8,0:0:0:0:
390,244,202914,1,8,0:0:0:0:
390,244,203144,1,0,0:0:0:0:
401,256,203260,1,8,0:0:0:0:
395,248,203375,1,0,0:0:0:0:
396,248,203491,1,0,0:0:0:0:
396,248,203606,1,8,0:0:0:0:
396,248,203837,1,8,0:0:0:0:
426,259,203952,1,8,0:0:0:0:
409,250,204068,1,0,0:0:0:0:
409,250,204298,1,0,0:0:0:0:
409,250,204414,1,0,0:0:0:0:
409,250,204529,1,8,0:0:0:0:
458,280,204644,1,8,0:0:0:0:
409,250,204760,1,8,0:0:0:0:
409,250,204991,1,0,0:0:0:0:
409,250,205221,1,0,0:0:0:0:
409,250,205452,1,8,0:0:0:0:
409,250,205683,1,8,0:0:0:0:
409,250,205914,1,0,0:0:0:0:
404,239,206029,1,0,0:0:0:0:
404,240,206260,1,0,0:0:0:0:
404,240,206375,1,8,0:0:0:0:
404,241,206606,1,8,0:0:0:0:
404,241,206837,1,0,0:0:0:0:
388,238,207183,1,0,0:0:0:0:
389,238,207298,1,8,0:0:0:0:
389,238,207529,1,8,0:0:0:0:
389,238,207760,1,0,0:0:0:0:
391,250,207875,1,8,0:0:0:0:
391,250,207991,1,0,0:0:0:0:
401,241,208106,1,0,0:0:0:0:
387,252,208221,1,8,0:0:0:0:
386,248,208452,1,8,0:0:0:0:
386,248,208683,1,0,0:0:0:0:
395,257,208798,1,0,0:0:0:0:
386,248,208914,1,0,0:0:0:0:
395,256,209029,1,0,0:0:0:0:
391,233,209144,1,8,0:0:0:0:
391,233,209375,1,8,0:0:0:0:
391,233,209491,1,8,0:0:0:0:
391,233,209606,1,0,0:0:0:0:
405,242,209837,1,0,0:0:0:0:
405,242,209952,1,0,0:0:0:0:
405,243,210068,1,8,0:0:0:0:
407,245,210298,1,8,0:0:0:0:
408,247,210529,1,0,0:0:0:0:
406,229,210875,1,0,0:0:0:0:
406,229,210991,1,8,0:0:0:0:
406,229,211221,1,8,0:0:0:0:
406,229,211452,1,0,0:0:0:0:
401,239,211683,1,8,0:0:0:0:
401,239,211798,1,0,0:0:0:0:
401,239,211914,1,8,0:0:0:0:
410,250,212144,1,0,0:0:0:0:
408,234,212375,1,0,0:0:0:0:
408,234,212491,1,0,0:0:0:0:
408,234,212606,1,0,0:0:0:0:
408,234,212837,1,8,0:0:0:0:
408,234,213068,1,8,0:0:0:0:
408,234,213183,1,8,0:0:0:0:
408,234,213298,1,0,0:0:0:0:
409,254,213414,1,8,0:0:0:0:
409,254,213529,1,8,0:0:0:0:
413,257,213644,1,0,0:0:0:0:
409,254,213760,1,8,0:0:0:0:
408,234,213875,1,8,0:0:0:0:
408,234,213991,1,0,0:0:0:0:
396,256,214106,1,0,0:0:0:0:
388,243,214221,1,8,0:0:0:0:
394,235,216068,1,8,0:0:0:0:
414,256,216096,1,8,0:0:0:0:
385,216,217914,1,8,0:0:0:0:
360,222,217943,1,8,0:0:0:0:
355,239,219760,1,8,0:0:0:0:
359,210,219789,1,8,0:0:0:0:
344,221,220683,1,8,0:0:0:0:
344,221,221144,1,8,0:0:0:0:
344,221,221606,1,8,0:0:0:0:
367,227,221635,1,8,0:0:0:0:
417,255,223452,1,8,0:0:0:0:
369,231,223481,1,8,0:0:0:0:
365,237,225298,1,8,0:0:0:0:
360,222,225327,1,8,0:0:0:0:
