osu file format v14

[General]
AudioFilename: -.ogg
AudioLeadIn: 0
PreviewTime: 49156
Countdown: 0
SampleSet: Soft
StackLeniency: 1
Mode: 0
LetterboxInBreaks: 0
WidescreenStoryboard: 1

[Editor]
DistanceSpacing: 1.4
BeatDivisor: 4
GridSize: 8
TimelineZoom: 2.5

[Metadata]
Title:''''''
TitleUnicode:''''''
Artist:x0o0x_
ArtistUnicode:x0o0x_
Creator:Ryuusei Aika
Version:..
Source:
Tags:THAT_otaku Dolon Mononymous Hazu- Normal Hard Insane ☻ xyxyz xo0ox_ x000x_ xooox_ wakame ワカメ japanese electronic pop j-pop jpop red room 赤い部屋 titleless untitled no title 無題 dark 游
BeatmapID:4046597
BeatmapSetID:1922665

[Difficulty]
HPDrainRate:4
CircleSize:4
OverallDifficulty:6.6
ApproachRate:6.2
SliderMultiplier:1.4
SliderTickRate:1

[Events]
//Background and Video events
0,0,"-.jpeg",0,0
//Break Periods
2,44129,47273
2,73220,79273
//Storyboard Layer 0 (Background)
//Storyboard Layer 1 (Fail)
//Storyboard Layer 2 (Pass)
//Storyboard Layer 3 (Foreground)
//Storyboard Layer 4 (Overlay)
//Storyboard Sound Samples

[TimingPoints]
293,363.636363636364,4,2,1,55,1,0
293,-125,4,2,1,55,0,0
5565,-125,4,2,1,70,0,0
6111,-111.111111111111,4,2,1,80,0,0
17747,-125,4,2,1,80,0,0
20656,-125,4,2,3,55,0,0
21202,-125,4,2,3,60,0,0
21383,-125,4,2,3,55,0,0
28565,-125,4,2,3,60,0,0
28656,-125,4,2,3,55,0,0
31020,-111.111111111111,4,2,3,55,0,0
31565,-111.111111111111,4,2,3,70,0,0
32293,-111.111111111111,4,2,1,70,0,0
35656,-111.111111111111,4,2,1,80,0,0
43929,-111.111111111111,4,2,1,60,0,0
48293,-142.857142857143,4,2,1,60,0,0
49202,-111.111111111111,4,2,1,80,0,0
49747,-99.9999999999999,4,2,1,80,0,0
73020,-111.111111111111,4,2,2,60,0,0
79565,-111.111111111111,4,2,2,70,0,0
80293,-111.111111111111,4,2,1,70,0,0
91929,-99.9999999999999,4,2,1,80,0,0
115202,-99.9999999999999,4,2,1,85,0,0
137020,-111.111111111111,4,2,1,85,0,0
138111,-111.111111111111,4,2,1,80,0,0

[Colours]
Combo1 : 0,0,128
Combo2 : 213,0,0
Combo3 : 0,0,213
Combo4 : 170,0,0
Combo5 : 0,0,170
Combo6 : 149,0,0
Combo7 : 0,0,149
Combo8 : 128,0,0

[HitObjects]
34,55,293,6,0,B|101:54|87:82|163:86,1,112,2|2,0:0|0:0,0:0:0:0:
215,131,838,1,2,0:0:0:0:
215,131,929,1,2,0:0:0:0:
215,131,1020,2,0,P|248:123|283:118,1,56,2|2,0:0|0:0,0:0:0:0:
318,57,1383,1,0,0:0:0:0:
394,90,1565,1,2,0:0:0:0:
290,375,3202,6,0,P|251:340|263:275,1,112,2|2,0:0|0:0,0:0:0:0:
370,228,3747,1,2,0:0:0:0:
370,228,3838,1,2,0:0:0:0:
370,228,3929,2,0,P|334:221|295:216,1,56,2|2,0:0|0:0,0:0:0:0:
244,171,4293,1,2,0:0:0:0:
184,229,4474,1,2,0:0:0:0:
0,38,5565,101,2,0:0:0:0:
0,38,5747,1,2,0:0:0:0:
64,99,5929,1,2,0:0:0:0:
160,69,6111,6,0,B|238:67|214:96|285:100,1,125.999996154785,6|8,1:2|0:0,0:0:0:0:
314,16,6656,1,0,1:0:0:0:
314,16,6747,1,2,0:0:0:0:
314,16,6838,2,0,P|346:7|391:0,1,62.9999980773926,2|2,1:2|0:0,0:0:0:0:
374,103,7202,2,0,P|406:112|451:119,1,62.9999980773926,10|2,0:0|0:0,0:0:0:0:
504,191,7565,102,0,P|497:258|487:323,1,125.999996154785,2|10,1:2|0:0,0:0:0:0:
410,380,8111,2,0,P|378:362|335:355,1,62.9999980773926,2|0,1:2|1:0,0:0:0:0:
258,383,8474,1,2,1:2:0:0:
258,383,8656,2,0,P|246:354|238:319,1,62.9999980773926,10|2,0:0|1:2,0:0:0:0:
326,271,9020,6,0,P|374:241|367:171,1,125.999996154785,2|10,1:2|0:0,0:0:0:0:
306,114,9565,1,2,1:2:0:0:
306,114,9656,1,2,0:0:0:0:
306,114,9747,2,0,P|244:99|171:85,1,125.999996154785,0|10,1:0|0:0,0:0:0:0:
117,9,10293,101,2,0:0:0:0:
35,42,10474,2,0,P|21:68|29:122,1,62.9999980773926,0|2,1:0|0:0,0:0:0:0:
67,190,10838,1,10,0:0:0:0:
2,267,11020,2,0,B|78:270|55:294|129:301,1,125.999996154785,2|2,1:2|0:0,0:0:0:0:
180,382,11565,1,10,0:0:0:0:
267,331,11747,1,2,1:2:0:0:
354,381,11929,6,0,P|413:348|407:287,1,125.999996154785,6|10,1:2|0:0,0:0:0:0:
481,231,12474,1,0,1:0:0:0:
481,231,12565,1,2,0:0:0:0:
481,231,12656,2,0,P|444:220|415:216,1,62.9999980773926,0|0,1:0|1:2,0:0:0:0:
329,245,13020,2,0,P|287:254|258:258,1,62.9999980773926,8|2,0:0|0:0,0:0:0:0:
187,206,13383,102,0,P|152:163|166:70,1,125.999996154785,2|8,1:2|0:0,0:0:0:0:
92,25,13929,1,2,0:0:0:0:
92,25,14020,1,2,0:0:0:0:
92,25,14111,2,0,P|128:15|178:9,1,62.9999980773926,0|2,1:0|1:2,0:0:0:0:
230,48,14474,2,0,P|266:58|316:64,1,62.9999980773926,8|2,0:0|0:0,0:0:0:0:
371,29,14838,6,0,P|435:27|449:101,1,125.999996154785,2|10,1:2|0:0,0:0:0:0:
494,168,15383,1,0,1:0:0:0:
494,168,15474,1,2,0:0:0:0:
494,168,15565,2,0,P|456:172|425:181,1,62.9999980773926,2|0,1:2|1:0,0:0:0:0:
370,242,15929,2,0,P|332:238|301:229,1,62.9999980773926,8|2,0:0|0:0,0:0:0:0:
264,153,16293,101,0,1:0:0:0:
334,99,16474,2,0,P|350:135|348:166,1,62.9999980773926,2|8,0:0|0:0,0:0:0:0:
197,211,16838,2,0,P|181:175|183:144,1,62.9999980773926,2|2,1:2|1:2,0:0:0:0:
226,70,17202,1,2,1:2:0:0:
226,70,17293,1,0,1:0:0:0:
226,70,17383,2,0,L|237:20,2,31.4999990386963,10|8|0,1:2|1:2|1:0,0:0:0:0:
143,19,17747,6,0,P|85:18|62:81,1,112,2|2,1:2|1:2,0:0:0:0:
5,133,18293,1,0,1:0:0:0:
5,133,18383,1,2,0:0:0:0:
5,133,18474,2,0,P|16:167|20:202,1,56,2|2,0:0|0:0,0:0:0:0:
109,190,18838,2,0,P|98:224|94:259,1,56,8|2,0:0|1:2,0:0:0:0:
19,294,19202,1,2,1:2:0:0:
72,365,19383,1,2,1:2:0:0:
0,207,20656,102,0,B|63:204|47:237|127:235,1,112,2|8,1:2|0:0,0:0:0:0:
184,186,21202,1,0,0:0:0:0:
184,186,21383,2,0,P|225:199|277:211,2,84,2|2|2,1:2|0:0|0:0,0:0:0:0:
114,128,22111,2,0,P|95:68|133:19,1,112,2|8,1:2|0:0,0:0:0:0:
289,80,22838,6,0,P|248:93|196:105,2,84,2|2|2,1:2|0:0|0:0,0:0:0:0:
362,28,23565,2,0,P|428:34|447:90,1,112,2|8,1:2|0:0,0:0:0:0:
327,203,24293,102,0,P|272:189|228:177,2,84,2|2|2,1:2|0:0|0:0,0:0:0:0:
398,256,25020,2,0,P|414:312|388:371,1,112,2|10,1:2|0:0,0:0:0:0:
217,370,25747,2,0,P|199:317|215:265,1,112,2|10,1:2|0:0,0:0:0:0:
55,185,26474,6,0,P|43:131|32:58,1,112,6|8,1:2|0:0,0:0:0:0:
102,15,27020,1,2,0:0:0:0:
102,15,27202,2,0,B|167:15|143:45|218:41,1,112,2|8,1:2|0:0,0:0:0:0:
287,84,27747,1,2,0:0:0:0:
355,26,27929,102,0,P|408:40|429:99,1,112,2|8,1:2|0:0,0:0:0:0:
495,185,28474,1,2,1:2:0:0:
495,185,28565,1,2,1:2:0:0:
495,185,28656,2,0,P|461:174|420:169,1,56,2|0,1:2|0:0,0:0:0:0:
368,223,29020,2,0,P|334:234|293:239,1,56,10|2,0:0|0:0,0:0:0:0:
275,325,29383,6,0,P|223:296|151:312,1,112,2|10,1:2|0:0,0:0:0:0:
101,351,29929,1,2,1:2:0:0:
101,351,30020,1,2,1:2:0:0:
101,351,30111,2,0,P|87:316|79:275,1,56,2|2,1:2|0:0,0:0:0:0:
128,220,30474,2,0,P|142:167|138:109,1,112,10|2,0:0|1:2,0:0:0:0:
194,33,31020,102,0,P|222:49|275:62,1,62.9999980773926,2|10,0:0|0:0,0:0:0:0:
315,127,31383,2,0,P|343:111|396:98,1,62.9999980773926,2|2,0:0|1:2,0:0:0:0:
433,29,31747,5,2,0:0:0:0:
433,29,31929,1,10,0:0:0:0:
495,101,32111,1,2,0:0:0:0:
442,179,32293,2,0,P|432:243|422:312,1,125.999996154785,2|10,1:2|0:0,0:0:0:0:
369,381,32838,1,2,1:2:0:0:
304,321,33020,2,0,P|268:332|226:348,1,62.9999980773926,2|2,0:0|1:2,0:0:0:0:
237,361,33293,1,2,0:0:0:0:
237,361,33383,1,10,0:0:0:0:
156,311,33565,1,2,1:2:0:0:
87,376,33747,102,0,P|45:345|53:273,1,125.999996154785,2|8,1:2|0:0,0:0:0:0:
34,191,34293,1,2,1:2:0:0:
34,191,34383,1,2,0:0:0:0:
34,191,34474,2,0,L|20:152,2,31.4999990386963,2|2|2,0:0|0:0|1:2,0:0:0:0:
105,128,34838,2,0,P|144:135|188:142,1,62.9999980773926,10|0,0:0|1:0,0:0:0:0:
220,60,35202,6,0,P|273:25|356:32,1,125.999996154785,2|8,1:2|0:0,0:0:0:0:
425,53,35747,2,0,P|431:101|444:140,1,62.9999980773926,0|0,1:0|0:0,0:0:0:0:
504,189,36111,2,0,B|441:181|457:216|369:208,1,125.999996154785,2|2,1:2|1:2,0:0:0:0:
312,263,36656,1,2,1:2:0:0:
237,210,36838,102,0,P|209:158|233:90,1,125.999996154785,2|2,0:0|1:2,0:0:0:0:
169,36,37383,1,2,0:0:0:0:
169,36,37565,1,2,1:2:0:0:
118,108,37747,2,0,P|78:118|41:124,1,62.9999980773926,10|2,0:0|0:0,0:0:0:0:
1,191,38111,6,0,B|62:203|62:203|77:293,1,125.999996154785,2|8,1:2|0:0,0:0:0:0:
40,352,38656,1,2,1:2:0:0:
40,352,38747,1,2,1:2:0:0:
40,352,38838,2,0,P|73:342|114:337,1,62.9999980773926,2|2,1:2|1:2,0:0:0:0:
188,353,39202,2,0,P|221:363|262:368,1,62.9999980773926,8|2,0:0|1:2,0:0:0:0:
336,382,39565,102,0,P|394:349|385:280,1,125.999996154785,2|8,1:2|0:0,0:0:0:0:
351,223,40111,1,0,1:0:0:0:
351,223,40293,1,2,0:0:0:0:
407,157,40474,1,2,1:2:0:0:
407,157,40565,1,2,1:2:0:0:
407,157,40656,1,10,0:0:0:0:
373,80,40838,5,2,1:2:0:0:
373,80,41020,2,0,P|337:41|258:51,1,125.999996154785,2|8,1:2|0:0,0:0:0:0:
185,14,41565,1,0,1:2:0:0:
104,49,41747,2,0,P|113:85|134:185,1,125.999996154785,2|10,0:0|0:0,0:0:0:0:
63,228,42293,1,0,1:2:0:0:
99,309,42474,102,0,B|175:308|161:344|241:338,1,125.999996154785,2|8,0:0|0:0,0:0:0:0:
306,384,43020,1,2,1:2:0:0:
306,384,43111,1,2,1:2:0:0:
306,384,43202,2,0,P|339:372|383:365,1,62.9999980773926,2|2,0:0|1:2,0:0:0:0:
425,300,43565,5,10,0:0:0:0:
373,234,43747,1,2,0:0:0:0:
373,234,43929,1,0,1:0:0:0:
390,37,48293,102,0,B|436:50|436:50|449:50|449:50|500:65,2,97.9999970092774,2|2|2,0:3|0:3|0:3,0:0:0:0:
315,81,49202,1,2,0:0:0:0:
315,81,49383,1,2,0:0:0:0:
233,32,49565,5,2,0:0:0:0:
148,72,49747,2,0,P|84:122|114:193,1,140,6|8,1:2|0:0,0:0:0:0:
194,188,50293,101,0,1:0:0:0:
194,188,50474,2,0,P|226:193|273:212,1,70,2|0,1:2|0:0,0:0:0:0:
271,303,50838,2,0,P|303:298|350:279,1,70,8|2,0:0|1:2,0:0:0:0:
419,229,51202,6,0,P|456:166|420:97,1,140,2|8,1:2|0:0,0:0:0:0:
377,40,51747,1,2,1:2:0:0:
377,40,51838,1,0,1:2:0:0:
377,40,51929,2,0,P|337:53|287:58,1,70,2|0,0:0|1:0,0:0:0:0:
218,94,52293,1,8,0:0:0:0:
140,34,52474,1,2,1:2:0:0:
54,82,52656,102,0,P|14:132|30:208,1,140,2|8,1:2|0:0,0:0:0:0:
9,295,53202,1,2,1:2:0:0:
9,295,53293,1,2,1:2:0:0:
9,295,53383,2,0,P|50:281|95:277,1,70,2|0,1:2|0:0,0:0:0:0:
148,333,53747,1,8,0:0:0:0:
231,369,53929,1,2,1:2:0:0:
295,305,54111,6,0,B|379:294|362:341|443:329,1,140,2|10,1:2|0:0,0:0:0:0:
482,257,54656,1,2,1:2:0:0:
482,257,54838,1,2,1:2:0:0:
439,182,55020,1,2,1:2:0:0:
439,182,55202,1,10,0:0:0:0:
498,113,55383,101,2,0:0:0:0:
498,113,55565,2,0,P|457:96|410:97,1,70,6|0,1:2|0:0,0:0:0:0:
373,23,55929,2,0,B|312:23|333:45|259:54,1,105,10|0,0:0|0:0,0:0:0:0:
262,69,56293,1,2,0:0:0:0:
186,18,56474,2,0,P|151:22|119:36,1,70,2|8,1:2|0:0,0:0:0:0:
27,108,56838,6,0,P|86:104|140:169,1,140,2|2,0:0|0:0,0:0:0:0:
229,163,57383,2,0,P|216:199|208:240,1,70,10|2,0:0|1:2,0:0:0:0:
116,297,57747,2,0,B|203:286|176:332|266:327,1,140,2|8,0:0|0:0,0:0:0:0:
320,269,58293,1,2,1:2:0:0:
387,329,58474,102,0,P|441:343|506:358,2,105,2|2|2,1:2|0:0|1:2,0:0:0:0:
323,263,59202,2,0,P|337:209|352:144,2,105,2|2|2,0:0|0:0|0:0,0:0:0:0:
256,323,59929,2,0,B|169:312|196:358|106:353,1,140,2|8,1:2|0:0,0:0:0:0:
89,268,60474,5,2,1:2:0:0:
146,196,60656,2,0,P|170:228|176:259,1,70,2|2,0:0|0:0,0:0:0:0:
37,342,61020,2,0,P|12:309|6:278,1,70,10|2,1:2|1:2,0:0:0:0:
23,192,61383,102,0,P|37:143|120:123,1,140,6|10,1:2|0:0,0:0:0:0:
161,40,61929,1,0,1:0:0:0:
161,40,62111,2,0,P|199:55|239:65,1,70,2|2,1:2|1:2,0:0:0:0:
308,103,62474,1,10,0:0:0:0:
368,35,62656,6,0,P|433:50|451:114,1,140,2|2,0:0|0:0,0:0:0:0:
505,188,63202,2,0,P|492:231|486:264,1,70,10|2,0:0|1:2,0:0:0:0:
509,344,63565,2,0,B|434:324|446:364|349:348,1,140,2|8,0:0|0:0,0:0:0:0:
285,318,64111,1,2,1:2:0:0:
218,379,64293,102,0,P|204:344|201:298,1,70,2|2,1:2|0:0,0:0:0:0:
253,238,64656,2,0,P|267:203|270:157,1,70,8|2,0:0|1:2,0:0:0:0:
186,134,65020,2,0,P|128:150|80:164,2,105,2|2|2,0:0|0:0|1:2,0:0:0:0:
233,55,65747,2,0,B|320:45|298:83|390:84,1,140,2|8,1:2|0:0,0:0:0:0:
435,21,66293,1,2,1:2:0:0:
494,89,66474,2,0,P|505:157|510:188,1,70,2|0,0:0|1:0,0:0:0:0:
511,178,66747,1,2,0:0:0:0:
511,178,66838,1,8,0:0:0:0:
443,239,67020,5,2,0:0:0:0:
456,329,67202,2,0,P|430:289|338:300,1,140,6|8,1:2|0:0,0:0:0:0:
276,352,67747,2,0,P|262:318|257:274,1,70,2|2,1:2|0:0,0:0:0:0:
311,212,68111,2,0,P|325:178|330:134,1,70,0|8,1:0|0:0,0:0:0:0:
267,78,68474,1,2,1:2:0:0:
198,18,68656,102,0,P|141:21|100:69,1,105,2|2,1:2|0:0,0:0:0:0:
97,70,69020,1,8,0:0:0:0:
11,160,69202,1,2,1:2:0:0:
11,160,69293,1,2,0:0:0:0:
11,160,69383,2,0,P|58:150|105:145,1,70,2|0,1:2|1:0,0:0:0:0:
162,185,69747,1,8,0:0:0:0:
235,246,69929,5,2,1:2:0:0:
235,246,70111,2,0,B|299:245|279:271|355:279,2,105,6|2|2,1:2|0:0|1:2,0:0:0:0:
161,178,70838,2,0,L|140:69,2,105,2|2|2,0:0|0:0|0:0,0:0:0:0:
225,250,71565,2,0,P|234:285|238:340,1,70,6|2,1:2|0:0,0:0:0:0:
328,357,71929,2,0,P|332:322|340:288,1,70,10|2,0:0|1:2,0:0:0:0:
422,245,72293,101,6,1:2:0:0:
422,245,72474,1,2,1:2:0:0:
381,168,72656,1,6,1:2:0:0:
381,168,72838,1,2,0:0:0:0:
424,98,73020,1,6,1:2:0:0:
23,76,80293,6,0,L|107:56,1,62.9999980773926,2|2,1:2|0:0,0:0:0:0:
100,51,80565,1,2,1:2:0:0:
100,51,80656,1,10,3:2:0:0:
172,97,80838,1,2,1:2:0:0:
172,97,81020,2,0,L|267:118,2,94.499997116089,2|2|2,1:2|0:0|0:0,0:0:0:0:
103,142,81747,102,0,P|86:181|86:221,1,62.9999980773926,2|2,1:2|0:0,0:0:0:0:
93,218,82020,1,2,0:0:0:0:
93,218,82111,1,10,0:0:0:0:
145,281,82293,1,2,1:2:0:0:
211,233,82474,2,0,P|246:242|312:261,2,94.499997116089,2|2|0,0:0|0:0|1:0,0:0:0:0:
167,146,83202,2,0,P|169:93|211:41,1,94.499997116089,2|0,1:2|0:0,0:0:0:0:
208,43,83565,1,8,0:0:0:0:
294,16,83747,5,2,1:2:0:0:
294,16,83929,2,0,P|343:27|405:44,1,94.499997116089,2|2,0:0|0:0,0:0:0:0:
402,45,84293,1,8,0:0:0:0:
472,113,84474,1,2,1:2:0:0:
472,113,84565,1,0,1:2:0:0:
472,113,84656,2,0,B|404:112|416:140|351:147,1,125.999996154785,2|8,1:2|3:2,0:0:0:0:
293,213,85202,101,0,1:0:0:0:
293,213,85383,2,0,P|262:204|219:197,1,62.9999980773926,0|0,3:0|3:2,0:0:0:0:
228,109,85747,2,0,P|201:119|164:128,1,62.9999980773926,10|0,0:0|1:0,0:0:0:0:
102,187,86111,2,0,P|113:245|123:324,2,125.999996154785,2|8|0,1:2|3:2|1:0,0:0:0:0:
21,162,87020,1,0,1:0:0:0:
21,162,87202,2,0,P|35:129|40:100,1,62.9999980773926,8|2,3:2|1:2,0:0:0:0:
27,19,87565,6,0,B|100:16|84:50|174:49,1,125.999996154785,0|8,1:0|3:2,0:0:0:0:
223,104,88111,1,2,1:2:0:0:
223,104,88293,2,0,P|255:96|287:91,1,62.9999980773926,2|2,0:0|1:2,0:0:0:0:
297,3,88656,2,0,P|329:11|361:16,1,62.9999980773926,10|2,3:2|1:2,0:0:0:0:
428,70,89020,102,0,P|470:113|450:187,1,125.999996154785,2|8,1:2|3:2,0:0:0:0:
504,276,89565,2,0,L|374:251,1,125.999996154785,0|0,1:0|1:0,0:0:0:0:
359,271,90020,1,0,1:0:0:0:
359,271,90111,1,8,1:3:0:0:
283,224,90293,1,8,0:3:0:0:
208,269,90474,5,2,0:3:0:0:
352,166,90838,1,2,0:3:0:0:
217,51,91202,1,2,0:3:0:0:
303,83,91383,101,2,0:0:0:0:
303,83,91565,1,2,0:0:0:0:
370,26,91747,5,2,0:0:0:0:
430,89,91929,2,0,P|497:132|477:203,1,140,6|8,1:2|0:0,0:0:0:0:
512,284,92474,101,0,1:0:0:0:
512,284,92656,2,0,P|479:271|444:266,1,70,2|0,1:2|0:0,0:0:0:0:
364,323,93020,2,0,P|329:328|296:340,1,70,8|2,0:0|1:2,0:0:0:0:
205,375,93383,6,0,P|139:359|121:295,1,140,2|8,1:2|0:0,0:0:0:0:
59,232,93929,1,2,1:2:0:0:
59,232,94020,1,0,0:0:0:0:
59,232,94111,2,0,P|99:219|149:214,1,70,2|0,0:0|1:0,0:0:0:0:
189,139,94474,1,8,0:0:0:0:
266,199,94656,1,2,1:2:0:0:
357,163,94838,102,0,P|363:96|373:6,1,140,2|8,1:2|0:0,0:0:0:0:
283,45,95383,1,2,1:2:0:0:
283,45,95474,1,0,1:2:0:0:
283,45,95565,2,0,P|242:59|197:63,1,70,2|0,1:2|0:0,0:0:0:0:
122,93,95929,1,8,0:0:0:0:
49,49,96111,1,2,1:2:0:0:
0,155,96293,6,0,B|84:144|67:191|148:179,1,140,2|10,1:2|0:0,0:0:0:0:
188,256,96838,1,2,1:2:0:0:
188,256,97020,1,2,1:2:0:0:
281,234,97202,1,2,1:2:0:0:
281,234,97383,1,10,0:0:0:0:
354,295,97565,101,2,0:0:0:0:
354,295,97747,2,0,P|371:254|370:207,1,70,6|0,1:2|0:0,0:0:0:0:
455,189,98111,2,0,P|492:158|484:79,1,105,10|0,0:0|0:0,0:0:0:0:
484,90,98474,1,2,0:0:0:0:
416,29,98656,2,0,P|384:36|349:47,1,70,2|8,1:2|0:0,0:0:0:0:
298,119,99020,6,0,B|219:108|238:150|146:144,1,140,2|2,0:0|0:0,0:0:0:0:
93,86,99565,2,0,P|78:119|72:163,1,70,10|2,0:0|1:2,0:0:0:0:
0,237,99929,2,0,P|67:235|101:299,1,140,2|8,0:0|0:0,0:0:0:0:
169,352,100474,1,2,1:2:0:0:
245,302,100656,101,2,1:2:0:0:
362,372,100929,1,2,0:0:0:0:
461,278,101202,1,2,1:2:0:0:
398,212,101383,2,0,B|335:210|350:235|277:242,2,105,2|2|2,0:0|0:0|0:0,0:0:0:0:
457,142,102111,6,0,P|484:95|427:28,1,140,2|8,1:2|0:0,0:0:0:0:
350,15,102656,101,2,1:2:0:0:
299,90,102838,2,0,P|257:104|206:116,1,70,2|2,0:0|0:0,0:0:0:0:
201,23,103202,2,0,P|159:9|108:-3,1,70,10|2,1:2|1:2,0:0:0:0:
52,40,103565,6,0,P|37:111|23:190,1,140,6|10,1:2|0:0,0:0:0:0:
9,267,104111,1,0,1:0:0:0:
9,267,104293,2,0,P|47:252|87:242,1,70,2|2,1:2|1:2,0:0:0:0:
152,292,104656,1,10,0:0:0:0:
219,352,104838,102,0,P|284:337|305:266,1,140,2|2,0:0|0:0,0:0:0:0:
236,214,105383,2,0,P|223:171|217:138,1,70,10|2,0:0|1:2,0:0:0:0:
192,58,105747,2,0,B|277:49|255:93|345:90,1,140,2|8,0:0|0:0,0:0:0:0:
413,115,106293,5,2,1:2:0:0:
338,167,106474,2,0,P|320:131|320:99,1,70,2|2,1:2|0:0,0:0:0:0:
484,60,106838,2,0,P|502:97|502:128,1,70,8|2,0:0|1:2,0:0:0:0:
440,192,107202,101,2,0:0:0:0:
362,304,107474,1,2,0:0:0:0:
487,357,107747,1,2,1:2:0:0:
495,266,107929,6,0,B|414:258|435:296|345:300,1,140,2|8,1:2|0:0,0:0:0:0:
290,356,108474,1,2,1:2:0:0:
208,315,108656,2,0,P|219:247|224:216,1,70,2|0,0:0|1:0,0:0:0:0:
225,226,108929,1,2,0:0:0:0:
225,226,109020,1,8,0:0:0:0:
304,181,109202,101,2,0:0:0:0:
332,94,109383,2,0,P|306:54|214:65,1,140,6|8,1:2|0:0,0:0:0:0:
137,6,109929,1,2,1:2:0:0:
40,21,110111,2,0,P|48:69|65:168,1,140,2|8,0:0|0:0,0:0:0:0:
131,229,110656,1,2,1:2:0:0:
94,320,110838,6,0,P|139:305|201:295,1,105,2|2,1:2|0:0,0:0:0:0:
213,301,111202,1,8,0:0:0:0:
251,215,111383,1,2,1:2:0:0:
251,215,111474,1,2,0:0:0:0:
251,215,111565,2,0,P|282:226|342:239,1,70,2|0,0:0|1:0,0:0:0:0:
346,329,111929,1,8,0:0:0:0:
413,258,112111,101,2,1:2:0:0:
413,258,112293,2,0,B|474:259|450:285|533:291,2,105,6|2|2,1:2|0:0|1:2,0:0:0:0:
339,183,113020,5,2,0:0:0:0:
250,79,113293,1,2,0:0:0:0:
138,149,113565,1,2,0:0:0:0:
82,90,113747,101,0,1:0:0:0:
82,90,113838,1,0,1:0:0:0:
82,90,113929,2,0,L|70:55,2,35,8|8|2,1:3|1:3|0:0,0:0:0:0:
35,170,114293,1,4,1:3:0:0:
35,170,114383,1,4,1:3:0:0:
35,170,114474,2,0,L|23:205,2,35,0|4|0,1:0|1:3|0:0,0:0:0:0:
74,266,114838,2,0,P|110:276|148:292,1,70,2|0,0:0|0:0,0:0:0:0:
205,379,115202,6,0,P|269:337|245:271,1,140,6|8,1:2|0:0,0:0:0:0:
194,205,115747,1,0,1:0:0:0:
194,205,115929,2,0,P|226:192|261:187,1,70,2|0,1:2|0:0,0:0:0:0:
339,258,116293,2,0,P|371:270|406:275,1,70,8|2,0:0|1:2,0:0:0:0:
477,197,116656,102,0,P|463:138|365:135,1,140,2|8,1:2|0:0,0:0:0:0:
360,27,117202,1,2,1:2:0:0:
360,27,117293,1,2,0:0:0:0:
360,27,117383,2,0,P|320:40|270:45,1,70,2|0,0:0|1:0,0:0:0:0:
221,113,117747,1,8,0:0:0:0:
145,50,117929,1,2,1:2:0:0:
54,88,118111,6,0,P|14:138|30:214,1,140,2|8,1:2|0:0,0:0:0:0:
12,312,118656,1,2,1:2:0:0:
12,312,118747,1,2,0:0:0:0:
12,312,118838,2,0,P|53:298|98:294,1,70,2|0,1:2|0:0,0:0:0:0:
157,341,119202,1,8,0:0:0:0:
239,379,119383,1,2,1:2:0:0:
335,358,119565,102,0,P|399:316|375:250,1,140,2|10,1:2|0:0,0:0:0:0:
310,210,120111,1,2,1:2:0:0:
310,210,120293,1,2,1:2:0:0:
371,135,120474,1,2,1:2:0:0:
371,135,120656,1,10,0:0:0:0:
309,64,120838,1,2,0:0:0:0:
309,64,121020,2,0,P|277:49|242:45,1,70,6|0,1:2|0:0,0:0:0:0:
233,142,121383,6,0,B|172:142|193:164|119:173,1,105,10|0,0:0|0:0,0:0:0:0:
119,164,121747,1,2,0:0:0:0:
39,106,121929,2,0,P|25:137|21:172,1,70,2|8,1:2|0:0,0:0:0:0:
0,269,122293,2,0,P|59:265|113:330,1,140,2|2,0:0|0:0,0:0:0:0:
187,384,122838,2,0,P|194:349|206:317,1,70,10|2,0:0|1:2,0:0:0:0:
162,228,123202,102,0,B|249:217|222:263|312:258,1,140,2|8,0:0|0:0,0:0:0:0:
381,210,123747,1,2,1:2:0:0:
456,272,123929,5,2,1:2:0:0:
439,125,124202,1,2,0:0:0:0:
301,176,124474,1,2,1:2:0:0:
226,112,124656,2,0,P|171:124|113:137,2,105,2|2|2,0:0|0:0|0:0,0:0:0:0:
238,21,125383,102,0,B|322:17|295:55|386:57,1,140,2|8,1:2|0:0,0:0:0:0:
396,144,125929,5,2,1:2:0:0:
324,200,126111,2,0,P|308:168|307:134,1,70,2|2,0:0|0:0,0:0:0:0:
466,91,126474,2,0,P|481:122|481:157,1,70,10|2,1:2|1:2,0:0:0:0:
512,281,126838,102,0,P|461:236|380:258,1,140,6|10,1:2|0:0,0:0:0:0:
354,330,127383,1,0,0:0:0:0:
354,330,127565,2,0,P|316:345|276:355,1,70,2|2,0:0|1:2,0:0:0:0:
210,302,127929,1,10,0:0:0:0:
141,361,128111,6,0,P|76:346|58:282,1,140,6|2,1:2|0:0,0:0:0:0:
137,237,128656,2,0,P|150:194|156:161,1,70,10|2,0:0|1:2,0:0:0:0:
97,73,129020,2,0,B|187:75|154:106|244:107,1,140,6|8,1:2|0:0,0:0:0:0:
328,113,129565,101,2,1:2:0:0:
256,180,129747,2,0,P|240:149|244:100,1,70,2|2,1:2|0:0,0:0:0:0:
398,59,130111,2,0,P|414:90|410:139,1,70,8|2,0:0|1:2,0:0:0:0:
356,203,130474,5,2,0:0:0:0:
262,321,130747,1,2,0:0:0:0:
387,384,131020,1,2,1:2:0:0:
393,285,131202,102,0,B|314:276|336:319|236:314,1,140,2|8,1:2|0:0,0:0:0:0:
178,371,131747,1,2,1:2:0:0:
103,307,131929,2,0,P|87:270|78:217,1,70,2|0,0:0|1:1,0:0:0:0:
88,220,132202,1,2,0:0:0:0:
88,220,132293,1,8,0:0:0:0:
29,141,132474,5,2,0:0:0:0:
83,59,132656,2,0,P|109:19|201:30,1,140,6|8,1:2|0:0,0:0:0:0:
291,28,133202,1,2,1:2:0:0:
230,104,133383,2,0,P|240:181|252:259,1,140,2|8,0:0|0:0,0:0:0:0:
340,279,133929,1,2,1:2:0:0:
376,187,134111,102,0,P|432:178|498:164,1,105,2|2,1:2|0:0,0:0:0:0:
493,154,134474,1,8,0:0:0:0:
512,267,134656,1,2,1:2:0:0:
512,267,134747,1,2,0:0:0:0:
512,267,134838,2,0,P|465:257|418:252,1,70,2|0,0:0|1:0,0:0:0:0:
410,347,135202,1,8,0:0:0:0:
340,279,135383,1,2,1:2:0:0:
254,321,135565,22,0,B|190:320|210:346|134:354,2,105,2|2|2,1:2|1:2|1:2,0:0:0:0:
359,384,136293,2,0,L|338:275,2,105,2|2|2,1:2|1:2|1:2,0:0:0:0:
440,349,137020,2,0,P|470:344|510:334,1,62.9999980773926,2|0,1:2|0:0,0:0:0:0:
505,248,137383,1,8,0:0:0:0:
445,197,137565,69,2,1:2:0:0:
445,197,137656,1,0,1:0:0:0:
445,197,137747,2,0,L|429:140,2,31.4999990386963,0|8|0,1:0|1:3|0:0,0:0:0:0:
487,119,138111,2,0,P|494:80|496:55,1,62.9999980773926,0|0,1:0|0:0,0:0:0:0:
