osu file format v14

[General]
AudioFilename: audio.mp3
AudioLeadIn: 0
PreviewTime: -1
Countdown: 1
SampleSet: None
StackLeniency: 0.7
Mode: 0
LetterboxInBreaks: 0
WidescreenStoryboard: 0

[Editor]
DistanceSpacing: 0.8
BeatDivisor: 1
GridSize: 16
TimelineZoom: 1.6

[Metadata]
Title:NIGHTCORE - Little Do You Know (Lyrics)
TitleUnicode:NIGHTCORE - Little Do You Know (Lyrics)
Artist:x
ArtistUnicode:x
Creator:ziko riandi
Version:medium hard
Source:
Tags:
BeatmapID:1359682
BeatmapSetID:641172

[Difficulty]
HPDrainRate:8
CircleSize:4
OverallDifficulty:6
ApproachRate:7
SliderMultiplier:1.40000000596046
SliderTickRate:2

[Events]
//Background and Video events
0,0,"FB_IMG_1488964742817.jpg",0,0
//Break Periods
//Storyboard Layer 0 (Background)
//Storyboard Layer 1 (Fail)
//Storyboard Layer 2 (Pass)
//Storyboard Layer 3 (Foreground)
//Storyboard Sound Samples

[TimingPoints]
275.687290509438,461.943824701196,4,1,0,100,1,0

[Colours]
Combo1 : 255,255,255
Combo2 : 255,255,255
Combo3 : 255,255,255

[HitObjects]
426,111,737,6,0,B|384:246|390:222,3,70.0000002980232
131,223,1892,1,0,0:0:0:0:
226,149,2354,1,0,0:0:0:0:
187,74,2816,1,0,0:0:0:0:
288,84,3278,2,0,B|525:172|499:162,1,210.00000089407
105,286,5126,2,0,B|226:73|223:75,1,210.00000089407
320,85,6049,2,0,B|201:298|202:295,1,210.00000089407
95,100,8128,5,0,0:0:0:0:
228,104,8590,1,0,0:0:0:0:
104,199,9052,1,0,0:0:0:0:
227,191,9514,1,0,0:0:0:0:
293,67,9976,2,0,P|416:161|461:284,2,280.000001192093
280,274,12286,1,0,0:0:0:0:
204,236,12748,1,0,0:0:0:0:
143,171,13210,1,0,0:0:0:0:
41,92,15057,6,0,B|161:149|157:148,3,70.0000002980232
236,145,16674,1,0,0:0:0:0:
323,142,16905,1,0,0:0:0:0:
332,260,17367,1,0,0:0:0:0:
203,274,18060,1,0,0:0:0:0:
91,248,18753,1,0,0:0:0:0:
240,155,19677,1,0,0:0:0:0:
346,155,20139,1,0,0:0:0:0:
330,274,20601,1,0,0:0:0:0:
171,287,21294,1,0,0:0:0:0:
38,231,21756,1,0,0:0:0:0:
121,154,22218,1,0,0:0:0:0:
256,192,23603,12,0,25936,0:0:0:0:
256,192,27530,12,0,29529,0:0:0:0:
114,115,30302,5,0,0:0:0:0:
204,118,30533,1,0,0:0:0:0:
290,115,30994,2,0,L|509:93,1,210.00000089407
436,224,32611,1,0,0:0:0:0:
344,238,33535,1,0,0:0:0:0:
275,235,33997,1,0,0:0:0:0:
188,224,34459,1,0,0:0:0:0:
236,152,35383,1,0,0:0:0:0:
308,89,35845,1,0,0:0:0:0:
323,195,36307,1,0,0:0:0:0:
354,291,36769,1,0,0:0:0:0:
219,291,37462,1,0,0:0:0:0:
117,240,38155,1,0,0:0:0:0:
48,87,39078,6,0,B|239:189,2,210.00000089407
179,76,41850,1,0,0:0:0:0:
298,62,42312,1,0,0:0:0:0:
395,122,42774,1,0,0:0:0:0:
370,207,43236,1,0,0:0:0:0:
260,216,43698,6,0,L|-19:62,1,280.000001192093
25,179,45546,6,0,L|181:175,1,140.000000596046
23,258,46470,2,0,L|182:257,1,140.000000596046
290,74,47855,1,0,0:0:0:0:
381,129,48086,1,0,0:0:0:0:
357,221,48317,2,0,L|219:273,1,140.000000596046
192,249,49010,1,0,0:0:0:0:
192,249,49241,1,0,0:0:0:0:
106,273,49934,2,0,L|-33:240,1,140.000000596046
27,162,50627,1,0,0:0:0:0:
165,138,51551,6,0,L|318:140,1,140.000000596046
170,197,53399,2,0,L|339:195,3,140.000000596046
286,271,55247,1,0,0:0:0:0:
214,278,55477,1,0,0:0:0:0:
103,277,55939,1,0,0:0:0:0:
37,275,56170,2,0,L|163:93,1,210.00000089407
226,108,57325,2,0,L|374:106,1,140.000000596046
256,192,58942,12,0,65901,0:0:0:0:
99,291,66564,6,0,L|330:105,1,280.000001192093
317,115,67719,1,0,0:0:0:0:
372,97,67950,1,0,0:0:0:0:
395,152,68181,1,0,0:0:0:0:
368,211,68643,2,0,L|239:300,1,140.000000596046
252,290,69336,1,0,0:0:0:0:
217,273,69567,1,0,0:0:0:0:
98,329,70029,2,0,L|291:15,1,350.000001490116
250,68,71876,6,0,L|99:257,1,210.00000089407
118,232,72800,1,0,0:0:0:0:
142,258,73031,1,0,0:0:0:0:
188,270,73262,1,0,0:0:0:0:
246,253,74186,1,0,0:0:0:0:
195,171,74417,1,0,0:0:0:0:
269,129,74648,1,0,0:0:0:0:
369,111,74879,2,0,L|375:258,1,140.000000596046
363,254,75803,1,0,0:0:0:0:
321,251,76034,1,0,0:0:0:0:
199,222,76496,1,0,0:0:0:0:
47,182,77651,2,0,L|544:173,2,490.000002086163
45,258,81577,2,0,L|207:146,1,140.000000596046
75,87,83194,5,0,0:0:0:0:
172,89,83425,1,0,0:0:0:0:
258,89,83656,1,0,0:0:0:0:
357,97,83887,2,0,L|90:288,1,280.000001192093
256,192,85504,12,0,88751,0:0:0:0:
256,192,89199,12,0,91287,0:0:0:0:
160,138,91971,5,0,0:0:0:0:
228,126,92202,1,0,0:0:0:0:
283,152,92433,1,0,0:0:0:0:
212,197,92664,1,0,0:0:0:0:
81,213,93126,2,0,L|408:270,1,280.000001192093
360,256,94512,1,0,0:0:0:0:
360,256,94743,1,0,0:0:0:0:
57,95,95898,6,0,L|314:234,1,350.000001490116
374,210,97514,1,0,0:0:0:0:
372,187,97745,1,0,0:0:0:0:
374,160,97976,1,0,0:0:0:0:
370,143,98207,1,0,0:0:0:0:
308,146,98438,2,0,L|-22:115,2,280.000001192093
234,195,101210,1,0,0:0:0:0:
221,202,101441,1,0,0:0:0:0:
35,101,102827,2,0,L|287:129,1,350.000001490115
369,202,104674,1,0,0:0:0:0:
283,221,105367,6,0,L|-2:164,1,280.000001192092
0,179,106522,2,0,L|243:318,1,280.000001192092
236,261,107677,2,0,L|-24:2,1,350.000001490115
