osu file format v14

[General]
AudioFilename: audio.mp3
AudioLeadIn: 0
PreviewTime: 62718
Countdown: 0
SampleSet: Normal
StackLeniency: 0.2
Mode: 0
LetterboxInBreaks: 0
WidescreenStoryboard: 1

[Editor]
DistanceSpacing: 0.7
BeatDivisor: 8
GridSize: 8
TimelineZoom: 3.299998

[Metadata]
Title:prompt
TitleUnicode:prompt
Artist:wxs ft.*spiLa*
ArtistUnicode:w×s ft.*spiLa*
Creator:Saturnalize
Version:Another
Source:beatmania IIDX 19 Lincle
Tags:NU PROGRESSIVE wac Sota Fujimori
BeatmapID:1232026
BeatmapSetID:565536

[Difficulty]
HPDrainRate:6
CircleSize:4
OverallDifficulty:8
ApproachRate:9
SliderMultiplier:1.75
SliderTickRate:1

[Events]
//Background and Video events
0,0,"Philomelalilium.full.1554473.jpg",0,0
//Break Periods
//Storyboard Layer 0 (Background)
//Storyboard Layer 1 (Fail)
//Storyboard Layer 2 (Pass)
//Storyboard Layer 3 (Foreground)
//Storyboard Sound Samples

[TimingPoints]
370,303.030303030303,4,2,1,60,1,0
445,-125,4,2,1,30,0,0
2718,-125,4,2,1,60,0,0
2870,-125,4,2,1,30,0,0
5180,-125,4,2,1,60,0,0
5294,-125,4,2,1,30,0,0
6241,-125,4,2,1,60,0,0
6354,-125,4,2,1,30,0,0
7112,-125,4,2,1,60,0,0
7263,-142.857142857143,4,2,1,30,0,0
7642,-100,4,1,1,60,0,0
19082,-125,4,1,1,60,0,0
19233,-125,4,1,1,30,0,0
19385,-125,4,1,1,60,0,0
19688,-100,4,1,1,60,0,0
26657,-100,4,1,1,40,0,0
26998,-100,4,1,1,60,0,0
27112,-125,4,3,1,60,0,0
32869,-100,4,3,1,60,0,0
34385,-100,4,1,2,60,0,0
42566,-90.9090909090909,4,1,2,60,0,0
42718,-100,4,1,2,60,0,0
43930,-100,4,1,1,60,0,0
44082,-100,4,1,2,60,0,0
53665,-125,4,1,2,60,0,0
53741,-200,4,2,2,60,0,0
56695,-200,4,2,1,60,0,0
56923,-125,4,2,2,60,0,0
58210,-100,4,2,1,60,0,0
58513,-125,4,2,2,60,0,0
58779,-200,4,2,2,60,0,0
59877,-200,4,2,0,60,0,0
60029,-200,4,2,2,60,0,0
60938,-100,4,2,1,60,0,0
63400,-83.3333333333333,4,1,1,60,0,1
63438,-83.3333333333333,4,1,2,60,0,1
68210,-83.3333333333333,4,1,1,60,0,1
68286,-83.3333333333333,4,1,2,60,0,1
70029,-83.3333333333333,4,1,1,60,0,1
70104,-83.3333333333333,4,1,2,60,0,1
70635,-83.3333333333333,4,1,1,60,0,1
70710,-83.3333333333333,4,1,2,60,0,1
73097,-125,4,2,1,60,0,0
73173,-125,4,1,1,5,0,0
74839,-125,4,1,1,60,0,0
75369,-100,4,1,1,60,0,0
77945,-83.3333333333333,4,1,1,60,0,1
78021,-83.3333333333333,4,1,2,60,0,0
86430,-83.3333333333333,4,1,1,60,0,1
86468,-83.3333333333333,4,1,2,60,0,1
87301,-83.3333333333333,4,1,1,60,0,1
87377,-83.3333333333333,4,1,2,60,0,1
87604,-83.3333333333333,4,1,2,60,0,0
87642,-83.3333333333333,4,1,1,60,0,1
87718,-83.3333333333333,4,1,2,60,0,0
96203,-83.3333333333333,4,1,1,60,0,0
96354,-83.3333333333333,4,1,2,60,0,0
96506,-83.3333333333333,4,1,1,60,0,0
96960,-83.3333333333333,4,1,2,60,0,0
97112,-83.3333333333333,4,1,1,60,0,0
97339,-83.3333333333333,4,1,1,60,0,1
97415,-83.3333333333333,4,1,1,60,0,0
107036,-83.3333333333333,4,1,1,60,0,1
116733,-133.333333333333,4,1,1,60,0,0
116809,-133.333333333333,4,2,1,10,0,0

[Colours]
Combo1 : 255,53,53
Combo2 : 128,128,192
Combo3 : 184,184,220
Combo4 : 0,128,255
Combo5 : 111,183,255
Combo6 : 128,220,255

[HitObjects]
160,96,400,5,2,0:0:0:0:
144,176,520,1,0,0:0:0:0:
224,192,672,1,0,0:0:0:0:
240,112,823,1,0,0:0:0:0:
138,185,1126,5,0,0:0:0:0:
218,201,1278,1,0,0:0:0:0:
234,121,1429,2,0,L|238:96,2,23.3333333333333
132,195,1732,69,0,0:0:0:0:
212,211,1884,1,0,0:0:0:0:
292,227,2035,1,0,0:0:0:0:
367,176,2187,2,0,P|374:143|367:105,1,70
292,227,2490,2,0,P|285:260|292:298,1,70
367,176,2793,5,2,0:0:0:0:
384,80,2945,1,0,0:0:0:0:
272,32,3096,1,0,0:0:0:0:
277,128,3248,1,0,0:0:0:0:
173,162,3399,2,0,L|179:93,2,70
81,210,3854,70,0,P|130:254|129:333,1,140
45,296,4308,1,0,0:0:0:0:
218,242,4460,1,0,0:0:0:0:
328,288,4611,2,0,P|396:286|442:236,1,140
354,132,5066,1,0,0:0:0:0:
354,132,5141,1,0,0:0:0:0:
354,132,5217,6,0,P|347:166|357:200,2,70,2|0|0,0:0|0:0|0:0,0:0:0:0:
418,26,5672,2,0,P|325:38|287:14,1,140
94,128,6126,1,0,0:0:0:0:
94,128,6202,1,0,0:0:0:0:
94,128,6278,2,0,P|156:100|223:117,1,140,2|0,0:0|0:0,0:0:0:0:
288,15,6732,2,0,P|351:43|418:26,1,140
458,141,7187,1,2,0:0:0:0:
462,162,7263,1,0,0:0:0:0:
465,183,7338,54,0,P|437:245|449:280,1,91.8749971961976
458,302,7642,38,0,L|370:290,1,87.5,10|8,0:0|0:0,0:0:0:0:
281,325,7944,1,10,0:0:0:0:
356,199,8096,1,8,0:0:0:0:
199,217,8248,2,0,P|155:218|110:189,1,87.5,2|8,0:0|0:0,0:0:0:0:
179,123,8551,1,10,0:0:0:0:
135,319,8702,1,8,0:0:0:0:
303,282,8854,2,0,L|389:270,1,87.5,2|8,0:0|0:0,0:0:0:0:
435,105,9157,2,0,L|347:89,1,87.5,10|8,0:0|0:0,0:0:0:0:
236,307,9460,5,2,0:0:0:0:
275,301,9535,1,0,0:0:0:0:
314,296,9611,1,0,0:0:0:0:
353,290,9687,1,0,0:0:0:0:
392,285,9763,1,2,0:0:0:0:
392,285,10066,6,0,L|404:194,1,87.5,10|8,0:0|0:0,0:0:0:0:
435,105,10369,1,10,0:0:0:0:
294,154,10520,1,8,0:0:0:0:
146,122,10672,2,0,P|102:142|75:176,1,87.5,2|8,0:0|0:0,0:0:0:0:
168,226,10975,1,10,0:0:0:0:
44,68,11126,1,8,0:0:0:0:
70,279,11278,54,0,L|98:361,1,87.5,2|8,0:0|0:0,0:0:0:0:
256,272,11581,2,0,L|256:176,1,87.5,10|8,0:0|0:0,0:0:0:0:
448,272,11884,1,2,0:0:0:0:
440,292,11960,1,8,0:3:0:0:
433,313,12035,1,8,0:3:0:0:
426,334,12111,1,4,0:3:0:0:
419,354,12187,2,0,L|329:350,1,87.5,2|2,0:0|0:0,0:0:0:0:
176,208,12490,5,10,0:0:0:0:
320,272,12641,1,8,0:0:0:0:
143,319,12793,2,0,P|97:296|70:260,1,87.5,10|8,0:0|0:0,0:0:0:0:
128,85,13096,1,2,0:0:0:0:
270,165,13248,1,8,0:0:0:0:
234,302,13399,2,0,P|236:359|254:388,1,87.5,10|8,0:0|0:0,0:0:0:0:
338,323,13702,5,2,0:0:0:0:
128,349,13854,1,8,0:0:0:0:
93,181,14005,2,0,P|83:133|91:94,1,87.5,10|8,0:0|0:0,0:0:0:0:
256,64,14308,2,0,L|256:160,1,87.5,2|8,0:0|0:0,0:0:0:0:
419,181,14611,2,0,P|429:133|421:94,1,87.5,10|8,0:0|0:0,0:0:0:0:
256,64,14914,53,10,0:0:0:0:
93,181,15066,1,8,0:0:0:0:
286,270,15217,2,0,P|299:192|293:153,1,87.5,10|8,0:0|0:0,0:0:0:0:
131,76,15520,1,2,0:0:0:0:
110,268,15672,1,8,0:0:0:0:
277,171,15823,1,10,0:0:0:0:
287,177,15899,1,0,0:0:0:0:
298,184,15975,6,0,L|406:146,1,87.5,12|2,0:0|0:0,0:0:0:0:
398,7,16278,1,10,0:0:0:0:
298,41,16429,1,10,0:0:0:0:
199,76,16581,1,0,0:0:0:0:
150,237,16732,5,10,0:0:0:0:
183,225,16808,1,10,0:0:0:0:
216,213,16884,1,2,0:0:0:0:
345,161,17035,1,10,0:0:0:0:
271,326,17187,1,10,0:0:0:0:
304,314,17263,1,10,0:0:0:0:
337,302,17338,54,0,P|375:293|424:306,1,87.5,14|8,0:0|0:0,0:0:0:0:
464,176,17641,2,0,L|375:183,1,87.5,10|8,0:0|0:0,0:0:0:0:
321,67,17945,2,0,P|359:69|406:49,1,87.5,2|8,0:0|0:0,0:0:0:0:
339,185,18248,2,0,L|250:192,1,87.5,14|8,0:0|0:0,0:0:0:0:
112,95,18551,1,2,0:0:0:0:
242,107,18702,1,8,0:0:0:0:
211,262,18854,1,10,0:0:0:0:
86,223,19005,1,12,0:0:0:0:
112,95,19157,6,0,P|159:85|196:50,1,70,2|0,0:0|2:0,0:0:0:0:
254,117,19460,1,2,0:0:0:0:
331,158,19611,1,2,0:0:0:0:
416,196,19763,6,0,L|439:108,1,87.5,14|8,0:0|0:0,0:0:0:0:
264,197,20066,2,0,L|241:285,1,87.5,10|8,0:0|0:0,0:0:0:0:
364,285,20369,2,0,P|411:301|466:281,1,87.5,2|8,0:0|0:0,0:0:0:0:
316,110,20672,2,0,P|269:94|214:114,1,87.5,14|8,0:0|0:0,0:0:0:0:
156,167,20975,1,2,0:0:0:0:
137,45,21126,1,8,0:0:0:0:
276,181,21278,1,10,0:0:0:0:
257,303,21429,1,8,0:0:0:0:
115,156,21581,53,6,0:0:0:0:
110,134,21657,1,8,0:3:0:0:
105,113,21732,1,8,0:3:0:0:
100,92,21808,1,4,0:3:0:0:
95,70,21884,2,0,L|158:144,1,87.5,2|0,0:0|0:0,0:0:0:0:
128,288,22187,6,0,P|80:288|32:256,1,87.5,14|8,0:0|0:0,0:0:0:0:
232,227,22490,2,0,P|280:227|328:259,1,87.5,10|8,0:0|0:0,0:0:0:0:
100,203,22793,2,0,B|96:159|96:159|124:115,1,87.5,2|8,0:0|0:0,0:0:0:0:
260,304,23096,2,0,B|264:348|264:348|236:392,1,87.5,14|8,0:0|0:0,0:0:0:0:
191,179,23399,1,2,0:0:0:0:
325,160,23551,1,8,0:0:0:0:
394,323,23702,1,10,0:0:0:0:
260,304,23854,1,12,0:0:0:0:
191,179,24005,6,0,P|180:123|187:86,1,87.5,0|8,0:0|0:0,0:0:0:0:
389,25,24308,2,0,P|393:68|382:110,1,87.5,10|6,0:0|0:0,0:0:0:0:
307,179,24611,5,10,0:0:0:0:
109,167,24763,1,10,0:0:0:0:
87,281,24914,1,10,0:0:0:0:
285,269,25066,1,10,0:0:0:0:
304,381,25217,37,0,0:0:0:0:
304,381,25293,1,0,0:0:0:0:
304,381,25369,37,10,0:0:0:0:
106,369,25520,1,14,0:0:0:0:
215,203,25672,1,10,0:0:0:0:
408,305,25823,53,0,0:0:0:0:
408,305,25899,1,0,0:0:0:0:
408,305,25975,21,10,0:0:0:0:
299,139,26126,1,10,0:0:0:0:
210,317,26278,1,14,0:0:0:0:
362,383,26429,2,0,L|415:385,2,43.75,0|0|10,0:0|0:0|0:0,0:0:0:0:
210,317,26732,2,0,L|171:315,6,21.875,8|8|10|8|8|8|8,0:0|0:0|0:0|0:0|0:0|0:0|0:0,0:0:0:0:
222,322,27035,5,6,2:1:0:0:
384,272,27338,1,0,0:0:0:0:
384,272,27641,2,0,L|373:345,1,70
465,318,27944,1,0,0:0:0:0:
459,233,28096,2,0,L|448:93,1,140
448,93,28475,1,0,0:0:0:0:
448,93,28551,1,0,0:0:0:0:
369,172,28702,6,0,L|364:103,1,70
363,103,28929,1,0,0:0:0:0:
363,103,29005,1,0,0:0:0:0:
287,240,29157,2,0,L|281:310,1,70
205,156,29460,69,0,0:0:0:0:
205,156,29763,2,0,L|124:164,1,70
75,222,30066,1,0,0:0:0:0:
104,300,30217,2,0,P|108:326|86:376,1,70
194,308,30520,2,0,L|337:311,1,140
418,312,30975,2,0,L|416:383,1,70
421,224,31278,2,0,L|492:225,1,70
335,223,31581,1,0,0:0:0:0:
335,223,31884,6,0,P|278:254|192:230,1,140
168,145,32338,1,0,0:0:0:0:
168,145,32490,2,0,L|236:125,1,70
327,153,32793,1,0,0:0:0:0:
414,106,32945,6,0,P|431:55|423:8,1,87.5,2|0,1:0|0:0,0:0:0:0:
236,125,33248,1,2,1:0:0:0:
236,125,33399,2,0,P|233:168|249:208,1,87.5,8|2,0:1|1:0,0:0:0:0:
375,293,33702,2,0,L|474:280,1,87.5,0|8,0:0|1:0,0:0:0:0:
479,173,34005,2,0,L|439:167,5,29.1666666666667,10|10|10|10|10|10,1:0|1:0|1:0|1:0|1:0|1:0,0:0:0:0:
406,173,34308,6,0,L|314:159,1,87.5,6|0,1:0|1:0,0:0:0:0:
194,202,34611,2,0,P|184:250|197:300,1,87.5,10|0,0:0|0:0,0:0:0:0:
329,333,34914,2,0,P|416:323|452:245,1,175,2|10,1:0|1:0,0:0:0:0:
443,119,35369,1,0,0:0:0:0:
314,84,35520,6,0,L|226:98,1,87.5,2|0,0:0|0:0,0:0:0:0:
107,241,35823,2,0,L|195:227,1,87.5,10|0,0:0|0:0,0:0:0:0:
168,28,36126,2,0,P|142:65|142:121,1,87.5,2|0,0:0|0:0,0:0:0:0:
254,300,36429,2,0,P|280:263|280:207,1,87.5,10|0,0:0|0:0,0:0:0:0:
138,106,36732,53,2,0:0:0:0:
193,227,36884,1,0,0:0:0:0:
315,143,37035,2,0,L|403:147,1,87.5,10|0,0:0|0:0,0:0:0:0:
453,238,37338,1,2,0:0:0:0:
368,352,37490,2,0,L|280:356,1,87.5,0|10,0:0|0:0,0:0:0:0:
203,286,37793,1,0,0:0:0:0:
84,356,37945,6,0,P|64:309|73:266,1,87.5,2|0,0:0|0:0,0:0:0:0:
215,175,38248,2,0,P|226:228|214:268,1,87.5,10|0,0:0|0:0,0:0:0:0:
213,274,38475,1,0,0:0:0:0:
203,286,38551,1,2,0:0:0:0:
328,326,38702,1,0,0:0:0:0:
328,326,38854,2,0,P|325:265|339:221,1,87.5,10|2,0:0|0:0,0:0:0:0:
358,136,39157,6,0,P|441:152|492:83,2,175,2|10|2,0:0|0:0|0:0,0:0:0:0:
411,74,39914,1,0,0:0:0:0:
512,206,40066,1,10,0:0:0:0:
481,346,40217,2,0,P|400:370|342:307,1,175
232,328,40672,2,0,P|186:311|154:276,1,87.5,10|0,0:0|0:0,0:0:0:0:
236,156,40975,2,0,P|245:203|230:247,1,87.5,2|0,0:0|0:0,0:0:0:0:
73,231,41278,2,0,P|109:198|155:189,1,87.5,10|0,0:0|0:0,0:0:0:0:
276,154,41581,54,0,B|344:151|344:151|383:166|383:166|450:163,1,175,2|10,0:0|0:0,0:0:0:0:
503,78,42035,1,0,0:0:0:0:
503,78,42111,1,0,0:0:0:0:
503,78,42187,2,0,L|416:82,1,87.5,2|0,0:0|0:0,0:0:0:0:
368,158,42490,1,10,0:0:0:0:
318,237,42641,6,0,B|233:242|233:242|199:297|145:291,1,192.500005874634,4|2,0:0|0:0,0:0:0:0:
92,137,43096,2,0,P|127:163|150:199,1,87.5,10|0,0:0|0:0,0:0:0:0:
51,234,43399,1,2,0:0:0:0:
203,111,43551,1,8,0:0:0:0:
294,160,43702,2,0,L|384:147,1,87.5,10|2,0:0|0:0,0:0:0:0:
467,233,44005,6,0,P|450:309|358:340,1,175,6|10,0:0|0:0,0:0:0:0:
265,288,44460,1,0,0:0:0:0:
161,326,44611,1,2,0:0:0:0:
161,326,44687,1,0,0:0:0:0:
161,326,44763,1,0,0:0:0:0:
0,338,44914,2,0,L|87:346,1,87.5,10|0,0:0|0:0,0:0:0:0:
181,242,45217,53,2,0:0:0:0:
181,242,45293,1,0,0:0:0:0:
181,242,45369,1,0,0:0:0:0:
20,254,45520,2,0,L|107:262,1,87.5,10|0,0:0|0:0,0:0:0:0:
258,220,45823,1,2,0:0:0:0:
144,112,45975,1,0,0:0:0:0:
210,313,46126,2,0,P|253:323|307:314,1,87.5,10|0,0:0|0:0,0:0:0:0:
447,182,46429,6,0,P|403:176|361:186,1,87.5,2|0,0:0|0:0,0:0:0:0:
409,261,46732,1,10,0:0:0:0:
467,91,46884,1,0,0:0:0:0:
338,64,47035,1,2,0:0:0:0:
217,116,47187,2,0,P|201:60|173:23,1,87.5,0|10,0:0|0:0,0:0:0:0:
161,219,47490,2,0,P|138:256|140:363,1,131.25
140,358,47793,2,0,P|167:312|172:273,1,87.5,0|10,0:0|0:0,0:0:0:0:
90,158,48096,1,0,0:0:0:0:
90,158,48172,1,0,0:0:0:0:
90,158,48248,2,0,L|-2:162,1,87.5,2|0,0:0|0:0,0:0:0:0:
263,184,48551,2,0,L|171:188,1,87.5,10|2,0:0|0:0,0:0:0:0:
421,220,48854,6,0,P|351:249|342:342,1,175,2|10,0:0|0:0,0:0:0:0:
414,302,49308,1,0,0:0:0:0:
454,134,49460,2,0,B|457:87|457:87|440:49,1,87.5,2|0,0:0|0:0,0:0:0:0:
336,104,49763,1,10,0:0:0:0:
214,48,49914,2,0,B|162:45|162:45|110:83|110:83|51:79,1,175
35,64,50293,1,0,0:0:0:0:
21,48,50369,1,10,0:0:0:0:
118,176,50520,1,0,0:0:0:0:
72,289,50672,2,0,P|67:344|83:382,1,87.5,2|0,0:0|0:0,0:0:0:0:
217,226,50975,2,0,P|229:184|222:141,1,87.5,10|0,0:0|0:0,0:0:0:0:
177,324,51278,54,0,P|229:349|338:302,1,175,2|10,0:0|0:0,0:0:0:0:
380,195,51732,1,0,0:0:0:0:
380,195,51808,1,0,0:0:0:0:
380,195,51884,2,0,P|390:153|386:109,1,87.5,2|0,0:0|0:0,0:0:0:0:
249,237,52187,1,10,0:0:0:0:
445,262,52338,2,0,P|475:162|456:56,1,175,2|2,0:0|0:0,0:0:0:0:
274,13,52793,2,0,P|267:56|269:99,1,87.5,10|0,0:0|0:0,0:0:0:0:
445,262,53096,2,0,P|446:218|440:175,1,87.5,2|10,0:0|0:0,0:0:0:0:
282,180,53399,2,0,L|287:211,5,29.1666666666667,10|2|2|2|2|2,0:0|0:0|0:0|0:0|0:0|0:0,0:0:0:0:
304,232,53702,53,4,0:0:0:0:
208,248,53854,1,8,0:3:0:0:
136,336,54005,2,0,P|80:336|51:316,1,87.5,8|0,0:3|0:0,0:0:0:0:
109,258,54460,2,0,L|84:168,1,87.5,4|0,0:3|0:0,0:0:0:0:
164,122,54914,1,4,0:3:0:0:
376,336,55217,2,0,P|432:336|461:316,1,87.5,2|0,0:3|0:0,0:0:0:0:
403,258,55672,2,0,L|428:168,1,87.5,8|0,0:3|0:0,0:0:0:0:
348,122,56126,5,0,0:3:0:0:
289,70,56278,1,8,0:3:0:0:
364,44,56429,1,8,0:3:0:0:
269,150,56581,69,0,0:3:0:0:
210,202,56732,1,8,0:1:0:0:
194,124,56884,1,8,0:1:0:0:
284,229,57035,5,0,0:3:0:0:
343,281,57187,1,8,0:3:0:0:
359,203,57338,1,4,0:3:0:0:
359,203,57641,70,0,P|352:167|367:125,1,70,4|0,0:3|0:0,0:0:0:0:
454,174,57944,2,0,P|487:185|513:209,1,70,8|8,0:3|0:3,0:0:0:0:
435,272,58248,5,8,0:1:0:0:
359,203,58399,1,8,0:1:0:0:
460,160,58551,2,0,L|463:80,1,70,0|8,0:0|0:3,0:0:0:0:
389,50,58854,2,0,P|360:65|317:67,1,65.625,8|0,0:3|0:0,0:0:0:0:
297,56,59157,1,0,0:0:0:0:
290,146,59308,2,0,P|248:136|208:152,1,87.5,4|0,0:3|0:0,0:0:0:0:
172,78,59763,1,4,0:3:0:0:
262,218,59914,69,2,0:3:0:0:
262,218,59990,1,2,0:3:0:0:
262,218,60066,1,2,0:3:0:0:
143,201,60217,1,2,0:3:0:0:
76,308,60369,1,0,0:3:0:0:
191,291,60520,1,8,0:3:0:0:
191,291,60672,1,8,0:3:0:0:
287,374,60823,1,0,0:0:0:0:
413,330,60975,22,0,P|430:295|430:243,1,87.5,2|0,1:0|0:0,0:0:0:0:
258,218,61278,1,2,1:0:0:0:
258,218,61430,2,0,P|257:261|275:300,1,87.5,2|0,1:0|0:0,0:0:0:0:
376,168,61733,2,0,L|368:72,1,87.5,2|0,1:0|0:0,0:0:0:0:
175,152,62036,2,0,L|168:240,1,87.5,2|0,1:0|0:0,0:0:0:0:
376,168,62338,1,2,1:0:0:0:
272,136,62490,1,10,1:0:0:0:
240,240,62641,1,8,1:0:0:0:
365,255,62793,5,2,1:0:0:0:
359,146,62944,1,10,1:0:0:0:
250,152,63096,1,10,1:0:0:0:
256,261,63248,22,0,L|260:292,2,21.875,2|2|2,1:0|1:0|1:0,0:0:0:0:
266,234,63399,37,4,0:0:0:0:
219,244,63475,1,0,0:0:0:0:
174,229,63551,1,0,0:0:0:0:
146,190,63626,1,0,0:0:0:0:
134,144,63702,2,0,P|131:85|137:37,1,104.999996795654,10|0,0:0|0:0,0:0:0:0:
279,59,64005,2,0,P|362:58|399:37,1,104.999996795654,2|0,0:0|0:0,0:0:0:0:
436,205,64308,2,0,P|430:144|462:64,1,104.999996795654,10|0,0:0|0:0,0:0:0:0:
497,290,64611,5,0,0:0:0:0:
450,279,64687,1,0,0:0:0:0:
403,286,64763,1,0,0:0:0:0:
365,315,64838,1,0,0:0:0:0:
349,359,64914,2,0,L|242:355,1,104.999996795654,10|0,0:0|0:0,0:0:0:0:
88,248,65217,2,0,L|195:244,1,104.999996795654,2|0,0:0|0:0,0:0:0:0:
352,144,65520,2,0,L|245:140,1,104.999996795654,10|8,0:0|0:0,0:0:0:0:
232,146,65748,1,8,0:0:0:0:
218,153,65823,5,2,0:0:0:0:
216,105,65899,1,0,0:0:0:0:
198,61,65975,1,0,0:0:0:0:
157,36,66051,1,0,0:0:0:0:
110,25,66126,2,0,P|63:34|13:92,1,104.999996795654,10|0,0:0|0:0,0:0:0:0:
88,257,66429,2,0,P|103:211|78:139,1,104.999996795654,2|0,0:0|0:0,0:0:0:0:
227,285,66732,2,0,P|258:321|333:335,1,104.999996795654,10|2,0:0|0:0,0:0:0:0:
421,276,67035,53,2,0:0:0:0:
420,239,67111,1,0,0:0:0:0:
422,202,67187,1,0,0:0:0:0:
429,165,67263,1,0,0:0:0:0:
441,130,67338,2,0,P|386:135|338:114,1,104.999996795654,10|0,0:0|0:0,0:0:0:0:
144,97,67641,2,0,L|223:185,1,104.999996795654,2|0,0:0|0:0,0:0:0:0:
180,379,67945,2,0,P|172:324|141:282,1,104.999996795654,10|0,0:0|0:0,0:0:0:0:
144,97,68248,5,6,0:0:0:0:
288,80,68399,2,0,L|344:72,2,52.4999983978272,0|0|10,0:0|0:0|0:0,0:0:0:0:
168,168,68702,5,0,0:0:0:0:
312,151,68854,2,0,L|368:143,2,52.4999983978272,2|0|2,0:0|0:0|0:0,0:0:0:0:
192,240,69157,53,14,0:0:0:0:
336,223,69308,2,0,L|392:215,2,52.4999983978272,0|0|2,0:0|0:0|0:0,0:0:0:0:
216,311,69611,5,0,0:0:0:0:
360,294,69763,2,0,L|416:286,2,52.4999983978272,10|0|0,0:0|0:0|0:0,0:0:0:0:
242,384,70066,5,6,0:0:0:0:
267,380,70141,1,0,0:0:0:0:
293,376,70217,1,2,0:0:0:0:
319,372,70293,1,0,0:0:0:0:
345,369,70369,1,10,0:0:0:0:
371,365,70445,1,0,0:0:0:0:
397,361,70520,1,2,0:0:0:0:
423,357,70596,1,0,0:0:0:0:
448,357,70672,54,0,L|465:284,2,69.9999978637696,6|0|0,0:0|0:0|0:0,0:0:0:0:
377,263,70975,2,0,L|394:190,2,69.9999978637696,10|0|0,0:0|0:0|0:0,0:0:0:0:
262,294,71278,2,0,L|279:221,2,69.9999978637696,2|0|0,0:0|0:0|0:0,0:0:0:0:
199,192,71581,2,0,L|216:119,2,69.9999978637696,10|0|0,0:0|0:0|0:0,0:0:0:0:
71,216,71884,5,2,0:0:0:0:
149,312,72035,1,0,0:0:0:0:
262,294,72187,2,0,L|287:184,1,104.999996795654,10|2,0:0|0:0,0:0:0:0:
154,79,72490,1,2,0:0:0:0:
154,79,72566,1,0,0:0:0:0:
154,79,72641,1,2,0:0:0:0:
247,313,72793,2,0,L|270:210,1,104.999996795654,10|0,0:0|0:0,0:0:0:0:
142,85,73097,38,0,B|84:116|84:202|84:202|147:191|187:216|187:216|138:276|134:367|213:376|242:348|246:312|246:312|324:325|324:325|303:237|372:196|460:206|459:268|458:312|395:300,1,840,4|0,0:1|2:0,2:0:0:0:
394,299,75217,1,0,2:0:0:0:
284,107,75520,5,2,0:0:0:0:
509,86,75823,1,2,0:0:0:0:
284,107,76126,5,2,0:0:0:0:
396,96,76278,1,0,2:0:0:0:
509,86,76429,1,2,0:0:0:0:
469,276,76581,2,0,P|412:273|380:256,1,87.5,2|0,0:0|2:0,0:0:0:0:
284,107,76884,2,0,P|324:90|367:90,1,87.5,2|0,0:0|2:0,0:0:0:0:
438,194,77187,5,2,0:0:0:0:
325,184,77338,1,8,1:0:0:0:
325,184,77414,1,8,1:0:0:0:
325,184,77490,1,10,1:0:0:0:
213,173,77641,1,10,1:0:0:0:
213,173,77945,6,0,B|122:197|122:197|95:251|121:309,1,209.999993591309,6|10,0:0|0:0,0:0:0:0:
269,351,78399,1,0,0:0:0:0:
269,351,78551,2,0,P|317:337|354:292,1,104.999996795654,2|0,0:0|0:0,0:0:0:0:
512,286,78854,2,0,P|475:251|418:241,1,104.999996795654,10|0,0:0|0:0,0:0:0:0:
332,111,79157,2,0,P|320:159|340:214,1,104.999996795654,2|0,0:0|0:0,0:0:0:0:
421,155,79460,53,10,0:0:0:0:
229,70,79611,1,0,0:0:0:0:
229,70,79763,2,0,L|107:82,1,104.999996795654,2|0,0:0|0:0,0:0:0:0:
66,227,80066,2,0,L|188:239,1,104.999996795654,10|0,0:0|0:0,0:0:0:0:
283,168,80369,6,0,P|244:259|299:350,1,209.999993591309,2|10,0:0|0:0,0:0:0:0:
454,280,80823,1,0,0:0:0:0:
454,280,80976,2,0,P|408:257|356:253,1,104.999996795654,2|0,0:0|0:0,0:0:0:0:
178,332,81278,2,0,P|131:355|79:359,1,104.999996795654,10|0,0:0|0:0,0:0:0:0:
16,283,81581,5,2,0:0:0:0:
0,204,81732,1,0,0:0:0:0:
180,152,81884,1,10,0:0:0:0:
175,236,82035,1,0,0:0:0:0:
105,190,82187,53,2,0:0:0:0:
89,111,82338,1,0,0:0:0:0:
269,59,82490,1,10,0:0:0:0:
264,143,82641,1,2,0:0:0:0:
254,226,82793,5,2,0:0:0:0:
245,256,82869,1,0,0:0:0:0:
226,281,82944,1,0,0:0:0:0:
197,294,83020,1,0,0:0:0:0:
166,300,83096,2,0,L|97:288,2,52.4999983978272,10|0|0,0:0|0:0|0:0,0:0:0:0:
313,296,83399,5,2,0:0:0:0:
342,284,83475,1,0,0:0:0:0:
373,284,83551,1,0,0:0:0:0:
401,299,83626,1,0,0:0:0:0:
425,319,83702,2,0,L|458:380,2,52.4999983978272,10|0|0,0:0|0:0|0:0,0:0:0:0:
379,193,84005,54,0,P|377:166|382:141,2,52.4999983978272,2|0|0,0:0|0:0|0:0,0:0:0:0:
307,230,84308,2,0,P|292:208|283:183,2,52.4999983978272,10|0|0,0:0|0:0|0:0,0:0:0:0:
266,302,84611,2,0,P|242:290|222:272,2,52.4999983978272,2|0|0,0:0|0:0|0:0,0:0:0:0:
262,381,84914,2,0,P|235:383|210:378,1,52.4999983978272,10|0,0:0|0:0,0:0:0:0:
164,356,85066,1,0,0:0:0:0:
144,362,85141,1,0,0:0:0:0:
123,371,85217,6,0,P|40:328|37:212,1,209.999993591309,2|10,0:0|0:0,0:0:0:0:
207,152,85672,1,0,0:0:0:0:
207,152,85823,2,0,P|225:206|215:252,1,104.999996795654,2|0,0:0|0:0,0:0:0:0:
63,147,86126,2,0,P|53:96|71:47,1,104.999996795654,10|0,0:0|0:0,0:0:0:0:
105,23,86354,1,0,0:0:0:0:
154,22,86429,22,0,L|231:43,2,52.4999983978272,6|0|0,0:0|0:0|0:0,0:0:0:0:
181,115,86657,2,0,L|260:108,2,52.4999983978272,2|0|0,0:0|0:0|0:0,0:0:0:0:
233,198,86884,2,0,L|305:164,2,52.4999983978272,2|0|0,0:0|0:0|0:0,0:0:0:0:
313,251,87111,2,0,L|369:194,2,52.4999983978272,2|0|0,0:0|0:0|0:0,0:0:0:0:
399,291,87338,2,0,L|433:218,3,52.4999983978272,6|0|2|2,0:0|0:0|0:0|0:0,0:0:0:0:
487,305,87641,38,0,L|510:92,1,209.999993591309,2|10,0:0|0:0,0:0:0:0:
378,52,88096,1,0,0:0:0:0:
378,52,88248,2,0,L|338:168,1,104.999996795654
370,242,88551,2,0,L|395:343,1,104.999996795654,10|0,0:0|0:0,0:0:0:0:
472,248,88854,53,2,0:0:0:0:
344,152,89005,1,0,0:0:0:0:
216,224,89157,2,0,P|144:224|96:200,1,104.999996795654,10|0,0:0|0:0,0:0:0:0:
136,32,89460,2,0,P|171:94|175:147,1,104.999996795654,2|0,0:0|0:0,0:0:0:0:
0,200,89763,2,0,P|36:137|80:108,1,104.999996795654,10|2,0:0|0:0,0:0:0:0:
216,224,90066,6,0,P|304:224|376:128,1,209.999993591309,2|10,0:0|0:0,0:0:0:0:
246,11,90520,1,0,0:0:0:0:
246,11,90672,2,0,P|243:63|259:113,1,104.999996795654
432,214,90975,2,0,P|435:266|419:315,1,104.999996795654,10|0,0:0|0:0,0:0:0:0:
404,336,91202,1,0,0:0:0:0:
380,348,91278,6,0,L|271:338,1,104.999996795654,2|0,0:0|0:0,0:0:0:0:
97,240,91581,2,0,L|206:230,1,104.999996795654,10|0,0:0|0:0,0:0:0:0:
390,150,91884,2,0,L|281:140,1,104.999996795654,2|0,0:0|0:0,0:0:0:0:
107,42,92187,2,0,L|216:32,1,104.999996795654,10|2,0:0|0:0,0:0:0:0:
384,125,92490,53,2,0:0:0:0:
397,152,92566,1,0,0:0:0:0:
402,183,92641,1,0,0:0:0:0:
396,215,92717,1,0,0:0:0:0:
384,244,92793,2,0,L|378:303,2,52.4999983978272,10|0|0,0:0|0:0|0:0,0:0:0:0:
239,176,93096,5,2,0:0:0:0:
208,167,93172,1,0,0:0:0:0:
177,161,93248,1,0,0:0:0:0:
145,166,93323,1,0,0:0:0:0:
116,179,93399,2,0,L|67:232,2,52.4999983978272,10|0|0,0:0|0:0|0:0,0:0:0:0:
292,110,93702,6,0,P|346:100|379:64,1,104.999996795654,2|0,0:0|0:0,0:0:0:0:
338,228,94005,2,0,P|348:282|384:315,1,104.999996795654,10|0,0:0|0:0,0:0:0:0:
220,274,94308,2,0,P|166:284|133:320,1,104.999996795654,2|0,0:0|0:0,0:0:0:0:
174,156,94611,2,0,P|164:102|128:69,1,104.999996795654,10|0,0:0|0:0,0:0:0:0:
292,110,94914,53,2,0:0:0:0:
378,64,95066,1,0,0:0:0:0:
296,13,95217,1,10,0:0:0:0:
378,172,95369,5,0,0:0:0:0:
430,253,95520,1,2,0:0:0:0:
474,166,95672,1,2,0:0:0:0:
335,256,95823,5,10,0:0:0:0:
249,303,95975,1,2,0:0:0:0:
249,303,96051,1,2,0:0:0:0:
249,303,96126,1,2,0:0:0:0:
251,206,96278,1,8,0:0:0:0:
335,256,96429,54,0,P|392:260|438:236,1,104.999996795654,10|8,0:0|0:0,0:0:0:0:
165,253,96732,2,0,P|108:249|62:273,1,104.999996795654,10|8,0:0|0:0,0:0:0:0:
249,303,97035,1,10,0:0:0:0:
265,218,97187,1,8,0:0:0:0:
265,218,97263,1,8,0:0:0:0:
265,218,97338,6,0,L|268:104,1,104.999996795654,14|8,0:0|0:3,0:0:0:0:
96,48,97641,2,0,L|98:152,1,104.999996795654,10|8,0:0|0:0,0:0:0:0:
192,288,97944,2,0,P|240:304|296:296,1,104.999996795654,2|8,0:0|0:0,0:0:0:0:
443,173,98248,2,0,P|395:157|339:165,1,104.999996795654,14|8,0:0|0:0,0:0:0:0:
384,246,98551,5,2,0:0:0:0:
400,77,98702,1,8,0:0:0:0:
281,55,98854,1,10,0:0:0:0:
297,224,99005,1,12,0:0:0:0:
191,273,99157,1,2,0:0:0:0:
207,104,99308,1,8,0:3:0:0:
88,82,99460,1,10,0:0:0:0:
104,251,99611,1,8,0:0:0:0:
104,251,99687,1,8,0:0:0:0:
104,251,99763,54,0,P|118:330|142:352,1,104.999996795654,14|8,0:0|0:0,0:0:0:0:
256,376,100066,2,0,L|256:264,1,104.999996795654,10|8,0:0|0:0,0:0:0:0:
408,251,100369,2,0,P|407:302|378:345,1,104.999996795654,2|8,0:0|0:0,0:0:0:0:
256,256,100672,1,14,0:0:0:0:
256,240,100748,1,0,0:0:0:0:
256,224,100823,1,8,0:0:0:0:
256,208,100899,1,0,0:0:0:0:
256,192,100975,6,0,L|232:88,1,104.999996795654,2|8,0:0|0:0,0:0:0:0:
56,144,101278,2,0,L|158:175,1,104.999996795654,10|8,0:0|0:0,0:0:0:0:
192,0,101581,2,0,L|113:72,1,104.999996795654,6|8,0:0|0:3,0:0:0:0:
48,136,101884,1,10,0:0:0:0:
88,248,102035,1,8,0:0:0:0:
88,248,102111,1,8,0:0:0:0:
88,248,102187,6,0,P|88:298|63:349,1,104.999996795654,14|8,0:0|0:0,0:0:0:0:
185,200,102490,2,0,L|200:306,1,104.999996795654,10|8,0:0|0:0,0:0:0:0:
327,200,102794,2,0,L|312:306,1,104.999996795654,2|8,0:0|0:0,0:0:0:0:
424,248,103096,2,0,P|423:298|448:349,1,104.999996795654,14|8,0:0|0:0,0:0:0:0:
424,136,103399,6,0,P|424:86|449:35,1,104.999996795654,2|8,0:0|0:0,0:0:0:0:
327,184,103703,2,0,L|312:78,1,104.999996795654,10|12,0:0|0:0,0:0:0:0:
185,184,104007,2,0,L|200:78,1,104.999996795654,2|8,0:0|0:0,0:0:0:0:
88,136,104308,2,0,P|89:86|64:35,1,104.999996795654,10|8,0:0|0:0,0:0:0:0:
48,56,104535,1,8,0:0:0:0:
36,79,104611,6,0,P|28:127|44:191,1,104.999996795654,14|8,0:0|0:3,0:0:0:0:
198,316,104914,2,0,P|209:265|201:213,1,104.999996795654,10|8,0:0|0:0,0:0:0:0:
302,96,105217,2,0,P|294:144|310:208,1,104.999996795654,2|8,0:0|0:0,0:0:0:0:
464,333,105520,2,0,P|475:282|467:230,1,104.999996795654,14|8,0:0|0:0,0:0:0:0:
411,87,105823,53,2,0:0:0:0:
376,73,105899,1,0,0:0:0:0:
340,64,105975,1,0,0:0:0:0:
303,60,106051,1,0,0:0:0:0:
266,63,106126,1,10,0:0:0:0:
230,71,106202,1,0,0:0:0:0:
196,87,106278,1,0,0:0:0:0:
165,107,106354,1,0,0:0:0:0:
142,136,106429,2,0,L|145:198,3,52.4999983978272,6|0|0|0,0:0|0:0|0:0|0:0,0:0:0:0:
233,238,106732,2,0,L|227:298,3,52.4999983978272,10|0|8|8,0:0|0:0|0:0|0:0,0:0:0:0:
311,354,107035,6,0,P|377:339|428:365,1,104.999996795654,14|8,0:0|0:0,0:0:0:0:
511,231,107338,2,0,P|462:247|412:234,1,104.999996795654,10|8,0:0|0:0,0:0:0:0:
394,48,107641,1,2,0:0:0:0:
460,148,107793,1,8,0:0:0:0:
297,202,107944,2,0,P|290:254|311:303,1,104.999996795654,14|8,0:0|0:0,0:0:0:0:
412,234,108248,1,2,0:0:0:0:
280,94,108399,1,8,0:0:0:0:
117,204,108551,2,0,P|60:220|12:206,1,104.999996795654,10|12,0:0|0:0,0:0:0:0:
64,115,108854,37,2,0:0:0:0:
64,115,109157,5,2,0:0:0:0:
64,115,109460,21,14,0:0:0:0:
125,296,109611,1,8,0:0:0:0:
268,246,109763,2,0,P|324:250|381:284,1,104.999996795654,10|8,0:0|0:0,0:0:0:0:
295,339,110066,1,2,0:0:0:0:
349,132,110217,1,8,0:0:0:0:
183,192,110369,2,0,L|74:179,1,104.999996795654,14|8,0:0|0:0,0:0:0:0:
188,331,110672,2,0,L|253:243,1,104.999996795654,2|8,0:0|0:0,0:0:0:0:
66,261,110975,2,0,L|109:361,1,104.999996795654,10|8,0:0|0:0,0:0:0:0:
183,192,111278,5,6,0:0:0:0:
156,188,111354,1,8,0:3:0:0:
130,185,111429,1,8,0:3:0:0:
104,182,111505,1,4,0:3:0:0:
78,179,111581,2,0,L|187:148,1,104.999996795654,2|2,0:0|0:0,0:0:0:0:
340,61,111884,53,14,0:0:0:0:
313,204,112035,1,10,0:0:0:0:
203,110,112187,2,0,L|133:99,3,69.9999978637696,10|0|0|2,0:0|0:0|0:0|0:0,0:0:0:0:
340,61,112641,1,10,0:0:0:0:
313,204,112793,2,0,P|311:247|329:288,3,69.9999978637696,14|0|0|2,0:0|0:0|0:0|0:0,0:0:0:0:
451,157,113248,1,10,0:0:0:0:
340,61,113399,6,0,L|271:56,2,69.9999978637696,10|0|0,0:0|0:0|0:0,0:0:0:0:
315,136,113702,2,0,L|258:176,2,69.9999978637696,2|0|0,0:0|0:0|0:0,0:0:0:0:
331,225,114005,1,10,0:0:0:0:
358,273,114107,1,0,0:0:0:0:
410,292,114208,1,0,0:0:0:0:
465,285,114308,6,0,P|503:261|531:201,1,104.999996795654,14|0,0:0|0:0,0:0:0:0:
429,184,114611,5,2,0:0:0:0:
429,184,114713,1,2,0:0:0:0:
429,184,114814,1,2,0:0:0:0:
429,184,114914,37,2,0:0:0:0:
220,79,115066,1,0,0:0:0:0:
328,286,115217,37,6,0:0:0:0:
328,286,115319,1,2,0:0:0:0:
328,286,115420,1,2,0:0:0:0:
328,286,115520,53,2,0:0:0:0:
363,55,115672,1,0,0:0:0:0:
199,221,115823,21,2,0:0:0:0:
154,239,115925,1,2,0:0:0:0:
105,234,116026,1,2,0:0:0:0:
65,207,116126,1,2,0:0:0:0:
42,164,116228,1,2,0:0:0:0:
41,116,116329,1,2,0:0:0:0:
64,73,116429,1,2,0:0:0:0:
103,45,116531,1,2,0:0:0:0:
152,39,116632,1,2,0:0:0:0:
197,57,116733,6,0,P|224:69|269:56,1,65.6250025033952,6|0,0:0|0:0,0:0:0:0:
341,109,117036,2,0,P|368:96|418:96,1,65.6250025033952
488,141,117338,1,0,0:0:0:0:
507,225,117490,1,0,0:0:0:0:
446,288,117641,1,0,0:0:0:0:
358,292,117793,1,0,0:0:0:0:
273,240,117944,6,0,L|264:145,1,65.6250025033952
302,49,118248,2,0,P|260:63|217:61,1,65.6250025033952
112,25,118551,2,0,L|121:120,1,65.6250025033952
83,216,118854,2,0,P|124:201|167:203,1,65.6250025033952
225,275,119157,69,0,0:0:0:0:
207,363,119308,1,0,0:0:0:0:
139,303,119460,1,0,0:0:0:0:
287,212,119611,5,0,0:0:0:0:
315,298,119763,1,0,0:0:0:0:
375,230,119914,1,0,0:0:0:0:
216,137,120066,69,0,0:0:0:0:
188,223,120217,2,0,P|115:249|51:210,1,131.25000500679
42,131,120672,1,0,0:0:0:0:
177,61,120823,2,0,P|202:51|240:54,1,65.6250025033952
42,131,121126,1,0,0:0:0:0:
177,61,121278,1,0,0:0:0:0:
341,131,121429,2,0,P|360:131|387:118,1,32.8125012516976,2|0,0:0|0:0,0:0:0:0:
