osu file format v14

[General]
AudioFilename: audio.mp3
AudioLeadIn: 0
PreviewTime: 9133
Countdown: 0
SampleSet: None
StackLeniency: 0.7
Mode: 1
LetterboxInBreaks: 0
WidescreenStoryboard: 1

[Editor]
DistanceSpacing: 0.8
BeatDivisor: 4
GridSize: 16
TimelineZoom: 1.3

[Metadata]
Title:suzuran
TitleUnicode:和鸞
Artist:wumalutsufuri
ArtistUnicode:うまるつふり
Creator:Anima_Alumi-47
Version:Taiko
Source:BMS
Tags:
BeatmapID:1100222
BeatmapSetID:517835

[Difficulty]
HPDrainRate:6
CircleSize:2
OverallDifficulty:6
ApproachRate:5
SliderMultiplier:1.3599999666214
SliderTickRate:1

[Events]
//Background and Video events
0,0,"bg.jpg",0,0
//Break Periods
//Storyboard Layer 0 (Background)
//Storyboard Layer 1 (Fail)
//Storyboard Layer 2 (Pass)
//Storyboard Layer 3 (Foreground)
//Storyboard Sound Samples

[TimingPoints]
2820,315.789473684211,4,3,0,100,1,0
3767,315.789473684211,4,3,0,100,1,0
4714,315.789473684211,4,3,0,100,1,0
5661,315.789473684211,4,3,0,100,1,0
6608,315.789473684211,4,3,0,100,1,0
7555,315.789473684211,4,3,0,100,1,0
8186,315.789473684211,4,3,0,100,1,0
91554,631.578947368421,4,3,0,100,1,0
101659,600,4,3,0,100,1,0
102859,545.454545454546,4,3,0,100,1,0
103949,500,4,3,0,100,1,0
104949,461.538461538462,4,3,0,100,1,0
105872,428.571428571429,4,3,0,100,1,0
106729,400,4,3,0,100,1,0
107529,375,4,3,0,100,1,0
108279,352.941176470588,4,3,0,100,1,0
108984,333.333333333333,4,3,0,100,1,0
109650,500,4,3,0,100,1,0
110150,631.578947368421,4,3,0,100,1,0
110781,315.789473684211,4,3,0,100,1,0
111096,-100,4,3,0,100,0,1
112991,315.789473684211,4,3,0,100,1,1
113938,315.789473684211,4,3,0,100,1,1
114885,315.789473684211,4,3,0,100,1,1
115832,315.789473684211,4,3,0,100,1,1
116779,315.789473684211,4,3,0,100,1,1
117726,315.789473684211,4,3,0,100,1,1
118673,315.789473684211,4,3,0,100,1,1
119620,315.789473684211,4,3,0,100,1,1
120251,315.789473684211,4,3,0,100,1,1
129093,-100,4,3,0,100,0,0

[HitObjects]
256,192,2504,5,6,0:0:0:0:
256,192,2820,1,0,0:0:0:0:
256,192,2977,1,0,0:0:0:0:
256,192,3135,1,0,0:0:0:0:
256,192,3175,1,0,0:0:0:0:
256,192,3214,1,2,0:0:0:0:
256,192,3254,1,2,0:0:0:0:
256,192,3293,1,0,0:0:0:0:
256,192,3333,1,0,0:0:0:0:
256,192,3372,1,2,0:0:0:0:
256,192,3412,1,2,0:0:0:0:
256,192,3451,1,0,0:0:0:0:
256,192,3491,1,0,0:0:0:0:
256,192,3530,1,2,0:0:0:0:
256,192,3570,1,2,0:0:0:0:
256,192,3609,1,0,0:0:0:0:
256,192,3648,1,0,0:0:0:0:
256,192,3688,1,2,0:0:0:0:
256,192,3727,1,2,0:0:0:0:
256,192,3767,1,0,0:0:0:0:
256,192,3924,1,0,0:0:0:0:
256,192,4082,1,2,0:0:0:0:
256,192,4122,1,2,0:0:0:0:
256,192,4161,1,0,0:0:0:0:
256,192,4201,1,0,0:0:0:0:
256,192,4240,1,2,0:0:0:0:
256,192,4280,1,2,0:0:0:0:
256,192,4319,1,0,0:0:0:0:
256,192,4359,1,0,0:0:0:0:
256,192,4398,1,2,0:0:0:0:
256,192,4438,1,2,0:0:0:0:
256,192,4477,1,0,0:0:0:0:
256,192,4517,1,0,0:0:0:0:
256,192,4556,1,2,0:0:0:0:
256,192,4595,1,2,0:0:0:0:
256,192,4635,1,0,0:0:0:0:
256,192,4674,1,0,0:0:0:0:
256,192,4714,1,0,0:0:0:0:
256,192,4871,1,0,0:0:0:0:
256,192,5029,1,0,0:0:0:0:
256,192,5069,1,0,0:0:0:0:
256,192,5108,1,0,0:0:0:0:
256,192,5148,1,0,0:0:0:0:
256,192,5187,1,2,0:0:0:0:
256,192,5227,1,2,0:0:0:0:
256,192,5266,1,2,0:0:0:0:
256,192,5306,1,2,0:0:0:0:
256,192,5345,1,0,0:0:0:0:
256,192,5385,1,0,0:0:0:0:
256,192,5424,1,0,0:0:0:0:
256,192,5464,1,0,0:0:0:0:
256,192,5503,1,2,0:0:0:0:
256,192,5542,1,2,0:0:0:0:
256,192,5582,1,2,0:0:0:0:
256,192,5621,1,2,0:0:0:0:
256,192,5661,1,0,0:0:0:0:
256,192,5818,1,0,0:0:0:0:
256,192,5976,1,2,0:0:0:0:
256,192,6016,1,2,0:0:0:0:
256,192,6055,1,2,0:0:0:0:
256,192,6095,1,2,0:0:0:0:
256,192,6134,1,0,0:0:0:0:
256,192,6174,1,0,0:0:0:0:
256,192,6213,1,0,0:0:0:0:
256,192,6253,1,0,0:0:0:0:
256,192,6292,1,2,0:0:0:0:
256,192,6332,1,2,0:0:0:0:
256,192,6371,1,2,0:0:0:0:
256,192,6411,1,2,0:0:0:0:
256,192,6450,1,0,0:0:0:0:
256,192,6489,1,0,0:0:0:0:
256,192,6529,5,0,0:0:0:0:
256,192,6568,1,0,0:0:0:0:
256,192,6608,1,0,0:0:0:0:
256,192,6765,1,0,0:0:0:0:
256,192,6923,1,0,0:0:0:0:
256,192,6963,1,0,0:0:0:0:
256,192,7002,1,2,0:0:0:0:
256,192,7042,1,2,0:0:0:0:
256,192,7081,1,0,0:0:0:0:
256,192,7121,1,0,0:0:0:0:
256,192,7160,1,2,0:0:0:0:
256,192,7200,1,2,0:0:0:0:
256,192,7239,1,0,0:0:0:0:
256,192,7279,1,0,0:0:0:0:
256,192,7318,1,0,0:0:0:0:
256,192,7358,1,0,0:0:0:0:
256,192,7397,1,2,0:0:0:0:
256,192,7436,1,2,0:0:0:0:
256,192,7476,1,2,0:0:0:0:
256,192,7515,1,2,0:0:0:0:
256,192,7555,1,0,0:0:0:0:
256,192,7712,1,0,0:0:0:0:
256,192,7870,1,2,0:0:0:0:
256,192,7910,1,2,0:0:0:0:
256,192,7949,1,2,0:0:0:0:
256,192,7989,1,2,0:0:0:0:
256,192,8028,1,0,0:0:0:0:
256,192,8107,1,0,0:0:0:0:
256,192,8186,1,2,0:0:0:0:
256,192,8501,1,2,0:0:0:0:
256,192,8817,1,2,0:0:0:0:
256,192,8975,1,0,0:0:0:0:
256,192,9133,1,0,0:0:0:0:
256,192,9212,1,0,0:0:0:0:
256,192,9291,1,2,0:0:0:0:
256,192,9370,1,2,0:0:0:0:
256,192,9449,1,0,0:0:0:0:
256,192,9764,1,6,0:0:0:0:
256,192,9922,1,0,0:0:0:0:
256,192,10001,1,0,0:0:0:0:
256,192,10080,1,0,0:0:0:0:
256,192,10238,1,0,0:0:0:0:
256,192,10317,1,0,0:0:0:0:
256,192,10396,1,2,0:0:0:0:
256,192,10554,1,0,0:0:0:0:
256,192,10633,1,0,0:0:0:0:
256,192,10712,1,0,0:0:0:0:
256,192,10870,1,0,0:0:0:0:
256,192,11028,1,2,0:0:0:0:
256,192,11186,1,0,0:0:0:0:
256,192,11264,1,0,0:0:0:0:
256,192,11343,1,2,0:0:0:0:
256,192,11422,1,2,0:0:0:0:
256,192,11501,1,0,0:0:0:0:
256,192,11580,1,0,0:0:0:0:
256,192,11659,1,2,0:0:0:0:
256,192,11738,1,0,0:0:0:0:
256,192,11817,1,0,0:0:0:0:
256,192,11896,1,2,0:0:0:0:
256,192,11975,1,0,0:0:0:0:
256,192,12133,1,0,0:0:0:0:
256,192,12212,1,0,0:0:0:0:
256,192,12291,1,2,0:0:0:0:
256,192,12449,1,0,0:0:0:0:
256,192,12528,1,0,0:0:0:0:
256,192,12607,1,2,0:0:0:0:
256,192,12686,1,2,0:0:0:0:
256,192,12764,1,0,0:0:0:0:
256,192,12843,1,0,0:0:0:0:
256,192,12922,1,2,0:0:0:0:
256,192,13001,1,2,0:0:0:0:
256,192,13080,1,0,0:0:0:0:
256,192,13159,1,0,0:0:0:0:
256,192,13238,1,2,0:0:0:0:
256,192,13396,1,0,0:0:0:0:
256,192,13475,1,0,0:0:0:0:
256,192,13554,1,2,0:0:0:0:
256,192,13712,1,0,0:0:0:0:
256,192,13791,1,2,0:0:0:0:
256,192,13870,1,0,0:0:0:0:
256,192,14028,1,2,0:0:0:0:
256,192,14107,1,0,0:0:0:0:
256,192,14186,1,2,0:0:0:0:
256,192,14264,1,0,0:0:0:0:
256,192,14343,1,0,0:0:0:0:
256,192,14422,1,0,0:0:0:0:
256,192,14501,1,2,0:0:0:0:
256,192,14659,1,0,0:0:0:0:
256,192,14738,1,0,0:0:0:0:
256,192,14817,1,2,0:0:0:0:
256,192,14975,1,2,0:0:0:0:
256,192,15054,1,0,0:0:0:0:
256,192,15133,1,2,0:0:0:0:
256,192,15212,1,2,0:0:0:0:
256,192,15291,1,0,0:0:0:0:
256,192,15370,1,0,0:0:0:0:
256,192,15449,1,2,0:0:0:0:
256,192,15607,1,0,0:0:0:0:
256,192,15686,1,2,0:0:0:0:
256,192,15764,1,0,0:0:0:0:
256,192,15922,1,0,0:0:0:0:
256,192,16001,1,0,0:0:0:0:
256,192,16080,1,2,0:0:0:0:
256,192,16238,1,0,0:0:0:0:
256,192,16317,1,0,0:0:0:0:
256,192,16396,1,2,0:0:0:0:
256,192,16475,1,2,0:0:0:0:
256,192,16554,1,0,0:0:0:0:
256,192,16633,1,0,0:0:0:0:
256,192,16712,1,2,0:0:0:0:
256,192,16791,1,0,0:0:0:0:
256,192,16870,1,0,0:0:0:0:
256,192,16949,1,0,0:0:0:0:
256,192,17028,1,2,0:0:0:0:
256,192,17186,1,0,0:0:0:0:
256,192,17264,1,2,0:0:0:0:
256,192,17343,1,0,0:0:0:0:
256,192,17501,1,2,0:0:0:0:
256,192,17580,1,0,0:0:0:0:
256,192,17659,1,0,0:0:0:0:
256,192,17817,1,0,0:0:0:0:
256,192,17896,1,2,0:0:0:0:
256,192,17975,1,0,0:0:0:0:
256,192,18054,1,2,0:0:0:0:
256,192,18133,1,0,0:0:0:0:
256,192,18291,1,2,0:0:0:0:
256,192,18370,1,2,0:0:0:0:
256,192,18449,1,0,0:0:0:0:
256,192,18528,1,2,0:0:0:0:
256,192,18607,1,0,0:0:0:0:
256,192,18686,1,0,0:0:0:0:
256,192,18764,1,2,0:0:0:0:
256,192,18843,1,0,0:0:0:0:
256,192,18922,1,2,0:0:0:0:
256,192,19001,1,0,0:0:0:0:
256,192,19080,1,0,0:0:0:0:
256,192,19159,1,0,0:0:0:0:
256,192,19238,1,0,0:0:0:0:
256,192,19317,1,2,0:0:0:0:
256,192,19396,1,0,0:0:0:0:
256,192,19475,1,0,0:0:0:0:
256,192,19554,1,2,0:0:0:0:
256,192,19712,1,0,0:0:0:0:
256,192,19791,1,0,0:0:0:0:
256,192,19870,1,0,0:0:0:0:
256,192,20028,1,2,0:0:0:0:
256,192,20107,1,0,0:0:0:0:
256,192,20186,1,2,0:0:0:0:
256,192,20343,1,0,0:0:0:0:
256,192,20422,1,2,0:0:0:0:
256,192,20501,1,0,0:0:0:0:
256,192,20580,1,2,0:0:0:0:
256,192,20659,1,0,0:0:0:0:
256,192,20738,1,0,0:0:0:0:
256,192,20817,1,2,0:0:0:0:
256,192,20975,1,0,0:0:0:0:
256,192,21054,1,2,0:0:0:0:
256,192,21133,1,0,0:0:0:0:
256,192,21291,1,2,0:0:0:0:
256,192,21370,1,0,0:0:0:0:
256,192,21449,1,2,0:0:0:0:
256,192,21607,1,2,0:0:0:0:
256,192,21686,1,0,0:0:0:0:
256,192,21764,1,0,0:0:0:0:
256,192,21843,1,2,0:0:0:0:
256,192,21922,1,0,0:0:0:0:
256,192,22001,1,0,0:0:0:0:
256,192,22080,1,2,0:0:0:0:
256,192,22238,1,0,0:0:0:0:
256,192,22317,1,0,0:0:0:0:
256,192,22396,1,2,0:0:0:0:
256,192,22475,1,2,0:0:0:0:
256,192,22554,1,0,0:0:0:0:
256,192,22712,1,2,0:0:0:0:
256,192,22791,1,2,0:0:0:0:
256,192,22870,1,0,0:0:0:0:
256,192,23028,1,2,0:0:0:0:
256,192,23107,1,0,0:0:0:0:
256,192,23186,1,2,0:0:0:0:
256,192,23343,1,0,0:0:0:0:
256,192,23501,1,0,0:0:0:0:
256,192,23580,1,0,0:0:0:0:
256,192,23659,1,2,0:0:0:0:
256,192,23738,1,2,0:0:0:0:
256,192,23817,1,0,0:0:0:0:
256,192,23896,1,2,0:0:0:0:
256,192,23975,1,0,0:0:0:0:
256,192,24054,1,2,0:0:0:0:
256,192,24133,1,0,0:0:0:0:
256,192,24212,1,0,0:0:0:0:
256,192,24291,1,2,0:0:0:0:
256,192,24370,1,2,0:0:0:0:
256,192,24449,1,0,0:0:0:0:
256,192,24528,1,2,0:0:0:0:
256,192,24607,1,0,0:0:0:0:
256,192,24764,1,0,0:0:0:0:
256,192,24843,1,0,0:0:0:0:
256,192,24922,1,2,0:0:0:0:
256,192,25001,1,2,0:0:0:0:
256,192,25080,1,0,0:0:0:0:
256,192,25238,1,2,0:0:0:0:
256,192,25317,1,0,0:0:0:0:
256,192,25396,1,0,0:0:0:0:
256,192,25554,1,2,0:0:0:0:
256,192,25633,1,2,0:0:0:0:
256,192,25712,1,0,0:0:0:0:
256,192,25791,1,2,0:0:0:0:
256,192,25870,1,2,0:0:0:0:
256,192,26028,1,0,0:0:0:0:
256,192,26107,1,0,0:0:0:0:
256,192,26186,1,2,0:0:0:0:
256,192,26343,1,0,0:0:0:0:
256,192,26422,1,0,0:0:0:0:
256,192,26501,1,2,0:0:0:0:
256,192,26580,1,2,0:0:0:0:
256,192,26659,1,0,0:0:0:0:
256,192,26738,1,0,0:0:0:0:
256,192,26817,1,2,0:0:0:0:
256,192,26896,1,2,0:0:0:0:
256,192,26975,1,0,0:0:0:0:
256,192,27054,1,2,0:0:0:0:
256,192,27133,1,0,0:0:0:0:
256,192,27291,1,0,0:0:0:0:
256,192,27370,1,0,0:0:0:0:
256,192,27449,1,2,0:0:0:0:
256,192,27528,1,0,0:0:0:0:
256,192,27607,1,0,0:0:0:0:
256,192,27765,1,2,0:0:0:0:
256,192,27843,1,0,0:0:0:0:
256,192,28001,1,2,0:0:0:0:
256,192,28080,1,0,0:0:0:0:
256,192,28238,1,2,0:0:0:0:
256,192,28317,1,0,0:0:0:0:
256,192,28475,1,2,0:0:0:0:
256,192,28554,1,0,0:0:0:0:
256,192,28712,1,2,0:0:0:0:
256,192,28791,1,0,0:0:0:0:
256,192,28949,1,2,0:0:0:0:
256,192,29028,1,0,0:0:0:0:
256,192,29186,1,2,0:0:0:0:
256,192,29264,1,0,0:0:0:0:
256,192,29422,1,2,0:0:0:0:
256,192,29501,1,0,0:0:0:0:
256,192,29659,1,4,0:0:0:0:
256,192,29817,1,0,0:0:0:0:
256,192,29896,1,0,0:0:0:0:
256,192,29975,1,2,0:0:0:0:
256,192,30133,1,0,0:0:0:0:
256,192,30212,1,2,0:0:0:0:
256,192,30291,1,0,0:0:0:0:
256,192,30370,1,2,0:0:0:0:
256,192,30449,1,0,0:0:0:0:
256,192,30528,1,0,0:0:0:0:
256,192,30607,1,2,0:0:0:0:
256,192,30764,1,2,0:0:0:0:
256,192,30843,1,0,0:0:0:0:
256,192,30922,1,0,0:0:0:0:
272,192,31080,1,0,0:0:0:0:
272,192,31159,1,0,0:0:0:0:
272,192,31238,1,2,0:0:0:0:
256,192,31396,1,0,0:0:0:0:
256,192,31475,1,0,0:0:0:0:
256,192,31554,1,2,0:0:0:0:
256,192,31712,1,2,0:0:0:0:
256,192,31791,1,0,0:0:0:0:
256,192,31949,1,0,0:0:0:0:
256,192,32028,1,2,0:0:0:0:
256,192,32186,1,0,0:0:0:0:
256,192,32343,1,2,0:0:0:0:
256,192,32501,1,0,0:0:0:0:
256,192,32580,1,0,0:0:0:0:
256,192,32659,1,2,0:0:0:0:
256,192,32817,1,0,0:0:0:0:
256,192,32975,1,2,0:0:0:0:
256,192,33054,1,0,0:0:0:0:
256,192,33212,1,0,0:0:0:0:
256,192,33291,1,2,0:0:0:0:
256,192,33449,1,0,0:0:0:0:
256,192,33607,1,2,0:0:0:0:
256,192,33764,1,0,0:0:0:0:
256,192,33843,1,0,0:0:0:0:
256,192,33922,1,2,0:0:0:0:
256,192,34080,1,0,0:0:0:0:
256,192,34238,1,2,0:0:0:0:
256,192,34317,1,0,0:0:0:0:
256,192,34475,1,0,0:0:0:0:
256,192,34554,1,2,0:0:0:0:
256,192,34712,1,0,0:0:0:0:
256,192,34870,1,2,0:0:0:0:
256,192,35028,1,0,0:0:0:0:
256,192,35107,1,0,0:0:0:0:
256,192,35186,1,2,0:0:0:0:
256,192,35264,1,2,0:0:0:0:
256,192,35343,1,0,0:0:0:0:
256,192,35422,1,2,0:0:0:0:
256,192,35501,1,0,0:0:0:0:
256,192,35580,1,0,0:0:0:0:
256,192,35659,1,2,0:0:0:0:
256,192,35738,1,0,0:0:0:0:
256,192,35817,1,0,0:0:0:0:
256,176,35896,1,2,0:0:0:0:
256,176,35975,1,0,0:0:0:0:
256,192,36133,1,2,0:0:0:0:
256,192,36291,1,0,0:0:0:0:
256,192,36370,1,0,0:0:0:0:
256,192,36449,1,2,0:0:0:0:
256,192,36607,1,0,0:0:0:0:
256,192,36764,1,2,0:0:0:0:
256,192,36843,1,0,0:0:0:0:
256,192,36922,1,0,0:0:0:0:
256,192,37001,1,0,0:0:0:0:
256,192,37080,1,2,0:0:0:0:
256,192,37159,1,0,0:0:0:0:
256,192,37238,1,2,0:0:0:0:
256,192,37396,1,2,0:0:0:0:
256,192,37475,1,0,0:0:0:0:
256,192,37554,1,2,0:0:0:0:
256,192,37633,1,0,0:0:0:0:
256,192,37712,1,2,0:0:0:0:
256,192,37870,1,0,0:0:0:0:
256,192,38028,1,2,0:0:0:0:
256,192,38107,1,2,0:0:0:0:
256,192,38186,1,0,0:0:0:0:
256,192,38343,1,2,0:0:0:0:
256,192,38501,1,0,0:0:0:0:
256,192,38659,1,2,0:0:0:0:
256,192,38738,1,0,0:0:0:0:
256,192,38817,1,0,0:0:0:0:
256,192,38975,1,2,0:0:0:0:
256,192,39133,1,0,0:0:0:0:
256,192,39291,1,2,0:0:0:0:
256,192,39370,1,0,0:0:0:0:
256,192,39528,1,0,0:0:0:0:
256,192,39607,1,2,0:0:0:0:
256,192,39764,1,0,0:0:0:0:
256,192,39843,1,2,0:0:0:0:
256,192,39922,1,0,0:0:0:0:
256,192,40001,1,2,0:0:0:0:
256,192,40080,1,0,0:0:0:0:
256,192,40159,1,2,0:0:0:0:
256,192,40238,1,0,0:0:0:0:
256,192,40317,1,2,0:0:0:0:
256,192,40396,1,0,0:0:0:0:
256,192,40475,1,0,0:0:0:0:
256,192,40554,1,2,0:0:0:0:
256,192,40633,1,0,0:0:0:0:
256,192,40712,1,2,0:0:0:0:
256,192,40791,1,2,0:0:0:0:
256,192,40870,1,0,0:0:0:0:
256,192,40949,1,2,0:0:0:0:
256,192,41028,1,0,0:0:0:0:
256,192,41107,1,0,0:0:0:0:
256,192,41186,1,2,0:0:0:0:
256,192,41264,1,0,0:0:0:0:
256,192,41343,1,2,0:0:0:0:
256,192,41501,1,2,0:0:0:0:
256,192,41659,1,0,0:0:0:0:
256,192,41817,1,2,0:0:0:0:
256,192,41896,1,0,0:0:0:0:
256,192,42054,1,0,0:0:0:0:
256,192,42133,1,2,0:0:0:0:
256,192,42291,1,0,0:0:0:0:
240,192,42449,1,2,0:0:0:0:
240,192,42607,1,0,0:0:0:0:
240,192,42686,1,0,0:0:0:0:
240,192,42764,1,2,0:0:0:0:
240,192,42922,1,0,0:0:0:0:
240,192,43080,1,2,0:0:0:0:
240,192,43159,1,0,0:0:0:0:
240,192,43238,1,2,0:0:0:0:
240,192,43317,1,0,0:0:0:0:
240,192,43396,1,2,0:0:0:0:
240,192,43554,1,2,0:0:0:0:
240,192,43712,1,2,0:0:0:0:
240,192,43791,1,0,0:0:0:0:
240,192,43870,1,2,0:0:0:0:
240,192,44028,1,2,0:0:0:0:
240,192,44186,1,0,0:0:0:0:
240,192,44343,1,0,0:0:0:0:
240,192,44422,1,0,0:0:0:0:
240,192,44501,1,2,0:0:0:0:
240,192,44580,1,0,0:0:0:0:
240,192,44659,1,2,0:0:0:0:
240,192,44817,1,0,0:0:0:0:
240,192,44975,1,0,0:0:0:0:
240,192,45054,1,0,0:0:0:0:
240,192,45133,1,0,0:0:0:0:
240,192,45212,1,0,0:0:0:0:
240,192,45291,1,2,0:0:0:0:
240,192,45370,1,2,0:0:0:0:
240,192,45449,1,0,0:0:0:0:
240,192,45528,1,2,0:0:0:0:
240,192,45607,1,0,0:0:0:0:
240,192,45686,1,0,0:0:0:0:
240,192,45764,1,2,0:0:0:0:
240,192,45843,1,0,0:0:0:0:
240,192,45922,1,0,0:0:0:0:
240,192,46001,1,2,0:0:0:0:
240,192,46080,1,0,0:0:0:0:
240,192,46238,1,0,0:0:0:0:
240,192,46317,1,0,0:0:0:0:
240,192,46396,1,0,0:0:0:0:
240,192,46554,1,2,0:0:0:0:
240,192,46712,1,0,0:0:0:0:
240,192,46870,1,2,0:0:0:0:
240,192,46949,1,0,0:0:0:0:
240,192,47028,1,0,0:0:0:0:
240,192,47107,1,0,0:0:0:0:
240,192,47186,1,2,0:0:0:0:
240,192,47343,1,0,0:0:0:0:
240,192,47501,1,2,0:0:0:0:
240,192,47580,1,0,0:0:0:0:
240,192,47659,1,0,0:0:0:0:
240,192,47817,1,0,0:0:0:0:
240,192,47896,1,0,0:0:0:0:
240,192,47975,1,2,0:0:0:0:
240,192,48054,1,0,0:0:0:0:
240,192,48133,1,2,0:0:0:0:
240,192,48212,1,0,0:0:0:0:
240,192,48291,1,2,0:0:0:0:
240,192,48449,1,2,0:0:0:0:
240,192,48607,1,0,0:0:0:0:
240,192,48764,1,2,0:0:0:0:
240,192,48843,1,2,0:0:0:0:
240,192,48922,1,0,0:0:0:0:
240,192,49080,1,2,0:0:0:0:
240,192,49238,1,0,0:0:0:0:
240,192,49396,1,0,0:0:0:0:
240,192,49475,1,0,0:0:0:0:
240,192,49554,1,2,0:0:0:0:
240,192,49633,1,0,0:0:0:0:
240,192,49712,1,2,0:0:0:0:
240,192,49791,1,0,0:0:0:0:
240,192,49870,1,0,0:0:0:0:
256,192,49949,1,0,0:0:0:0:
256,192,50028,1,0,0:0:0:0:
256,192,50107,1,0,0:0:0:0:
256,192,50186,1,2,0:0:0:0:
256,192,50264,1,2,0:0:0:0:
256,192,50343,1,2,0:0:0:0:
256,192,50422,1,2,0:0:0:0:
256,192,50501,1,0,0:0:0:0:
256,192,50580,1,0,0:0:0:0:
256,192,50659,1,2,0:0:0:0:
256,192,50738,1,0,0:0:0:0:
256,192,50817,1,2,0:0:0:0:
256,192,50896,1,2,0:0:0:0:
256,192,50975,1,0,0:0:0:0:
256,192,51054,1,2,0:0:0:0:
256,192,51133,1,0,0:0:0:0:
256,192,51186,1,0,0:0:0:0:
256,192,51238,1,0,0:0:0:0:
256,192,51291,1,0,0:0:0:0:
256,192,51343,1,0,0:0:0:0:
256,192,51396,1,0,0:0:0:0:
256,192,51449,1,2,0:0:0:0:
256,192,51528,1,2,0:0:0:0:
256,192,51607,1,0,0:0:0:0:
256,192,51764,1,0,0:0:0:0:
240,192,51843,1,0,0:0:0:0:
256,192,51922,1,2,0:0:0:0:
256,192,52001,1,2,0:0:0:0:
256,192,52080,1,0,0:0:0:0:
256,192,52159,1,2,0:0:0:0:
256,192,52238,1,2,0:0:0:0:
256,192,52317,1,2,0:0:0:0:
256,192,52396,1,2,0:0:0:0:
256,192,52475,1,2,0:0:0:0:
256,192,52554,1,0,0:0:0:0:
256,192,52633,1,0,0:0:0:0:
256,192,52712,1,0,0:0:0:0:
256,192,52791,1,0,0:0:0:0:
256,192,52870,1,0,0:0:0:0:
256,192,52949,1,0,0:0:0:0:
256,192,53028,1,2,0:0:0:0:
256,192,53107,1,2,0:0:0:0:
256,192,53186,1,0,0:0:0:0:
256,192,53264,1,0,0:0:0:0:
256,192,53343,1,0,0:0:0:0:
256,192,53422,1,0,0:0:0:0:
256,192,53501,1,2,0:0:0:0:
256,192,53580,1,2,0:0:0:0:
256,192,53659,1,0,0:0:0:0:
256,192,53738,1,2,0:0:0:0:
256,192,53817,1,0,0:0:0:0:
256,192,53896,1,0,0:0:0:0:
256,192,53975,1,2,0:0:0:0:
256,176,54054,1,2,0:0:0:0:
256,192,54133,1,0,0:0:0:0:
256,192,54212,1,2,0:0:0:0:
256,176,54291,1,0,0:0:0:0:
256,192,54370,1,2,0:0:0:0:
256,176,54449,1,0,0:0:0:0:
256,176,54528,1,0,0:0:0:0:
256,176,54607,1,2,0:0:0:0:
256,176,54686,1,2,0:0:0:0:
256,176,54764,1,0,0:0:0:0:
256,192,54843,1,2,0:0:0:0:
256,176,54922,1,0,0:0:0:0:
256,176,55001,1,2,0:0:0:0:
256,176,55080,1,0,0:0:0:0:
256,176,55159,1,0,0:0:0:0:
256,176,55238,1,2,0:0:0:0:
256,176,55317,1,2,0:0:0:0:
256,176,55396,1,0,0:0:0:0:
256,176,55475,1,2,0:0:0:0:
256,176,55554,1,2,0:0:0:0:
256,176,55633,1,2,0:0:0:0:
256,176,55712,1,0,0:0:0:0:
256,176,55791,1,0,0:0:0:0:
256,176,55870,1,2,0:0:0:0:
256,176,55949,1,2,0:0:0:0:
256,176,56028,1,0,0:0:0:0:
256,176,56107,1,2,0:0:0:0:
256,176,56186,1,0,0:0:0:0:
256,176,56343,1,0,0:0:0:0:
256,176,56396,1,0,0:0:0:0:
256,176,56449,1,0,0:0:0:0:
256,176,56501,1,2,0:0:0:0:
256,176,56580,1,2,0:0:0:0:
256,176,56659,1,0,0:0:0:0:
256,176,56738,1,0,0:0:0:0:
256,176,56817,1,0,0:0:0:0:
256,176,56975,1,2,0:0:0:0:
256,176,57054,1,0,0:0:0:0:
256,176,57133,1,2,0:0:0:0:
256,176,57212,1,2,0:0:0:0:
256,176,57291,1,0,0:0:0:0:
256,176,57370,1,2,0:0:0:0:
256,176,57449,1,2,0:0:0:0:
256,176,57528,1,2,0:0:0:0:
256,176,57607,1,0,0:0:0:0:
256,176,57686,1,0,0:0:0:0:
256,176,57764,1,0,0:0:0:0:
256,176,57843,1,0,0:0:0:0:
256,176,57922,1,0,0:0:0:0:
256,176,58001,1,0,0:0:0:0:
256,176,58080,1,2,0:0:0:0:
256,176,58159,1,2,0:0:0:0:
256,176,58238,1,0,0:0:0:0:
256,176,58317,1,0,0:0:0:0:
256,176,58396,1,0,0:0:0:0:
256,176,58475,1,0,0:0:0:0:
256,176,58554,1,2,0:0:0:0:
256,176,58633,1,2,0:0:0:0:
256,176,58712,1,0,0:0:0:0:
256,176,58791,1,2,0:0:0:0:
256,176,58870,1,0,0:0:0:0:
256,176,58949,1,0,0:0:0:0:
256,176,59028,1,2,0:0:0:0:
256,176,59107,1,2,0:0:0:0:
256,176,59186,1,0,0:0:0:0:
256,176,59264,1,2,0:0:0:0:
256,176,59343,1,0,0:0:0:0:
256,176,59422,1,2,0:0:0:0:
256,176,59501,1,2,0:0:0:0:
256,176,59580,1,0,0:0:0:0:
256,176,59659,1,2,0:0:0:0:
256,176,59738,1,0,0:0:0:0:
256,176,59817,1,0,0:0:0:0:
256,176,59896,1,0,0:0:0:0:
256,176,59975,1,2,0:0:0:0:
256,176,60054,1,2,0:0:0:0:
256,176,60133,1,0,0:0:0:0:
256,176,60212,1,0,0:0:0:0:
256,176,60291,1,0,0:0:0:0:
256,176,60370,1,0,0:0:0:0:
256,176,60449,1,0,0:0:0:0:
256,176,60528,1,0,0:0:0:0:
256,176,60607,1,2,0:0:0:0:
256,176,60686,1,2,0:0:0:0:
256,176,60764,1,0,0:0:0:0:
256,176,60843,1,0,0:0:0:0:
256,176,60922,1,0,0:0:0:0:
256,160,61001,1,0,0:0:0:0:
256,160,61080,1,2,0:0:0:0:
256,160,61159,1,2,0:0:0:0:
256,160,61238,1,0,0:0:0:0:
256,176,61396,1,0,0:0:0:0:
240,176,61449,1,0,0:0:0:0:
240,176,61501,1,0,0:0:0:0:
240,176,61554,1,2,0:0:0:0:
256,176,61633,1,2,0:0:0:0:
256,176,61712,1,0,0:0:0:0:
256,176,61791,1,2,0:0:0:0:
256,176,61870,1,0,0:0:0:0:
256,176,62028,1,2,0:0:0:0:
256,176,62107,1,0,0:0:0:0:
256,176,62186,1,2,0:0:0:0:
256,176,62264,1,0,0:0:0:0:
256,176,62343,1,0,0:0:0:0:
256,176,62422,1,2,0:0:0:0:
256,176,62501,1,2,0:0:0:0:
256,176,62580,1,2,0:0:0:0:
256,176,62659,1,0,0:0:0:0:
256,176,62738,1,0,0:0:0:0:
256,176,62817,1,0,0:0:0:0:
256,176,62896,1,0,0:0:0:0:
256,176,62975,1,0,0:0:0:0:
256,176,63054,1,0,0:0:0:0:
256,176,63133,1,2,0:0:0:0:
256,176,63212,1,2,0:0:0:0:
256,176,63291,1,0,0:0:0:0:
256,176,63370,1,0,0:0:0:0:
256,176,63449,1,0,0:0:0:0:
256,176,63528,1,0,0:0:0:0:
256,176,63607,1,2,0:0:0:0:
256,176,63686,1,2,0:0:0:0:
256,176,63764,1,0,0:0:0:0:
256,176,63922,1,0,0:0:0:0:
256,176,63975,1,0,0:0:0:0:
256,176,64028,1,0,0:0:0:0:
256,176,64080,1,2,0:0:0:0:
256,176,64159,1,2,0:0:0:0:
256,176,64238,1,0,0:0:0:0:
256,176,64317,1,0,0:0:0:0:
256,176,64396,1,0,0:0:0:0:
256,176,64554,1,2,0:0:0:0:
256,176,64633,1,2,0:0:0:0:
256,176,64712,1,0,0:0:0:0:
256,176,64791,1,2,0:0:0:0:
256,176,64870,1,0,0:0:0:0:
256,176,64949,1,0,0:0:0:0:
256,176,65028,1,2,0:0:0:0:
256,176,65107,1,0,0:0:0:0:
256,176,65186,1,2,0:0:0:0:
256,176,65264,1,0,0:0:0:0:
256,176,65343,1,0,0:0:0:0:
256,176,65422,1,0,0:0:0:0:
256,176,65501,1,0,0:0:0:0:
256,176,65580,1,0,0:0:0:0:
256,176,65659,1,2,0:0:0:0:
256,176,65738,1,2,0:0:0:0:
256,176,65817,1,0,0:0:0:0:
256,176,65896,1,0,0:0:0:0:
256,176,65975,1,0,0:0:0:0:
256,176,66054,1,0,0:0:0:0:
256,176,66133,1,2,0:0:0:0:
256,176,66212,1,2,0:0:0:0:
256,176,66291,1,0,0:0:0:0:
256,176,66449,1,0,0:0:0:0:
256,176,66501,1,0,0:0:0:0:
256,176,66554,1,0,0:0:0:0:
256,176,66607,1,2,0:0:0:0:
272,176,66686,1,2,0:0:0:0:
272,176,66764,1,0,0:0:0:0:
272,176,66843,1,2,0:0:0:0:
272,176,66922,1,0,0:0:0:0:
256,176,67080,1,0,0:0:0:0:
256,176,67159,1,0,0:0:0:0:
272,176,67238,1,2,0:0:0:0:
272,176,67396,1,2,0:0:0:0:
272,176,67475,1,0,0:0:0:0:
272,176,67554,1,0,0:0:0:0:
272,176,67633,1,2,0:0:0:0:
272,176,67712,1,2,0:0:0:0:
272,176,67791,1,2,0:0:0:0:
272,176,67870,1,0,0:0:0:0:
272,176,67949,1,0,0:0:0:0:
272,176,68028,1,0,0:0:0:0:
272,176,68107,1,0,0:0:0:0:
272,176,68186,1,2,0:0:0:0:
272,176,68265,1,2,0:0:0:0:
272,176,68344,1,0,0:0:0:0:
272,176,68422,1,0,0:0:0:0:
272,176,68501,1,0,0:0:0:0:
272,176,68580,1,0,0:0:0:0:
272,176,68659,1,2,0:0:0:0:
272,176,68738,1,2,0:0:0:0:
272,176,68817,1,0,0:0:0:0:
272,176,68896,1,2,0:0:0:0:
272,176,68975,1,0,0:0:0:0:
272,176,69054,1,0,0:0:0:0:
272,176,69133,1,2,0:0:0:0:
272,176,69212,1,0,0:0:0:0:
272,176,69291,1,0,0:0:0:0:
272,176,69370,1,2,0:0:0:0:
272,176,69449,1,0,0:0:0:0:
272,176,69528,1,2,0:0:0:0:
272,176,69607,1,0,0:0:0:0:
272,176,69686,1,0,0:0:0:0:
272,176,69764,1,2,0:0:0:0:
272,176,69843,1,0,0:0:0:0:
272,176,69922,1,0,0:0:0:0:
272,176,70001,1,2,0:0:0:0:
272,176,70080,1,2,0:0:0:0:
272,176,70159,1,2,0:0:0:0:
272,176,70238,1,2,0:0:0:0:
272,176,70317,1,2,0:0:0:0:
272,176,70396,1,0,0:0:0:0:
272,176,70475,1,0,0:0:0:0:
272,176,70554,1,0,0:0:0:0:
272,176,70633,1,0,0:0:0:0:
272,176,70712,1,2,0:0:0:0:
272,176,70791,1,0,0:0:0:0:
272,176,70870,1,0,0:0:0:0:
272,176,70949,1,2,0:0:0:0:
272,176,71028,1,0,0:0:0:0:
272,176,71107,1,2,0:0:0:0:
272,176,71186,1,0,0:0:0:0:
272,176,71264,1,2,0:0:0:0:
272,176,71343,1,0,0:0:0:0:
272,176,71659,1,4,0:0:0:0:
272,176,71817,1,2,0:0:0:0:
272,176,71975,1,0,0:0:0:0:
272,176,72133,1,2,0:0:0:0:
272,176,72212,1,0,0:0:0:0:
272,176,72370,1,0,0:0:0:0:
272,176,72449,1,2,0:0:0:0:
272,176,72607,1,0,0:0:0:0:
272,176,72764,1,2,0:0:0:0:
272,176,72922,1,0,0:0:0:0:
272,176,73001,1,0,0:0:0:0:
272,176,73080,1,2,0:0:0:0:
272,176,73238,1,0,0:0:0:0:
272,176,73396,1,2,0:0:0:0:
272,176,73475,1,0,0:0:0:0:
272,176,73633,1,0,0:0:0:0:
272,176,73712,1,2,0:0:0:0:
272,176,73870,1,0,0:0:0:0:
272,176,74028,1,2,0:0:0:0:
272,176,74186,1,0,0:0:0:0:
272,176,74264,1,0,0:0:0:0:
272,176,74343,1,2,0:0:0:0:
272,176,74501,1,0,0:0:0:0:
272,176,74659,1,2,0:0:0:0:
272,176,74738,1,0,0:0:0:0:
272,176,74896,1,0,0:0:0:0:
272,176,74975,1,2,0:0:0:0:
272,176,75133,1,2,0:0:0:0:
272,176,75186,1,2,0:0:0:0:
272,176,75238,1,2,0:0:0:0:
272,176,75291,1,2,0:0:0:0:
272,176,75343,1,2,0:0:0:0:
272,176,75396,1,2,0:0:0:0:
272,176,75449,1,0,0:0:0:0:
272,176,75501,1,0,0:0:0:0:
272,176,75554,1,0,0:0:0:0:
272,176,75607,1,0,0:0:0:0:
272,176,75659,1,0,0:0:0:0:
272,176,75712,1,0,0:0:0:0:
272,176,75764,1,2,0:0:0:0:
272,176,75817,1,2,0:0:0:0:
272,176,75870,1,2,0:0:0:0:
272,176,75922,1,2,0:0:0:0:
272,176,75975,1,2,0:0:0:0:
272,176,76028,1,2,0:0:0:0:
272,176,76080,1,0,0:0:0:0:
272,176,76133,1,0,0:0:0:0:
272,176,76186,1,0,0:0:0:0:
272,176,76238,1,0,0:0:0:0:
272,176,76291,1,0,0:0:0:0:
272,176,76343,1,0,0:0:0:0:
272,176,76396,1,0,0:0:0:0:
272,176,76554,1,2,0:0:0:0:
272,176,76712,1,0,0:0:0:0:
272,176,76791,1,0,0:0:0:0:
272,176,76870,1,2,0:0:0:0:
272,176,77028,1,0,0:0:0:0:
272,176,77186,1,2,0:0:0:0:
272,176,77264,1,0,0:0:0:0:
272,176,77422,1,0,0:0:0:0:
272,176,77501,1,2,0:0:0:0:
272,176,77659,1,0,0:0:0:0:
272,176,77817,1,2,0:0:0:0:
272,176,77975,1,0,0:0:0:0:
272,176,78054,1,0,0:0:0:0:
272,176,78133,1,2,0:0:0:0:
272,176,78291,1,0,0:0:0:0:
272,176,78449,1,2,0:0:0:0:
272,176,78528,1,0,0:0:0:0:
272,176,78686,1,0,0:0:0:0:
272,176,78764,1,2,0:0:0:0:
272,176,78922,1,0,0:0:0:0:
272,176,79080,1,2,0:0:0:0:
272,176,79238,1,0,0:0:0:0:
272,176,79317,1,2,0:0:0:0:
272,176,79396,1,0,0:0:0:0:
272,176,79554,1,0,0:0:0:0:
272,176,79712,1,2,0:0:0:0:
272,176,79791,1,0,0:0:0:0:
272,176,79949,1,0,0:0:0:0:
272,176,80028,1,2,0:0:0:0:
272,176,80186,1,2,0:0:0:0:
272,176,80238,1,2,0:0:0:0:
272,176,80291,1,2,0:0:0:0:
272,176,80343,1,2,0:0:0:0:
272,176,80396,1,2,0:0:0:0:
272,176,80449,1,2,0:0:0:0:
272,176,80501,1,0,0:0:0:0:
272,176,80554,1,0,0:0:0:0:
272,176,80607,1,0,0:0:0:0:
272,176,80659,1,0,0:0:0:0:
272,176,80712,1,0,0:0:0:0:
272,176,80764,1,0,0:0:0:0:
272,176,80817,1,2,0:0:0:0:
272,176,80870,1,2,0:0:0:0:
272,176,80922,1,2,0:0:0:0:
272,176,80975,1,2,0:0:0:0:
272,176,81028,1,2,0:0:0:0:
272,176,81080,1,2,0:0:0:0:
272,176,81133,1,0,0:0:0:0:
272,176,81186,1,0,0:0:0:0:
272,176,81238,1,0,0:0:0:0:
272,176,81291,1,0,0:0:0:0:
272,176,81343,1,0,0:0:0:0:
272,176,81396,1,0,0:0:0:0:
272,176,81449,1,0,0:0:0:0:
272,176,81764,1,6,0:0:0:0:
272,176,81922,1,0,0:0:0:0:
272,176,82080,1,0,0:0:0:0:
272,176,82238,1,2,0:0:0:0:
272,176,82317,1,0,0:0:0:0:
272,176,82475,1,0,0:0:0:0:
272,176,82554,1,2,0:0:0:0:
272,176,82712,1,0,0:0:0:0:
272,176,82870,1,2,0:0:0:0:
272,176,83028,1,0,0:0:0:0:
272,176,83107,1,2,0:0:0:0:
272,176,83186,1,0,0:0:0:0:
272,176,83343,1,0,0:0:0:0:
272,176,83501,1,2,0:0:0:0:
272,176,83580,1,0,0:0:0:0:
272,176,83738,1,0,0:0:0:0:
272,176,83817,1,2,0:0:0:0:
272,176,83975,1,0,0:0:0:0:
272,176,84028,1,0,0:0:0:0:
272,176,84080,1,0,0:0:0:0:
272,176,84133,1,2,0:0:0:0:
272,176,84186,1,2,0:0:0:0:
272,176,84238,1,2,0:0:0:0:
272,176,84291,1,0,0:0:0:0:
272,176,84343,1,0,0:0:0:0:
272,176,84396,1,0,0:0:0:0:
272,176,84449,1,2,0:0:0:0:
272,176,84501,1,2,0:0:0:0:
272,176,84554,1,2,0:0:0:0:
272,176,84607,1,0,0:0:0:0:
272,176,84659,1,0,0:0:0:0:
272,176,84712,1,0,0:0:0:0:
272,176,84764,1,2,0:0:0:0:
272,176,84817,1,2,0:0:0:0:
272,176,84870,1,2,0:0:0:0:
272,176,84922,1,0,0:0:0:0:
272,176,84975,1,0,0:0:0:0:
272,176,85028,1,0,0:0:0:0:
272,176,85080,1,2,0:0:0:0:
272,176,85133,1,2,0:0:0:0:
272,176,85186,1,2,0:0:0:0:
272,176,85238,1,2,0:0:0:0:
272,176,85291,1,2,0:0:0:0:
272,176,85343,1,2,0:0:0:0:
272,176,85396,1,2,0:0:0:0:
272,176,85449,1,2,0:0:0:0:
272,176,85501,1,2,0:0:0:0:
272,176,85554,1,0,0:0:0:0:
272,176,85607,1,0,0:0:0:0:
272,176,85659,1,0,0:0:0:0:
272,176,85712,1,0,0:0:0:0:
272,176,85764,1,0,0:0:0:0:
272,176,85817,1,0,0:0:0:0:
272,176,85870,1,2,0:0:0:0:
272,176,85922,1,2,0:0:0:0:
272,176,85975,1,2,0:0:0:0:
272,176,86028,1,2,0:0:0:0:
272,176,86080,1,2,0:0:0:0:
272,176,86133,1,2,0:0:0:0:
272,176,86186,1,0,0:0:0:0:
272,176,86238,1,0,0:0:0:0:
272,176,86291,1,0,0:0:0:0:
272,176,86343,1,0,0:0:0:0:
272,176,86396,1,0,0:0:0:0:
272,176,86449,1,0,0:0:0:0:
272,176,86501,1,0,0:0:0:0:
272,176,86659,1,2,0:0:0:0:
272,176,86817,1,0,0:0:0:0:
272,176,86896,1,2,0:0:0:0:
272,176,86975,1,0,0:0:0:0:
272,176,87133,1,0,0:0:0:0:
272,176,87291,1,2,0:0:0:0:
272,176,87370,1,0,0:0:0:0:
272,176,87528,1,0,0:0:0:0:
272,176,87607,1,2,0:0:0:0:
272,176,87764,1,0,0:0:0:0:
272,176,87922,1,0,0:0:0:0:
272,176,88001,1,0,0:0:0:0:
272,176,88080,1,0,0:0:0:0:
272,176,88238,1,0,0:0:0:0:
272,176,88396,1,2,0:0:0:0:
272,176,88475,1,2,0:0:0:0:
272,176,88554,1,0,0:0:0:0:
272,176,88633,1,2,0:0:0:0:
272,176,88712,1,0,0:0:0:0:
272,176,88870,1,0,0:0:0:0:
272,176,89028,1,2,0:0:0:0:
272,176,89186,1,0,0:0:0:0:
272,176,89264,1,0,0:0:0:0:
272,176,89343,1,0,0:0:0:0:
272,176,89501,1,2,0:0:0:0:
272,176,89659,1,0,0:0:0:0:
272,176,89817,1,2,0:0:0:0:
272,176,89896,1,2,0:0:0:0:
272,176,89975,1,0,0:0:0:0:
272,176,90133,1,0,0:0:0:0:
272,176,90291,1,2,0:0:0:0:
272,176,90343,1,2,0:0:0:0:
272,176,90396,1,2,0:0:0:0:
272,176,90449,1,2,0:0:0:0:
272,176,90501,1,2,0:0:0:0:
272,176,90554,1,2,0:0:0:0:
272,176,90607,1,0,0:0:0:0:
272,176,90659,1,0,0:0:0:0:
272,176,90712,1,0,0:0:0:0:
272,176,90764,1,0,0:0:0:0:
272,176,90817,1,0,0:0:0:0:
272,176,90870,1,0,0:0:0:0:
272,176,90922,1,0,0:0:0:0:
272,176,90975,1,0,0:0:0:0:
272,176,91028,1,0,0:0:0:0:
272,176,91080,1,0,0:0:0:0:
272,176,91133,1,0,0:0:0:0:
272,176,91186,1,0,0:0:0:0:
272,176,91238,1,2,0:0:0:0:
272,176,91291,1,2,0:0:0:0:
272,176,91343,1,2,0:0:0:0:
272,176,91396,1,2,0:0:0:0:
272,176,91449,1,2,0:0:0:0:
272,176,91501,1,2,0:0:0:0:
272,176,91554,1,0,0:0:0:0:
272,176,92027,1,0,0:0:0:0:
272,176,92343,1,2,0:0:0:0:
272,176,92501,1,0,0:0:0:0:
272,176,92817,1,0,0:0:0:0:
272,176,92975,1,0,0:0:0:0:
272,176,93290,1,0,0:0:0:0:
272,176,93606,1,2,0:0:0:0:
272,176,93764,1,0,0:0:0:0:
272,176,94080,1,0,0:0:0:0:
272,176,94554,1,0,0:0:0:0:
272,176,94869,1,2,0:0:0:0:
272,176,95027,1,0,0:0:0:0:
272,176,95343,1,2,0:0:0:0:
272,176,95501,1,2,0:0:0:0:
272,176,95817,1,0,0:0:0:0:
272,176,96132,1,2,0:0:0:0:
272,176,96290,1,0,0:0:0:0:
272,176,96606,1,0,0:0:0:0:
272,176,97080,1,0,0:0:0:0:
272,176,97396,1,2,0:0:0:0:
272,176,97554,1,0,0:0:0:0:
272,176,97869,1,0,0:0:0:0:
272,176,98027,1,0,0:0:0:0:
272,176,98343,1,0,0:0:0:0:
272,176,98659,1,0,0:0:0:0:
272,176,98817,1,2,0:0:0:0:
272,176,99132,1,0,0:0:0:0:
272,176,99606,1,0,0:0:0:0:
272,176,99922,1,2,0:0:0:0:
272,176,100080,1,0,0:0:0:0:
272,176,100396,1,2,0:0:0:0:
272,176,100554,1,2,0:0:0:0:
272,176,100869,1,0,0:0:0:0:
272,176,101185,1,2,0:0:0:0:
272,176,101343,1,0,0:0:0:0:
272,176,101422,1,0,0:0:0:0:
272,176,101501,1,2,0:0:0:0:
272,176,101580,1,0,0:0:0:0:
272,176,101659,1,2,0:0:0:0:
272,176,101809,1,2,0:0:0:0:
272,176,101959,1,0,0:0:0:0:
272,176,102109,1,2,0:0:0:0:
272,176,102259,1,2,0:0:0:0:
272,176,102409,1,0,0:0:0:0:
272,176,102559,1,2,0:0:0:0:
272,176,102709,1,0,0:0:0:0:
272,176,102859,1,2,0:0:0:0:
272,176,102995,1,2,0:0:0:0:
272,176,103131,1,0,0:0:0:0:
272,176,103268,1,2,0:0:0:0:
272,176,103404,1,2,0:0:0:0:
272,176,103540,1,0,0:0:0:0:
272,176,103677,1,2,0:0:0:0:
272,176,103813,1,0,0:0:0:0:
272,176,103949,1,2,0:0:0:0:
272,176,104074,1,2,0:0:0:0:
272,176,104199,1,0,0:0:0:0:
272,176,104324,1,2,0:0:0:0:
272,176,104449,1,2,0:0:0:0:
272,176,104574,1,0,0:0:0:0:
272,176,104699,1,0,0:0:0:0:
272,176,104824,1,2,0:0:0:0:
272,176,104949,1,2,0:0:0:0:
272,176,105064,1,2,0:0:0:0:
272,176,105179,1,0,0:0:0:0:
272,176,105295,1,0,0:0:0:0:
272,176,105410,1,2,0:0:0:0:
272,176,105525,1,2,0:0:0:0:
272,176,105641,1,0,0:0:0:0:
272,176,105756,1,2,0:0:0:0:
272,176,105872,1,0,0:0:0:0:
272,176,105979,1,2,0:0:0:0:
272,176,106086,1,0,0:0:0:0:
272,176,106193,1,2,0:0:0:0:
272,176,106300,1,0,0:0:0:0:
272,176,106407,1,2,0:0:0:0:
272,176,106514,1,0,0:0:0:0:
272,176,106622,1,2,0:0:0:0:
272,176,106729,1,0,0:0:0:0:
272,176,106829,1,0,0:0:0:0:
272,176,106929,1,0,0:0:0:0:
272,176,107029,1,0,0:0:0:0:
272,176,107129,1,0,0:0:0:0:
272,176,107229,1,0,0:0:0:0:
272,176,107329,1,0,0:0:0:0:
272,176,107429,1,0,0:0:0:0:
272,176,107529,1,0,0:0:0:0:
288,176,107591,1,0,0:0:0:0:
288,176,107654,1,0,0:0:0:0:
288,176,107716,1,0,0:0:0:0:
288,176,107779,1,0,0:0:0:0:
288,176,107841,1,0,0:0:0:0:
288,176,107904,1,0,0:0:0:0:
288,176,107966,1,0,0:0:0:0:
288,176,108029,1,0,0:0:0:0:
288,176,108091,1,0,0:0:0:0:
288,176,108154,1,0,0:0:0:0:
288,176,108216,1,0,0:0:0:0:
288,176,108279,1,0,0:0:0:0:
288,176,108323,1,0,0:0:0:0:
288,176,108367,1,2,0:0:0:0:
288,176,108411,1,2,0:0:0:0:
288,176,108455,1,0,0:0:0:0:
288,176,108499,1,0,0:0:0:0:
288,176,108543,1,2,0:0:0:0:
288,176,108587,1,2,0:0:0:0:
288,176,108631,1,0,0:0:0:0:
288,176,108676,1,0,0:0:0:0:
288,176,108720,1,2,0:0:0:0:
288,176,108764,1,2,0:0:0:0:
288,176,108808,1,0,0:0:0:0:
288,176,108852,1,0,0:0:0:0:
288,176,108896,1,2,0:0:0:0:
288,176,108940,1,2,0:0:0:0:
288,176,108984,1,0,0:0:0:0:
288,176,109150,1,0,0:0:0:0:
288,176,109317,1,0,0:0:0:0:
304,176,109484,1,0,0:0:0:0:
304,176,109650,1,2,0:0:0:0:
304,176,109900,1,2,0:0:0:0:
304,176,110150,1,2,0:0:0:0:
304,176,110465,1,2,0:0:0:0:
256,192,111096,1,0,0:0:0:0:
256,192,111253,1,0,0:0:0:0:
256,192,111411,1,0,0:0:0:0:
256,192,111451,1,0,0:0:0:0:
256,192,111490,1,2,0:0:0:0:
256,192,111530,1,2,0:0:0:0:
256,192,111569,1,0,0:0:0:0:
256,192,111609,1,0,0:0:0:0:
256,192,111648,1,2,0:0:0:0:
256,192,111688,1,2,0:0:0:0:
256,192,111727,1,0,0:0:0:0:
256,192,111767,1,0,0:0:0:0:
256,192,111806,1,2,0:0:0:0:
256,192,111846,1,2,0:0:0:0:
256,192,111885,1,0,0:0:0:0:
256,192,111924,1,0,0:0:0:0:
256,192,111964,1,2,0:0:0:0:
256,192,112003,1,2,0:0:0:0:
256,192,112043,1,0,0:0:0:0:
256,192,112200,1,0,0:0:0:0:
256,192,112358,1,2,0:0:0:0:
256,192,112398,1,2,0:0:0:0:
256,192,112437,1,0,0:0:0:0:
256,192,112477,1,0,0:0:0:0:
256,192,112516,1,2,0:0:0:0:
256,192,112556,1,2,0:0:0:0:
256,192,112595,1,0,0:0:0:0:
256,192,112635,1,0,0:0:0:0:
256,192,112674,1,2,0:0:0:0:
256,192,112714,1,2,0:0:0:0:
256,192,112753,1,0,0:0:0:0:
256,192,112793,1,0,0:0:0:0:
256,192,112832,1,2,0:0:0:0:
256,192,112871,1,2,0:0:0:0:
256,192,112911,1,0,0:0:0:0:
256,192,112950,1,0,0:0:0:0:
256,192,112990,1,0,0:0:0:0:
256,192,113147,1,0,0:0:0:0:
256,192,113305,1,0,0:0:0:0:
256,192,113345,1,0,0:0:0:0:
256,192,113384,1,0,0:0:0:0:
256,192,113424,1,0,0:0:0:0:
256,192,113463,1,2,0:0:0:0:
256,192,113503,1,2,0:0:0:0:
256,192,113542,1,2,0:0:0:0:
256,192,113582,1,2,0:0:0:0:
256,192,113621,1,0,0:0:0:0:
256,192,113661,1,0,0:0:0:0:
256,192,113700,1,0,0:0:0:0:
256,192,113740,1,0,0:0:0:0:
256,192,113779,1,2,0:0:0:0:
256,192,113818,1,2,0:0:0:0:
256,192,113858,1,2,0:0:0:0:
256,192,113897,1,2,0:0:0:0:
256,192,113937,1,0,0:0:0:0:
256,192,114094,1,0,0:0:0:0:
256,192,114252,1,2,0:0:0:0:
256,192,114292,1,2,0:0:0:0:
256,192,114331,1,2,0:0:0:0:
256,192,114371,1,2,0:0:0:0:
256,192,114410,1,0,0:0:0:0:
256,192,114450,1,0,0:0:0:0:
256,192,114489,1,0,0:0:0:0:
256,192,114529,1,0,0:0:0:0:
256,192,114568,1,2,0:0:0:0:
256,192,114608,1,2,0:0:0:0:
256,192,114647,1,2,0:0:0:0:
256,192,114687,1,2,0:0:0:0:
256,192,114726,1,0,0:0:0:0:
256,192,114765,1,0,0:0:0:0:
256,192,114805,5,0,0:0:0:0:
256,192,114844,1,0,0:0:0:0:
256,192,114884,1,0,0:0:0:0:
256,192,115041,1,0,0:0:0:0:
256,192,115199,1,0,0:0:0:0:
256,192,115239,1,0,0:0:0:0:
256,192,115278,1,2,0:0:0:0:
256,192,115318,1,2,0:0:0:0:
256,192,115357,1,0,0:0:0:0:
256,192,115397,1,0,0:0:0:0:
256,192,115436,1,2,0:0:0:0:
256,192,115476,1,2,0:0:0:0:
256,192,115515,1,0,0:0:0:0:
256,192,115555,1,0,0:0:0:0:
256,192,115594,1,0,0:0:0:0:
256,192,115634,1,0,0:0:0:0:
256,192,115673,1,2,0:0:0:0:
256,192,115712,1,2,0:0:0:0:
256,192,115752,1,2,0:0:0:0:
256,192,115791,1,2,0:0:0:0:
256,192,115831,1,0,0:0:0:0:
256,192,115989,1,0,0:0:0:0:
256,192,116147,1,2,0:0:0:0:
256,192,116187,1,2,0:0:0:0:
256,192,116226,1,0,0:0:0:0:
256,192,116266,1,0,0:0:0:0:
256,192,116305,1,2,0:0:0:0:
256,192,116345,1,2,0:0:0:0:
256,192,116384,1,0,0:0:0:0:
256,192,116424,1,0,0:0:0:0:
256,192,116463,1,2,0:0:0:0:
256,192,116503,1,2,0:0:0:0:
256,192,116542,1,0,0:0:0:0:
256,192,116582,1,0,0:0:0:0:
256,192,116621,1,0,0:0:0:0:
256,192,116660,1,0,0:0:0:0:
256,192,116700,1,2,0:0:0:0:
256,192,116739,1,2,0:0:0:0:
256,192,116779,1,0,0:0:0:0:
256,192,116936,1,0,0:0:0:0:
256,192,117094,1,0,0:0:0:0:
256,192,117134,1,0,0:0:0:0:
256,192,117173,1,2,0:0:0:0:
256,192,117213,1,2,0:0:0:0:
256,192,117252,1,0,0:0:0:0:
256,192,117292,1,0,0:0:0:0:
256,192,117331,1,0,0:0:0:0:
256,192,117371,1,0,0:0:0:0:
256,192,117410,1,2,0:0:0:0:
256,192,117450,1,2,0:0:0:0:
256,192,117489,1,0,0:0:0:0:
256,192,117529,1,0,0:0:0:0:
256,192,117568,1,2,0:0:0:0:
256,192,117607,1,2,0:0:0:0:
256,192,117647,1,2,0:0:0:0:
256,192,117686,1,2,0:0:0:0:
256,192,117726,1,0,0:0:0:0:
256,192,117883,1,0,0:0:0:0:
256,192,118041,1,2,0:0:0:0:
256,192,118081,1,2,0:0:0:0:
256,192,118120,1,0,0:0:0:0:
256,192,118160,1,0,0:0:0:0:
256,192,118199,1,0,0:0:0:0:
256,192,118239,1,0,0:0:0:0:
256,192,118278,1,2,0:0:0:0:
256,192,118318,1,2,0:0:0:0:
256,192,118357,1,0,0:0:0:0:
256,192,118397,1,0,0:0:0:0:
256,192,118436,1,2,0:0:0:0:
256,192,118476,1,2,0:0:0:0:
256,192,118515,1,2,0:0:0:0:
256,192,118554,1,2,0:0:0:0:
256,192,118594,1,0,0:0:0:0:
256,192,118633,1,0,0:0:0:0:
256,192,118673,1,0,0:0:0:0:
256,192,118830,1,0,0:0:0:0:
256,192,118988,1,0,0:0:0:0:
256,192,119028,1,0,0:0:0:0:
256,192,119067,1,0,0:0:0:0:
256,192,119107,1,0,0:0:0:0:
256,192,119146,1,2,0:0:0:0:
256,192,119186,1,2,0:0:0:0:
256,192,119225,1,2,0:0:0:0:
256,192,119265,1,2,0:0:0:0:
256,192,119304,1,2,0:0:0:0:
256,192,119344,1,2,0:0:0:0:
256,192,119383,1,2,0:0:0:0:
256,192,119423,1,2,0:0:0:0:
256,192,119462,1,0,0:0:0:0:
256,192,119501,1,0,0:0:0:0:
256,192,119541,1,0,0:0:0:0:
256,192,119580,1,0,0:0:0:0:
256,192,119620,1,0,0:0:0:0:
256,192,119777,1,0,0:0:0:0:
256,192,119935,1,2,0:0:0:0:
256,192,119975,1,2,0:0:0:0:
256,192,120014,1,0,0:0:0:0:
256,192,120054,1,2,0:0:0:0:
256,192,120093,1,0,0:0:0:0:
256,192,120172,1,0,0:0:0:0:
256,192,120251,1,2,0:0:0:0:
256,192,120408,1,0,0:0:0:0:
256,192,120566,1,2,0:0:0:0:
256,192,120724,1,0,0:0:0:0:
256,192,120882,1,2,0:0:0:0:
256,192,121040,1,0,0:0:0:0:
256,192,121198,1,2,0:0:0:0:
256,192,121356,1,0,0:0:0:0:
256,192,121514,12,0,125303,0:0:0:0:
256,192,129093,5,4,0:0:0:0:
