osu file format v14

[General]
AudioFilename: audio.mp3
AudioLeadIn: 0
PreviewTime: 9133
Countdown: 0
SampleSet: None
StackLeniency: 0.7
Mode: 0
LetterboxInBreaks: 0
WidescreenStoryboard: 1

[Editor]
DistanceSpacing: 0.8
BeatDivisor: 8
GridSize: 8
TimelineZoom: 1.3

[Metadata]
Title:suzuran
TitleUnicode:和鸞
Artist:wumalutsufuri
ArtistUnicode:うまるつふり
Creator:Anima_Alumi-47
Version:Standard
Source:BMS
Tags:
BeatmapID:1100226
BeatmapSetID:517835

[Difficulty]
HPDrainRate:5
CircleSize:5
OverallDifficulty:5
ApproachRate:9
SliderMultiplier:1.9599999666214
SliderTickRate:1

[Events]
//Background and Video events
0,0,"bg.jpg",0,0
//Break Periods
//Storyboard Layer 0 (Background)
//Storyboard Layer 1 (Fail)
//Storyboard Layer 2 (Pass)
//Storyboard Layer 3 (Foreground)
//Storyboard Sound Samples

[TimingPoints]
2820,315.789473684211,4,3,0,100,1,0
3767,315.789473684211,4,3,0,100,1,0
4714,315.789473684211,4,3,0,100,1,0
5661,315.789473684211,4,3,0,100,1,0
6608,315.789473684211,4,3,0,100,1,0
7555,315.789473684211,4,3,0,100,1,0
8186,315.789473684211,4,3,0,100,1,0
91554,631.578947368421,4,3,0,100,1,0
101659,600,4,3,0,100,1,0
102859,545.454545454546,4,3,0,100,1,0
103949,500,4,3,0,100,1,0
104949,461.538461538462,4,3,0,100,1,0
105872,428.571428571429,4,3,0,100,1,0
106729,400,4,3,0,100,1,0
107529,375,4,3,0,100,1,0
108279,352.941176470588,4,3,0,100,1,0
108984,333.333333333333,4,3,0,100,1,0
109650,500,4,3,0,100,1,0
110150,631.578947368421,4,3,0,100,1,0
110781,315.789473684211,4,3,0,100,1,0
111096,-100,4,3,0,100,0,1
112991,315.789473684211,4,3,0,100,1,1
113938,315.789473684211,4,3,0,100,1,1
114885,315.789473684211,4,3,0,100,1,1
115832,315.789473684211,4,3,0,100,1,1
116779,315.789473684211,4,3,0,100,1,1
117726,315.789473684211,4,3,0,100,1,1
118673,315.789473684211,4,3,0,100,1,1
119620,315.789473684211,4,3,0,100,1,1
120251,315.789473684211,4,3,0,100,1,1
129093,-100,4,3,0,100,0,0

[HitObjects]
200,48,2504,5,6,0:0:0:0:
256,312,2820,5,4,0:0:0:0:
256,192,2977,1,4,0:0:0:0:
264,64,3135,1,0,0:0:0:0:
232,48,3175,1,0,0:0:0:0:
200,48,3214,1,0,0:0:0:0:
168,64,3254,1,0,0:0:0:0:
152,96,3293,1,2,0:0:0:0:
144,136,3333,1,2,0:0:0:0:
152,160,3372,1,2,0:0:0:0:
168,184,3412,1,2,0:0:0:0:
192,208,3451,1,0,0:0:0:0:
208,232,3491,1,0,0:0:0:0:
224,256,3530,1,0,0:0:0:0:
248,272,3570,1,0,0:0:0:0:
280,288,3609,1,2,0:0:0:0:
312,288,3648,1,2,0:0:0:0:
336,272,3688,1,2,0:0:0:0:
360,256,3727,1,2,0:0:0:0:
384,240,3767,5,4,0:0:0:0:
448,192,3924,1,4,0:0:0:0:
448,80,4082,1,0,0:0:0:0:
424,64,4122,1,0,0:0:0:0:
392,64,4161,1,0,0:0:0:0:
360,80,4201,1,0,0:0:0:0:
344,112,4240,1,2,0:0:0:0:
352,144,4280,1,2,0:0:0:0:
376,168,4319,1,2,0:0:0:0:
400,192,4359,1,2,0:0:0:0:
416,224,4398,1,0,0:0:0:0:
400,256,4438,1,0,0:0:0:0:
384,280,4477,1,0,0:0:0:0:
352,304,4517,1,0,0:0:0:0:
320,320,4556,1,2,0:0:0:0:
280,304,4595,1,2,0:0:0:0:
248,280,4635,1,2,0:0:0:0:
240,248,4674,1,2,0:0:0:0:
240,208,4714,5,4,0:0:0:0:
240,104,4871,1,4,0:0:0:0:
192,40,5029,1,0,0:0:0:0:
160,24,5069,1,0,0:0:0:0:
128,32,5108,1,0,0:0:0:0:
104,64,5148,1,0,0:0:0:0:
96,96,5187,1,2,0:0:0:0:
120,120,5227,1,2,0:0:0:0:
144,152,5266,1,2,0:0:0:0:
168,176,5306,1,2,0:0:0:0:
144,200,5345,1,0,0:0:0:0:
112,232,5385,1,0,0:0:0:0:
96,256,5424,1,0,0:0:0:0:
96,288,5464,1,0,0:0:0:0:
112,320,5503,1,2,0:0:0:0:
136,336,5542,1,2,0:0:0:0:
176,336,5582,1,2,0:0:0:0:
208,320,5621,1,2,0:0:0:0:
240,304,5661,5,4,0:0:0:0:
328,240,5818,1,4,0:0:0:0:
424,176,5976,1,2,0:0:0:0:
416,136,6016,1,2,0:0:0:0:
384,112,6055,1,2,0:0:0:0:
360,112,6095,1,2,0:0:0:0:
320,128,6134,1,2,0:0:0:0:
288,136,6174,1,2,0:0:0:0:
264,168,6213,1,2,0:0:0:0:
240,184,6253,1,2,0:0:0:0:
208,216,6292,1,0,0:0:0:0:
184,240,6332,1,0,0:0:0:0:
144,264,6371,1,0,0:0:0:0:
112,256,6411,1,0,0:0:0:0:
72,232,6450,1,0,0:0:0:0:
56,200,6489,1,0,0:0:0:0:
64,160,6529,1,0,0:0:0:0:
80,120,6568,1,0,0:0:0:0:
112,80,6608,5,4,0:0:0:0:
224,32,6765,1,4,0:0:0:0:
344,24,6923,1,0,0:0:0:0:
368,16,6963,1,0,0:0:0:0:
400,24,7002,1,0,0:0:0:0:
432,40,7042,1,0,0:0:0:0:
448,72,7081,1,2,0:0:0:0:
456,96,7121,1,2,0:0:0:0:
440,128,7160,1,2,0:0:0:0:
424,152,7200,1,2,0:0:0:0:
400,176,7239,1,0,0:0:0:0:
368,200,7279,1,0,0:0:0:0:
344,224,7318,1,0,0:0:0:0:
312,240,7358,1,0,0:0:0:0:
280,256,7397,1,2,0:0:0:0:
256,288,7436,1,2,0:0:0:0:
232,312,7476,1,2,0:0:0:0:
200,336,7515,1,2,0:0:0:0:
160,352,7555,5,4,0:0:0:0:
96,248,7712,1,4,0:0:0:0:
88,128,7870,1,2,0:0:0:0:
120,96,7910,1,2,0:0:0:0:
152,72,7949,1,2,0:0:0:0:
192,48,7989,1,2,0:0:0:0:
232,48,8028,1,0,0:0:0:0:
296,48,8107,1,0,0:0:0:0:
368,32,8186,6,0,P|424:72|456:104,1,97.99999833107
352,120,8501,2,0,P|416:160|440:176,1,97.99999833107
432,232,8817,2,0,P|384:256|336:288,1,97.99999833107
304,320,9133,1,0,0:0:0:0:
264,336,9212,1,0,0:0:0:0:
224,312,9291,1,0,0:0:0:0:
184,288,9370,1,2,0:0:0:0:
144,264,9449,5,0,0:0:0:0:
208,168,9607,1,0,0:0:0:0:
192,128,9686,1,0,0:0:0:0:
192,80,9764,2,0,P|248:48|296:40,1,97.99999833107
304,104,10080,2,0,P|352:128|400:144,1,97.99999833107
440,168,10317,1,0,0:0:0:0:
480,192,10396,1,2,0:0:0:0:
424,288,10554,1,2,0:0:0:0:
312,248,10712,5,0,0:0:0:0:
240,208,10870,1,2,0:0:0:0:
200,184,10949,1,2,0:0:0:0:
160,208,11028,1,0,0:0:0:0:
120,288,11186,1,2,0:0:0:0:
88,312,11264,1,0,0:0:0:0:
48,288,11343,1,2,0:0:0:0:
16,256,11422,1,0,0:0:0:0:
32,216,11501,1,2,0:0:0:0:
32,176,11580,1,0,0:0:0:0:
56,144,11659,1,0,0:0:0:0:
80,112,11738,1,0,0:0:0:0:
112,72,11817,1,0,0:0:0:0:
144,32,11896,1,2,0:0:0:0:
192,16,11975,5,2,0:0:0:0:
232,40,12014,1,0,0:0:0:0:
272,64,12054,1,0,0:0:0:0:
304,80,12093,1,0,0:0:0:0:
336,96,12133,1,2,0:0:0:0:
184,152,12291,1,0,0:0:0:0:
216,168,12330,1,0,0:0:0:0:
248,184,12370,1,0,0:0:0:0:
280,200,12409,1,0,0:0:0:0:
312,216,12449,1,2,0:0:0:0:
360,296,12607,1,0,0:0:0:0:
320,320,12646,1,0,0:0:0:0:
280,336,12686,1,0,0:0:0:0:
240,352,12725,1,0,0:0:0:0:
200,368,12764,1,2,0:0:0:0:
88,288,12922,1,0,0:0:0:0:
120,256,12962,1,0,0:0:0:0:
152,224,13001,1,0,0:0:0:0:
120,184,13041,1,0,0:0:0:0:
88,152,13080,1,2,0:0:0:0:
80,16,13238,5,2,0:0:0:0:
128,24,13278,1,2,0:0:0:0:
160,48,13317,1,2,0:0:0:0:
200,72,13357,1,2,0:0:0:0:
240,80,13396,1,2,0:0:0:0:
280,72,13436,1,2,0:0:0:0:
320,80,13475,1,2,0:0:0:0:
344,96,13514,1,2,0:0:0:0:
376,112,13553,1,0,0:0:0:0:
408,144,13593,1,0,0:0:0:0:
432,168,13632,1,0,0:0:0:0:
456,200,13672,1,0,0:0:0:0:
464,232,13711,1,0,0:0:0:0:
464,272,13751,1,0,0:0:0:0:
456,304,13790,1,0,0:0:0:0:
432,328,13830,1,0,0:0:0:0:
392,352,13870,1,2,0:0:0:0:
352,368,13909,1,2,0:0:0:0:
304,352,13949,1,2,0:0:0:0:
280,320,13988,1,2,0:0:0:0:
240,296,14028,1,2,0:0:0:0:
200,296,14067,1,2,0:0:0:0:
168,328,14107,1,2,0:0:0:0:
128,344,14146,1,2,0:0:0:0:
88,320,14186,1,0,0:0:0:0:
56,280,14225,1,0,0:0:0:0:
48,232,14264,1,0,0:0:0:0:
56,192,14304,1,0,0:0:0:0:
72,144,14343,1,0,0:0:0:0:
104,112,14383,1,0,0:0:0:0:
128,80,14422,1,0,0:0:0:0:
160,56,14462,1,0,0:0:0:0:
192,32,14501,5,0,0:0:0:0:
232,16,14541,1,0,0:0:0:0:
272,40,14580,1,0,0:0:0:0:
296,64,14620,1,0,0:0:0:0:
272,96,14659,1,0,0:0:0:0:
240,120,14699,1,0,0:0:0:0:
208,136,14738,1,0,0:0:0:0:
176,160,14778,1,0,0:0:0:0:
144,192,14817,1,0,0:0:0:0:
160,224,14857,1,0,0:0:0:0:
184,248,14896,1,0,0:0:0:0:
216,256,14936,1,0,0:0:0:0:
248,240,14975,1,0,0:0:0:0:
280,208,15014,1,0,0:0:0:0:
304,176,15054,1,0,0:0:0:0:
288,136,15093,1,0,0:0:0:0:
256,104,15133,1,2,0:0:0:0:
224,80,15172,1,2,0:0:0:0:
184,64,15212,1,2,0:0:0:0:
144,64,15251,1,2,0:0:0:0:
112,88,15291,1,2,0:0:0:0:
80,112,15330,1,2,0:0:0:0:
64,152,15370,1,2,0:0:0:0:
64,192,15409,1,2,0:0:0:0:
72,224,15449,1,0,0:0:0:0:
88,248,15488,1,0,0:0:0:0:
112,272,15528,1,0,0:0:0:0:
136,296,15567,1,0,0:0:0:0:
168,312,15607,1,0,0:0:0:0:
200,312,15646,1,0,0:0:0:0:
240,304,15686,1,0,0:0:0:0:
272,288,15725,1,0,0:0:0:0:
304,256,15764,5,2,0:0:0:0:
328,224,15804,1,2,0:0:0:0:
320,184,15843,1,2,0:0:0:0:
296,160,15883,1,2,0:0:0:0:
264,136,15922,1,2,0:0:0:0:
232,112,15962,1,2,0:0:0:0:
232,72,16001,1,2,0:0:0:0:
256,40,16041,1,2,0:0:0:0:
288,24,16080,1,0,0:0:0:0:
336,32,16120,1,0,0:0:0:0:
384,56,16159,1,0,0:0:0:0:
416,88,16199,1,0,0:0:0:0:
440,128,16238,1,0,0:0:0:0:
456,160,16278,1,0,0:0:0:0:
464,208,16317,1,0,0:0:0:0:
440,240,16357,1,0,0:0:0:0:
416,272,16396,1,0,0:0:0:0:
392,304,16436,1,0,0:0:0:0:
352,328,16475,1,0,0:0:0:0:
304,336,16514,1,0,0:0:0:0:
272,336,16554,1,0,0:0:0:0:
224,320,16593,1,0,0:0:0:0:
200,304,16633,1,0,0:0:0:0:
168,272,16672,1,0,0:0:0:0:
160,232,16712,1,2,0:0:0:0:
184,192,16751,1,2,0:0:0:0:
216,160,16791,1,2,0:0:0:0:
232,120,16830,1,2,0:0:0:0:
216,80,16870,1,2,0:0:0:0:
184,48,16909,1,2,0:0:0:0:
152,40,16949,1,2,0:0:0:0:
104,32,16988,1,2,0:0:0:0:
64,48,17028,5,2,0:0:0:0:
48,80,17067,1,2,0:0:0:0:
48,128,17107,1,2,0:0:0:0:
64,160,17146,1,2,0:0:0:0:
80,200,17186,1,2,0:0:0:0:
64,232,17225,1,2,0:0:0:0:
48,272,17264,1,2,0:0:0:0:
56,312,17304,1,2,0:0:0:0:
88,336,17343,1,0,0:0:0:0:
128,352,17383,1,0,0:0:0:0:
176,352,17422,1,0,0:0:0:0:
224,344,17462,1,0,0:0:0:0:
264,328,17501,1,0,0:0:0:0:
296,304,17541,1,0,0:0:0:0:
336,280,17580,1,0,0:0:0:0:
368,256,17620,1,0,0:0:0:0:
392,216,17659,1,2,0:0:0:0:
376,176,17699,1,2,0:0:0:0:
336,160,17738,1,2,0:0:0:0:
304,184,17778,1,2,0:0:0:0:
280,216,17817,1,2,0:0:0:0:
256,256,17857,1,2,0:0:0:0:
224,256,17896,1,2,0:0:0:0:
184,232,17936,1,2,0:0:0:0:
192,192,17975,1,0,0:0:0:0:
168,168,18014,1,0,0:0:0:0:
128,144,18054,1,0,0:0:0:0:
104,112,18093,1,0,0:0:0:0:
120,72,18133,1,0,0:0:0:0:
152,48,18172,1,0,0:0:0:0:
184,32,18212,1,0,0:0:0:0:
224,56,18251,1,0,0:0:0:0:
264,88,18291,5,2,0:0:0:0:
296,112,18330,1,2,0:0:0:0:
328,128,18370,1,2,0:0:0:0:
360,112,18409,1,2,0:0:0:0:
392,88,18449,1,2,0:0:0:0:
424,64,18488,1,0,0:0:0:0:
464,80,18528,1,0,0:0:0:0:
488,112,18567,1,0,0:0:0:0:
496,152,18607,1,0,0:0:0:0:
488,192,18646,1,0,0:0:0:0:
464,224,18686,1,0,0:0:0:0:
448,256,18725,1,0,0:0:0:0:
416,288,18764,1,0,0:0:0:0:
384,312,18804,1,0,0:0:0:0:
344,320,18843,1,0,0:0:0:0:
304,312,18883,1,0,0:0:0:0:
272,288,18922,1,2,0:0:0:0:
232,272,18962,1,2,0:0:0:0:
192,288,19001,1,2,0:0:0:0:
160,320,19041,1,2,0:0:0:0:
128,344,19080,1,2,0:0:0:0:
88,320,19120,1,0,0:0:0:0:
48,288,19159,1,0,0:0:0:0:
32,248,19199,1,0,0:0:0:0:
32,208,19238,1,0,0:0:0:0:
40,168,19278,1,0,0:0:0:0:
64,128,19317,1,0,0:0:0:0:
96,96,19357,1,0,0:0:0:0:
112,72,19396,1,0,0:0:0:0:
144,40,19436,1,0,0:0:0:0:
184,24,19475,1,0,0:0:0:0:
224,16,19514,1,0,0:0:0:0:
272,16,19554,5,0,0:0:0:0:
304,48,19593,1,0,0:0:0:0:
288,80,19633,1,0,0:0:0:0:
256,104,19672,1,0,0:0:0:0:
224,136,19712,1,0,0:0:0:0:
208,176,19751,1,0,0:0:0:0:
232,208,19791,1,0,0:0:0:0:
264,240,19830,1,0,0:0:0:0:
304,232,19870,1,0,0:0:0:0:
336,192,19909,1,0,0:0:0:0:
368,168,19949,1,0,0:0:0:0:
408,176,19988,1,0,0:0:0:0:
440,208,20028,1,0,0:0:0:0:
448,248,20067,1,0,0:0:0:0:
440,288,20107,1,0,0:0:0:0:
408,320,20146,1,0,0:0:0:0:
368,336,20186,1,2,0:0:0:0:
320,328,20225,1,2,0:0:0:0:
296,352,20264,1,2,0:0:0:0:
248,360,20304,1,2,0:0:0:0:
208,344,20343,1,2,0:0:0:0:
168,320,20383,1,2,0:0:0:0:
184,280,20422,1,2,0:0:0:0:
208,248,20462,1,2,0:0:0:0:
176,224,20501,1,0,0:0:0:0:
136,192,20541,1,0,0:0:0:0:
112,160,20580,1,0,0:0:0:0:
120,120,20620,1,0,0:0:0:0:
144,80,20659,1,0,0:0:0:0:
168,56,20699,1,0,0:0:0:0:
208,32,20738,1,0,0:0:0:0:
248,24,20778,1,0,0:0:0:0:
272,56,20817,5,0,0:0:0:0:
304,96,20857,1,0,0:0:0:0:
344,112,20896,1,0,0:0:0:0:
384,88,20936,1,0,0:0:0:0:
408,64,20975,1,0,0:0:0:0:
448,48,21014,1,0,0:0:0:0:
480,72,21054,1,0,0:0:0:0:
488,104,21093,1,0,0:0:0:0:
480,152,21133,1,2,0:0:0:0:
448,184,21172,1,2,0:0:0:0:
408,208,21212,1,2,0:0:0:0:
384,240,21251,1,2,0:0:0:0:
400,280,21291,1,2,0:0:0:0:
440,304,21330,1,2,0:0:0:0:
480,328,21370,1,2,0:0:0:0:
464,368,21409,1,2,0:0:0:0:
416,384,21449,1,0,0:0:0:0:
376,360,21488,1,0,0:0:0:0:
336,336,21528,1,0,0:0:0:0:
296,304,21567,1,0,0:0:0:0:
264,288,21607,1,0,0:0:0:0:
224,296,21646,1,0,0:0:0:0:
184,320,21685,1,0,0:0:0:0:
144,336,21725,1,0,0:0:0:0:
112,304,21764,1,2,0:0:0:0:
72,280,21804,1,2,0:0:0:0:
80,240,21843,1,2,0:0:0:0:
112,208,21883,1,2,0:0:0:0:
144,176,21922,1,2,0:0:0:0:
120,144,21962,1,2,0:0:0:0:
96,112,22001,1,2,0:0:0:0:
104,64,22041,1,2,0:0:0:0:
136,32,22080,5,0,0:0:0:0:
176,56,22120,1,0,0:0:0:0:
224,80,22159,1,0,0:0:0:0:
264,104,22199,1,0,0:0:0:0:
304,128,22238,1,2,0:0:0:0:
264,160,22278,1,2,0:0:0:0:
224,184,22317,1,2,0:0:0:0:
184,208,22357,1,2,0:0:0:0:
144,240,22396,1,0,0:0:0:0:
184,272,22436,1,0,0:0:0:0:
224,296,22475,1,0,0:0:0:0:
272,320,22514,1,0,0:0:0:0:
312,344,22554,1,2,0:0:0:0:
360,320,22593,1,2,0:0:0:0:
408,296,22633,1,2,0:0:0:0:
448,272,22672,1,2,0:0:0:0:
496,240,22712,1,0,0:0:0:0:
448,216,22751,1,0,0:0:0:0:
408,192,22791,1,0,0:0:0:0:
368,176,22830,1,0,0:0:0:0:
328,152,22870,1,2,0:0:0:0:
368,128,22909,1,2,0:0:0:0:
416,104,22949,1,2,0:0:0:0:
456,88,22988,1,2,0:0:0:0:
504,72,23028,1,0,0:0:0:0:
456,40,23067,1,0,0:0:0:0:
408,24,23107,1,0,0:0:0:0:
368,8,23146,1,0,0:0:0:0:
328,0,23186,1,2,0:0:0:0:
288,24,23225,1,2,0:0:0:0:
248,48,23264,1,2,0:0:0:0:
208,72,23304,1,2,0:0:0:0:
176,24,23343,5,2,0:0:0:0:
128,0,23383,1,2,0:0:0:0:
80,24,23422,1,2,0:0:0:0:
64,64,23462,1,2,0:0:0:0:
80,112,23501,1,2,0:0:0:0:
104,144,23541,1,2,0:0:0:0:
96,184,23580,1,2,0:0:0:0:
64,224,23620,1,2,0:0:0:0:
48,264,23659,1,0,0:0:0:0:
64,304,23699,1,0,0:0:0:0:
88,336,23738,1,0,0:0:0:0:
112,352,23778,1,0,0:0:0:0:
160,352,23817,1,0,0:0:0:0:
208,336,23857,1,0,0:0:0:0:
240,312,23896,1,0,0:0:0:0:
272,280,23936,1,0,0:0:0:0:
304,240,23975,1,2,0:0:0:0:
272,200,24014,1,2,0:0:0:0:
232,168,24054,1,2,0:0:0:0:
216,128,24093,1,2,0:0:0:0:
224,88,24133,1,2,0:0:0:0:
256,64,24172,1,2,0:0:0:0:
280,32,24212,1,2,0:0:0:0:
320,16,24251,1,2,0:0:0:0:
360,24,24291,1,0,0:0:0:0:
392,48,24330,1,0,0:0:0:0:
416,88,24370,1,0,0:0:0:0:
448,128,24409,1,0,0:0:0:0:
424,160,24449,1,0,0:0:0:0:
408,192,24488,1,0,0:0:0:0:
384,232,24528,1,0,0:0:0:0:
408,272,24567,1,0,0:0:0:0:
456,296,24607,5,2,0:0:0:0:
424,344,24646,1,2,0:0:0:0:
384,360,24686,1,2,0:0:0:0:
328,352,24725,1,2,0:0:0:0:
280,352,24764,1,2,0:0:0:0:
224,368,24804,1,2,0:0:0:0:
176,360,24843,1,2,0:0:0:0:
128,352,24883,1,2,0:0:0:0:
80,328,24922,1,0,0:0:0:0:
48,288,24962,1,0,0:0:0:0:
64,240,25001,1,0,0:0:0:0:
96,200,25041,1,0,0:0:0:0:
144,176,25080,1,0,0:0:0:0:
184,152,25120,1,0,0:0:0:0:
224,112,25159,1,0,0:0:0:0:
184,72,25199,1,0,0:0:0:0:
224,24,25238,1,2,0:0:0:0:
264,0,25278,1,2,0:0:0:0:
320,16,25317,1,2,0:0:0:0:
360,40,25357,1,2,0:0:0:0:
400,72,25396,1,2,0:0:0:0:
432,40,25436,1,2,0:0:0:0:
464,72,25475,1,2,0:0:0:0:
496,104,25514,1,2,0:0:0:0:
480,152,25554,1,0,0:0:0:0:
456,184,25593,1,0,0:0:0:0:
424,224,25633,1,0,0:0:0:0:
432,264,25672,1,0,0:0:0:0:
464,304,25712,1,0,0:0:0:0:
472,344,25751,1,0,0:0:0:0:
432,368,25790,1,0,0:0:0:0:
392,360,25830,1,0,0:0:0:0:
344,328,25870,5,2,0:0:0:0:
296,328,25909,1,2,0:0:0:0:
256,344,25949,1,2,0:0:0:0:
208,368,25988,1,2,0:0:0:0:
160,352,26028,1,2,0:0:0:0:
120,336,26067,1,2,0:0:0:0:
80,320,26107,1,2,0:0:0:0:
48,288,26146,1,2,0:0:0:0:
32,240,26186,1,0,0:0:0:0:
56,200,26225,1,0,0:0:0:0:
40,160,26264,1,0,0:0:0:0:
48,112,26304,1,0,0:0:0:0:
80,80,26343,1,0,0:0:0:0:
120,48,26383,1,0,0:0:0:0:
160,24,26422,1,0,0:0:0:0:
208,8,26462,1,0,0:0:0:0:
240,48,26501,1,2,0:0:0:0:
264,88,26541,1,2,0:0:0:0:
304,96,26580,1,2,0:0:0:0:
344,80,26620,1,2,0:0:0:0:
384,104,26659,1,2,0:0:0:0:
432,128,26699,1,2,0:0:0:0:
464,160,26738,1,2,0:0:0:0:
496,192,26778,1,2,0:0:0:0:
496,240,26817,1,0,0:0:0:0:
464,272,26857,1,0,0:0:0:0:
432,304,26896,1,0,0:0:0:0:
400,336,26936,1,0,0:0:0:0:
360,344,26975,1,0,0:0:0:0:
320,360,27014,1,0,0:0:0:0:
280,336,27054,1,0,0:0:0:0:
240,312,27093,1,0,0:0:0:0:
208,280,27133,5,0,0:0:0:0:
168,280,27172,1,0,0:0:0:0:
120,256,27212,1,0,0:0:0:0:
80,216,27251,1,0,0:0:0:0:
96,176,27291,1,0,0:0:0:0:
104,128,27330,1,0,0:0:0:0:
120,96,27370,1,0,0:0:0:0:
152,56,27409,1,0,0:0:0:0:
192,32,27449,1,2,0:0:0:0:
232,48,27488,1,2,0:0:0:0:
264,72,27528,1,2,0:0:0:0:
312,80,27567,1,2,0:0:0:0:
352,48,27607,1,2,0:0:0:0:
400,40,27646,1,2,0:0:0:0:
440,72,27686,1,2,0:0:0:0:
472,104,27725,1,2,0:0:0:0:
488,152,27764,2,0,P|440:184|400:200,1,97.99999833107
208,152,28001,2,0,P|272:192|312:208,1,97.99999833107
400,280,28238,2,0,P|448:296|488:328,1,97.99999833107
296,280,28475,6,0,P|248:304|200:328,1,97.99999833107
344,176,28712,2,0,P|336:128|304:88,1,97.99999833107
184,176,28949,2,0,P|184:128|224:96,1,97.99999833107
264,176,29186,2,0,P|280:232|256:272,1,97.99999833107
264,120,29422,2,0,P|232:72|248:32,1,97.99999833107
264,192,29659,5,4,0:0:0:0:
256,192,30922,5,4,0:0:0:0:
256,320,31238,1,0,0:0:0:0:
304,344,31317,1,0,0:0:0:0:
352,320,31396,1,2,0:0:0:0:
392,296,31475,1,2,0:0:0:0:
376,248,31554,1,0,0:0:0:0:
344,208,31633,1,0,0:0:0:0:
336,160,31712,1,2,0:0:0:0:
376,128,31791,1,2,0:0:0:0:
432,152,31870,1,0,0:0:0:0:
456,184,31949,1,0,0:0:0:0:
480,232,32028,1,2,0:0:0:0:
448,272,32107,1,2,0:0:0:0:
408,304,32186,5,0,0:0:0:0:
376,336,32264,1,0,0:0:0:0:
328,328,32343,1,2,0:0:0:0:
280,304,32422,1,2,0:0:0:0:
240,288,32501,1,0,0:0:0:0:
208,320,32580,1,0,0:0:0:0:
160,336,32659,1,2,0:0:0:0:
120,304,32738,1,2,0:0:0:0:
88,264,32817,1,0,0:0:0:0:
48,240,32896,1,0,0:0:0:0:
80,208,32975,1,2,0:0:0:0:
120,192,33054,1,2,0:0:0:0:
152,216,33133,1,0,0:0:0:0:
192,248,33212,1,0,0:0:0:0:
232,240,33291,1,2,0:0:0:0:
272,216,33370,1,2,0:0:0:0:
312,200,33449,5,0,0:0:0:0:
344,240,33528,1,0,0:0:0:0:
376,280,33607,1,2,0:0:0:0:
416,288,33686,1,2,0:0:0:0:
456,264,33764,1,0,0:0:0:0:
480,224,33843,1,0,0:0:0:0:
448,192,33922,1,2,0:0:0:0:
408,176,34001,1,2,0:0:0:0:
376,144,34080,1,0,0:0:0:0:
400,112,34159,1,0,0:0:0:0:
432,88,34238,1,2,0:0:0:0:
416,48,34317,1,2,0:0:0:0:
376,24,34396,1,0,0:0:0:0:
328,32,34475,1,0,0:0:0:0:
296,48,34554,1,2,0:0:0:0:
288,80,34633,1,2,0:0:0:0:
296,128,34712,5,0,0:0:0:0:
320,160,34791,1,0,0:0:0:0:
288,200,34870,1,2,0:0:0:0:
256,224,34949,1,2,0:0:0:0:
208,208,35028,2,0,P|168:192|152:200,1,48.999999165535
248,264,35186,2,0,P|296:280|304:296,1,48.999999165535
272,192,35343,2,0,P|272:152|288:136,1,48.999999165535
184,280,35501,2,0,P|144:296|144:320,1,48.999999165535
224,312,35659,2,0,P|224:344|240:352,1,48.999999165535
224,144,35817,2,0,P|232:112|208:96,1,48.999999165535
216,48,35975,5,0,0:0:0:0:
256,24,36054,1,0,0:0:0:0:
296,48,36133,1,2,0:0:0:0:
320,88,36212,1,2,0:0:0:0:
304,128,36291,1,0,0:0:0:0:
288,160,36370,1,0,0:0:0:0:
304,200,36449,1,2,0:0:0:0:
336,232,36528,1,2,0:0:0:0:
376,208,36607,1,0,0:0:0:0:
400,184,36686,1,0,0:0:0:0:
448,176,36764,1,2,0:0:0:0:
480,208,36843,1,2,0:0:0:0:
488,256,36922,1,0,0:0:0:0:
464,288,37001,1,0,0:0:0:0:
424,320,37080,1,2,0:0:0:0:
376,336,37159,1,2,0:0:0:0:
336,304,37238,5,0,0:0:0:0:
288,288,37317,1,0,0:0:0:0:
240,320,37396,1,2,0:0:0:0:
192,344,37475,1,2,0:0:0:0:
136,336,37554,1,0,0:0:0:0:
96,312,37633,1,0,0:0:0:0:
64,272,37712,1,2,0:0:0:0:
64,224,37791,1,2,0:0:0:0:
96,184,37870,1,0,0:0:0:0:
136,176,37949,1,0,0:0:0:0:
168,208,38028,1,2,0:0:0:0:
200,240,38107,1,2,0:0:0:0:
248,240,38186,1,0,0:0:0:0:
280,216,38264,1,0,0:0:0:0:
296,184,38343,1,2,0:0:0:0:
288,144,38422,1,2,0:0:0:0:
240,128,38501,5,0,0:0:0:0:
192,144,38580,1,0,0:0:0:0:
160,168,38659,1,2,0:0:0:0:
120,152,38738,1,2,0:0:0:0:
80,120,38817,1,0,0:0:0:0:
80,80,38896,1,0,0:0:0:0:
112,40,38975,1,2,0:0:0:0:
144,32,39054,1,2,0:0:0:0:
176,64,39133,1,0,0:0:0:0:
208,104,39212,1,0,0:0:0:0:
232,144,39291,1,2,0:0:0:0:
248,184,39370,1,2,0:0:0:0:
272,224,39449,1,0,0:0:0:0:
320,240,39528,1,0,0:0:0:0:
352,216,39607,1,2,0:0:0:0:
384,184,39686,1,2,0:0:0:0:
432,168,39764,5,0,0:0:0:0:
296,112,39843,1,2,0:0:0:0:
432,248,39922,1,0,0:0:0:0:
296,200,40001,1,2,0:0:0:0:
432,320,40080,1,0,0:0:0:0:
296,272,40159,1,2,0:0:0:0:
432,384,40238,1,0,0:0:0:0:
296,336,40317,1,2,0:0:0:0:
136,376,40396,1,0,0:0:0:0:
296,272,40475,1,2,0:0:0:0:
136,312,40554,1,0,0:0:0:0:
296,208,40633,1,2,0:0:0:0:
136,248,40712,1,0,0:0:0:0:
296,144,40791,1,2,0:0:0:0:
136,192,40870,1,0,0:0:0:0:
296,80,40949,1,2,0:0:0:0:
136,128,41028,5,4,0:0:0:0:
296,16,41343,1,0,0:0:0:0:
344,40,41422,1,0,0:0:0:0:
360,80,41501,1,2,0:0:0:0:
328,128,41580,1,2,0:0:0:0:
296,168,41659,1,0,0:0:0:0:
328,208,41738,1,0,0:0:0:0:
376,208,41817,1,2,0:0:0:0:
408,168,41896,1,2,0:0:0:0:
448,136,41975,1,0,0:0:0:0:
488,160,42054,1,0,0:0:0:0:
504,208,42133,1,2,0:0:0:0:
480,248,42212,1,2,0:0:0:0:
464,288,42291,5,0,0:0:0:0:
464,336,42370,1,0,0:0:0:0:
424,368,42449,1,2,0:0:0:0:
384,352,42528,1,2,0:0:0:0:
344,328,42607,1,0,0:0:0:0:
304,352,42686,1,0,0:0:0:0:
264,368,42764,1,2,0:0:0:0:
224,352,42843,1,2,0:0:0:0:
192,312,42922,1,0,0:0:0:0:
232,272,43001,1,0,0:0:0:0:
272,240,43080,1,2,0:0:0:0:
304,200,43159,1,2,0:0:0:0:
288,160,43238,1,0,0:0:0:0:
256,112,43317,1,0,0:0:0:0:
208,120,43396,1,2,0:0:0:0:
168,160,43475,1,2,0:0:0:0:
168,208,43554,5,0,0:0:0:0:
192,240,43633,1,0,0:0:0:0:
224,280,43712,1,2,0:0:0:0:
208,320,43791,1,2,0:0:0:0:
168,344,43870,1,0,0:0:0:0:
112,328,43949,1,0,0:0:0:0:
72,296,44028,1,2,0:0:0:0:
56,248,44107,1,2,0:0:0:0:
80,200,44186,1,0,0:0:0:0:
120,168,44264,1,0,0:0:0:0:
88,128,44343,1,2,0:0:0:0:
64,88,44422,1,2,0:0:0:0:
88,48,44501,1,0,0:0:0:0:
120,16,44580,1,0,0:0:0:0:
160,40,44659,1,2,0:0:0:0:
192,72,44738,1,2,0:0:0:0:
232,104,44817,5,0,0:0:0:0:
280,120,44896,1,0,0:0:0:0:
320,88,44975,1,2,0:0:0:0:
360,64,45054,1,2,0:0:0:0:
408,80,45133,1,0,0:0:0:0:
440,120,45212,1,2,0:0:0:0:
400,144,45291,1,2,0:0:0:0:
360,176,45370,1,2,0:0:0:0:
320,200,45449,1,0,0:0:0:0:
456,224,45528,1,2,0:0:0:0:
424,248,45607,1,2,0:0:0:0:
384,272,45686,1,2,0:0:0:0:
344,288,45764,1,0,0:0:0:0:
512,304,45843,1,2,0:0:0:0:
464,328,45922,1,2,0:0:0:0:
424,352,46001,1,2,0:0:0:0:
376,376,46080,5,0,0:0:0:0:
328,360,46159,1,0,0:0:0:0:
280,368,46238,1,2,0:0:0:0:
232,352,46317,1,2,0:0:0:0:
184,368,46396,1,0,0:0:0:0:
128,384,46475,1,0,0:0:0:0:
88,344,46554,1,2,0:0:0:0:
64,304,46633,1,2,0:0:0:0:
104,256,46712,1,0,0:0:0:0:
104,200,46791,1,0,0:0:0:0:
64,160,46870,1,2,0:0:0:0:
24,128,46949,1,2,0:0:0:0:
64,88,47028,1,0,0:0:0:0:
96,48,47107,1,0,0:0:0:0:
120,16,47186,1,2,0:0:0:0:
160,40,47264,1,2,0:0:0:0:
192,88,47343,5,0,0:0:0:0:
224,128,47422,1,0,0:0:0:0:
272,152,47501,1,2,0:0:0:0:
312,112,47580,1,2,0:0:0:0:
280,72,47659,1,0,0:0:0:0:
304,32,47738,1,0,0:0:0:0:
352,32,47817,1,2,0:0:0:0:
392,64,47896,1,2,0:0:0:0:
432,96,47975,1,0,0:0:0:0:
416,144,48054,1,0,0:0:0:0:
448,192,48133,1,2,0:0:0:0:
488,224,48212,1,2,0:0:0:0:
480,272,48291,1,0,0:0:0:0:
440,304,48370,1,0,0:0:0:0:
384,320,48449,1,2,0:0:0:0:
336,296,48528,1,2,0:0:0:0:
304,256,48607,5,0,0:0:0:0:
272,216,48686,1,0,0:0:0:0:
224,232,48764,1,2,0:0:0:0:
184,264,48843,1,2,0:0:0:0:
216,304,48922,1,0,0:0:0:0:
256,336,49001,1,0,0:0:0:0:
208,368,49080,1,2,0:0:0:0:
160,368,49159,1,2,0:0:0:0:
120,336,49238,1,0,0:0:0:0:
80,304,49317,1,0,0:0:0:0:
104,256,49396,1,2,0:0:0:0:
136,208,49475,1,2,0:0:0:0:
168,160,49554,1,0,0:0:0:0:
152,112,49633,1,0,0:0:0:0:
184,72,49712,1,2,0:0:0:0:
232,40,49791,1,2,0:0:0:0:
272,8,49870,5,0,0:0:0:0:
432,40,49949,1,2,0:0:0:0:
272,64,50028,1,0,0:0:0:0:
432,96,50107,1,2,0:0:0:0:
264,120,50186,1,0,0:0:0:0:
456,144,50264,1,2,0:0:0:0:
232,168,50343,1,0,0:0:0:0:
488,192,50422,1,2,0:0:0:0:
184,208,50501,1,0,0:0:0:0:
496,248,50580,1,2,0:0:0:0:
160,256,50659,1,0,0:0:0:0:
496,304,50738,1,2,0:0:0:0:
128,304,50817,1,0,0:0:0:0:
496,352,50896,1,2,0:0:0:0:
80,336,50975,1,0,0:0:0:0:
272,360,51054,1,0,0:0:0:0:
464,336,51133,5,0,0:0:0:0:
424,304,51172,1,0,0:0:0:0:
384,280,51212,1,0,0:0:0:0:
344,256,51251,1,0,0:0:0:0:
304,224,51291,1,0,0:0:0:0:
264,200,51330,1,0,0:0:0:0:
224,176,51370,1,0,0:0:0:0:
192,152,51409,1,0,0:0:0:0:
160,128,51449,1,0,0:0:0:0:
168,48,51607,1,0,0:0:0:0:
240,32,51764,1,0,0:0:0:0:
272,80,51843,2,0,P|304:120|344:112,2,48.999999165535
320,48,52080,1,0,0:0:0:0:
384,24,52159,2,0,L|440:40,2,48.999999165535
392,96,52396,5,2,0:0:0:0:
432,128,52475,1,2,0:0:0:0:
440,176,52554,1,0,0:0:0:0:
400,200,52633,1,0,0:0:0:0:
448,232,52712,1,0,0:0:0:0:
400,256,52791,1,0,0:0:0:0:
448,288,52870,1,0,0:0:0:0:
400,312,52949,1,0,0:0:0:0:
344,344,53028,1,2,0:0:0:0:
288,320,53107,1,2,0:0:0:0:
232,288,53186,1,0,0:0:0:0:
184,256,53264,1,0,0:0:0:0:
240,232,53343,1,0,0:0:0:0:
184,200,53422,1,0,0:0:0:0:
240,176,53501,1,0,0:0:0:0:
184,144,53580,1,0,0:0:0:0:
184,88,53659,5,0,0:0:0:0:
168,32,53738,2,0,L|104:56,1,48.999999165535
72,80,53896,1,0,0:0:0:0:
112,128,53975,2,0,L|64:152,1,48.999999165535
152,168,54133,1,2,0:0:0:0:
16,176,54212,1,0,0:0:0:0:
112,192,54291,2,0,L|64:216,1,48.999999165535
96,280,54449,2,0,L|144:248,1,48.999999165535
160,320,54607,1,2,0:0:0:0:
216,336,54686,2,0,L|264:304,1,48.999999165535
312,336,54843,1,2,0:0:0:0:
368,360,54922,5,2,0:0:0:0:
416,360,55001,1,2,0:0:0:0:
448,320,55080,1,2,0:0:0:0:
416,288,55159,1,2,0:0:0:0:
472,264,55238,1,0,0:0:0:0:
504,232,55317,1,2,0:0:0:0:
472,200,55396,1,0,0:0:0:0:
424,168,55475,1,0,0:0:0:0:
472,136,55554,1,2,0:0:0:0:
480,96,55633,1,0,0:0:0:0:
440,56,55712,1,0,0:0:0:0:
392,32,55791,1,0,0:0:0:0:
344,48,55870,1,2,0:0:0:0:
312,80,55949,1,0,0:0:0:0:
336,120,56028,1,0,0:0:0:0:
344,168,56107,1,2,0:0:0:0:
320,208,56186,5,0,0:0:0:0:
72,200,56343,1,0,0:0:0:0:
128,232,56383,1,0,0:0:0:0:
184,256,56422,1,0,0:0:0:0:
240,280,56462,1,0,0:0:0:0:
296,304,56501,1,0,0:0:0:0:
344,304,56580,1,2,0:0:0:0:
384,336,56659,1,0,0:0:0:0:
416,304,56738,1,2,0:0:0:0:
456,328,56817,1,0,0:0:0:0:
488,288,56896,1,2,0:0:0:0:
456,256,56975,1,0,0:0:0:0:
408,224,57054,1,0,0:0:0:0:
416,184,57133,1,2,0:0:0:0:
384,152,57212,1,0,0:0:0:0:
352,120,57291,1,0,0:0:0:0:
384,80,57370,1,0,0:0:0:0:
384,32,57449,6,2,L|336:40,1,48.999999165535
304,64,57607,1,0,0:0:0:0:
256,48,57686,1,0,0:0:0:0:
208,80,57764,1,0,0:0:0:0:
160,56,57843,1,0,0:0:0:0:
120,96,57922,1,0,0:0:0:0:
64,96,58001,1,0,0:0:0:0:
56,152,58080,2,0,L|96:184,1,48.999999165535
144,200,58238,1,0,0:0:0:0:
192,168,58317,1,2,0:0:0:0:
240,208,58396,1,0,0:0:0:0:
288,184,58475,1,2,0:0:0:0:
336,208,58554,1,0,0:0:0:0:
392,232,58633,1,0,0:0:0:0:
440,256,58712,5,0,0:0:0:0:
488,280,58791,2,0,L|432:312,1,48.999999165535
504,352,58949,1,0,0:0:0:0:
448,360,59028,2,0,L|376:344,1,48.999999165535
352,320,59186,1,0,0:0:0:0:
312,344,59264,2,0,L|264:352,1,48.999999165535
144,352,59422,2,0,L|224:352,1,48.999999165535
224,288,59580,1,0,0:0:0:0:
160,280,59659,2,0,L|208:240,1,48.999999165535
192,192,59817,1,2,0:0:0:0:
144,160,59896,1,0,0:0:0:0:
104,136,59975,5,2,0:0:0:0:
192,96,60054,1,2,0:0:0:0:
104,72,60133,1,2,0:0:0:0:
192,32,60212,1,2,0:0:0:0:
232,8,60291,1,0,0:0:0:0:
280,24,60370,1,0,0:0:0:0:
328,56,60449,1,0,0:0:0:0:
376,88,60528,1,0,0:0:0:0:
424,120,60607,1,2,0:0:0:0:
296,160,60686,1,2,0:0:0:0:
432,208,60764,1,2,0:0:0:0:
288,232,60843,1,2,0:0:0:0:
432,312,60922,1,0,0:0:0:0:
384,344,61001,1,0,0:0:0:0:
336,360,61080,1,0,0:0:0:0:
288,368,61159,1,0,0:0:0:0:
248,344,61238,5,0,0:0:0:0:
72,272,61396,1,0,0:0:0:0:
120,240,61436,1,0,0:0:0:0:
168,208,61475,1,0,0:0:0:0:
224,184,61514,1,0,0:0:0:0:
272,160,61554,1,2,0:0:0:0:
320,128,61633,1,2,0:0:0:0:
272,88,61712,1,0,0:0:0:0:
320,56,61791,1,2,0:0:0:0:
368,24,61870,1,0,0:0:0:0:
416,48,61949,1,2,0:0:0:0:
416,88,62028,1,0,0:0:0:0:
392,128,62107,1,0,0:0:0:0:
440,160,62186,1,2,0:0:0:0:
480,184,62264,1,0,0:0:0:0:
488,232,62343,1,0,0:0:0:0:
464,272,62422,1,0,0:0:0:0:
440,312,62501,5,2,0:0:0:0:
400,344,62580,1,2,0:0:0:0:
368,288,62659,1,0,0:0:0:0:
336,344,62738,1,0,0:0:0:0:
288,288,62817,1,0,0:0:0:0:
256,352,62896,1,0,0:0:0:0:
216,288,62975,1,0,0:0:0:0:
168,344,63054,1,0,0:0:0:0:
112,296,63133,1,2,0:0:0:0:
80,240,63212,1,2,0:0:0:0:
136,208,63291,1,0,0:0:0:0:
88,168,63370,1,0,0:0:0:0:
160,152,63449,1,0,0:0:0:0:
80,104,63528,1,0,0:0:0:0:
208,88,63607,1,0,0:0:0:0:
56,40,63686,1,0,0:0:0:0:
208,16,63764,5,0,0:0:0:0:
432,120,63922,1,0,0:0:0:0:
384,152,63962,1,0,0:0:0:0:
336,176,64001,1,0,0:0:0:0:
280,192,64041,1,0,0:0:0:0:
224,200,64080,1,2,0:0:0:0:
160,192,64159,1,2,0:0:0:0:
128,240,64238,1,0,0:0:0:0:
160,288,64317,1,2,0:0:0:0:
200,320,64396,1,0,0:0:0:0:
240,288,64475,1,2,0:0:0:0:
280,328,64554,1,0,0:0:0:0:
304,368,64633,1,0,0:0:0:0:
344,336,64712,1,2,0:0:0:0:
336,296,64791,1,0,0:0:0:0:
320,248,64870,1,0,0:0:0:0:
336,200,64949,1,0,0:0:0:0:
360,144,65028,5,2,0:0:0:0:
400,184,65107,1,0,0:0:0:0:
448,160,65186,1,2,0:0:0:0:
488,136,65264,1,2,0:0:0:0:
448,104,65343,1,0,0:0:0:0:
480,64,65422,1,2,0:0:0:0:
424,40,65501,1,0,0:0:0:0:
368,16,65580,1,2,0:0:0:0:
320,48,65659,1,0,0:0:0:0:
272,80,65738,1,0,0:0:0:0:
312,128,65817,1,2,0:0:0:0:
328,176,65896,1,0,0:0:0:0:
336,216,65975,1,0,0:0:0:0:
368,240,66054,1,2,0:0:0:0:
368,280,66133,1,0,0:0:0:0:
336,312,66212,1,0,0:0:0:0:
304,336,66291,5,0,0:0:0:0:
96,288,66449,1,0,0:0:0:0:
144,264,66488,1,0,0:0:0:0:
200,240,66528,1,0,0:0:0:0:
256,216,66567,1,0,0:0:0:0:
304,192,66607,1,2,0:0:0:0:
344,152,66686,1,2,0:0:0:0:
384,208,66764,1,0,0:0:0:0:
408,168,66843,1,2,0:0:0:0:
448,216,66922,1,0,0:0:0:0:
480,264,67001,1,0,0:0:0:0:
448,296,67080,1,0,0:0:0:0:
416,336,67159,1,0,0:0:0:0:
368,296,67238,1,2,0:0:0:0:
328,320,67317,1,2,0:0:0:0:
272,344,67396,1,0,0:0:0:0:
232,304,67475,1,2,0:0:0:0:
192,272,67554,5,2,0:0:0:0:
48,224,67633,1,2,0:0:0:0:
160,184,67712,1,0,0:0:0:0:
96,152,67791,1,0,0:0:0:0:
160,112,67870,1,0,0:0:0:0:
96,88,67949,1,0,0:0:0:0:
160,56,68028,1,0,0:0:0:0:
96,32,68107,1,0,0:0:0:0:
240,16,68186,1,2,0:0:0:0:
280,72,68264,1,0,0:0:0:0:
344,96,68343,1,0,0:0:0:0:
400,128,68422,1,0,0:0:0:0:
344,168,68501,1,0,0:0:0:0:
288,200,68580,1,0,0:0:0:0:
344,240,68659,1,2,0:0:0:0:
400,272,68738,1,2,0:0:0:0:
464,304,68817,5,0,0:0:0:0:
416,336,68896,2,0,L|352:352,1,48.999999165535
312,360,69054,1,0,0:0:0:0:
256,344,69133,2,0,L|200:320,1,48.999999165535
160,304,69291,1,0,0:0:0:0:
112,272,69370,2,0,L|80:232,1,48.999999165535
64,192,69528,2,0,L|88:144,1,48.999999165535
112,112,69686,1,0,0:0:0:0:
128,64,69764,2,0,L|160:24,1,48.999999165535
216,32,69922,1,0,0:0:0:0:
272,32,70001,1,0,0:0:0:0:
328,40,70080,5,2,0:0:0:0:
376,56,70159,1,2,0:0:0:0:
408,80,70238,1,2,0:0:0:0:
448,112,70317,1,2,0:0:0:0:
232,120,70396,1,0,0:0:0:0:
280,136,70475,1,2,0:0:0:0:
320,160,70554,1,0,0:0:0:0:
376,176,70633,1,0,0:0:0:0:
168,192,70712,1,0,0:0:0:0:
216,216,70791,1,0,0:0:0:0:
264,232,70870,1,2,0:0:0:0:
312,264,70949,1,0,0:0:0:0:
112,288,71028,1,0,0:0:0:0:
160,312,71107,1,0,0:0:0:0:
208,328,71186,1,0,0:0:0:0:
264,352,71264,1,0,0:0:0:0:
328,344,71343,5,0,0:0:0:0:
368,320,71422,1,0,0:0:0:0:
416,320,71501,1,2,0:0:0:0:
456,288,71580,1,2,0:0:0:0:
416,256,71659,1,0,0:0:0:0:
368,224,71738,1,0,0:0:0:0:
424,192,71817,1,2,0:0:0:0:
464,160,71896,1,2,0:0:0:0:
424,120,71975,1,0,0:0:0:0:
368,96,72054,1,0,0:0:0:0:
328,128,72133,1,2,0:0:0:0:
288,152,72212,1,2,0:0:0:0:
264,200,72291,1,0,0:0:0:0:
288,240,72370,1,0,0:0:0:0:
304,296,72449,1,2,0:0:0:0:
264,336,72528,1,2,0:0:0:0:
216,312,72607,5,0,0:0:0:0:
176,336,72686,1,0,0:0:0:0:
128,320,72764,1,2,0:0:0:0:
88,296,72843,1,2,0:0:0:0:
120,256,72922,1,0,0:0:0:0:
80,216,73001,1,0,0:0:0:0:
112,176,73080,1,2,0:0:0:0:
152,152,73159,1,2,0:0:0:0:
192,120,73238,1,0,0:0:0:0:
144,88,73317,1,0,0:0:0:0:
176,56,73396,1,2,0:0:0:0:
224,32,73475,1,2,0:0:0:0:
248,72,73554,1,0,0:0:0:0:
304,80,73633,1,0,0:0:0:0:
336,40,73712,1,2,0:0:0:0:
392,24,73791,1,2,0:0:0:0:
480,88,73870,5,0,0:0:0:0:
440,112,73909,1,0,0:0:0:0:
400,128,73949,1,0,0:0:0:0:
360,152,73988,1,0,0:0:0:0:
320,176,74028,1,0,0:0:0:0:
32,128,74186,1,0,0:0:0:0:
72,152,74225,1,0,0:0:0:0:
112,176,74264,1,0,0:0:0:0:
144,192,74304,1,0,0:0:0:0:
184,224,74343,1,0,0:0:0:0:
488,224,74501,1,0,0:0:0:0:
448,248,74541,1,0,0:0:0:0:
408,272,74580,1,0,0:0:0:0:
368,296,74620,1,0,0:0:0:0:
328,320,74659,1,0,0:0:0:0:
24,296,74817,1,0,0:0:0:0:
56,312,74857,1,0,0:0:0:0:
96,336,74896,1,0,0:0:0:0:
136,352,74936,1,0,0:0:0:0:
184,368,74975,1,0,0:0:0:0:
448,320,75133,5,2,0:0:0:0:
480,296,75172,1,2,0:0:0:0:
472,248,75212,1,2,0:0:0:0:
440,208,75251,1,2,0:0:0:0:
408,176,75291,1,2,0:0:0:0:
368,136,75330,1,2,0:0:0:0:
328,112,75370,1,2,0:0:0:0:
288,88,75409,1,2,0:0:0:0:
320,56,75449,1,0,0:0:0:0:
368,64,75488,1,0,0:0:0:0:
408,88,75528,1,0,0:0:0:0:
448,112,75567,1,0,0:0:0:0:
480,72,75607,1,0,0:0:0:0:
448,32,75646,1,0,0:0:0:0:
400,0,75686,1,0,0:0:0:0:
352,0,75725,1,0,0:0:0:0:
312,16,75764,1,2,0:0:0:0:
280,40,75804,1,2,0:0:0:0:
240,64,75843,1,2,0:0:0:0:
192,40,75883,1,2,0:0:0:0:
152,40,75922,1,2,0:0:0:0:
120,64,75962,1,2,0:0:0:0:
80,96,76001,1,2,0:0:0:0:
104,136,76041,1,2,0:0:0:0:
144,168,76080,1,0,0:0:0:0:
176,176,76120,1,0,0:0:0:0:
224,160,76159,1,0,0:0:0:0:
264,144,76199,1,0,0:0:0:0:
288,104,76238,1,0,0:0:0:0:
336,96,76278,1,0,0:0:0:0:
368,128,76317,1,0,0:0:0:0:
368,184,76357,1,0,0:0:0:0:
352,224,76396,5,0,0:0:0:0:
320,256,76436,1,0,0:0:0:0:
296,272,76475,1,0,0:0:0:0:
264,296,76514,1,0,0:0:0:0:
224,320,76554,1,0,0:0:0:0:
176,296,76593,1,0,0:0:0:0:
144,256,76633,1,0,0:0:0:0:
152,216,76672,1,0,0:0:0:0:
176,184,76712,1,0,0:0:0:0:
200,144,76751,1,0,0:0:0:0:
216,96,76791,1,0,0:0:0:0:
248,64,76830,1,0,0:0:0:0:
296,32,76870,1,0,0:0:0:0:
352,24,76909,1,0,0:0:0:0:
400,56,76949,1,0,0:0:0:0:
432,96,76988,1,0,0:0:0:0:
440,144,77028,1,2,0:0:0:0:
408,184,77067,1,2,0:0:0:0:
368,216,77107,1,2,0:0:0:0:
384,264,77146,1,2,0:0:0:0:
416,296,77186,1,2,0:0:0:0:
432,336,77225,1,2,0:0:0:0:
392,360,77264,1,2,0:0:0:0:
344,376,77304,1,2,0:0:0:0:
304,336,77343,1,0,0:0:0:0:
264,304,77383,1,0,0:0:0:0:
216,272,77422,1,0,0:0:0:0:
232,224,77462,1,0,0:0:0:0:
272,184,77501,1,0,0:0:0:0:
312,160,77541,1,0,0:0:0:0:
352,168,77580,1,0,0:0:0:0:
384,192,77620,1,0,0:0:0:0:
424,216,77659,5,2,0:0:0:0:
456,240,77699,1,2,0:0:0:0:
496,224,77738,1,2,0:0:0:0:
496,184,77778,1,2,0:0:0:0:
464,144,77817,1,2,0:0:0:0:
416,120,77857,1,2,0:0:0:0:
376,96,77896,1,2,0:0:0:0:
416,72,77936,1,2,0:0:0:0:
464,48,77975,1,0,0:0:0:0:
432,16,78014,1,0,0:0:0:0:
392,0,78054,1,0,0:0:0:0:
352,8,78093,1,0,0:0:0:0:
312,40,78133,1,0,0:0:0:0:
280,64,78172,1,0,0:0:0:0:
240,80,78212,1,0,0:0:0:0:
208,56,78251,1,0,0:0:0:0:
160,40,78291,1,0,0:0:0:0:
112,56,78330,1,0,0:0:0:0:
80,96,78370,1,0,0:0:0:0:
96,128,78409,1,0,0:0:0:0:
128,168,78449,1,0,0:0:0:0:
152,216,78488,1,0,0:0:0:0:
136,248,78528,1,0,0:0:0:0:
120,296,78567,1,0,0:0:0:0:
160,336,78607,1,2,0:0:0:0:
200,368,78646,1,2,0:0:0:0:
240,360,78686,1,2,0:0:0:0:
272,320,78725,1,2,0:0:0:0:
240,288,78764,1,2,0:0:0:0:
192,264,78804,1,2,0:0:0:0:
224,232,78843,1,2,0:0:0:0:
272,208,78883,1,2,0:0:0:0:
304,160,78922,5,2,0:0:0:0:
264,136,78962,1,2,0:0:0:0:
216,112,79002,1,2,0:0:0:0:
168,88,79041,1,2,0:0:0:0:
120,72,79081,1,2,0:0:0:0:
80,48,79120,1,2,0:0:0:0:
48,24,79160,1,2,0:0:0:0:
88,0,79199,1,2,0:0:0:0:
136,16,79238,1,0,0:0:0:0:
176,32,79278,1,0,0:0:0:0:
216,56,79317,1,0,0:0:0:0:
272,64,79357,1,0,0:0:0:0:
320,72,79396,1,0,0:0:0:0:
360,96,79436,1,0,0:0:0:0:
400,136,79475,1,0,0:0:0:0:
432,160,79514,1,0,0:0:0:0:
408,200,79554,1,2,0:0:0:0:
368,224,79593,1,2,0:0:0:0:
328,240,79633,1,2,0:0:0:0:
288,264,79672,1,2,0:0:0:0:
256,280,79712,1,2,0:0:0:0:
216,296,79751,1,2,0:0:0:0:
176,312,79791,1,2,0:0:0:0:
128,328,79830,1,2,0:0:0:0:
96,288,79870,1,0,0:0:0:0:
128,256,79909,1,0,0:0:0:0:
168,240,79949,1,0,0:0:0:0:
216,216,79988,1,0,0:0:0:0:
264,200,80028,1,0,0:0:0:0:
312,176,80067,1,0,0:0:0:0:
352,160,80107,1,0,0:0:0:0:
392,144,80146,1,0,0:0:0:0:
432,96,80186,6,0,P|432:64|416:56,1,48.999999165535
456,152,80343,2,0,P|480:176|480:200,1,48.999999165535
408,152,80501,2,0,P|360:184|360:184,1,48.999999165535
248,152,80659,2,0,P|280:176|296:176,1,48.999999165535
320,240,80817,2,0,P|328:272|320:288,1,48.999999165535
328,128,80975,2,0,P|320:96|320:64,1,48.999999165535
192,208,81133,2,0,P|152:200|128:192,1,48.999999165535
304,232,81291,2,0,L|360:240,1,48.999999165535
256,192,81449,5,0,0:0:0:0:
264,88,81764,1,0,0:0:0:0:
288,48,81804,1,0,0:0:0:0:
320,24,81843,1,0,0:0:0:0:
360,32,81883,1,0,0:0:0:0:
400,64,81922,1,0,0:0:0:0:
416,104,81962,1,0,0:0:0:0:
384,136,82001,1,0,0:0:0:0:
352,168,82041,1,0,0:0:0:0:
320,208,82080,1,2,0:0:0:0:
320,248,82120,1,2,0:0:0:0:
352,280,82159,1,2,0:0:0:0:
384,312,82199,1,2,0:0:0:0:
368,352,82238,1,2,0:0:0:0:
320,360,82278,1,2,0:0:0:0:
272,344,82317,1,2,0:0:0:0:
232,320,82357,1,2,0:0:0:0:
216,272,82396,1,0,0:0:0:0:
232,232,82436,1,0,0:0:0:0:
264,200,82475,1,0,0:0:0:0:
304,176,82514,1,0,0:0:0:0:
352,192,82554,1,0,0:0:0:0:
384,224,82593,1,0,0:0:0:0:
432,240,82633,1,0,0:0:0:0:
472,216,82672,1,0,0:0:0:0:
496,176,82712,5,0,0:0:0:0:
464,144,82751,1,0,0:0:0:0:
424,112,82791,1,0,0:0:0:0:
456,88,82830,1,0,0:0:0:0:
496,64,82870,1,0,0:0:0:0:
472,32,82909,1,0,0:0:0:0:
424,16,82949,1,0,0:0:0:0:
376,0,82988,1,0,0:0:0:0:
336,16,83028,1,2,0:0:0:0:
304,40,83067,1,2,0:0:0:0:
272,64,83107,1,2,0:0:0:0:
296,104,83146,1,2,0:0:0:0:
328,144,83186,1,2,0:0:0:0:
352,176,83225,1,2,0:0:0:0:
328,216,83264,1,2,0:0:0:0:
304,248,83304,1,2,0:0:0:0:
256,280,83343,1,0,0:0:0:0:
224,312,83383,1,0,0:0:0:0:
176,304,83422,1,0,0:0:0:0:
136,296,83462,1,0,0:0:0:0:
104,256,83501,1,0,0:0:0:0:
104,208,83541,1,0,0:0:0:0:
128,160,83580,1,0,0:0:0:0:
160,120,83620,1,0,0:0:0:0:
200,104,83659,1,2,0:0:0:0:
248,104,83699,1,2,0:0:0:0:
280,128,83738,1,2,0:0:0:0:
328,120,83778,1,2,0:0:0:0:
360,104,83817,1,2,0:0:0:0:
384,80,83857,1,2,0:0:0:0:
416,72,83896,1,2,0:0:0:0:
464,80,83936,1,2,0:0:0:0:
488,120,83975,5,0,0:0:0:0:
472,160,84014,1,0,0:0:0:0:
432,160,84054,1,0,0:0:0:0:
384,192,84093,1,0,0:0:0:0:
416,232,84133,1,2,0:0:0:0:
448,264,84172,1,2,0:0:0:0:
464,296,84212,1,2,0:0:0:0:
432,320,84251,1,2,0:0:0:0:
392,344,84291,1,0,0:0:0:0:
344,328,84330,1,0,0:0:0:0:
304,312,84370,1,0,0:0:0:0:
264,296,84409,1,0,0:0:0:0:
216,320,84449,1,2,0:0:0:0:
168,344,84488,1,2,0:0:0:0:
120,344,84528,1,2,0:0:0:0:
80,312,84567,1,2,0:0:0:0:
112,264,84607,1,0,0:0:0:0:
80,224,84646,1,0,0:0:0:0:
112,192,84686,1,0,0:0:0:0:
152,160,84725,1,0,0:0:0:0:
120,120,84764,1,2,0:0:0:0:
80,104,84804,1,2,0:0:0:0:
40,72,84843,1,2,0:0:0:0:
72,40,84883,1,2,0:0:0:0:
120,16,84922,1,0,0:0:0:0:
168,8,84962,1,0,0:0:0:0:
208,32,85001,1,0,0:0:0:0:
240,64,85041,1,0,0:0:0:0:
280,88,85080,1,2,0:0:0:0:
320,64,85120,1,2,0:0:0:0:
360,40,85159,1,2,0:0:0:0:
392,16,85199,1,2,0:0:0:0:
440,32,85238,5,2,0:0:0:0:
472,64,85278,1,2,0:0:0:0:
456,104,85317,1,2,0:0:0:0:
424,144,85357,1,2,0:0:0:0:
384,160,85396,1,2,0:0:0:0:
352,184,85436,1,2,0:0:0:0:
312,192,85475,1,2,0:0:0:0:
272,208,85514,1,2,0:0:0:0:
232,224,85554,1,0,0:0:0:0:
184,208,85593,1,0,0:0:0:0:
144,184,85633,1,0,0:0:0:0:
104,168,85672,1,0,0:0:0:0:
64,160,85712,1,0,0:0:0:0:
32,184,85751,1,0,0:0:0:0:
0,216,85790,1,0,0:0:0:0:
24,256,85830,1,0,0:0:0:0:
64,296,85869,1,2,0:0:0:0:
96,312,85909,1,2,0:0:0:0:
136,320,85948,1,2,0:0:0:0:
176,312,85988,1,2,0:0:0:0:
224,296,86028,1,2,0:0:0:0:
272,288,86067,1,2,0:0:0:0:
320,296,86107,1,2,0:0:0:0:
360,320,86146,1,2,0:0:0:0:
408,296,86186,1,0,0:0:0:0:
456,272,86225,1,0,0:0:0:0:
432,224,86264,1,0,0:0:0:0:
384,184,86304,1,0,0:0:0:0:
336,176,86343,1,0,0:0:0:0:
280,176,86383,1,0,0:0:0:0:
240,160,86422,1,0,0:0:0:0:
208,128,86462,1,0,0:0:0:0:
216,80,86501,5,2,0:0:0:0:
256,48,86541,1,2,0:0:0:0:
296,40,86580,1,2,0:0:0:0:
344,48,86620,1,2,0:0:0:0:
384,88,86659,1,2,0:0:0:0:
360,112,86699,1,2,0:0:0:0:
320,144,86738,1,2,0:0:0:0:
280,184,86778,1,2,0:0:0:0:
272,232,86817,1,0,0:0:0:0:
288,272,86857,1,0,0:0:0:0:
304,304,86896,1,0,0:0:0:0:
352,344,86936,1,0,0:0:0:0:
408,352,86975,1,0,0:0:0:0:
456,328,87014,1,0,0:0:0:0:
480,288,87054,1,0,0:0:0:0:
472,240,87093,1,0,0:0:0:0:
448,200,87133,1,2,0:0:0:0:
400,184,87172,1,2,0:0:0:0:
360,208,87212,1,2,0:0:0:0:
320,240,87251,1,2,0:0:0:0:
272,272,87291,1,2,0:0:0:0:
224,280,87330,1,2,0:0:0:0:
192,280,87370,1,2,0:0:0:0:
160,256,87409,1,2,0:0:0:0:
128,216,87449,1,0,0:0:0:0:
128,176,87488,1,0,0:0:0:0:
160,144,87528,1,0,0:0:0:0:
200,112,87567,1,0,0:0:0:0:
256,128,87607,1,0,0:0:0:0:
304,144,87646,1,0,0:0:0:0:
336,120,87686,1,0,0:0:0:0:
352,80,87725,1,0,0:0:0:0:
320,48,87764,5,2,0:0:0:0:
280,32,87804,1,2,0:0:0:0:
240,16,87843,1,2,0:0:0:0:
200,32,87883,1,2,0:0:0:0:
168,64,87922,1,2,0:0:0:0:
152,96,87962,1,2,0:0:0:0:
176,144,88001,1,2,0:0:0:0:
208,176,88041,1,2,0:0:0:0:
248,208,88080,1,0,0:0:0:0:
296,208,88120,1,0,0:0:0:0:
352,208,88159,1,0,0:0:0:0:
384,240,88199,1,0,0:0:0:0:
400,280,88238,1,0,0:0:0:0:
376,328,88278,1,0,0:0:0:0:
336,352,88317,1,2,0:0:0:0:
288,336,88357,1,2,0:0:0:0:
256,312,88396,1,2,0:0:0:0:
232,280,88436,1,2,0:0:0:0:
224,240,88475,1,2,0:0:0:0:
224,192,88514,1,2,0:0:0:0:
264,160,88554,1,2,0:0:0:0:
304,128,88593,1,2,0:0:0:0:
344,112,88633,1,2,0:0:0:0:
384,96,88672,1,2,0:0:0:0:
424,128,88712,1,0,0:0:0:0:
440,168,88751,1,0,0:0:0:0:
472,200,88791,1,0,0:0:0:0:
504,184,88830,1,0,0:0:0:0:
480,144,88870,1,0,0:0:0:0:
448,120,88909,1,0,0:0:0:0:
416,144,88949,1,0,0:0:0:0:
392,176,88988,1,0,0:0:0:0:
360,208,89028,5,0,0:0:0:0:
328,224,89067,1,0,0:0:0:0:
312,264,89107,1,0,0:0:0:0:
336,296,89146,1,0,0:0:0:0:
376,320,89186,1,2,0:0:0:0:
392,352,89225,1,2,0:0:0:0:
360,376,89264,1,2,0:0:0:0:
320,376,89304,1,2,0:0:0:0:
280,344,89343,1,0,0:0:0:0:
248,312,89383,1,0,0:0:0:0:
216,288,89422,1,0,0:0:0:0:
176,296,89462,1,0,0:0:0:0:
144,320,89501,1,2,0:0:0:0:
104,336,89541,1,2,0:0:0:0:
56,328,89580,1,2,0:0:0:0:
32,296,89620,1,2,0:0:0:0:
40,256,89659,1,0,0:0:0:0:
64,216,89699,1,0,0:0:0:0:
96,176,89738,1,0,0:0:0:0:
64,144,89778,1,0,0:0:0:0:
48,104,89817,1,0,0:0:0:0:
48,64,89857,1,0,0:0:0:0:
72,32,89896,1,0,0:0:0:0:
104,0,89936,1,0,0:0:0:0:
144,16,89975,1,2,0:0:0:0:
184,48,90014,1,2,0:0:0:0:
152,80,90054,1,2,0:0:0:0:
128,120,90093,1,2,0:0:0:0:
152,152,90133,1,2,0:0:0:0:
184,184,90172,1,2,0:0:0:0:
224,192,90212,1,2,0:0:0:0:
256,168,90251,1,2,0:0:0:0:
288,136,90291,5,2,0:0:0:0:
256,112,90330,1,2,0:0:0:0:
232,80,90370,1,2,0:0:0:0:
256,48,90409,1,2,0:0:0:0:
288,24,90449,1,2,0:0:0:0:
328,56,90488,1,2,0:0:0:0:
368,96,90528,1,2,0:0:0:0:
352,128,90567,1,2,0:0:0:0:
328,176,90607,1,0,0:0:0:0:
336,224,90646,1,0,0:0:0:0:
368,256,90686,1,0,0:0:0:0:
408,256,90725,1,0,0:0:0:0:
440,224,90764,1,0,0:0:0:0:
464,192,90804,1,0,0:0:0:0:
464,136,90843,1,0,0:0:0:0:
432,96,90883,1,0,0:0:0:0:
400,64,90922,1,2,0:0:0:0:
352,72,90962,1,2,0:0:0:0:
320,96,91001,1,2,0:0:0:0:
288,136,91041,1,2,0:0:0:0:
272,168,91080,1,2,0:0:0:0:
256,216,91120,1,2,0:0:0:0:
272,256,91159,1,2,0:0:0:0:
296,288,91199,1,2,0:0:0:0:
320,336,91238,1,0,0:0:0:0:
288,360,91278,1,0,0:0:0:0:
248,384,91317,1,0,0:0:0:0:
216,368,91357,1,0,0:0:0:0:
184,336,91396,1,0,0:0:0:0:
152,320,91436,1,0,0:0:0:0:
120,296,91475,1,0,0:0:0:0:
128,256,91514,1,0,0:0:0:0:
160,224,91554,5,4,0:0:0:0:
