osu file format v14

[General]
AudioFilename: audio.mp3
AudioLeadIn: 0
PreviewTime: 9133
Countdown: 0
SampleSet: None
StackLeniency: 0.7
Mode: 3
LetterboxInBreaks: 0
SpecialStyle: 0
WidescreenStoryboard: 1

[Editor]
DistanceSpacing: 0.8
BeatDivisor: 4
GridSize: 16
TimelineZoom: 1.3

[Metadata]
Title:suzuran
TitleUnicode:和鸞
Artist:wumalutsufuri
ArtistUnicode:うまるつふり
Creator:Anima_Alumi-47
Version:7K Normal
Source:BMS
Tags:
BeatmapID:1100221
BeatmapSetID:517835

[Difficulty]
HPDrainRate:8
CircleSize:7
OverallDifficulty:8
ApproachRate:5
SliderMultiplier:1.4
SliderTickRate:1

[Events]
//Background and Video events
0,0,"bg.jpg",0,0
//Break Periods
//Storyboard Layer 0 (Background)
//Storyboard Layer 1 (Fail)
//Storyboard Layer 2 (Pass)
//Storyboard Layer 3 (Foreground)
//Storyboard Sound Samples

[TimingPoints]
2820,315.789473684211,4,3,0,100,1,0
3767,315.789473684211,4,3,0,100,1,0
4714,315.789473684211,4,3,0,100,1,0
5661,315.789473684211,4,3,0,100,1,0
6608,315.789473684211,4,3,0,100,1,0
7555,315.789473684211,4,3,0,100,1,0
8186,315.789473684211,4,3,0,100,1,0
91554,631.578947368421,4,3,0,100,1,0
101659,600,4,3,0,100,1,0
102859,545.454545454546,4,3,0,100,1,0
103949,500,4,3,0,100,1,0
104949,461.538461538462,4,3,0,100,1,0
105872,428.571428571429,4,3,0,100,1,0
106729,400,4,3,0,100,1,0
107529,375,4,3,0,100,1,0
108279,352.941176470588,4,3,0,100,1,0
108984,333.333333333333,4,3,0,100,1,0
109650,500,4,3,0,100,1,0
110150,631.578947368421,4,3,0,100,1,0
110781,315.789473684211,4,3,0,100,1,0
111096,-100,4,3,0,100,0,1
112991,315.789473684211,4,3,0,100,1,1
113938,315.789473684211,4,3,0,100,1,1
114885,315.789473684211,4,3,0,100,1,1
115832,315.789473684211,4,3,0,100,1,1
116779,315.789473684211,4,3,0,100,1,1
117726,315.789473684211,4,3,0,100,1,1
118673,315.789473684211,4,3,0,100,1,1
119620,315.789473684211,4,3,0,100,1,1
120251,315.789473684211,4,3,0,100,1,1
129093,-100,4,3,0,100,0,0

[HitObjects]
475,192,2504,5,0,0:0:0:0:
36,192,2820,1,0,0:0:0:0:
182,192,2820,1,0,0:0:0:0:
329,192,2820,1,0,0:0:0:0:
402,192,2977,1,0,0:0:0:0:
256,192,2977,1,0,0:0:0:0:
109,192,2977,1,0,0:0:0:0:
329,192,3135,1,0,0:0:0:0:
402,192,3135,1,0,0:0:0:0:
182,192,3214,1,0,0:0:0:0:
109,192,3214,1,0,0:0:0:0:
329,192,3293,1,0,0:0:0:0:
402,192,3293,1,0,0:0:0:0:
182,192,3372,1,0,0:0:0:0:
109,192,3372,1,0,0:0:0:0:
329,192,3451,1,0,0:0:0:0:
402,192,3451,1,0,0:0:0:0:
182,192,3530,1,0,0:0:0:0:
109,192,3530,1,0,0:0:0:0:
329,192,3609,1,0,0:0:0:0:
402,192,3609,1,0,0:0:0:0:
182,192,3688,1,0,0:0:0:0:
109,192,3688,1,0,0:0:0:0:
256,192,3767,1,0,0:0:0:0:
402,192,3767,1,0,0:0:0:0:
475,192,3767,1,0,0:0:0:0:
36,192,3924,1,0,0:0:0:0:
109,192,3924,1,0,0:0:0:0:
182,192,3924,1,0,0:0:0:0:
402,192,4082,1,0,0:0:0:0:
475,192,4082,1,0,0:0:0:0:
36,192,4161,1,0,0:0:0:0:
109,192,4161,1,0,0:0:0:0:
402,192,4240,1,0,0:0:0:0:
475,192,4240,1,0,0:0:0:0:
109,192,4319,1,0,0:0:0:0:
36,192,4319,1,0,0:0:0:0:
402,192,4398,1,0,0:0:0:0:
475,192,4398,1,0,0:0:0:0:
109,192,4477,1,0,0:0:0:0:
36,192,4477,1,0,0:0:0:0:
402,192,4556,1,0,0:0:0:0:
475,192,4556,1,0,0:0:0:0:
109,192,4635,1,0,0:0:0:0:
36,192,4635,1,0,0:0:0:0:
182,192,4714,1,0,0:0:0:0:
329,192,4714,1,0,0:0:0:0:
475,192,4714,1,0,0:0:0:0:
402,192,4871,1,0,0:0:0:0:
256,192,4871,1,0,0:0:0:0:
109,192,4871,1,0,0:0:0:0:
109,192,5029,1,0,0:0:0:0:
182,192,5029,1,0,0:0:0:0:
329,192,5108,1,0,0:0:0:0:
402,192,5108,1,0,0:0:0:0:
182,192,5187,1,0,0:0:0:0:
109,192,5187,1,0,0:0:0:0:
329,192,5266,1,0,0:0:0:0:
402,192,5266,1,0,0:0:0:0:
182,192,5345,1,0,0:0:0:0:
109,192,5345,1,0,0:0:0:0:
329,192,5424,1,0,0:0:0:0:
402,192,5424,1,0,0:0:0:0:
182,192,5503,1,0,0:0:0:0:
109,192,5503,1,0,0:0:0:0:
329,192,5582,1,0,0:0:0:0:
402,192,5582,1,0,0:0:0:0:
36,192,5661,1,0,0:0:0:0:
109,192,5661,1,0,0:0:0:0:
182,192,5661,1,0,0:0:0:0:
329,192,5818,1,0,0:0:0:0:
475,192,5818,1,0,0:0:0:0:
402,192,5818,1,0,0:0:0:0:
36,192,5976,1,0,0:0:0:0:
182,192,5976,1,0,0:0:0:0:
109,192,6055,1,0,0:0:0:0:
256,192,6055,1,0,0:0:0:0:
182,192,6134,1,0,0:0:0:0:
329,192,6134,1,0,0:0:0:0:
256,192,6213,1,0,0:0:0:0:
402,192,6213,1,0,0:0:0:0:
329,192,6292,1,0,0:0:0:0:
475,192,6292,1,0,0:0:0:0:
402,192,6371,1,0,0:0:0:0:
256,192,6371,1,0,0:0:0:0:
329,192,6450,1,0,0:0:0:0:
182,192,6450,1,0,0:0:0:0:
256,192,6529,1,0,0:0:0:0:
109,192,6529,1,0,0:0:0:0:
182,192,6608,1,0,0:0:0:0:
36,192,6608,1,0,0:0:0:0:
329,192,6608,1,0,0:0:0:0:
109,192,6765,1,0,0:0:0:0:
256,192,6765,1,0,0:0:0:0:
402,192,6765,1,0,0:0:0:0:
329,192,6923,1,0,0:0:0:0:
475,192,6923,1,0,0:0:0:0:
36,192,7002,1,0,0:0:0:0:
182,192,7002,1,0,0:0:0:0:
329,192,7081,1,0,0:0:0:0:
475,192,7081,1,0,0:0:0:0:
182,192,7160,1,0,0:0:0:0:
36,192,7160,1,0,0:0:0:0:
329,192,7239,1,0,0:0:0:0:
475,192,7239,1,0,0:0:0:0:
36,192,7318,1,0,0:0:0:0:
182,192,7318,1,0,0:0:0:0:
329,192,7397,1,0,0:0:0:0:
475,192,7397,1,0,0:0:0:0:
182,192,7476,1,0,0:0:0:0:
36,192,7476,1,0,0:0:0:0:
329,192,7555,1,0,0:0:0:0:
402,192,7555,1,0,0:0:0:0:
475,192,7555,1,0,0:0:0:0:
182,192,7712,1,0,0:0:0:0:
109,192,7712,1,0,0:0:0:0:
36,192,7712,1,0,0:0:0:0:
256,192,7870,1,0,0:0:0:0:
36,192,8028,1,0,0:0:0:0:
182,192,8028,1,0,0:0:0:0:
329,192,8028,1,0,0:0:0:0:
109,192,8186,1,0,0:0:0:0:
256,192,8186,1,0,0:0:0:0:
475,192,8186,1,0,0:0:0:0:
329,192,8343,1,0,0:0:0:0:
256,192,8501,1,0,0:0:0:0:
109,192,8501,1,0,0:0:0:0:
329,192,8659,1,0,0:0:0:0:
182,192,8817,1,0,0:0:0:0:
402,192,8817,1,0,0:0:0:0:
329,192,8975,1,0,0:0:0:0:
475,192,9133,1,0,0:0:0:0:
182,192,9133,1,0,0:0:0:0:
109,192,9212,1,0,0:0:0:0:
256,192,9291,1,0,0:0:0:0:
329,192,9370,1,0,0:0:0:0:
36,192,9449,1,0,0:0:0:0:
475,192,9449,1,0,0:0:0:0:
329,192,9607,1,0,0:0:0:0:
256,192,9686,1,0,0:0:0:0:
109,192,9764,1,0,0:0:0:0:
36,192,9764,1,0,0:0:0:0:
182,192,9764,1,0,0:0:0:0:
329,192,9922,1,0,0:0:0:0:
109,192,10080,1,0,0:0:0:0:
402,192,10080,1,0,0:0:0:0:
256,192,10080,1,0,0:0:0:0:
329,192,10238,1,0,0:0:0:0:
182,192,10317,1,0,0:0:0:0:
36,192,10396,1,0,0:0:0:0:
256,192,10396,1,0,0:0:0:0:
402,192,10396,1,0,0:0:0:0:
329,192,10554,1,0,0:0:0:0:
109,192,10712,1,0,0:0:0:0:
256,192,10712,1,0,0:0:0:0:
402,192,10712,1,0,0:0:0:0:
329,192,10870,1,0,0:0:0:0:
36,192,11028,1,0,0:0:0:0:
182,192,11028,1,0,0:0:0:0:
402,192,11028,1,0,0:0:0:0:
256,192,11186,1,0,0:0:0:0:
402,192,11264,1,0,0:0:0:0:
329,192,11343,1,0,0:0:0:0:
182,192,11343,1,0,0:0:0:0:
36,192,11343,1,0,0:0:0:0:
256,192,11422,1,0,0:0:0:0:
109,192,11501,1,0,0:0:0:0:
256,192,11580,1,0,0:0:0:0:
182,192,11659,1,0,0:0:0:0:
329,192,11659,1,0,0:0:0:0:
475,192,11659,1,0,0:0:0:0:
256,192,11738,1,0,0:0:0:0:
402,192,11817,1,0,0:0:0:0:
329,192,11896,1,0,0:0:0:0:
109,192,11975,1,0,0:0:0:0:
36,192,11975,1,0,0:0:0:0:
256,192,11975,1,0,0:0:0:0:
256,192,12133,1,0,0:0:0:0:
329,192,12212,1,0,0:0:0:0:
475,192,12291,1,0,0:0:0:0:
256,192,12291,1,0,0:0:0:0:
109,192,12291,1,0,0:0:0:0:
329,192,12449,1,0,0:0:0:0:
256,192,12528,1,0,0:0:0:0:
36,192,12607,1,0,0:0:0:0:
182,192,12607,1,0,0:0:0:0:
329,192,12607,1,0,0:0:0:0:
256,192,12764,1,0,0:0:0:0:
182,192,12843,1,0,0:0:0:0:
402,192,12922,1,0,0:0:0:0:
475,192,12922,1,0,0:0:0:0:
109,192,12922,1,0,0:0:0:0:
182,192,13080,1,0,0:0:0:0:
256,192,13159,1,0,0:0:0:0:
475,192,13238,1,0,0:0:0:0:
329,192,13238,1,0,0:0:0:0:
109,192,13238,1,0,0:0:0:0:
256,192,13317,1,0,0:0:0:0:
182,192,13396,1,0,0:0:0:0:
109,192,13475,1,0,0:0:0:0:
475,192,13554,1,0,0:0:0:0:
36,192,13554,1,0,0:0:0:0:
402,192,13633,1,0,0:0:0:0:
329,192,13712,1,0,0:0:0:0:
256,192,13791,1,0,0:0:0:0:
36,192,13870,1,0,0:0:0:0:
182,192,13870,1,0,0:0:0:0:
402,192,13870,1,0,0:0:0:0:
256,192,13949,1,0,0:0:0:0:
182,192,14028,1,0,0:0:0:0:
109,192,14107,1,0,0:0:0:0:
475,192,14186,1,0,0:0:0:0:
36,192,14186,1,0,0:0:0:0:
402,192,14264,1,0,0:0:0:0:
329,192,14343,1,0,0:0:0:0:
256,192,14422,1,0,0:0:0:0:
182,192,14501,1,0,0:0:0:0:
109,192,14501,1,0,0:0:0:0:
36,192,14501,1,0,0:0:0:0:
256,192,14659,1,0,0:0:0:0:
402,192,14738,1,0,0:0:0:0:
329,192,14817,1,0,0:0:0:0:
182,192,14817,1,0,0:0:0:0:
36,192,14817,1,0,0:0:0:0:
256,192,14975,1,0,0:0:0:0:
329,192,15054,1,0,0:0:0:0:
475,192,15133,1,0,0:0:0:0:
256,192,15133,1,0,0:0:0:0:
36,192,15133,1,0,0:0:0:0:
182,192,15212,1,0,0:0:0:0:
109,192,15291,1,0,0:0:0:0:
256,192,15449,1,0,0:0:0:0:
329,192,15449,1,0,0:0:0:0:
402,192,15449,1,0,0:0:0:0:
182,192,15607,1,0,0:0:0:0:
109,192,15686,1,0,0:0:0:0:
182,192,15764,1,0,0:0:0:0:
329,192,15764,1,0,0:0:0:0:
402,192,15764,1,0,0:0:0:0:
256,192,15843,1,0,0:0:0:0:
36,192,15922,1,0,0:0:0:0:
256,192,16001,1,0,0:0:0:0:
109,192,16080,1,0,0:0:0:0:
182,192,16080,1,0,0:0:0:0:
329,192,16080,1,0,0:0:0:0:
475,192,16238,1,0,0:0:0:0:
402,192,16317,1,0,0:0:0:0:
36,192,16396,1,0,0:0:0:0:
182,192,16396,1,0,0:0:0:0:
329,192,16396,1,0,0:0:0:0:
109,192,16475,1,0,0:0:0:0:
182,192,16554,1,0,0:0:0:0:
256,192,16633,1,0,0:0:0:0:
329,192,16712,1,0,0:0:0:0:
402,192,16712,1,0,0:0:0:0:
475,192,16712,1,0,0:0:0:0:
36,192,16791,1,0,0:0:0:0:
109,192,16870,1,0,0:0:0:0:
182,192,16949,1,0,0:0:0:0:
256,192,17028,1,0,0:0:0:0:
402,192,17028,1,0,0:0:0:0:
475,192,17028,1,0,0:0:0:0:
329,192,17186,1,0,0:0:0:0:
109,192,17264,1,0,0:0:0:0:
182,192,17343,1,0,0:0:0:0:
329,192,17343,1,0,0:0:0:0:
475,192,17343,1,0,0:0:0:0:
402,192,17501,1,0,0:0:0:0:
256,192,17580,1,0,0:0:0:0:
36,192,17659,1,0,0:0:0:0:
182,192,17659,1,0,0:0:0:0:
329,192,17659,1,0,0:0:0:0:
109,192,17817,1,0,0:0:0:0:
329,192,17896,1,0,0:0:0:0:
182,192,17975,1,0,0:0:0:0:
402,192,17975,1,0,0:0:0:0:
475,192,17975,1,0,0:0:0:0:
256,192,18133,1,0,0:0:0:0:
402,192,18212,1,0,0:0:0:0:
329,192,18291,1,0,0:0:0:0:
182,192,18291,1,0,0:0:0:0:
36,192,18291,1,0,0:0:0:0:
109,192,18370,1,0,0:0:0:0:
182,192,18449,1,0,0:0:0:0:
256,192,18528,1,0,0:0:0:0:
329,192,18607,1,0,0:0:0:0:
475,192,18607,1,0,0:0:0:0:
402,192,18607,1,0,0:0:0:0:
256,192,18686,1,0,0:0:0:0:
182,192,18764,1,0,0:0:0:0:
109,192,18843,1,0,0:0:0:0:
36,192,18922,1,0,0:0:0:0:
256,192,18922,1,0,0:0:0:0:
475,192,18922,1,0,0:0:0:0:
402,192,19001,1,0,0:0:0:0:
329,192,19080,1,0,0:0:0:0:
256,192,19159,1,0,0:0:0:0:
36,192,19238,1,0,0:0:0:0:
182,192,19238,1,0,0:0:0:0:
109,192,19238,1,0,0:0:0:0:
256,192,19317,1,0,0:0:0:0:
329,192,19396,1,0,0:0:0:0:
402,192,19475,1,0,0:0:0:0:
475,192,19554,1,0,0:0:0:0:
36,192,19554,1,0,0:0:0:0:
256,192,19554,1,0,0:0:0:0:
182,192,19712,1,0,0:0:0:0:
109,192,19870,1,0,0:0:0:0:
256,192,19870,1,0,0:0:0:0:
402,192,19870,1,0,0:0:0:0:
329,192,20028,1,0,0:0:0:0:
36,192,20107,1,0,0:0:0:0:
109,192,20186,1,0,0:0:0:0:
256,192,20186,1,0,0:0:0:0:
329,192,20264,1,0,0:0:0:0:
402,192,20343,1,0,0:0:0:0:
182,192,20501,1,0,0:0:0:0:
329,192,20501,1,0,0:0:0:0:
475,192,20501,1,0,0:0:0:0:
256,192,20659,1,0,0:0:0:0:
109,192,20738,1,0,0:0:0:0:
182,192,20817,1,0,0:0:0:0:
329,192,20817,1,0,0:0:0:0:
402,192,20817,1,0,0:0:0:0:
256,192,20896,1,0,0:0:0:0:
182,192,20975,1,0,0:0:0:0:
36,192,21133,1,0,0:0:0:0:
256,192,21133,1,0,0:0:0:0:
402,192,21133,1,0,0:0:0:0:
182,192,21291,1,0,0:0:0:0:
329,192,21370,1,0,0:0:0:0:
475,192,21449,1,0,0:0:0:0:
256,192,21449,1,0,0:0:0:0:
109,192,21449,1,0,0:0:0:0:
402,192,21528,1,0,0:0:0:0:
329,192,21607,1,0,0:0:0:0:
256,192,21686,1,0,0:0:0:0:
36,192,21764,1,0,0:0:0:0:
182,192,21764,1,0,0:0:0:0:
402,192,21764,1,0,0:0:0:0:
329,192,21843,1,0,0:0:0:0:
256,192,21922,1,0,0:0:0:0:
182,192,22001,1,0,0:0:0:0:
36,192,22080,1,0,0:0:0:0:
109,192,22080,1,0,0:0:0:0:
182,192,22159,1,0,0:0:0:0:
256,192,22238,1,0,0:0:0:0:
329,192,22317,1,0,0:0:0:0:
109,192,22396,1,0,0:0:0:0:
402,192,22396,1,0,0:0:0:0:
182,192,22475,1,0,0:0:0:0:
256,192,22554,1,0,0:0:0:0:
329,192,22633,1,0,0:0:0:0:
182,192,22712,1,0,0:0:0:0:
475,192,22712,1,0,0:0:0:0:
256,192,22791,1,0,0:0:0:0:
329,192,22870,1,0,0:0:0:0:
402,192,22949,1,0,0:0:0:0:
256,192,23028,1,0,0:0:0:0:
475,192,23028,1,0,0:0:0:0:
329,192,23107,1,0,0:0:0:0:
402,192,23186,1,0,0:0:0:0:
475,192,23264,1,0,0:0:0:0:
402,192,23343,1,0,0:0:0:0:
36,192,23343,1,0,0:0:0:0:
329,192,23422,1,0,0:0:0:0:
256,192,23501,1,0,0:0:0:0:
182,192,23580,1,0,0:0:0:0:
402,192,23659,1,0,0:0:0:0:
109,192,23659,1,0,0:0:0:0:
329,192,23738,1,0,0:0:0:0:
256,192,23817,1,0,0:0:0:0:
182,192,23896,1,0,0:0:0:0:
329,192,23975,1,0,0:0:0:0:
109,192,23975,1,0,0:0:0:0:
256,192,24054,1,0,0:0:0:0:
182,192,24133,1,0,0:0:0:0:
109,192,24212,1,0,0:0:0:0:
36,192,24291,1,0,0:0:0:0:
329,192,24291,1,0,0:0:0:0:
256,192,24370,1,0,0:0:0:0:
182,192,24449,1,0,0:0:0:0:
109,192,24528,1,0,0:0:0:0:
36,192,24607,1,0,0:0:0:0:
256,192,24607,1,0,0:0:0:0:
109,192,24686,1,0,0:0:0:0:
182,192,24764,1,0,0:0:0:0:
329,192,24843,1,0,0:0:0:0:
109,192,24922,1,0,0:0:0:0:
402,192,24922,1,0,0:0:0:0:
256,192,25001,1,0,0:0:0:0:
182,192,25080,1,0,0:0:0:0:
402,192,25159,1,0,0:0:0:0:
256,192,25238,1,0,0:0:0:0:
475,192,25238,1,0,0:0:0:0:
402,192,25317,1,0,0:0:0:0:
329,192,25396,1,0,0:0:0:0:
182,192,25475,1,0,0:0:0:0:
256,192,25554,1,0,0:0:0:0:
475,192,25554,1,0,0:0:0:0:
329,192,25633,1,0,0:0:0:0:
256,192,25712,1,0,0:0:0:0:
182,192,25791,1,0,0:0:0:0:
36,192,25870,1,0,0:0:0:0:
256,192,25870,1,0,0:0:0:0:
402,192,25870,1,0,0:0:0:0:
109,192,25949,1,0,0:0:0:0:
182,192,26028,1,0,0:0:0:0:
256,192,26107,1,0,0:0:0:0:
109,192,26186,1,0,0:0:0:0:
329,192,26186,1,0,0:0:0:0:
475,192,26186,1,0,0:0:0:0:
182,192,26264,1,0,0:0:0:0:
256,192,26343,1,0,0:0:0:0:
402,192,26422,1,0,0:0:0:0:
475,192,26501,1,0,0:0:0:0:
109,192,26501,1,0,0:0:0:0:
402,192,26580,1,0,0:0:0:0:
329,192,26659,1,0,0:0:0:0:
182,192,26738,1,0,0:0:0:0:
109,192,26817,1,0,0:0:0:0:
256,192,26817,1,0,0:0:0:0:
402,192,26817,1,0,0:0:0:0:
329,192,26896,1,0,0:0:0:0:
256,192,26975,1,0,0:0:0:0:
182,192,27054,1,0,0:0:0:0:
109,192,27133,1,0,0:0:0:0:
36,192,27133,1,0,0:0:0:0:
256,192,27212,1,0,0:0:0:0:
182,192,27291,1,0,0:0:0:0:
329,192,27370,1,0,0:0:0:0:
109,192,27449,1,0,0:0:0:0:
256,192,27449,1,0,0:0:0:0:
402,192,27449,1,0,0:0:0:0:
182,192,27528,1,0,0:0:0:0:
256,192,27607,1,0,0:0:0:0:
329,192,27686,1,0,0:0:0:0:
109,192,27764,1,0,0:0:0:0:
402,192,27764,1,0,0:0:0:0:
182,192,27922,1,0,0:0:0:0:
36,192,28001,1,0,0:0:0:0:
256,192,28001,1,0,0:0:0:0:
182,192,28159,1,0,0:0:0:0:
256,192,28238,1,0,0:0:0:0:
402,192,28238,1,0,0:0:0:0:
329,192,28396,1,0,0:0:0:0:
256,192,28475,1,0,0:0:0:0:
182,192,28475,1,0,0:0:0:0:
109,192,28633,1,0,0:0:0:0:
182,192,28712,1,0,0:0:0:0:
256,192,28712,1,0,0:0:0:0:
329,192,28870,1,0,0:0:0:0:
182,192,28949,1,0,0:0:0:0:
402,192,28949,1,0,0:0:0:0:
475,192,29107,1,0,0:0:0:0:
402,192,29186,1,0,0:0:0:0:
256,192,29186,1,0,0:0:0:0:
329,192,29343,1,0,0:0:0:0:
182,192,29422,1,0,0:0:0:0:
402,192,29422,1,0,0:0:0:0:
256,192,29580,1,0,0:0:0:0:
36,192,29659,1,0,0:0:0:0:
182,192,29659,1,0,0:0:0:0:
329,192,29659,1,0,0:0:0:0:
475,192,29659,1,0,0:0:0:0:
256,192,29817,1,0,0:0:0:0:
109,192,29975,1,0,0:0:0:0:
402,192,29975,1,0,0:0:0:0:
182,192,30133,1,0,0:0:0:0:
329,192,30212,1,0,0:0:0:0:
36,192,30291,1,0,0:0:0:0:
256,192,30291,1,0,0:0:0:0:
109,192,30370,1,0,0:0:0:0:
182,192,30449,1,0,0:0:0:0:
256,192,30607,1,0,0:0:0:0:
402,192,30607,1,0,0:0:0:0:
182,192,30764,1,0,0:0:0:0:
329,192,30843,1,0,0:0:0:0:
109,192,30922,1,0,0:0:0:0:
475,192,30922,1,0,0:0:0:0:
36,192,31238,1,0,0:0:0:0:
402,192,31238,1,0,0:0:0:0:
256,192,31396,1,0,0:0:0:0:
36,192,31554,1,0,0:0:0:0:
182,192,31554,1,0,0:0:0:0:
329,192,31554,1,0,0:0:0:0:
256,192,31712,1,0,0:0:0:0:
182,192,31870,1,0,0:0:0:0:
329,192,31870,1,0,0:0:0:0:
475,192,31870,1,0,0:0:0:0:
402,192,32028,1,0,0:0:0:0:
36,192,32186,1,0,0:0:0:0:
182,192,32186,1,0,0:0:0:0:
475,192,32186,1,0,0:0:0:0:
402,192,32343,1,0,0:0:0:0:
329,192,32501,1,0,0:0:0:0:
182,192,32501,1,0,0:0:0:0:
109,192,32501,1,0,0:0:0:0:
475,192,32659,1,0,0:0:0:0:
36,192,32817,1,0,0:0:0:0:
256,192,32817,1,0,0:0:0:0:
402,192,32817,1,0,0:0:0:0:
182,192,32975,1,0,0:0:0:0:
402,192,33054,1,0,0:0:0:0:
329,192,33133,1,0,0:0:0:0:
256,192,33133,1,0,0:0:0:0:
109,192,33133,1,0,0:0:0:0:
182,192,33291,1,0,0:0:0:0:
36,192,33449,1,0,0:0:0:0:
256,192,33449,1,0,0:0:0:0:
329,192,33449,1,0,0:0:0:0:
402,192,33607,1,0,0:0:0:0:
109,192,33764,1,0,0:0:0:0:
182,192,33764,1,0,0:0:0:0:
475,192,33764,1,0,0:0:0:0:
256,192,33922,1,0,0:0:0:0:
329,192,34080,1,0,0:0:0:0:
402,192,34080,1,0,0:0:0:0:
475,192,34080,1,0,0:0:0:0:
36,192,34238,1,0,0:0:0:0:
182,192,34396,1,0,0:0:0:0:
329,192,34396,1,0,0:0:0:0:
475,192,34396,1,0,0:0:0:0:
402,192,34554,1,0,0:0:0:0:
182,192,34633,1,0,0:0:0:0:
329,192,34712,1,0,0:0:0:0:
109,192,34712,1,0,0:0:0:0:
475,192,34712,1,0,0:0:0:0:
256,192,34870,1,0,0:0:0:0:
36,192,35028,1,0,0:0:0:0:
182,192,35028,1,0,0:0:0:0:
329,192,35028,1,0,0:0:0:0:
256,192,35186,1,0,0:0:0:0:
36,192,35343,1,0,0:0:0:0:
182,192,35343,1,0,0:0:0:0:
402,192,35343,1,0,0:0:0:0:
329,192,35501,1,0,0:0:0:0:
182,192,35659,1,0,0:0:0:0:
109,192,35659,1,0,0:0:0:0:
256,192,35659,1,0,0:0:0:0:
36,192,35817,1,0,0:0:0:0:
182,192,35896,1,0,0:0:0:0:
256,192,35975,1,0,0:0:0:0:
402,192,35975,1,0,0:0:0:0:
475,192,35975,1,0,0:0:0:0:
329,192,36133,1,0,0:0:0:0:
109,192,36291,1,0,0:0:0:0:
182,192,36291,1,0,0:0:0:0:
402,192,36291,1,0,0:0:0:0:
475,192,36449,1,0,0:0:0:0:
36,192,36607,1,0,0:0:0:0:
256,192,36607,1,0,0:0:0:0:
402,192,36607,1,0,0:0:0:0:
329,192,36764,1,0,0:0:0:0:
109,192,36922,1,0,0:0:0:0:
256,192,36922,1,0,0:0:0:0:
402,192,36922,1,0,0:0:0:0:
182,192,37080,1,0,0:0:0:0:
329,192,37159,1,0,0:0:0:0:
36,192,37238,1,0,0:0:0:0:
182,192,37238,1,0,0:0:0:0:
256,192,37238,1,0,0:0:0:0:
402,192,37396,1,0,0:0:0:0:
182,192,37475,1,0,0:0:0:0:
256,192,37554,1,0,0:0:0:0:
329,192,37554,1,0,0:0:0:0:
475,192,37554,1,0,0:0:0:0:
36,192,37712,1,0,0:0:0:0:
182,192,37712,1,0,0:0:0:0:
329,192,37870,1,0,0:0:0:0:
109,192,38028,1,0,0:0:0:0:
256,192,38028,1,0,0:0:0:0:
402,192,38028,1,0,0:0:0:0:
329,192,38186,1,0,0:0:0:0:
36,192,38343,1,0,0:0:0:0:
256,192,38343,1,0,0:0:0:0:
402,192,38422,1,0,0:0:0:0:
109,192,38501,1,0,0:0:0:0:
329,192,38501,1,0,0:0:0:0:
475,192,38501,1,0,0:0:0:0:
402,192,38659,1,0,0:0:0:0:
36,192,38817,1,0,0:0:0:0:
182,192,38817,1,0,0:0:0:0:
329,192,38817,1,0,0:0:0:0:
256,192,38975,1,0,0:0:0:0:
402,192,38975,1,0,0:0:0:0:
475,192,38975,1,0,0:0:0:0:
36,192,39133,1,0,0:0:0:0:
182,192,39291,1,0,0:0:0:0:
256,192,39291,1,0,0:0:0:0:
402,192,39291,1,0,0:0:0:0:
329,192,39449,1,0,0:0:0:0:
109,192,39607,1,0,0:0:0:0:
256,192,39607,1,0,0:0:0:0:
475,192,39607,1,0,0:0:0:0:
475,192,39764,1,0,0:0:0:0:
329,192,39764,1,0,0:0:0:0:
402,192,39843,1,0,0:0:0:0:
475,192,39922,1,0,0:0:0:0:
402,192,40001,1,0,0:0:0:0:
182,192,40080,1,0,0:0:0:0:
475,192,40080,1,0,0:0:0:0:
329,192,40159,1,0,0:0:0:0:
182,192,40238,1,0,0:0:0:0:
329,192,40317,1,0,0:0:0:0:
36,192,40396,1,0,0:0:0:0:
402,192,40396,1,0,0:0:0:0:
329,192,40475,1,0,0:0:0:0:
256,192,40554,1,0,0:0:0:0:
329,192,40633,1,0,0:0:0:0:
402,192,40712,1,0,0:0:0:0:
329,192,40791,1,0,0:0:0:0:
256,192,40870,1,0,0:0:0:0:
182,192,40949,1,0,0:0:0:0:
36,192,41028,1,0,0:0:0:0:
109,192,41028,1,0,0:0:0:0:
182,192,41107,1,0,0:0:0:0:
256,192,41186,1,0,0:0:0:0:
329,192,41264,1,0,0:0:0:0:
402,192,41343,1,0,0:0:0:0:
475,192,41343,1,0,0:0:0:0:
256,192,41343,1,0,0:0:0:0:
329,192,41501,1,0,0:0:0:0:
36,192,41659,1,0,0:0:0:0:
109,192,41659,1,0,0:0:0:0:
402,192,41659,1,0,0:0:0:0:
329,192,41817,1,0,0:0:0:0:
256,192,41975,1,0,0:0:0:0:
109,192,41975,1,0,0:0:0:0:
182,192,41975,1,0,0:0:0:0:
329,192,42133,1,0,0:0:0:0:
36,192,42291,1,0,0:0:0:0:
182,192,42291,1,0,0:0:0:0:
402,192,42291,1,0,0:0:0:0:
329,192,42449,1,0,0:0:0:0:
182,192,42607,1,0,0:0:0:0:
402,192,42607,1,0,0:0:0:0:
475,192,42607,1,0,0:0:0:0:
329,192,42764,1,0,0:0:0:0:
109,192,42922,1,0,0:0:0:0:
182,192,42922,1,0,0:0:0:0:
256,192,42922,1,0,0:0:0:0:
36,192,43080,1,0,0:0:0:0:
109,192,43238,1,0,0:0:0:0:
256,192,43238,1,0,0:0:0:0:
402,192,43238,1,0,0:0:0:0:
475,192,43396,1,0,0:0:0:0:
36,192,43554,1,0,0:0:0:0:
256,192,43554,1,0,0:0:0:0:
402,192,43554,1,0,0:0:0:0:
329,192,43712,1,0,0:0:0:0:
256,192,43870,1,0,0:0:0:0:
182,192,43870,1,0,0:0:0:0:
109,192,43870,1,0,0:0:0:0:
36,192,44028,1,0,0:0:0:0:
182,192,44186,1,0,0:0:0:0:
329,192,44186,1,0,0:0:0:0:
475,192,44186,1,0,0:0:0:0:
402,192,44343,1,0,0:0:0:0:
36,192,44501,1,0,0:0:0:0:
182,192,44501,1,0,0:0:0:0:
329,192,44501,1,0,0:0:0:0:
109,192,44659,1,0,0:0:0:0:
256,192,44817,1,0,0:0:0:0:
329,192,44817,1,0,0:0:0:0:
402,192,44817,1,0,0:0:0:0:
109,192,44975,1,0,0:0:0:0:
182,192,45133,1,0,0:0:0:0:
475,192,45133,1,0,0:0:0:0:
402,192,45212,1,0,0:0:0:0:
256,192,45291,1,0,0:0:0:0:
329,192,45370,1,0,0:0:0:0:
109,192,45449,1,0,0:0:0:0:
256,192,45449,1,0,0:0:0:0:
329,192,45528,1,0,0:0:0:0:
402,192,45607,1,0,0:0:0:0:
475,192,45686,1,0,0:0:0:0:
402,192,45764,1,0,0:0:0:0:
329,192,45843,1,0,0:0:0:0:
109,192,45922,1,0,0:0:0:0:
402,192,45922,1,0,0:0:0:0:
329,192,46001,1,0,0:0:0:0:
182,192,46080,1,0,0:0:0:0:
256,192,46080,1,0,0:0:0:0:
36,192,46080,1,0,0:0:0:0:
329,192,46238,1,0,0:0:0:0:
109,192,46396,1,0,0:0:0:0:
256,192,46396,1,0,0:0:0:0:
402,192,46396,1,0,0:0:0:0:
329,192,46554,1,0,0:0:0:0:
36,192,46712,1,0,0:0:0:0:
182,192,46712,1,0,0:0:0:0:
475,192,46712,1,0,0:0:0:0:
402,192,46870,1,0,0:0:0:0:
329,192,47028,1,0,0:0:0:0:
182,192,47028,1,0,0:0:0:0:
109,192,47028,1,0,0:0:0:0:
256,192,47186,1,0,0:0:0:0:
36,192,47343,1,0,0:0:0:0:
182,192,47343,1,0,0:0:0:0:
329,192,47343,1,0,0:0:0:0:
402,192,47501,1,0,0:0:0:0:
36,192,47659,1,0,0:0:0:0:
182,192,47659,1,0,0:0:0:0:
256,192,47659,1,0,0:0:0:0:
329,192,47817,1,0,0:0:0:0:
109,192,47975,1,0,0:0:0:0:
256,192,47975,1,0,0:0:0:0:
475,192,47975,1,0,0:0:0:0:
402,192,48133,1,0,0:0:0:0:
36,192,48291,1,0,0:0:0:0:
182,192,48291,1,0,0:0:0:0:
329,192,48291,1,0,0:0:0:0:
109,192,48449,1,0,0:0:0:0:
182,192,48607,1,0,0:0:0:0:
329,192,48607,1,0,0:0:0:0:
475,192,48607,1,0,0:0:0:0:
402,192,48764,1,0,0:0:0:0:
256,192,48922,1,0,0:0:0:0:
475,192,48922,1,0,0:0:0:0:
402,192,49080,1,0,0:0:0:0:
182,192,49080,1,0,0:0:0:0:
36,192,49080,1,0,0:0:0:0:
109,192,49238,1,0,0:0:0:0:
182,192,49396,1,0,0:0:0:0:
329,192,49396,1,0,0:0:0:0:
475,192,49396,1,0,0:0:0:0:
402,192,49554,1,0,0:0:0:0:
475,192,49712,1,0,0:0:0:0:
256,192,49712,1,0,0:0:0:0:
36,192,49712,1,0,0:0:0:0:
329,192,49870,1,0,0:0:0:0:
475,192,49870,1,0,0:0:0:0:
256,192,49949,1,0,0:0:0:0:
182,192,50028,1,0,0:0:0:0:
109,192,50107,1,0,0:0:0:0:
402,192,50186,1,0,0:0:0:0:
329,192,50264,1,0,0:0:0:0:
256,192,50343,1,0,0:0:0:0:
182,192,50422,1,0,0:0:0:0:
36,192,50501,1,0,0:0:0:0:
109,192,50580,1,0,0:0:0:0:
182,192,50659,1,0,0:0:0:0:
256,192,50738,1,0,0:0:0:0:
475,192,50817,1,0,0:0:0:0:
402,192,50896,1,0,0:0:0:0:
329,192,50975,1,0,0:0:0:0:
256,192,51054,1,0,0:0:0:0:
36,192,51133,1,0,0:0:0:0:
475,192,51133,1,0,0:0:0:0:
402,192,51212,1,0,0:0:0:0:
256,192,51291,1,0,0:0:0:0:
109,192,51370,1,0,0:0:0:0:
36,192,51449,1,0,0:0:0:0:
329,192,51449,1,0,0:0:0:0:
402,192,51449,1,0,0:0:0:0:
256,192,51528,1,0,0:0:0:0:
109,192,51607,1,0,0:0:0:0:
182,192,51686,1,0,0:0:0:0:
36,192,51764,1,0,0:0:0:0:
256,192,51764,1,0,0:0:0:0:
402,192,51922,1,0,0:0:0:0:
475,192,51922,1,0,0:0:0:0:
109,192,52080,1,0,0:0:0:0:
182,192,52080,1,0,0:0:0:0:
256,192,52238,1,0,0:0:0:0:
329,192,52238,1,0,0:0:0:0:
36,192,52396,1,0,0:0:0:0:
182,192,52475,1,0,0:0:0:0:
109,192,52554,1,0,0:0:0:0:
256,192,52633,1,0,0:0:0:0:
182,192,52712,1,0,0:0:0:0:
329,192,52791,1,0,0:0:0:0:
256,192,52870,1,0,0:0:0:0:
402,192,52949,1,0,0:0:0:0:
475,192,53028,1,0,0:0:0:0:
329,192,53107,1,0,0:0:0:0:
402,192,53186,1,0,0:0:0:0:
256,192,53264,1,0,0:0:0:0:
329,192,53343,1,0,0:0:0:0:
182,192,53422,1,0,0:0:0:0:
256,192,53501,1,0,0:0:0:0:
109,192,53580,1,0,0:0:0:0:
36,192,53659,1,0,0:0:0:0:
182,192,53659,1,0,0:0:0:0:
329,192,53659,1,0,0:0:0:0:
182,192,53817,1,0,0:0:0:0:
329,192,53896,1,0,0:0:0:0:
402,192,53975,1,0,0:0:0:0:
475,192,53975,1,0,0:0:0:0:
329,192,54133,1,0,0:0:0:0:
256,192,54212,1,0,0:0:0:0:
36,192,54291,1,0,0:0:0:0:
182,192,54291,1,0,0:0:0:0:
109,192,54370,1,0,0:0:0:0:
182,192,54449,1,0,0:0:0:0:
329,192,54607,1,0,0:0:0:0:
475,192,54607,1,0,0:0:0:0:
402,192,54764,1,0,0:0:0:0:
256,192,54843,1,0,0:0:0:0:
36,192,54922,1,0,0:0:0:0:
475,192,54922,1,0,0:0:0:0:
402,192,55001,1,0,0:0:0:0:
329,192,55080,1,0,0:0:0:0:
256,192,55159,1,0,0:0:0:0:
182,192,55238,1,0,0:0:0:0:
109,192,55317,1,0,0:0:0:0:
36,192,55396,1,0,0:0:0:0:
109,192,55475,1,0,0:0:0:0:
475,192,55554,1,0,0:0:0:0:
182,192,55554,1,0,0:0:0:0:
256,192,55633,1,0,0:0:0:0:
329,192,55712,1,0,0:0:0:0:
402,192,55791,1,0,0:0:0:0:
475,192,55870,1,0,0:0:0:0:
402,192,55949,1,0,0:0:0:0:
329,192,56028,1,0,0:0:0:0:
256,192,56107,1,0,0:0:0:0:
36,192,56186,1,0,0:0:0:0:
182,192,56186,1,0,0:0:0:0:
109,192,56343,1,0,0:0:0:0:
256,192,56422,1,0,0:0:0:0:
402,192,56501,1,0,0:0:0:0:
475,192,56501,1,0,0:0:0:0:
329,192,56659,1,0,0:0:0:0:
109,192,56738,1,0,0:0:0:0:
182,192,56817,1,0,0:0:0:0:
402,192,56817,1,0,0:0:0:0:
256,192,56896,1,0,0:0:0:0:
329,192,56975,1,0,0:0:0:0:
475,192,57133,1,0,0:0:0:0:
402,192,57133,1,0,0:0:0:0:
182,192,57291,1,0,0:0:0:0:
256,192,57291,1,0,0:0:0:0:
36,192,57449,1,0,0:0:0:0:
475,192,57449,1,0,0:0:0:0:
402,192,57528,1,0,0:0:0:0:
329,192,57607,1,0,0:0:0:0:
256,192,57686,1,0,0:0:0:0:
36,192,57764,1,0,0:0:0:0:
109,192,57843,1,0,0:0:0:0:
182,192,57922,1,0,0:0:0:0:
256,192,58001,1,0,0:0:0:0:
402,192,58080,1,0,0:0:0:0:
329,192,58159,1,0,0:0:0:0:
256,192,58238,1,0,0:0:0:0:
182,192,58317,1,0,0:0:0:0:
109,192,58396,1,0,0:0:0:0:
182,192,58475,1,0,0:0:0:0:
256,192,58554,1,0,0:0:0:0:
329,192,58633,1,0,0:0:0:0:
402,192,58712,1,0,0:0:0:0:
475,192,58712,1,0,0:0:0:0:
109,192,58870,1,0,0:0:0:0:
256,192,58949,1,0,0:0:0:0:
36,192,59028,1,0,0:0:0:0:
329,192,59028,1,0,0:0:0:0:
475,192,59186,1,0,0:0:0:0:
256,192,59264,1,0,0:0:0:0:
109,192,59343,1,0,0:0:0:0:
182,192,59343,1,0,0:0:0:0:
329,192,59422,1,0,0:0:0:0:
256,192,59501,1,0,0:0:0:0:
329,192,59659,1,0,0:0:0:0:
475,192,59659,1,0,0:0:0:0:
36,192,59817,1,0,0:0:0:0:
256,192,59896,1,0,0:0:0:0:
109,192,59975,1,0,0:0:0:0:
402,192,59975,1,0,0:0:0:0:
329,192,60054,1,0,0:0:0:0:
256,192,60133,1,0,0:0:0:0:
182,192,60212,1,0,0:0:0:0:
36,192,60291,1,0,0:0:0:0:
109,192,60370,1,0,0:0:0:0:
182,192,60449,1,0,0:0:0:0:
256,192,60528,1,0,0:0:0:0:
475,192,60607,1,0,0:0:0:0:
402,192,60686,1,0,0:0:0:0:
329,192,60764,1,0,0:0:0:0:
256,192,60843,1,0,0:0:0:0:
109,192,60922,1,0,0:0:0:0:
182,192,61001,1,0,0:0:0:0:
256,192,61080,1,0,0:0:0:0:
329,192,61159,1,0,0:0:0:0:
402,192,61238,1,0,0:0:0:0:
475,192,61238,1,0,0:0:0:0:
182,192,61396,1,0,0:0:0:0:
109,192,61475,1,0,0:0:0:0:
182,192,61554,1,0,0:0:0:0:
329,192,61554,1,0,0:0:0:0:
475,192,61554,1,0,0:0:0:0:
402,192,61633,1,0,0:0:0:0:
256,192,61633,1,0,0:0:0:0:
36,192,61870,1,0,0:0:0:0:
182,192,61870,1,0,0:0:0:0:
256,192,61949,1,0,0:0:0:0:
329,192,62028,1,0,0:0:0:0:
475,192,62028,1,0,0:0:0:0:
109,192,62186,1,0,0:0:0:0:
182,192,62186,1,0,0:0:0:0:
256,192,62186,1,0,0:0:0:0:
329,192,62264,1,0,0:0:0:0:
402,192,62343,1,0,0:0:0:0:
256,192,62343,1,0,0:0:0:0:
182,192,62501,1,0,0:0:0:0:
329,192,62501,1,0,0:0:0:0:
475,192,62501,1,0,0:0:0:0:
109,192,62580,1,0,0:0:0:0:
36,192,62659,1,0,0:0:0:0:
182,192,62738,1,0,0:0:0:0:
109,192,62817,1,0,0:0:0:0:
256,192,62896,1,0,0:0:0:0:
182,192,62975,1,0,0:0:0:0:
329,192,63054,1,0,0:0:0:0:
256,192,63133,1,0,0:0:0:0:
402,192,63212,1,0,0:0:0:0:
329,192,63291,1,0,0:0:0:0:
475,192,63370,1,0,0:0:0:0:
402,192,63449,1,0,0:0:0:0:
329,192,63528,1,0,0:0:0:0:
256,192,63607,1,0,0:0:0:0:
182,192,63686,1,0,0:0:0:0:
36,192,63764,1,0,0:0:0:0:
109,192,63764,1,0,0:0:0:0:
182,192,63922,1,0,0:0:0:0:
256,192,64001,1,0,0:0:0:0:
329,192,64080,1,0,0:0:0:0:
475,192,64080,1,0,0:0:0:0:
109,192,64080,1,0,0:0:0:0:
402,192,64159,1,0,0:0:0:0:
256,192,64159,1,0,0:0:0:0:
182,192,64238,1,0,0:0:0:0:
36,192,64396,1,0,0:0:0:0:
256,192,64396,1,0,0:0:0:0:
182,192,64475,1,0,0:0:0:0:
109,192,64554,1,0,0:0:0:0:
329,192,64554,1,0,0:0:0:0:
182,192,64712,1,0,0:0:0:0:
475,192,64712,1,0,0:0:0:0:
402,192,64791,1,0,0:0:0:0:
329,192,64870,1,0,0:0:0:0:
256,192,64870,1,0,0:0:0:0:
475,192,65028,1,0,0:0:0:0:
182,192,65028,1,0,0:0:0:0:
402,192,65107,1,0,0:0:0:0:
329,192,65186,1,0,0:0:0:0:
256,192,65264,1,0,0:0:0:0:
109,192,65343,1,0,0:0:0:0:
182,192,65422,1,0,0:0:0:0:
256,192,65501,1,0,0:0:0:0:
329,192,65580,1,0,0:0:0:0:
402,192,65659,1,0,0:0:0:0:
329,192,65738,1,0,0:0:0:0:
256,192,65817,1,0,0:0:0:0:
182,192,65896,1,0,0:0:0:0:
109,192,65975,1,0,0:0:0:0:
182,192,66054,1,0,0:0:0:0:
256,192,66133,1,0,0:0:0:0:
329,192,66212,1,0,0:0:0:0:
402,192,66291,1,0,0:0:0:0:
475,192,66291,1,0,0:0:0:0:
36,192,66449,1,0,0:0:0:0:
109,192,66528,1,0,0:0:0:0:
182,192,66607,1,0,0:0:0:0:
329,192,66607,1,0,0:0:0:0:
475,192,66607,1,0,0:0:0:0:
402,192,66686,1,0,0:0:0:0:
256,192,66686,1,0,0:0:0:0:
182,192,66764,1,0,0:0:0:0:
36,192,66922,1,0,0:0:0:0:
109,192,67001,1,0,0:0:0:0:
182,192,67080,1,0,0:0:0:0:
256,192,67080,1,0,0:0:0:0:
475,192,67238,1,0,0:0:0:0:
402,192,67317,1,0,0:0:0:0:
329,192,67396,1,0,0:0:0:0:
256,192,67396,1,0,0:0:0:0:
36,192,67554,1,0,0:0:0:0:
182,192,67633,1,0,0:0:0:0:
329,192,67712,1,0,0:0:0:0:
475,192,67791,1,0,0:0:0:0:
402,192,67870,1,0,0:0:0:0:
256,192,67949,1,0,0:0:0:0:
109,192,68028,1,0,0:0:0:0:
182,192,68107,1,0,0:0:0:0:
329,192,68186,1,0,0:0:0:0:
475,192,68264,1,0,0:0:0:0:
402,192,68343,1,0,0:0:0:0:
256,192,68422,1,0,0:0:0:0:
36,192,68501,1,0,0:0:0:0:
109,192,68580,1,0,0:0:0:0:
256,192,68659,1,0,0:0:0:0:
402,192,68738,1,0,0:0:0:0:
475,192,68817,1,0,0:0:0:0:
329,192,68817,1,0,0:0:0:0:
109,192,68975,1,0,0:0:0:0:
256,192,69054,1,0,0:0:0:0:
182,192,69133,1,0,0:0:0:0:
402,192,69133,1,0,0:0:0:0:
329,192,69291,1,0,0:0:0:0:
475,192,69370,1,0,0:0:0:0:
109,192,69449,1,0,0:0:0:0:
256,192,69449,1,0,0:0:0:0:
182,192,69528,1,0,0:0:0:0:
256,192,69607,1,0,0:0:0:0:
402,192,69764,1,0,0:0:0:0:
475,192,69764,1,0,0:0:0:0:
329,192,69843,1,0,0:0:0:0:
36,192,69922,1,0,0:0:0:0:
109,192,70001,1,0,0:0:0:0:
256,192,70080,1,0,0:0:0:0:
402,192,70080,1,0,0:0:0:0:
36,192,70159,1,0,0:0:0:0:
256,192,70238,1,0,0:0:0:0:
109,192,70317,1,0,0:0:0:0:
329,192,70396,1,0,0:0:0:0:
182,192,70475,1,0,0:0:0:0:
329,192,70554,1,0,0:0:0:0:
256,192,70633,1,0,0:0:0:0:
475,192,70712,1,0,0:0:0:0:
329,192,70791,1,0,0:0:0:0:
475,192,70870,1,0,0:0:0:0:
402,192,70949,1,0,0:0:0:0:
182,192,71028,1,0,0:0:0:0:
329,192,71107,1,0,0:0:0:0:
109,192,71186,1,0,0:0:0:0:
256,192,71264,1,0,0:0:0:0:
36,192,71343,1,0,0:0:0:0:
182,192,71343,1,0,0:0:0:0:
402,192,71343,1,0,0:0:0:0:
182,192,71659,1,0,0:0:0:0:
256,192,71659,1,0,0:0:0:0:
475,192,71659,1,0,0:0:0:0:
402,192,71817,1,0,0:0:0:0:
36,192,71975,1,0,0:0:0:0:
182,192,71975,1,0,0:0:0:0:
329,192,71975,1,0,0:0:0:0:
256,192,72133,1,0,0:0:0:0:
109,192,72291,1,0,0:0:0:0:
329,192,72291,1,0,0:0:0:0:
475,192,72291,1,0,0:0:0:0:
402,192,72449,1,0,0:0:0:0:
36,192,72607,1,0,0:0:0:0:
182,192,72607,1,0,0:0:0:0:
329,192,72607,1,0,0:0:0:0:
256,192,72764,1,0,0:0:0:0:
109,192,72922,1,0,0:0:0:0:
329,192,72922,1,0,0:0:0:0:
475,192,72922,1,0,0:0:0:0:
402,192,73080,1,0,0:0:0:0:
36,192,73238,1,0,0:0:0:0:
182,192,73238,1,0,0:0:0:0:
256,192,73238,1,0,0:0:0:0:
329,192,73396,1,0,0:0:0:0:
109,192,73554,1,0,0:0:0:0:
256,192,73554,1,0,0:0:0:0:
475,192,73554,1,0,0:0:0:0:
402,192,73712,1,0,0:0:0:0:
329,192,73870,1,0,0:0:0:0:
182,192,73870,1,0,0:0:0:0:
36,192,73870,1,0,0:0:0:0:
475,192,74028,1,0,0:0:0:0:
109,192,74186,1,0,0:0:0:0:
402,192,74186,1,0,0:0:0:0:
256,192,74186,1,0,0:0:0:0:
36,192,74343,1,0,0:0:0:0:
182,192,74501,1,0,0:0:0:0:
329,192,74501,1,0,0:0:0:0:
109,192,74501,1,0,0:0:0:0:
402,192,74659,1,0,0:0:0:0:
36,192,74817,1,0,0:0:0:0:
475,192,74817,1,0,0:0:0:0:
256,192,74817,1,0,0:0:0:0:
109,192,74975,1,0,0:0:0:0:
182,192,75133,1,0,0:0:0:0:
329,192,75133,1,0,0:0:0:0:
475,192,75133,1,0,0:0:0:0:
402,192,75291,1,0,0:0:0:0:
36,192,75449,1,0,0:0:0:0:
182,192,75449,1,0,0:0:0:0:
329,192,75449,1,0,0:0:0:0:
256,192,75607,1,0,0:0:0:0:
109,192,75764,1,0,0:0:0:0:
182,192,75764,1,0,0:0:0:0:
475,192,75764,1,0,0:0:0:0:
402,192,75922,1,0,0:0:0:0:
36,192,76080,1,0,0:0:0:0:
182,192,76080,1,0,0:0:0:0:
329,192,76080,1,0,0:0:0:0:
109,192,76238,1,0,0:0:0:0:
182,192,76396,1,0,0:0:0:0:
256,192,76396,1,0,0:0:0:0:
402,192,76396,1,0,0:0:0:0:
329,192,76554,1,0,0:0:0:0:
109,192,76712,1,0,0:0:0:0:
256,192,76712,1,0,0:0:0:0:
475,192,76712,1,0,0:0:0:0:
36,192,76870,1,0,0:0:0:0:
329,192,77028,1,0,0:0:0:0:
402,192,77028,1,0,0:0:0:0:
475,192,77028,1,0,0:0:0:0:
36,192,77186,1,0,0:0:0:0:
109,192,77343,1,0,0:0:0:0:
182,192,77343,1,0,0:0:0:0:
329,192,77343,1,0,0:0:0:0:
402,192,77501,1,0,0:0:0:0:
109,192,77659,1,0,0:0:0:0:
329,192,77659,1,0,0:0:0:0:
475,192,77659,1,0,0:0:0:0:
36,192,77817,1,0,0:0:0:0:
182,192,77975,1,0,0:0:0:0:
329,192,77975,1,0,0:0:0:0:
475,192,77975,1,0,0:0:0:0:
256,192,78133,1,0,0:0:0:0:
36,192,78291,1,0,0:0:0:0:
182,192,78291,1,0,0:0:0:0:
402,192,78291,1,0,0:0:0:0:
329,192,78449,1,0,0:0:0:0:
36,192,78607,1,0,0:0:0:0:
109,192,78607,1,0,0:0:0:0:
182,192,78607,1,0,0:0:0:0:
475,192,78764,1,0,0:0:0:0:
109,192,78922,1,0,0:0:0:0:
256,192,78922,1,0,0:0:0:0:
402,192,78922,1,0,0:0:0:0:
329,192,79080,1,0,0:0:0:0:
36,192,79238,1,0,0:0:0:0:
182,192,79238,1,0,0:0:0:0:
402,192,79238,1,0,0:0:0:0:
475,192,79396,1,0,0:0:0:0:
109,192,79554,1,0,0:0:0:0:
256,192,79554,1,0,0:0:0:0:
402,192,79554,1,0,0:0:0:0:
182,192,79712,1,0,0:0:0:0:
36,192,79870,1,0,0:0:0:0:
256,192,79870,1,0,0:0:0:0:
329,192,79870,1,0,0:0:0:0:
182,192,80028,1,0,0:0:0:0:
256,192,80186,1,0,0:0:0:0:
402,192,80186,1,0,0:0:0:0:
475,192,80186,1,0,0:0:0:0:
329,192,80343,1,0,0:0:0:0:
36,192,80501,1,0,0:0:0:0:
182,192,80501,1,0,0:0:0:0:
402,192,80501,1,0,0:0:0:0:
109,192,80659,1,0,0:0:0:0:
182,192,80817,1,0,0:0:0:0:
329,192,80817,1,0,0:0:0:0:
475,192,80817,1,0,0:0:0:0:
256,192,80975,1,0,0:0:0:0:
36,192,81054,1,0,0:0:0:0:
109,192,81133,1,0,0:0:0:0:
329,192,81133,1,0,0:0:0:0:
182,192,81212,1,0,0:0:0:0:
402,192,81291,1,0,0:0:0:0:
329,192,81370,1,0,0:0:0:0:
36,192,81449,1,0,0:0:0:0:
182,192,81449,1,0,0:0:0:0:
256,192,81449,1,0,0:0:0:0:
182,192,81764,1,0,0:0:0:0:
256,192,81764,1,0,0:0:0:0:
475,192,81764,1,0,0:0:0:0:
402,192,81922,1,0,0:0:0:0:
36,192,82080,1,0,0:0:0:0:
182,192,82080,1,0,0:0:0:0:
329,192,82080,1,0,0:0:0:0:
256,192,82238,1,0,0:0:0:0:
109,192,82396,1,0,0:0:0:0:
329,192,82396,1,0,0:0:0:0:
475,192,82396,1,0,0:0:0:0:
402,192,82554,1,0,0:0:0:0:
36,192,82712,1,0,0:0:0:0:
182,192,82712,1,0,0:0:0:0:
329,192,82712,1,0,0:0:0:0:
256,192,82870,1,0,0:0:0:0:
109,192,83028,1,0,0:0:0:0:
182,192,83028,1,0,0:0:0:0:
402,192,83028,1,0,0:0:0:0:
475,192,83186,1,0,0:0:0:0:
182,192,83343,1,0,0:0:0:0:
329,192,83343,1,0,0:0:0:0:
402,192,83343,1,0,0:0:0:0:
36,192,83501,1,0,0:0:0:0:
109,192,83659,1,0,0:0:0:0:
256,192,83659,1,0,0:0:0:0:
402,192,83659,1,0,0:0:0:0:
329,192,83817,1,0,0:0:0:0:
182,192,83975,1,0,0:0:0:0:
256,192,83975,1,0,0:0:0:0:
475,192,83975,1,0,0:0:0:0:
402,192,84133,1,0,0:0:0:0:
109,192,84291,1,0,0:0:0:0:
182,192,84291,1,0,0:0:0:0:
329,192,84291,1,0,0:0:0:0:
36,192,84449,1,0,0:0:0:0:
182,192,84607,1,0,0:0:0:0:
329,192,84607,1,0,0:0:0:0:
475,192,84607,1,0,0:0:0:0:
256,192,84764,1,0,0:0:0:0:
36,192,84922,1,0,0:0:0:0:
182,192,84922,1,0,0:0:0:0:
402,192,84922,1,0,0:0:0:0:
329,192,85080,1,0,0:0:0:0:
109,192,85238,1,0,0:0:0:0:
182,192,85238,1,0,0:0:0:0:
256,192,85238,1,0,0:0:0:0:
475,192,85396,1,0,0:0:0:0:
36,192,85554,1,0,0:0:0:0:
256,192,85554,1,0,0:0:0:0:
402,192,85554,1,0,0:0:0:0:
109,192,85712,1,0,0:0:0:0:
182,192,85870,1,0,0:0:0:0:
329,192,85870,1,0,0:0:0:0:
475,192,85870,1,0,0:0:0:0:
402,192,86028,1,0,0:0:0:0:
36,192,86186,1,0,0:0:0:0:
109,192,86186,1,0,0:0:0:0:
329,192,86186,1,0,0:0:0:0:
182,192,86264,1,0,0:0:0:0:
256,192,86343,1,0,0:0:0:0:
329,192,86422,1,0,0:0:0:0:
475,192,86501,1,0,0:0:0:0:
402,192,86501,1,0,0:0:0:0:
109,192,86659,1,0,0:0:0:0:
36,192,86817,1,0,0:0:0:0:
256,192,86817,1,0,0:0:0:0:
402,192,86817,1,0,0:0:0:0:
329,192,86975,1,0,0:0:0:0:
109,192,87133,1,0,0:0:0:0:
256,192,87133,1,0,0:0:0:0:
475,192,87133,1,0,0:0:0:0:
402,192,87291,1,0,0:0:0:0:
36,192,87449,1,0,0:0:0:0:
182,192,87449,1,0,0:0:0:0:
329,192,87449,1,0,0:0:0:0:
109,192,87607,1,0,0:0:0:0:
182,192,87764,1,0,0:0:0:0:
256,192,87764,1,0,0:0:0:0:
402,192,87764,1,0,0:0:0:0:
475,192,87922,1,0,0:0:0:0:
109,192,88080,1,0,0:0:0:0:
256,192,88080,1,0,0:0:0:0:
402,192,88080,1,0,0:0:0:0:
182,192,88238,1,0,0:0:0:0:
36,192,88396,1,0,0:0:0:0:
329,192,88396,1,0,0:0:0:0:
475,192,88396,1,0,0:0:0:0:
402,192,88554,1,0,0:0:0:0:
109,192,88712,1,0,0:0:0:0:
256,192,88712,1,0,0:0:0:0:
329,192,88712,1,0,0:0:0:0:
36,192,88870,1,0,0:0:0:0:
182,192,89028,1,0,0:0:0:0:
329,192,89028,1,0,0:0:0:0:
475,192,89028,1,0,0:0:0:0:
109,192,89107,1,0,0:0:0:0:
256,192,89186,1,0,0:0:0:0:
182,192,89264,1,0,0:0:0:0:
402,192,89343,1,0,0:0:0:0:
475,192,89343,1,0,0:0:0:0:
329,192,89501,1,0,0:0:0:0:
36,192,89580,1,0,0:0:0:0:
109,192,89659,1,0,0:0:0:0:
402,192,89659,1,0,0:0:0:0:
36,192,89738,1,0,0:0:0:0:
256,192,89817,1,0,0:0:0:0:
182,192,89896,1,0,0:0:0:0:
329,192,89975,1,0,0:0:0:0:
475,192,89975,1,0,0:0:0:0:
182,192,90054,1,0,0:0:0:0:
329,192,90133,1,0,0:0:0:0:
109,192,90212,1,0,0:0:0:0:
182,192,90291,1,0,0:0:0:0:
475,192,90291,1,0,0:0:0:0:
402,192,90370,1,0,0:0:0:0:
329,192,90449,1,0,0:0:0:0:
256,192,90528,1,0,0:0:0:0:
402,192,90607,1,0,0:0:0:0:
329,192,90686,1,0,0:0:0:0:
256,192,90764,1,0,0:0:0:0:
182,192,90843,1,0,0:0:0:0:
475,192,90922,1,0,0:0:0:0:
402,192,91001,1,0,0:0:0:0:
329,192,91080,1,0,0:0:0:0:
256,192,91159,1,0,0:0:0:0:
36,192,91238,1,0,0:0:0:0:
109,192,91317,1,0,0:0:0:0:
182,192,91396,1,0,0:0:0:0:
256,192,91475,1,0,0:0:0:0:
329,192,91554,1,0,0:0:0:0:
402,192,91554,1,0,0:0:0:0:
475,192,91554,1,0,0:0:0:0:
182,192,92027,1,0,0:0:0:0:
329,192,92501,1,0,0:0:0:0:
36,192,92817,1,0,0:0:0:0:
182,192,92817,1,0,0:0:0:0:
402,192,92817,1,0,0:0:0:0:
109,192,93764,1,0,0:0:0:0:
256,192,93922,1,0,0:0:0:0:
182,192,94001,1,0,0:0:0:0:
402,192,94080,1,0,0:0:0:0:
475,192,94080,1,0,0:0:0:0:
329,192,94554,1,0,0:0:0:0:
182,192,95027,1,0,0:0:0:0:
36,192,95343,1,0,0:0:0:0:
256,192,95343,1,0,0:0:0:0:
475,192,95343,1,0,0:0:0:0:
36,192,96290,1,0,0:0:0:0:
109,192,96448,1,0,0:0:0:0:
182,192,96527,1,0,0:0:0:0:
256,192,96606,1,0,0:0:0:0:
402,192,96606,1,0,0:0:0:0:
182,192,97080,1,0,0:0:0:0:
36,192,97554,1,0,0:0:0:0:
329,192,97554,1,0,0:0:0:0:
182,192,97869,1,0,0:0:0:0:
475,192,97869,1,0,0:0:0:0:
329,192,98343,1,0,0:0:0:0:
402,192,98817,1,0,0:0:0:0:
475,192,98817,1,0,0:0:0:0:
36,192,99132,1,0,0:0:0:0:
329,192,99132,1,0,0:0:0:0:
182,192,99211,1,0,0:0:0:0:
36,192,99290,1,0,0:0:0:0:
256,192,99606,1,0,0:0:0:0:
402,192,100080,1,0,0:0:0:0:
475,192,100080,1,0,0:0:0:0:
109,192,100396,1,0,0:0:0:0:
329,192,100396,1,0,0:0:0:0:
256,192,100554,1,0,0:0:0:0:
329,192,100632,1,0,0:0:0:0:
109,192,100632,1,0,0:0:0:0:
182,192,100869,1,0,0:0:0:0:
256,192,100869,1,0,0:0:0:0:
109,192,101185,1,0,0:0:0:0:
475,192,101343,1,0,0:0:0:0:
402,192,101422,1,0,0:0:0:0:
329,192,101501,1,0,0:0:0:0:
256,192,101580,1,0,0:0:0:0:
182,192,101659,1,0,0:0:0:0:
36,192,101659,1,0,0:0:0:0:
109,192,102109,1,0,0:0:0:0:
182,192,102559,1,0,0:0:0:0:
402,192,102859,1,0,0:0:0:0:
475,192,102859,1,0,0:0:0:0:
329,192,103268,1,0,0:0:0:0:
475,192,103677,1,0,0:0:0:0:
36,192,103949,1,0,0:0:0:0:
402,192,103949,1,0,0:0:0:0:
182,192,104324,1,0,0:0:0:0:
329,192,104699,1,0,0:0:0:0:
109,192,104949,1,0,0:0:0:0:
402,192,104949,1,0,0:0:0:0:
475,192,104949,1,0,0:0:0:0:
256,192,105410,1,0,0:0:0:0:
109,192,105410,1,0,0:0:0:0:
402,192,105410,1,0,0:0:0:0:
182,192,105641,1,0,0:0:0:0:
329,192,105756,1,0,0:0:0:0:
402,192,105872,1,0,0:0:0:0:
475,192,105872,1,0,0:0:0:0:
109,192,105979,1,0,0:0:0:0:
329,192,106086,1,0,0:0:0:0:
109,192,106193,1,0,0:0:0:0:
182,192,106300,1,0,0:0:0:0:
329,192,106300,1,0,0:0:0:0:
475,192,106300,1,0,0:0:0:0:
109,192,106407,1,0,0:0:0:0:
329,192,106514,1,0,0:0:0:0:
256,192,106622,1,0,0:0:0:0:
36,192,106729,1,0,0:0:0:0:
182,192,106729,1,0,0:0:0:0:
402,192,106729,1,0,0:0:0:0:
329,192,106829,1,0,0:0:0:0:
256,192,106929,1,0,0:0:0:0:
329,192,107029,1,0,0:0:0:0:
109,192,107129,1,0,0:0:0:0:
402,192,107129,1,0,0:0:0:0:
475,192,107129,1,0,0:0:0:0:
182,192,107229,1,0,0:0:0:0:
256,192,107329,1,0,0:0:0:0:
329,192,107429,1,0,0:0:0:0:
402,192,107529,1,0,0:0:0:0:
475,192,107529,1,0,0:0:0:0:
329,192,107622,1,0,0:0:0:0:
256,192,107716,1,0,0:0:0:0:
182,192,107810,1,0,0:0:0:0:
36,192,107904,1,0,0:0:0:0:
109,192,107997,1,0,0:0:0:0:
182,192,108091,1,0,0:0:0:0:
256,192,108185,1,0,0:0:0:0:
475,192,108279,1,0,0:0:0:0:
402,192,108367,1,0,0:0:0:0:
329,192,108455,1,0,0:0:0:0:
256,192,108543,1,0,0:0:0:0:
109,192,108631,1,0,0:0:0:0:
182,192,108720,1,0,0:0:0:0:
256,192,108808,1,0,0:0:0:0:
329,192,108896,1,0,0:0:0:0:
402,192,108984,1,0,0:0:0:0:
256,192,109067,1,0,0:0:0:0:
402,192,109150,1,0,0:0:0:0:
256,192,109234,1,0,0:0:0:0:
329,192,109317,1,0,0:0:0:0:
182,192,109400,1,0,0:0:0:0:
329,192,109484,1,0,0:0:0:0:
182,192,109567,1,0,0:0:0:0:
256,192,109650,1,0,0:0:0:0:
402,192,109650,1,0,0:0:0:0:
402,192,109900,1,0,0:0:0:0:
256,192,109900,1,0,0:0:0:0:
256,192,110150,1,0,0:0:0:0:
402,192,110150,1,0,0:0:0:0:
402,192,110465,1,0,0:0:0:0:
256,192,110465,1,0,0:0:0:0:
36,192,111096,1,0,0:0:0:0:
256,192,111096,1,0,0:0:0:0:
475,192,111096,1,0,0:0:0:0:
36,192,111254,1,0,0:0:0:0:
256,192,111254,1,0,0:0:0:0:
475,192,111254,1,0,0:0:0:0:
36,192,111412,1,0,0:0:0:0:
109,192,111412,1,0,0:0:0:0:
182,192,111491,1,0,0:0:0:0:
256,192,111491,1,0,0:0:0:0:
109,192,111570,1,0,0:0:0:0:
36,192,111570,1,0,0:0:0:0:
182,192,111649,1,0,0:0:0:0:
256,192,111649,1,0,0:0:0:0:
109,192,111728,1,0,0:0:0:0:
36,192,111728,1,0,0:0:0:0:
256,192,111807,1,0,0:0:0:0:
182,192,111807,1,0,0:0:0:0:
109,192,111886,1,0,0:0:0:0:
36,192,111886,1,0,0:0:0:0:
182,192,111965,1,0,0:0:0:0:
256,192,111965,1,0,0:0:0:0:
329,192,112044,1,0,0:0:0:0:
402,192,112044,1,0,0:0:0:0:
475,192,112044,1,0,0:0:0:0:
182,192,112202,1,0,0:0:0:0:
36,192,112202,1,0,0:0:0:0:
109,192,112202,1,0,0:0:0:0:
402,192,112359,1,0,0:0:0:0:
475,192,112359,1,0,0:0:0:0:
329,192,112438,1,0,0:0:0:0:
256,192,112438,1,0,0:0:0:0:
402,192,112517,1,0,0:0:0:0:
475,192,112517,1,0,0:0:0:0:
329,192,112596,1,0,0:0:0:0:
256,192,112596,1,0,0:0:0:0:
402,192,112675,1,0,0:0:0:0:
475,192,112675,1,0,0:0:0:0:
329,192,112754,1,0,0:0:0:0:
256,192,112754,1,0,0:0:0:0:
402,192,112833,1,0,0:0:0:0:
475,192,112833,1,0,0:0:0:0:
329,192,112912,1,0,0:0:0:0:
256,192,112912,1,0,0:0:0:0:
182,192,112991,1,0,0:0:0:0:
36,192,112991,1,0,0:0:0:0:
109,192,112991,1,0,0:0:0:0:
182,192,113148,1,0,0:0:0:0:
256,192,113148,1,0,0:0:0:0:
329,192,113148,1,0,0:0:0:0:
475,192,113306,1,0,0:0:0:0:
402,192,113306,1,0,0:0:0:0:
329,192,113385,1,0,0:0:0:0:
256,192,113385,1,0,0:0:0:0:
36,192,113464,1,0,0:0:0:0:
109,192,113464,1,0,0:0:0:0:
182,192,113543,1,0,0:0:0:0:
256,192,113543,1,0,0:0:0:0:
402,192,113622,1,0,0:0:0:0:
475,192,113622,1,0,0:0:0:0:
329,192,113701,1,0,0:0:0:0:
256,192,113701,1,0,0:0:0:0:
36,192,113780,1,0,0:0:0:0:
109,192,113780,1,0,0:0:0:0:
182,192,113859,1,0,0:0:0:0:
256,192,113859,1,0,0:0:0:0:
475,192,113938,1,0,0:0:0:0:
402,192,113938,1,0,0:0:0:0:
329,192,113938,1,0,0:0:0:0:
36,192,114095,1,0,0:0:0:0:
109,192,114095,1,0,0:0:0:0:
182,192,114095,1,0,0:0:0:0:
36,192,114253,1,0,0:0:0:0:
182,192,114253,1,0,0:0:0:0:
475,192,114332,1,0,0:0:0:0:
329,192,114332,1,0,0:0:0:0:
182,192,114411,1,0,0:0:0:0:
36,192,114411,1,0,0:0:0:0:
329,192,114490,1,0,0:0:0:0:
475,192,114490,1,0,0:0:0:0:
36,192,114569,1,0,0:0:0:0:
182,192,114569,1,0,0:0:0:0:
329,192,114648,1,0,0:0:0:0:
475,192,114648,1,0,0:0:0:0:
182,192,114727,1,0,0:0:0:0:
36,192,114727,1,0,0:0:0:0:
329,192,114806,1,0,0:0:0:0:
475,192,114806,1,0,0:0:0:0:
109,192,114885,1,0,0:0:0:0:
256,192,114885,1,0,0:0:0:0:
402,192,114885,1,0,0:0:0:0:
402,192,115042,1,0,0:0:0:0:
256,192,115042,1,0,0:0:0:0:
109,192,115042,1,0,0:0:0:0:
402,192,115200,1,0,0:0:0:0:
475,192,115200,1,0,0:0:0:0:
182,192,115279,1,0,0:0:0:0:
256,192,115279,1,0,0:0:0:0:
329,192,115358,1,0,0:0:0:0:
402,192,115358,1,0,0:0:0:0:
109,192,115437,1,0,0:0:0:0:
182,192,115437,1,0,0:0:0:0:
256,192,115516,1,0,0:0:0:0:
329,192,115516,1,0,0:0:0:0:
36,192,115595,1,0,0:0:0:0:
109,192,115595,1,0,0:0:0:0:
182,192,115674,1,0,0:0:0:0:
256,192,115674,1,0,0:0:0:0:
109,192,115753,1,0,0:0:0:0:
36,192,115753,1,0,0:0:0:0:
329,192,115832,1,0,0:0:0:0:
402,192,115832,1,0,0:0:0:0:
475,192,115832,1,0,0:0:0:0:
36,192,115989,1,0,0:0:0:0:
109,192,115989,1,0,0:0:0:0:
182,192,115989,1,0,0:0:0:0:
36,192,116147,1,0,0:0:0:0:
109,192,116147,1,0,0:0:0:0:
329,192,116226,1,0,0:0:0:0:
256,192,116226,1,0,0:0:0:0:
109,192,116305,1,0,0:0:0:0:
182,192,116305,1,0,0:0:0:0:
329,192,116384,1,0,0:0:0:0:
402,192,116384,1,0,0:0:0:0:
256,192,116463,1,0,0:0:0:0:
182,192,116463,1,0,0:0:0:0:
402,192,116542,1,0,0:0:0:0:
475,192,116542,1,0,0:0:0:0:
329,192,116621,1,0,0:0:0:0:
256,192,116621,1,0,0:0:0:0:
402,192,116700,1,0,0:0:0:0:
475,192,116700,1,0,0:0:0:0:
36,192,116779,1,0,0:0:0:0:
182,192,116779,1,0,0:0:0:0:
329,192,116779,1,0,0:0:0:0:
329,192,116936,1,0,0:0:0:0:
182,192,116936,1,0,0:0:0:0:
36,192,116936,1,0,0:0:0:0:
109,192,117094,1,0,0:0:0:0:
182,192,117094,1,0,0:0:0:0:
402,192,117173,1,0,0:0:0:0:
475,192,117173,1,0,0:0:0:0:
36,192,117252,1,0,0:0:0:0:
109,192,117252,1,0,0:0:0:0:
256,192,117331,1,0,0:0:0:0:
329,192,117331,1,0,0:0:0:0:
109,192,117410,1,0,0:0:0:0:
182,192,117410,1,0,0:0:0:0:
402,192,117489,1,0,0:0:0:0:
475,192,117489,1,0,0:0:0:0:
256,192,117568,1,0,0:0:0:0:
329,192,117568,1,0,0:0:0:0:
182,192,117647,1,0,0:0:0:0:
109,192,117647,1,0,0:0:0:0:
36,192,117726,1,0,0:0:0:0:
256,192,117726,1,0,0:0:0:0:
475,192,117726,1,0,0:0:0:0:
475,192,117883,1,0,0:0:0:0:
256,192,117883,1,0,0:0:0:0:
36,192,117883,1,0,0:0:0:0:
475,192,118041,1,0,0:0:0:0:
402,192,118041,1,0,0:0:0:0:
329,192,118120,1,0,0:0:0:0:
256,192,118120,1,0,0:0:0:0:
182,192,118199,1,0,0:0:0:0:
109,192,118199,1,0,0:0:0:0:
36,192,118278,1,0,0:0:0:0:
475,192,118278,1,0,0:0:0:0:
109,192,118357,1,0,0:0:0:0:
182,192,118357,1,0,0:0:0:0:
256,192,118436,1,0,0:0:0:0:
329,192,118436,1,0,0:0:0:0:
402,192,118515,1,0,0:0:0:0:
475,192,118515,1,0,0:0:0:0:
329,192,118594,1,0,0:0:0:0:
256,192,118594,1,0,0:0:0:0:
36,192,118673,1,0,0:0:0:0:
109,192,118673,1,0,0:0:0:0:
182,192,118673,1,0,0:0:0:0:
329,192,118830,1,0,0:0:0:0:
402,192,118830,1,0,0:0:0:0:
475,192,118830,1,0,0:0:0:0:
36,192,118988,1,0,0:0:0:0:
182,192,118988,1,0,0:0:0:0:
256,192,119067,1,0,0:0:0:0:
402,192,119067,1,0,0:0:0:0:
109,192,119146,1,0,0:0:0:0:
182,192,119146,1,0,0:0:0:0:
329,192,119225,1,0,0:0:0:0:
402,192,119225,1,0,0:0:0:0:
256,192,119304,1,0,0:0:0:0:
182,192,119304,1,0,0:0:0:0:
402,192,119383,1,0,0:0:0:0:
475,192,119383,1,0,0:0:0:0:
256,192,119462,1,0,0:0:0:0:
329,192,119462,1,0,0:0:0:0:
182,192,119541,1,0,0:0:0:0:
109,192,119541,1,0,0:0:0:0:
36,192,119620,1,0,0:0:0:0:
256,192,119620,1,0,0:0:0:0:
402,192,119620,1,0,0:0:0:0:
329,192,119777,1,0,0:0:0:0:
182,192,119777,1,0,0:0:0:0:
109,192,119777,1,0,0:0:0:0:
36,192,119935,1,0,0:0:0:0:
182,192,119935,1,0,0:0:0:0:
109,192,120014,1,0,0:0:0:0:
256,192,120014,1,0,0:0:0:0:
182,192,120093,1,0,0:0:0:0:
329,192,120093,1,0,0:0:0:0:
256,192,120172,1,0,0:0:0:0:
402,192,120172,1,0,0:0:0:0:
329,192,120251,1,0,0:0:0:0:
475,192,120251,1,0,0:0:0:0:
182,192,120251,1,0,0:0:0:0:
36,192,120408,1,0,0:0:0:0:
109,192,120566,1,0,0:0:0:0:
256,192,120566,1,0,0:0:0:0:
402,192,120566,1,0,0:0:0:0:
182,192,120724,1,0,0:0:0:0:
256,192,120882,1,0,0:0:0:0:
402,192,120882,1,0,0:0:0:0:
475,192,120882,1,0,0:0:0:0:
329,192,121040,1,0,0:0:0:0:
402,192,121198,1,0,0:0:0:0:
256,192,121198,1,0,0:0:0:0:
109,192,121198,1,0,0:0:0:0:
475,192,121356,1,0,0:0:0:0:
36,192,121514,128,0,123408:0:0:0:0:
329,192,121514,128,0,123408:0:0:0:0:
256,192,121514,128,0,122777:0:0:0:0:
109,192,121514,128,0,123408:0:0:0:0:
402,192,122777,128,0,123408:0:0:0:0:
475,192,122777,128,0,123408:0:0:0:0:
182,192,123408,128,0,124040:0:0:0:0:
256,192,123408,128,0,124040:0:0:0:0:
36,192,124040,128,0,125303:0:0:0:0:
475,192,124040,128,0,125303:0:0:0:0:
402,192,124040,128,0,125303:0:0:0:0:
109,192,124040,128,0,125303:0:0:0:0:
329,192,125303,1,0,0:0:0:0:
256,192,125303,1,0,0:0:0:0:
182,192,125303,1,0,0:0:0:0:
36,192,129093,1,0,0:0:0:0:
