osu file format v14

[General]
AudioFilename: audio.mp3
AudioLeadIn: 0
PreviewTime: 9133
Countdown: 0
SampleSet: None
StackLeniency: 0.7
Mode: 3
LetterboxInBreaks: 0
SpecialStyle: 0
WidescreenStoryboard: 0

[Editor]
DistanceSpacing: 0.8
BeatDivisor: 4
GridSize: 16
TimelineZoom: 1.3

[Metadata]
Title:suzuran
TitleUnicode:和鸞
Artist:wumalutsufuri
ArtistUnicode:うまるつふり
Creator:Anima_Alumi-47
Version:4K Hard
Source:BMS
Tags:
BeatmapID:1100220
BeatmapSetID:517835

[Difficulty]
HPDrainRate:8
CircleSize:4
OverallDifficulty:9
ApproachRate:5
SliderMultiplier:1.4
SliderTickRate:1

[Events]
//Background and Video events
0,0,"bg.jpg",0,0
//Break Periods
//Storyboard Layer 0 (Background)
//Storyboard Layer 1 (Fail)
//Storyboard Layer 2 (Pass)
//Storyboard Layer 3 (Foreground)
//Storyboard Sound Samples

[TimingPoints]
2820,315.789473684211,4,3,0,100,1,0
3767,315.789473684211,4,3,0,100,1,0
4714,315.789473684211,4,3,0,100,1,0
5661,315.789473684211,4,3,0,100,1,0
6608,315.789473684211,4,3,0,100,1,0
7555,315.789473684211,4,3,0,100,1,0
8186,315.789473684211,4,3,0,100,1,0
91554,631.578947368421,4,3,0,100,1,0
101659,600,4,3,0,100,1,0
102859,545.454545454546,4,3,0,100,1,0
103949,500,4,3,0,100,1,0
104949,461.538461538462,4,3,0,100,1,0
105872,428.571428571429,4,3,0,100,1,0
106729,400,4,3,0,100,1,0
107529,375,4,3,0,100,1,0
108279,352.941176470588,4,3,0,100,1,0
108984,333.333333333333,4,3,0,100,1,0
109650,500,4,3,0,100,1,0
110150,631.578947368421,4,3,0,100,1,0
110781,315.789473684211,4,3,0,100,1,0
111096,-100,4,3,0,100,0,1
112991,315.789473684211,4,3,0,100,1,1
113938,315.789473684211,4,3,0,100,1,1
114885,315.789473684211,4,3,0,100,1,1
115832,315.789473684211,4,3,0,100,1,1
116779,315.789473684211,4,3,0,100,1,1
117726,315.789473684211,4,3,0,100,1,1
118673,315.789473684211,4,3,0,100,1,1
119620,315.789473684211,4,3,0,100,1,1
120251,315.789473684211,4,3,0,100,1,1
129093,-100,4,3,0,100,0,0

[HitObjects]
448,192,2504,5,0,0:0:0:0:
64,192,2820,1,0,0:0:0:0:
192,192,2820,1,0,0:0:0:0:
320,192,2820,1,0,0:0:0:0:
192,192,2977,1,0,0:0:0:0:
320,192,2977,1,0,0:0:0:0:
448,192,2977,1,0,0:0:0:0:
448,192,3135,1,0,0:0:0:0:
64,192,3135,1,0,0:0:0:0:
192,192,3175,1,0,0:0:0:0:
320,192,3214,1,0,0:0:0:0:
448,192,3254,1,0,0:0:0:0:
64,192,3293,1,0,0:0:0:0:
192,192,3333,1,0,0:0:0:0:
320,192,3372,1,0,0:0:0:0:
448,192,3412,1,0,0:0:0:0:
64,192,3451,1,0,0:0:0:0:
192,192,3491,1,0,0:0:0:0:
320,192,3530,1,0,0:0:0:0:
448,192,3570,1,0,0:0:0:0:
64,192,3609,1,0,0:0:0:0:
192,192,3648,1,0,0:0:0:0:
320,192,3688,1,0,0:0:0:0:
448,192,3727,1,0,0:0:0:0:
320,192,3767,1,0,0:0:0:0:
192,192,3767,1,0,0:0:0:0:
64,192,3767,1,0,0:0:0:0:
192,192,3924,1,0,0:0:0:0:
320,192,3924,1,0,0:0:0:0:
448,192,3924,1,0,0:0:0:0:
448,192,4082,1,0,0:0:0:0:
64,192,4082,1,0,0:0:0:0:
320,192,4122,1,0,0:0:0:0:
192,192,4161,1,0,0:0:0:0:
64,192,4201,1,0,0:0:0:0:
448,192,4240,1,0,0:0:0:0:
320,192,4280,1,0,0:0:0:0:
192,192,4319,1,0,0:0:0:0:
64,192,4359,1,0,0:0:0:0:
448,192,4398,1,0,0:0:0:0:
320,192,4438,1,0,0:0:0:0:
192,192,4477,1,0,0:0:0:0:
64,192,4517,1,0,0:0:0:0:
448,192,4556,1,0,0:0:0:0:
320,192,4595,1,0,0:0:0:0:
192,192,4635,1,0,0:0:0:0:
64,192,4674,1,0,0:0:0:0:
192,192,4714,1,0,0:0:0:0:
320,192,4714,1,0,0:0:0:0:
448,192,4714,1,0,0:0:0:0:
320,192,4871,1,0,0:0:0:0:
64,192,4871,1,0,0:0:0:0:
192,192,4871,1,0,0:0:0:0:
64,192,5029,1,0,0:0:0:0:
448,192,5029,1,0,0:0:0:0:
320,192,5069,1,0,0:0:0:0:
192,192,5108,1,0,0:0:0:0:
448,192,5148,1,0,0:0:0:0:
64,192,5187,1,0,0:0:0:0:
320,192,5227,1,0,0:0:0:0:
192,192,5266,1,0,0:0:0:0:
448,192,5306,1,0,0:0:0:0:
64,192,5345,1,0,0:0:0:0:
320,192,5385,1,0,0:0:0:0:
192,192,5424,1,0,0:0:0:0:
448,192,5464,1,0,0:0:0:0:
64,192,5503,1,0,0:0:0:0:
320,192,5542,1,0,0:0:0:0:
192,192,5582,1,0,0:0:0:0:
448,192,5621,1,0,0:0:0:0:
320,192,5661,1,0,0:0:0:0:
192,192,5661,1,0,0:0:0:0:
64,192,5661,1,0,0:0:0:0:
64,192,5818,1,0,0:0:0:0:
192,192,5818,1,0,0:0:0:0:
320,192,5818,1,0,0:0:0:0:
192,192,5976,1,0,0:0:0:0:
448,192,5976,1,0,0:0:0:0:
64,192,6016,1,0,0:0:0:0:
320,192,6055,1,0,0:0:0:0:
192,192,6095,1,0,0:0:0:0:
448,192,6134,1,0,0:0:0:0:
320,192,6174,1,0,0:0:0:0:
448,192,6213,1,0,0:0:0:0:
192,192,6253,1,0,0:0:0:0:
320,192,6292,1,0,0:0:0:0:
64,192,6332,1,0,0:0:0:0:
192,192,6371,1,0,0:0:0:0:
64,192,6411,1,0,0:0:0:0:
320,192,6450,1,0,0:0:0:0:
192,192,6489,1,0,0:0:0:0:
448,192,6529,1,0,0:0:0:0:
320,192,6568,1,0,0:0:0:0:
448,192,6608,1,0,0:0:0:0:
192,192,6608,1,0,0:0:0:0:
64,192,6608,1,0,0:0:0:0:
64,192,6765,1,0,0:0:0:0:
320,192,6765,1,0,0:0:0:0:
448,192,6765,1,0,0:0:0:0:
64,192,6923,1,0,0:0:0:0:
320,192,6963,1,0,0:0:0:0:
448,192,7002,1,0,0:0:0:0:
192,192,7042,1,0,0:0:0:0:
64,192,7081,1,0,0:0:0:0:
320,192,7121,1,0,0:0:0:0:
448,192,7160,1,0,0:0:0:0:
192,192,7200,1,0,0:0:0:0:
64,192,7239,1,0,0:0:0:0:
320,192,7279,1,0,0:0:0:0:
448,192,7318,1,0,0:0:0:0:
192,192,7358,1,0,0:0:0:0:
64,192,7397,1,0,0:0:0:0:
320,192,7436,1,0,0:0:0:0:
448,192,7476,1,0,0:0:0:0:
192,192,7515,1,0,0:0:0:0:
64,192,7555,1,0,0:0:0:0:
320,192,7555,1,0,0:0:0:0:
448,192,7555,1,0,0:0:0:0:
192,192,7712,1,0,0:0:0:0:
64,192,7712,1,0,0:0:0:0:
448,192,7712,1,0,0:0:0:0:
64,192,7870,1,0,0:0:0:0:
448,192,7870,1,0,0:0:0:0:
192,192,7910,1,0,0:0:0:0:
448,192,7949,1,0,0:0:0:0:
320,192,7989,1,0,0:0:0:0:
64,192,8028,1,0,0:0:0:0:
192,192,8068,1,0,0:0:0:0:
448,192,8107,1,0,0:0:0:0:
320,192,8147,1,0,0:0:0:0:
64,192,8186,1,0,0:0:0:0:
192,192,8186,1,0,0:0:0:0:
448,192,8186,1,0,0:0:0:0:
320,192,8343,1,0,0:0:0:0:
64,192,8501,1,0,0:0:0:0:
448,192,8501,1,0,0:0:0:0:
192,192,8659,1,0,0:0:0:0:
64,192,8817,1,0,0:0:0:0:
448,192,8817,1,0,0:0:0:0:
320,192,8975,1,0,0:0:0:0:
192,192,9133,1,0,0:0:0:0:
64,192,9133,1,0,0:0:0:0:
320,192,9291,1,0,0:0:0:0:
192,192,9449,1,0,0:0:0:0:
448,192,9449,1,0,0:0:0:0:
320,192,9607,1,0,0:0:0:0:
320,192,9686,1,0,0:0:0:0:
64,192,9764,1,0,0:0:0:0:
448,192,9764,1,0,0:0:0:0:
192,192,9922,1,0,0:0:0:0:
320,192,10001,1,0,0:0:0:0:
64,192,10080,1,0,0:0:0:0:
448,192,10080,1,0,0:0:0:0:
192,192,10159,1,0,0:0:0:0:
64,192,10238,1,0,0:0:0:0:
320,192,10238,1,0,0:0:0:0:
192,192,10396,1,0,0:0:0:0:
448,192,10396,1,0,0:0:0:0:
320,192,10554,1,0,0:0:0:0:
192,192,10633,1,0,0:0:0:0:
64,192,10712,1,0,0:0:0:0:
448,192,10712,1,0,0:0:0:0:
320,192,10870,1,0,0:0:0:0:
192,192,11028,1,0,0:0:0:0:
64,192,11028,1,0,0:0:0:0:
320,192,11186,1,0,0:0:0:0:
448,192,11186,1,0,0:0:0:0:
64,192,11264,1,0,0:0:0:0:
192,192,11343,1,0,0:0:0:0:
448,192,11343,1,0,0:0:0:0:
320,192,11422,1,0,0:0:0:0:
448,192,11501,1,0,0:0:0:0:
64,192,11501,1,0,0:0:0:0:
320,192,11580,1,0,0:0:0:0:
192,192,11659,1,0,0:0:0:0:
64,192,11659,1,0,0:0:0:0:
448,192,11738,1,0,0:0:0:0:
320,192,11817,1,0,0:0:0:0:
64,192,11817,1,0,0:0:0:0:
192,192,11896,1,0,0:0:0:0:
64,192,11975,1,0,0:0:0:0:
448,192,11975,1,0,0:0:0:0:
192,192,12133,1,0,0:0:0:0:
448,192,12133,1,0,0:0:0:0:
320,192,12212,1,0,0:0:0:0:
64,192,12291,1,0,0:0:0:0:
192,192,12291,1,0,0:0:0:0:
320,192,12370,1,0,0:0:0:0:
192,192,12449,1,0,0:0:0:0:
448,192,12449,1,0,0:0:0:0:
64,192,12528,1,0,0:0:0:0:
192,192,12607,1,0,0:0:0:0:
448,192,12607,1,0,0:0:0:0:
320,192,12686,1,0,0:0:0:0:
448,192,12764,1,0,0:0:0:0:
64,192,12764,1,0,0:0:0:0:
192,192,12843,1,0,0:0:0:0:
320,192,12922,1,0,0:0:0:0:
448,192,12922,1,0,0:0:0:0:
192,192,13001,1,0,0:0:0:0:
64,192,13080,1,0,0:0:0:0:
320,192,13080,1,0,0:0:0:0:
448,192,13159,1,0,0:0:0:0:
192,192,13238,1,0,0:0:0:0:
64,192,13238,1,0,0:0:0:0:
448,192,13317,1,0,0:0:0:0:
320,192,13396,1,0,0:0:0:0:
64,192,13396,1,0,0:0:0:0:
192,192,13475,1,0,0:0:0:0:
64,192,13554,1,0,0:0:0:0:
448,192,13554,1,0,0:0:0:0:
320,192,13633,1,0,0:0:0:0:
192,192,13712,1,0,0:0:0:0:
448,192,13712,1,0,0:0:0:0:
64,192,13791,1,0,0:0:0:0:
448,192,13870,1,0,0:0:0:0:
320,192,13870,1,0,0:0:0:0:
64,192,13949,1,0,0:0:0:0:
192,192,14028,1,0,0:0:0:0:
448,192,14028,1,0,0:0:0:0:
320,192,14107,1,0,0:0:0:0:
448,192,14186,1,0,0:0:0:0:
192,192,14186,1,0,0:0:0:0:
64,192,14264,1,0,0:0:0:0:
320,192,14343,1,0,0:0:0:0:
448,192,14343,1,0,0:0:0:0:
64,192,14422,1,0,0:0:0:0:
192,192,14501,1,0,0:0:0:0:
448,192,14501,1,0,0:0:0:0:
320,192,14659,1,0,0:0:0:0:
64,192,14817,1,0,0:0:0:0:
448,192,14817,1,0,0:0:0:0:
320,192,14975,1,0,0:0:0:0:
448,192,15054,1,0,0:0:0:0:
192,192,15054,1,0,0:0:0:0:
320,192,15133,1,0,0:0:0:0:
64,192,15133,1,0,0:0:0:0:
192,192,15212,1,0,0:0:0:0:
64,192,15291,1,0,0:0:0:0:
320,192,15291,1,0,0:0:0:0:
448,192,15370,1,0,0:0:0:0:
192,192,15449,1,0,0:0:0:0:
64,192,15449,1,0,0:0:0:0:
448,192,15528,1,0,0:0:0:0:
320,192,15607,1,0,0:0:0:0:
192,192,15607,1,0,0:0:0:0:
64,192,15686,1,0,0:0:0:0:
448,192,15764,1,0,0:0:0:0:
192,192,15764,1,0,0:0:0:0:
320,192,15843,1,0,0:0:0:0:
64,192,15922,1,0,0:0:0:0:
448,192,15922,1,0,0:0:0:0:
320,192,16001,1,0,0:0:0:0:
192,192,16080,1,0,0:0:0:0:
64,192,16080,1,0,0:0:0:0:
448,192,16159,1,0,0:0:0:0:
320,192,16238,1,0,0:0:0:0:
64,192,16238,1,0,0:0:0:0:
192,192,16317,1,0,0:0:0:0:
320,192,16396,1,0,0:0:0:0:
448,192,16396,1,0,0:0:0:0:
192,192,16475,1,0,0:0:0:0:
64,192,16554,1,0,0:0:0:0:
448,192,16554,1,0,0:0:0:0:
320,192,16633,1,0,0:0:0:0:
448,192,16712,1,0,0:0:0:0:
192,192,16712,1,0,0:0:0:0:
64,192,16791,1,0,0:0:0:0:
192,192,16870,1,0,0:0:0:0:
320,192,16870,1,0,0:0:0:0:
448,192,16949,1,0,0:0:0:0:
320,192,17028,1,0,0:0:0:0:
64,192,17028,1,0,0:0:0:0:
192,192,17186,1,0,0:0:0:0:
320,192,17264,1,0,0:0:0:0:
448,192,17343,1,0,0:0:0:0:
64,192,17343,1,0,0:0:0:0:
192,192,17501,1,0,0:0:0:0:
320,192,17580,1,0,0:0:0:0:
64,192,17580,1,0,0:0:0:0:
192,192,17659,1,0,0:0:0:0:
448,192,17659,1,0,0:0:0:0:
320,192,17738,1,0,0:0:0:0:
192,192,17817,1,0,0:0:0:0:
64,192,17817,1,0,0:0:0:0:
320,192,17896,1,0,0:0:0:0:
448,192,17975,1,0,0:0:0:0:
64,192,17975,1,0,0:0:0:0:
192,192,18054,1,0,0:0:0:0:
64,192,18133,1,0,0:0:0:0:
448,192,18133,1,0,0:0:0:0:
320,192,18212,1,0,0:0:0:0:
192,192,18291,1,0,0:0:0:0:
64,192,18291,1,0,0:0:0:0:
320,192,18370,1,0,0:0:0:0:
448,192,18449,1,0,0:0:0:0:
192,192,18449,1,0,0:0:0:0:
64,192,18528,1,0,0:0:0:0:
320,192,18528,1,0,0:0:0:0:
192,192,18607,1,0,0:0:0:0:
320,192,18607,1,0,0:0:0:0:
448,192,18686,1,0,0:0:0:0:
192,192,18764,1,0,0:0:0:0:
64,192,18764,1,0,0:0:0:0:
192,192,18843,1,0,0:0:0:0:
320,192,18843,1,0,0:0:0:0:
320,192,18922,1,0,0:0:0:0:
448,192,18922,1,0,0:0:0:0:
192,192,19001,1,0,0:0:0:0:
448,192,19001,1,0,0:0:0:0:
64,192,19080,1,0,0:0:0:0:
320,192,19080,1,0,0:0:0:0:
192,192,19159,1,0,0:0:0:0:
448,192,19238,1,0,0:0:0:0:
192,192,19238,1,0,0:0:0:0:
64,192,19317,1,0,0:0:0:0:
320,192,19317,1,0,0:0:0:0:
192,192,19396,1,0,0:0:0:0:
448,192,19396,1,0,0:0:0:0:
320,192,19475,1,0,0:0:0:0:
448,192,19554,1,0,0:0:0:0:
64,192,19554,1,0,0:0:0:0:
320,192,19712,1,0,0:0:0:0:
192,192,19791,1,0,0:0:0:0:
64,192,19870,1,0,0:0:0:0:
320,192,19870,1,0,0:0:0:0:
192,192,19949,1,0,0:0:0:0:
320,192,20028,1,0,0:0:0:0:
448,192,20028,1,0,0:0:0:0:
64,192,20107,1,0,0:0:0:0:
192,192,20186,1,0,0:0:0:0:
448,192,20186,1,0,0:0:0:0:
192,192,20264,1,0,0:0:0:0:
448,192,20264,1,0,0:0:0:0:
320,192,20343,1,0,0:0:0:0:
192,192,20422,1,0,0:0:0:0:
64,192,20501,1,0,0:0:0:0:
320,192,20501,1,0,0:0:0:0:
320,192,20580,1,0,0:0:0:0:
64,192,20580,1,0,0:0:0:0:
192,192,20659,1,0,0:0:0:0:
320,192,20738,1,0,0:0:0:0:
64,192,20817,1,0,0:0:0:0:
448,192,20817,1,0,0:0:0:0:
320,192,20896,1,0,0:0:0:0:
448,192,20896,1,0,0:0:0:0:
192,192,20975,1,0,0:0:0:0:
64,192,21054,1,0,0:0:0:0:
192,192,21133,1,0,0:0:0:0:
448,192,21133,1,0,0:0:0:0:
448,192,21212,1,0,0:0:0:0:
320,192,21212,1,0,0:0:0:0:
64,192,21291,1,0,0:0:0:0:
192,192,21370,1,0,0:0:0:0:
64,192,21449,1,0,0:0:0:0:
320,192,21449,1,0,0:0:0:0:
64,192,21528,1,0,0:0:0:0:
320,192,21528,1,0,0:0:0:0:
192,192,21607,1,0,0:0:0:0:
320,192,21686,1,0,0:0:0:0:
448,192,21764,1,0,0:0:0:0:
192,192,21764,1,0,0:0:0:0:
448,192,21843,1,0,0:0:0:0:
192,192,21843,1,0,0:0:0:0:
64,192,21922,1,0,0:0:0:0:
320,192,21922,1,0,0:0:0:0:
192,192,22001,1,0,0:0:0:0:
64,192,22001,1,0,0:0:0:0:
320,192,22080,1,0,0:0:0:0:
448,192,22080,1,0,0:0:0:0:
192,192,22159,1,0,0:0:0:0:
64,192,22238,1,0,0:0:0:0:
320,192,22238,1,0,0:0:0:0:
192,192,22317,1,0,0:0:0:0:
448,192,22317,1,0,0:0:0:0:
320,192,22396,1,0,0:0:0:0:
448,192,22396,1,0,0:0:0:0:
192,192,22475,1,0,0:0:0:0:
448,192,22475,1,0,0:0:0:0:
320,192,22554,1,0,0:0:0:0:
192,192,22633,1,0,0:0:0:0:
448,192,22712,1,0,0:0:0:0:
64,192,22712,1,0,0:0:0:0:
320,192,22791,1,0,0:0:0:0:
192,192,22791,1,0,0:0:0:0:
64,192,22870,1,0,0:0:0:0:
192,192,22949,1,0,0:0:0:0:
320,192,23028,1,0,0:0:0:0:
448,192,23028,1,0,0:0:0:0:
448,192,23107,1,0,0:0:0:0:
192,192,23107,1,0,0:0:0:0:
64,192,23186,1,0,0:0:0:0:
192,192,23264,1,0,0:0:0:0:
320,192,23343,1,0,0:0:0:0:
448,192,23343,1,0,0:0:0:0:
192,192,23422,1,0,0:0:0:0:
64,192,23501,1,0,0:0:0:0:
320,192,23501,1,0,0:0:0:0:
448,192,23580,1,0,0:0:0:0:
320,192,23659,1,0,0:0:0:0:
192,192,23659,1,0,0:0:0:0:
64,192,23738,1,0,0:0:0:0:
192,192,23817,1,0,0:0:0:0:
448,192,23817,1,0,0:0:0:0:
320,192,23896,1,0,0:0:0:0:
64,192,23975,1,0,0:0:0:0:
192,192,23975,1,0,0:0:0:0:
448,192,24054,1,0,0:0:0:0:
320,192,24054,1,0,0:0:0:0:
192,192,24133,1,0,0:0:0:0:
64,192,24212,1,0,0:0:0:0:
192,192,24291,1,0,0:0:0:0:
448,192,24291,1,0,0:0:0:0:
320,192,24370,1,0,0:0:0:0:
64,192,24449,1,0,0:0:0:0:
192,192,24449,1,0,0:0:0:0:
320,192,24528,1,0,0:0:0:0:
448,192,24528,1,0,0:0:0:0:
64,192,24607,1,0,0:0:0:0:
320,192,24607,1,0,0:0:0:0:
192,192,24686,1,0,0:0:0:0:
320,192,24764,1,0,0:0:0:0:
64,192,24764,1,0,0:0:0:0:
448,192,24843,1,0,0:0:0:0:
320,192,24922,1,0,0:0:0:0:
192,192,24922,1,0,0:0:0:0:
64,192,25001,1,0,0:0:0:0:
192,192,25080,1,0,0:0:0:0:
448,192,25080,1,0,0:0:0:0:
320,192,25159,1,0,0:0:0:0:
448,192,25238,1,0,0:0:0:0:
64,192,25238,1,0,0:0:0:0:
192,192,25317,1,0,0:0:0:0:
320,192,25317,1,0,0:0:0:0:
64,192,25396,1,0,0:0:0:0:
320,192,25396,1,0,0:0:0:0:
192,192,25475,1,0,0:0:0:0:
320,192,25554,1,0,0:0:0:0:
448,192,25554,1,0,0:0:0:0:
64,192,25633,1,0,0:0:0:0:
192,192,25633,1,0,0:0:0:0:
192,192,25712,1,0,0:0:0:0:
320,192,25712,1,0,0:0:0:0:
64,192,25791,1,0,0:0:0:0:
192,192,25870,1,0,0:0:0:0:
448,192,25870,1,0,0:0:0:0:
320,192,25949,1,0,0:0:0:0:
64,192,26028,1,0,0:0:0:0:
448,192,26028,1,0,0:0:0:0:
320,192,26107,1,0,0:0:0:0:
192,192,26186,1,0,0:0:0:0:
64,192,26186,1,0,0:0:0:0:
320,192,26264,1,0,0:0:0:0:
192,192,26264,1,0,0:0:0:0:
448,192,26343,1,0,0:0:0:0:
64,192,26343,1,0,0:0:0:0:
192,192,26422,1,0,0:0:0:0:
320,192,26501,1,0,0:0:0:0:
448,192,26501,1,0,0:0:0:0:
64,192,26580,1,0,0:0:0:0:
448,192,26580,1,0,0:0:0:0:
192,192,26659,1,0,0:0:0:0:
320,192,26659,1,0,0:0:0:0:
64,192,26738,1,0,0:0:0:0:
192,192,26817,1,0,0:0:0:0:
448,192,26817,1,0,0:0:0:0:
320,192,26896,1,0,0:0:0:0:
448,192,26896,1,0,0:0:0:0:
192,192,26975,1,0,0:0:0:0:
64,192,26975,1,0,0:0:0:0:
448,192,27054,1,0,0:0:0:0:
320,192,27133,1,0,0:0:0:0:
64,192,27133,1,0,0:0:0:0:
192,192,27212,1,0,0:0:0:0:
64,192,27291,1,0,0:0:0:0:
320,192,27291,1,0,0:0:0:0:
448,192,27370,1,0,0:0:0:0:
192,192,27449,1,0,0:0:0:0:
320,192,27449,1,0,0:0:0:0:
448,192,27528,1,0,0:0:0:0:
64,192,27607,1,0,0:0:0:0:
192,192,27607,1,0,0:0:0:0:
320,192,27686,1,0,0:0:0:0:
192,192,27764,1,0,0:0:0:0:
448,192,27764,1,0,0:0:0:0:
64,192,27843,1,0,0:0:0:0:
320,192,27843,1,0,0:0:0:0:
448,192,27922,1,0,0:0:0:0:
64,192,28001,1,0,0:0:0:0:
192,192,28001,1,0,0:0:0:0:
192,192,28080,1,0,0:0:0:0:
320,192,28080,1,0,0:0:0:0:
448,192,28159,1,0,0:0:0:0:
320,192,28238,1,0,0:0:0:0:
64,192,28238,1,0,0:0:0:0:
192,192,28317,1,0,0:0:0:0:
448,192,28317,1,0,0:0:0:0:
64,192,28396,1,0,0:0:0:0:
320,192,28475,1,0,0:0:0:0:
448,192,28475,1,0,0:0:0:0:
192,192,28554,1,0,0:0:0:0:
320,192,28554,1,0,0:0:0:0:
64,192,28633,1,0,0:0:0:0:
64,192,28712,1,0,0:0:0:0:
448,192,28712,1,0,0:0:0:0:
320,192,28791,1,0,0:0:0:0:
64,192,28791,1,0,0:0:0:0:
192,192,28870,1,0,0:0:0:0:
320,192,28949,1,0,0:0:0:0:
448,192,28949,1,0,0:0:0:0:
192,192,29028,1,0,0:0:0:0:
448,192,29028,1,0,0:0:0:0:
64,192,29107,1,0,0:0:0:0:
320,192,29186,1,0,0:0:0:0:
192,192,29186,1,0,0:0:0:0:
64,192,29264,1,0,0:0:0:0:
320,192,29264,1,0,0:0:0:0:
192,192,29343,1,0,0:0:0:0:
320,192,29422,1,0,0:0:0:0:
448,192,29422,1,0,0:0:0:0:
448,192,29501,1,0,0:0:0:0:
192,192,29501,1,0,0:0:0:0:
64,192,29580,1,0,0:0:0:0:
192,192,29659,1,0,0:0:0:0:
320,192,29659,1,0,0:0:0:0:
448,192,29659,1,0,0:0:0:0:
320,192,29817,1,0,0:0:0:0:
64,192,29975,1,0,0:0:0:0:
448,192,29975,1,0,0:0:0:0:
192,192,30133,1,0,0:0:0:0:
448,192,30212,1,0,0:0:0:0:
64,192,30291,1,0,0:0:0:0:
192,192,30370,1,0,0:0:0:0:
320,192,30449,1,0,0:0:0:0:
448,192,30449,1,0,0:0:0:0:
192,192,30607,1,0,0:0:0:0:
64,192,30607,1,0,0:0:0:0:
192,192,30764,1,0,0:0:0:0:
448,192,30843,1,0,0:0:0:0:
320,192,30922,1,0,0:0:0:0:
64,192,30922,1,0,0:0:0:0:
192,192,30922,1,0,0:0:0:0:
192,192,31238,1,0,0:0:0:0:
448,192,31238,1,0,0:0:0:0:
320,192,31238,1,0,0:0:0:0:
64,192,31317,1,0,0:0:0:0:
192,192,31396,1,0,0:0:0:0:
448,192,31396,1,0,0:0:0:0:
320,192,31475,1,0,0:0:0:0:
448,192,31554,1,0,0:0:0:0:
192,192,31554,1,0,0:0:0:0:
64,192,31633,1,0,0:0:0:0:
192,192,31712,1,0,0:0:0:0:
448,192,31712,1,0,0:0:0:0:
320,192,31791,1,0,0:0:0:0:
64,192,31870,1,0,0:0:0:0:
192,192,31870,1,0,0:0:0:0:
448,192,31949,1,0,0:0:0:0:
320,192,32028,1,0,0:0:0:0:
64,192,32028,1,0,0:0:0:0:
192,192,32107,1,0,0:0:0:0:
64,192,32186,1,0,0:0:0:0:
448,192,32186,1,0,0:0:0:0:
320,192,32264,1,0,0:0:0:0:
192,192,32343,1,0,0:0:0:0:
64,192,32343,1,0,0:0:0:0:
448,192,32422,1,0,0:0:0:0:
192,192,32501,1,0,0:0:0:0:
320,192,32501,1,0,0:0:0:0:
64,192,32580,1,0,0:0:0:0:
192,192,32659,1,0,0:0:0:0:
448,192,32659,1,0,0:0:0:0:
320,192,32738,1,0,0:0:0:0:
448,192,32817,1,0,0:0:0:0:
64,192,32817,1,0,0:0:0:0:
320,192,32896,1,0,0:0:0:0:
192,192,32975,1,0,0:0:0:0:
64,192,32975,1,0,0:0:0:0:
448,192,33054,1,0,0:0:0:0:
320,192,33133,1,0,0:0:0:0:
64,192,33133,1,0,0:0:0:0:
192,192,33212,1,0,0:0:0:0:
64,192,33291,1,0,0:0:0:0:
320,192,33291,1,0,0:0:0:0:
448,192,33370,1,0,0:0:0:0:
192,192,33449,1,0,0:0:0:0:
64,192,33449,1,0,0:0:0:0:
320,192,33528,1,0,0:0:0:0:
192,192,33607,1,0,0:0:0:0:
448,192,33607,1,0,0:0:0:0:
64,192,33686,1,0,0:0:0:0:
320,192,33764,1,0,0:0:0:0:
448,192,33764,1,0,0:0:0:0:
64,192,33843,1,0,0:0:0:0:
192,192,33922,1,0,0:0:0:0:
320,192,33922,1,0,0:0:0:0:
448,192,34001,1,0,0:0:0:0:
320,192,34080,1,0,0:0:0:0:
64,192,34080,1,0,0:0:0:0:
192,192,34159,1,0,0:0:0:0:
64,192,34238,1,0,0:0:0:0:
320,192,34238,1,0,0:0:0:0:
448,192,34317,1,0,0:0:0:0:
320,192,34396,1,0,0:0:0:0:
192,192,34396,1,0,0:0:0:0:
64,192,34475,1,0,0:0:0:0:
320,192,34554,1,0,0:0:0:0:
448,192,34554,1,0,0:0:0:0:
192,192,34633,1,0,0:0:0:0:
64,192,34712,1,0,0:0:0:0:
320,192,34712,1,0,0:0:0:0:
448,192,34791,1,0,0:0:0:0:
64,192,34870,1,0,0:0:0:0:
192,192,34870,1,0,0:0:0:0:
448,192,34949,1,0,0:0:0:0:
320,192,35028,1,0,0:0:0:0:
192,192,35028,1,0,0:0:0:0:
64,192,35107,1,0,0:0:0:0:
192,192,35186,1,0,0:0:0:0:
448,192,35186,1,0,0:0:0:0:
320,192,35264,1,0,0:0:0:0:
448,192,35343,1,0,0:0:0:0:
64,192,35343,1,0,0:0:0:0:
192,192,35422,1,0,0:0:0:0:
64,192,35501,1,0,0:0:0:0:
448,192,35501,1,0,0:0:0:0:
320,192,35580,1,0,0:0:0:0:
192,192,35659,1,0,0:0:0:0:
64,192,35659,1,0,0:0:0:0:
448,192,35738,1,0,0:0:0:0:
320,192,35817,1,0,0:0:0:0:
192,192,35817,1,0,0:0:0:0:
448,192,35896,1,0,0:0:0:0:
64,192,35975,1,0,0:0:0:0:
192,192,35975,1,0,0:0:0:0:
448,192,36054,1,0,0:0:0:0:
320,192,36133,1,0,0:0:0:0:
192,192,36133,1,0,0:0:0:0:
64,192,36212,1,0,0:0:0:0:
192,192,36291,1,0,0:0:0:0:
448,192,36291,1,0,0:0:0:0:
320,192,36370,1,0,0:0:0:0:
448,192,36449,1,0,0:0:0:0:
64,192,36449,1,0,0:0:0:0:
192,192,36528,1,0,0:0:0:0:
64,192,36607,1,0,0:0:0:0:
448,192,36607,1,0,0:0:0:0:
320,192,36686,1,0,0:0:0:0:
192,192,36764,1,0,0:0:0:0:
64,192,36764,1,0,0:0:0:0:
320,192,36843,1,0,0:0:0:0:
192,192,36922,1,0,0:0:0:0:
448,192,36922,1,0,0:0:0:0:
64,192,37001,1,0,0:0:0:0:
192,192,37080,1,0,0:0:0:0:
320,192,37080,1,0,0:0:0:0:
448,192,37159,1,0,0:0:0:0:
320,192,37238,1,0,0:0:0:0:
64,192,37238,1,0,0:0:0:0:
192,192,37317,1,0,0:0:0:0:
64,192,37396,1,0,0:0:0:0:
320,192,37396,1,0,0:0:0:0:
448,192,37475,1,0,0:0:0:0:
192,192,37554,1,0,0:0:0:0:
320,192,37554,1,0,0:0:0:0:
64,192,37633,1,0,0:0:0:0:
192,192,37712,1,0,0:0:0:0:
448,192,37712,1,0,0:0:0:0:
320,192,37791,1,0,0:0:0:0:
448,192,37870,1,0,0:0:0:0:
192,192,37870,1,0,0:0:0:0:
64,192,37949,1,0,0:0:0:0:
320,192,38028,1,0,0:0:0:0:
448,192,38028,1,0,0:0:0:0:
64,192,38107,1,0,0:0:0:0:
192,192,38186,1,0,0:0:0:0:
320,192,38186,1,0,0:0:0:0:
448,192,38264,1,0,0:0:0:0:
320,192,38343,1,0,0:0:0:0:
64,192,38343,1,0,0:0:0:0:
192,192,38422,1,0,0:0:0:0:
64,192,38501,1,0,0:0:0:0:
448,192,38501,1,0,0:0:0:0:
320,192,38580,1,0,0:0:0:0:
192,192,38659,1,0,0:0:0:0:
64,192,38659,1,0,0:0:0:0:
320,192,38738,1,0,0:0:0:0:
192,192,38817,1,0,0:0:0:0:
448,192,38817,1,0,0:0:0:0:
64,192,38896,1,0,0:0:0:0:
192,192,38975,1,0,0:0:0:0:
448,192,38975,1,0,0:0:0:0:
320,192,39054,1,0,0:0:0:0:
64,192,39133,1,0,0:0:0:0:
448,192,39133,1,0,0:0:0:0:
192,192,39212,1,0,0:0:0:0:
64,192,39291,1,0,0:0:0:0:
320,192,39291,1,0,0:0:0:0:
448,192,39370,1,0,0:0:0:0:
320,192,39449,1,0,0:0:0:0:
192,192,39449,1,0,0:0:0:0:
64,192,39528,1,0,0:0:0:0:
192,192,39607,1,0,0:0:0:0:
448,192,39607,1,0,0:0:0:0:
320,192,39686,1,0,0:0:0:0:
448,192,39764,1,0,0:0:0:0:
64,192,39764,1,0,0:0:0:0:
192,192,39843,1,0,0:0:0:0:
64,192,39922,1,0,0:0:0:0:
448,192,39922,1,0,0:0:0:0:
320,192,40001,1,0,0:0:0:0:
448,192,40001,1,0,0:0:0:0:
64,192,40080,1,0,0:0:0:0:
320,192,40080,1,0,0:0:0:0:
64,192,40159,1,0,0:0:0:0:
192,192,40159,1,0,0:0:0:0:
192,192,40238,1,0,0:0:0:0:
448,192,40238,1,0,0:0:0:0:
320,192,40317,1,0,0:0:0:0:
448,192,40317,1,0,0:0:0:0:
64,192,40396,1,0,0:0:0:0:
320,192,40396,1,0,0:0:0:0:
64,192,40475,1,0,0:0:0:0:
192,192,40475,1,0,0:0:0:0:
192,192,40554,1,0,0:0:0:0:
448,192,40554,1,0,0:0:0:0:
320,192,40633,1,0,0:0:0:0:
448,192,40633,1,0,0:0:0:0:
64,192,40712,1,0,0:0:0:0:
320,192,40712,1,0,0:0:0:0:
192,192,40791,1,0,0:0:0:0:
64,192,40791,1,0,0:0:0:0:
192,192,40870,1,0,0:0:0:0:
320,192,40870,1,0,0:0:0:0:
320,192,40949,1,0,0:0:0:0:
448,192,40949,1,0,0:0:0:0:
64,192,41028,1,0,0:0:0:0:
448,192,41028,1,0,0:0:0:0:
192,192,41107,1,0,0:0:0:0:
320,192,41186,1,0,0:0:0:0:
448,192,41264,1,0,0:0:0:0:
320,192,41343,1,0,0:0:0:0:
192,192,41343,1,0,0:0:0:0:
64,192,41343,1,0,0:0:0:0:
448,192,41422,1,0,0:0:0:0:
64,192,41501,1,0,0:0:0:0:
320,192,41501,1,0,0:0:0:0:
192,192,41580,1,0,0:0:0:0:
64,192,41659,1,0,0:0:0:0:
448,192,41659,1,0,0:0:0:0:
320,192,41738,1,0,0:0:0:0:
192,192,41817,1,0,0:0:0:0:
64,192,41817,1,0,0:0:0:0:
320,192,41896,1,0,0:0:0:0:
448,192,41975,1,0,0:0:0:0:
192,192,41975,1,0,0:0:0:0:
64,192,42054,1,0,0:0:0:0:
192,192,42133,1,0,0:0:0:0:
320,192,42133,1,0,0:0:0:0:
448,192,42212,1,0,0:0:0:0:
192,192,42291,1,0,0:0:0:0:
64,192,42291,1,0,0:0:0:0:
448,192,42370,1,0,0:0:0:0:
320,192,42449,1,0,0:0:0:0:
192,192,42449,1,0,0:0:0:0:
64,192,42528,1,0,0:0:0:0:
192,192,42607,1,0,0:0:0:0:
448,192,42607,1,0,0:0:0:0:
64,192,42686,1,0,0:0:0:0:
320,192,42764,1,0,0:0:0:0:
448,192,42764,1,0,0:0:0:0:
64,192,42843,1,0,0:0:0:0:
192,192,42922,1,0,0:0:0:0:
320,192,42922,1,0,0:0:0:0:
448,192,43001,1,0,0:0:0:0:
320,192,43080,1,0,0:0:0:0:
64,192,43080,1,0,0:0:0:0:
192,192,43159,1,0,0:0:0:0:
64,192,43238,1,0,0:0:0:0:
320,192,43238,1,0,0:0:0:0:
448,192,43317,1,0,0:0:0:0:
320,192,43396,1,0,0:0:0:0:
192,192,43396,1,0,0:0:0:0:
64,192,43475,1,0,0:0:0:0:
320,192,43554,1,0,0:0:0:0:
448,192,43554,1,0,0:0:0:0:
64,192,43633,1,0,0:0:0:0:
320,192,43712,1,0,0:0:0:0:
192,192,43712,1,0,0:0:0:0:
448,192,43791,1,0,0:0:0:0:
320,192,43870,1,0,0:0:0:0:
64,192,43870,1,0,0:0:0:0:
192,192,43949,1,0,0:0:0:0:
64,192,44028,1,0,0:0:0:0:
320,192,44028,1,0,0:0:0:0:
448,192,44107,1,0,0:0:0:0:
320,192,44186,1,0,0:0:0:0:
192,192,44186,1,0,0:0:0:0:
64,192,44264,1,0,0:0:0:0:
192,192,44343,1,0,0:0:0:0:
448,192,44343,1,0,0:0:0:0:
320,192,44422,1,0,0:0:0:0:
448,192,44501,1,0,0:0:0:0:
192,192,44501,1,0,0:0:0:0:
64,192,44580,1,0,0:0:0:0:
320,192,44659,1,0,0:0:0:0:
448,192,44659,1,0,0:0:0:0:
64,192,44738,1,0,0:0:0:0:
192,192,44817,1,0,0:0:0:0:
320,192,44817,1,0,0:0:0:0:
448,192,44896,1,0,0:0:0:0:
64,192,44975,1,0,0:0:0:0:
320,192,44975,1,0,0:0:0:0:
192,192,45054,1,0,0:0:0:0:
64,192,45133,1,0,0:0:0:0:
448,192,45133,1,0,0:0:0:0:
320,192,45212,1,0,0:0:0:0:
192,192,45291,1,0,0:0:0:0:
448,192,45291,1,0,0:0:0:0:
64,192,45370,1,0,0:0:0:0:
192,192,45449,1,0,0:0:0:0:
320,192,45449,1,0,0:0:0:0:
448,192,45528,1,0,0:0:0:0:
64,192,45607,1,0,0:0:0:0:
320,192,45607,1,0,0:0:0:0:
192,192,45686,1,0,0:0:0:0:
64,192,45764,1,0,0:0:0:0:
448,192,45764,1,0,0:0:0:0:
320,192,45843,1,0,0:0:0:0:
192,192,45922,1,0,0:0:0:0:
448,192,45922,1,0,0:0:0:0:
64,192,46001,1,0,0:0:0:0:
192,192,46080,1,0,0:0:0:0:
320,192,46080,1,0,0:0:0:0:
64,192,46159,1,0,0:0:0:0:
192,192,46238,1,0,0:0:0:0:
448,192,46238,1,0,0:0:0:0:
320,192,46317,1,0,0:0:0:0:
448,192,46396,1,0,0:0:0:0:
64,192,46396,1,0,0:0:0:0:
192,192,46475,1,0,0:0:0:0:
64,192,46554,1,0,0:0:0:0:
448,192,46554,1,0,0:0:0:0:
320,192,46633,1,0,0:0:0:0:
192,192,46712,1,0,0:0:0:0:
64,192,46712,1,0,0:0:0:0:
320,192,46791,1,0,0:0:0:0:
448,192,46870,1,0,0:0:0:0:
192,192,46870,1,0,0:0:0:0:
64,192,46949,1,0,0:0:0:0:
192,192,47028,1,0,0:0:0:0:
320,192,47028,1,0,0:0:0:0:
448,192,47107,1,0,0:0:0:0:
64,192,47186,1,0,0:0:0:0:
320,192,47186,1,0,0:0:0:0:
192,192,47264,1,0,0:0:0:0:
64,192,47343,1,0,0:0:0:0:
448,192,47343,1,0,0:0:0:0:
320,192,47422,1,0,0:0:0:0:
192,192,47501,1,0,0:0:0:0:
64,192,47501,1,0,0:0:0:0:
320,192,47580,1,0,0:0:0:0:
192,192,47659,1,0,0:0:0:0:
448,192,47659,1,0,0:0:0:0:
64,192,47738,1,0,0:0:0:0:
192,192,47817,1,0,0:0:0:0:
320,192,47817,1,0,0:0:0:0:
448,192,47896,1,0,0:0:0:0:
64,192,47975,1,0,0:0:0:0:
320,192,47975,1,0,0:0:0:0:
192,192,48054,1,0,0:0:0:0:
64,192,48133,1,0,0:0:0:0:
320,192,48133,1,0,0:0:0:0:
448,192,48212,1,0,0:0:0:0:
64,192,48291,1,0,0:0:0:0:
192,192,48291,1,0,0:0:0:0:
320,192,48370,1,0,0:0:0:0:
192,192,48449,1,0,0:0:0:0:
448,192,48449,1,0,0:0:0:0:
64,192,48528,1,0,0:0:0:0:
320,192,48607,1,0,0:0:0:0:
448,192,48607,1,0,0:0:0:0:
64,192,48686,1,0,0:0:0:0:
192,192,48764,1,0,0:0:0:0:
320,192,48764,1,0,0:0:0:0:
448,192,48843,1,0,0:0:0:0:
320,192,48922,1,0,0:0:0:0:
64,192,48922,1,0,0:0:0:0:
192,192,49001,1,0,0:0:0:0:
64,192,49080,1,0,0:0:0:0:
448,192,49080,1,0,0:0:0:0:
320,192,49159,1,0,0:0:0:0:
64,192,49238,1,0,0:0:0:0:
448,192,49238,1,0,0:0:0:0:
192,192,49317,1,0,0:0:0:0:
320,192,49396,1,0,0:0:0:0:
448,192,49396,1,0,0:0:0:0:
64,192,49475,1,0,0:0:0:0:
192,192,49554,1,0,0:0:0:0:
320,192,49554,1,0,0:0:0:0:
64,192,49633,1,0,0:0:0:0:
448,192,49712,1,0,0:0:0:0:
192,192,49712,1,0,0:0:0:0:
320,192,49791,1,0,0:0:0:0:
192,192,49870,1,0,0:0:0:0:
64,192,49870,1,0,0:0:0:0:
320,192,49949,1,0,0:0:0:0:
448,192,49949,1,0,0:0:0:0:
64,192,50028,1,0,0:0:0:0:
192,192,50107,1,0,0:0:0:0:
64,192,50186,1,0,0:0:0:0:
320,192,50186,1,0,0:0:0:0:
448,192,50264,1,0,0:0:0:0:
192,192,50264,1,0,0:0:0:0:
320,192,50343,1,0,0:0:0:0:
192,192,50422,1,0,0:0:0:0:
64,192,50501,1,0,0:0:0:0:
448,192,50501,1,0,0:0:0:0:
320,192,50580,1,0,0:0:0:0:
192,192,50580,1,0,0:0:0:0:
64,192,50659,1,0,0:0:0:0:
192,192,50738,1,0,0:0:0:0:
320,192,50817,1,0,0:0:0:0:
448,192,50817,1,0,0:0:0:0:
192,192,50896,1,0,0:0:0:0:
64,192,50896,1,0,0:0:0:0:
320,192,50975,1,0,0:0:0:0:
64,192,51054,1,0,0:0:0:0:
448,192,51054,1,0,0:0:0:0:
320,192,51133,1,0,0:0:0:0:
192,192,51133,1,0,0:0:0:0:
448,192,51172,1,0,0:0:0:0:
320,192,51212,1,0,0:0:0:0:
192,192,51251,1,0,0:0:0:0:
64,192,51291,1,0,0:0:0:0:
192,192,51330,1,0,0:0:0:0:
320,192,51370,1,0,0:0:0:0:
448,192,51409,1,0,0:0:0:0:
320,192,51449,1,0,0:0:0:0:
64,192,51449,1,0,0:0:0:0:
192,192,51449,1,0,0:0:0:0:
192,192,51528,1,0,0:0:0:0:
448,192,51528,1,0,0:0:0:0:
320,192,51607,1,0,0:0:0:0:
64,192,51607,1,0,0:0:0:0:
192,192,51686,1,0,0:0:0:0:
320,192,51764,1,0,0:0:0:0:
448,192,51764,1,0,0:0:0:0:
64,192,51843,1,0,0:0:0:0:
320,192,51843,1,0,0:0:0:0:
192,192,51922,1,0,0:0:0:0:
448,192,51922,1,0,0:0:0:0:
320,192,52001,1,0,0:0:0:0:
448,192,52080,1,0,0:0:0:0:
192,192,52080,1,0,0:0:0:0:
64,192,52159,1,0,0:0:0:0:
320,192,52159,1,0,0:0:0:0:
192,192,52238,1,0,0:0:0:0:
320,192,52238,1,0,0:0:0:0:
448,192,52317,1,0,0:0:0:0:
320,192,52396,1,0,0:0:0:0:
64,192,52396,1,0,0:0:0:0:
64,192,52475,1,0,0:0:0:0:
192,192,52475,1,0,0:0:0:0:
64,192,52554,1,0,0:0:0:0:
320,192,52554,1,0,0:0:0:0:
192,192,52633,1,0,0:0:0:0:
448,192,52633,1,0,0:0:0:0:
320,192,52712,1,0,0:0:0:0:
448,192,52712,1,0,0:0:0:0:
64,192,52791,1,0,0:0:0:0:
192,192,52791,1,0,0:0:0:0:
320,192,52870,1,0,0:0:0:0:
448,192,52870,1,0,0:0:0:0:
64,192,52949,1,0,0:0:0:0:
192,192,52949,1,0,0:0:0:0:
192,192,53028,1,0,0:0:0:0:
448,192,53028,1,0,0:0:0:0:
448,192,53107,1,0,0:0:0:0:
64,192,53107,1,0,0:0:0:0:
320,192,53186,1,0,0:0:0:0:
192,192,53186,1,0,0:0:0:0:
64,192,53264,1,0,0:0:0:0:
192,192,53264,1,0,0:0:0:0:
320,192,53343,1,0,0:0:0:0:
448,192,53343,1,0,0:0:0:0:
192,192,53422,1,0,0:0:0:0:
64,192,53422,1,0,0:0:0:0:
320,192,53501,1,0,0:0:0:0:
448,192,53501,1,0,0:0:0:0:
192,192,53580,1,0,0:0:0:0:
320,192,53580,1,0,0:0:0:0:
320,192,53659,1,0,0:0:0:0:
448,192,53659,1,0,0:0:0:0:
64,192,53738,1,0,0:0:0:0:
192,192,53738,1,0,0:0:0:0:
320,192,53817,1,0,0:0:0:0:
192,192,53896,1,0,0:0:0:0:
320,192,53975,1,0,0:0:0:0:
64,192,53975,1,0,0:0:0:0:
192,192,54054,1,0,0:0:0:0:
448,192,54054,1,0,0:0:0:0:
320,192,54133,1,0,0:0:0:0:
448,192,54212,1,0,0:0:0:0:
192,192,54212,1,0,0:0:0:0:
64,192,54291,1,0,0:0:0:0:
320,192,54291,1,0,0:0:0:0:
448,192,54370,1,0,0:0:0:0:
192,192,54449,1,0,0:0:0:0:
320,192,54449,1,0,0:0:0:0:
64,192,54528,1,0,0:0:0:0:
448,192,54528,1,0,0:0:0:0:
320,192,54607,1,0,0:0:0:0:
64,192,54686,1,0,0:0:0:0:
448,192,54686,1,0,0:0:0:0:
192,192,54764,1,0,0:0:0:0:
320,192,54764,1,0,0:0:0:0:
448,192,54843,1,0,0:0:0:0:
192,192,54922,1,0,0:0:0:0:
64,192,54922,1,0,0:0:0:0:
320,192,55001,1,0,0:0:0:0:
192,192,55080,1,0,0:0:0:0:
448,192,55080,1,0,0:0:0:0:
64,192,55159,1,0,0:0:0:0:
320,192,55159,1,0,0:0:0:0:
192,192,55238,1,0,0:0:0:0:
320,192,55317,1,0,0:0:0:0:
448,192,55396,1,0,0:0:0:0:
192,192,55396,1,0,0:0:0:0:
64,192,55475,1,0,0:0:0:0:
320,192,55475,1,0,0:0:0:0:
192,192,55554,1,0,0:0:0:0:
64,192,55633,1,0,0:0:0:0:
320,192,55633,1,0,0:0:0:0:
192,192,55712,1,0,0:0:0:0:
448,192,55712,1,0,0:0:0:0:
320,192,55791,1,0,0:0:0:0:
64,192,55870,1,0,0:0:0:0:
448,192,55870,1,0,0:0:0:0:
320,192,55949,1,0,0:0:0:0:
192,192,56028,1,0,0:0:0:0:
448,192,56028,1,0,0:0:0:0:
64,192,56107,1,0,0:0:0:0:
320,192,56107,1,0,0:0:0:0:
192,192,56186,1,0,0:0:0:0:
64,192,56186,1,0,0:0:0:0:
320,192,56264,1,0,0:0:0:0:
448,192,56343,1,0,0:0:0:0:
64,192,56343,1,0,0:0:0:0:
192,192,56396,1,0,0:0:0:0:
320,192,56449,1,0,0:0:0:0:
448,192,56501,1,0,0:0:0:0:
192,192,56501,1,0,0:0:0:0:
64,192,56501,1,0,0:0:0:0:
320,192,56580,1,0,0:0:0:0:
448,192,56580,1,0,0:0:0:0:
64,192,56659,1,0,0:0:0:0:
192,192,56659,1,0,0:0:0:0:
320,192,56738,1,0,0:0:0:0:
64,192,56817,1,0,0:0:0:0:
448,192,56817,1,0,0:0:0:0:
320,192,56896,1,0,0:0:0:0:
192,192,56896,1,0,0:0:0:0:
64,192,56975,1,0,0:0:0:0:
448,192,56975,1,0,0:0:0:0:
320,192,57054,1,0,0:0:0:0:
192,192,57133,1,0,0:0:0:0:
64,192,57133,1,0,0:0:0:0:
320,192,57212,1,0,0:0:0:0:
448,192,57212,1,0,0:0:0:0:
192,192,57291,1,0,0:0:0:0:
320,192,57291,1,0,0:0:0:0:
64,192,57370,1,0,0:0:0:0:
192,192,57449,1,0,0:0:0:0:
448,192,57449,1,0,0:0:0:0:
320,192,57528,1,0,0:0:0:0:
64,192,57528,1,0,0:0:0:0:
64,192,57607,1,0,0:0:0:0:
192,192,57607,1,0,0:0:0:0:
192,192,57686,1,0,0:0:0:0:
320,192,57686,1,0,0:0:0:0:
320,192,57764,1,0,0:0:0:0:
448,192,57764,1,0,0:0:0:0:
192,192,57843,1,0,0:0:0:0:
64,192,57843,1,0,0:0:0:0:
320,192,57922,1,0,0:0:0:0:
448,192,57922,1,0,0:0:0:0:
64,192,58001,1,0,0:0:0:0:
192,192,58001,1,0,0:0:0:0:
64,192,58080,1,0,0:0:0:0:
320,192,58080,1,0,0:0:0:0:
192,192,58159,1,0,0:0:0:0:
448,192,58159,1,0,0:0:0:0:
320,192,58238,1,0,0:0:0:0:
448,192,58238,1,0,0:0:0:0:
320,192,58317,1,0,0:0:0:0:
192,192,58317,1,0,0:0:0:0:
64,192,58396,1,0,0:0:0:0:
192,192,58396,1,0,0:0:0:0:
320,192,58475,1,0,0:0:0:0:
448,192,58475,1,0,0:0:0:0:
192,192,58554,1,0,0:0:0:0:
64,192,58554,1,0,0:0:0:0:
320,192,58633,1,0,0:0:0:0:
448,192,58633,1,0,0:0:0:0:
64,192,58712,1,0,0:0:0:0:
320,192,58712,1,0,0:0:0:0:
192,192,58870,1,0,0:0:0:0:
448,192,58870,1,0,0:0:0:0:
320,192,58949,1,0,0:0:0:0:
448,192,58949,1,0,0:0:0:0:
192,192,59028,1,0,0:0:0:0:
64,192,59028,1,0,0:0:0:0:
192,192,59186,1,0,0:0:0:0:
448,192,59186,1,0,0:0:0:0:
64,192,59264,1,0,0:0:0:0:
320,192,59264,1,0,0:0:0:0:
192,192,59343,1,0,0:0:0:0:
320,192,59343,1,0,0:0:0:0:
448,192,59422,1,0,0:0:0:0:
192,192,59422,1,0,0:0:0:0:
64,192,59501,1,0,0:0:0:0:
320,192,59501,1,0,0:0:0:0:
192,192,59580,1,0,0:0:0:0:
64,192,59659,1,0,0:0:0:0:
320,192,59659,1,0,0:0:0:0:
448,192,59738,1,0,0:0:0:0:
192,192,59738,1,0,0:0:0:0:
320,192,59817,1,0,0:0:0:0:
192,192,59817,1,0,0:0:0:0:
448,192,59896,1,0,0:0:0:0:
64,192,59896,1,0,0:0:0:0:
64,192,59975,1,0,0:0:0:0:
320,192,59975,1,0,0:0:0:0:
192,192,60054,1,0,0:0:0:0:
64,192,60054,1,0,0:0:0:0:
192,192,60133,1,0,0:0:0:0:
320,192,60133,1,0,0:0:0:0:
320,192,60212,1,0,0:0:0:0:
448,192,60212,1,0,0:0:0:0:
64,192,60291,1,0,0:0:0:0:
320,192,60291,1,0,0:0:0:0:
192,192,60370,1,0,0:0:0:0:
64,192,60370,1,0,0:0:0:0:
192,192,60449,1,0,0:0:0:0:
448,192,60449,1,0,0:0:0:0:
320,192,60528,1,0,0:0:0:0:
448,192,60528,1,0,0:0:0:0:
64,192,60607,1,0,0:0:0:0:
192,192,60607,1,0,0:0:0:0:
64,192,60686,1,0,0:0:0:0:
320,192,60686,1,0,0:0:0:0:
192,192,60764,1,0,0:0:0:0:
448,192,60764,1,0,0:0:0:0:
320,192,60843,1,0,0:0:0:0:
448,192,60843,1,0,0:0:0:0:
448,192,60922,1,0,0:0:0:0:
192,192,60922,1,0,0:0:0:0:
64,192,61001,1,0,0:0:0:0:
320,192,61001,1,0,0:0:0:0:
192,192,61080,1,0,0:0:0:0:
64,192,61080,1,0,0:0:0:0:
64,192,61159,1,0,0:0:0:0:
320,192,61159,1,0,0:0:0:0:
192,192,61238,1,0,0:0:0:0:
448,192,61238,1,0,0:0:0:0:
320,192,61291,1,0,0:0:0:0:
192,192,61343,1,0,0:0:0:0:
64,192,61396,1,0,0:0:0:0:
192,192,61449,1,0,0:0:0:0:
320,192,61501,1,0,0:0:0:0:
448,192,61554,1,0,0:0:0:0:
192,192,61554,1,0,0:0:0:0:
64,192,61554,1,0,0:0:0:0:
320,192,61633,1,0,0:0:0:0:
448,192,61633,1,0,0:0:0:0:
192,192,61712,1,0,0:0:0:0:
64,192,61712,1,0,0:0:0:0:
320,192,61791,1,0,0:0:0:0:
448,192,61870,1,0,0:0:0:0:
64,192,61870,1,0,0:0:0:0:
192,192,61949,1,0,0:0:0:0:
448,192,61949,1,0,0:0:0:0:
64,192,62028,1,0,0:0:0:0:
320,192,62028,1,0,0:0:0:0:
192,192,62107,1,0,0:0:0:0:
320,192,62186,1,0,0:0:0:0:
448,192,62186,1,0,0:0:0:0:
64,192,62264,1,0,0:0:0:0:
320,192,62264,1,0,0:0:0:0:
192,192,62343,1,0,0:0:0:0:
64,192,62343,1,0,0:0:0:0:
320,192,62422,1,0,0:0:0:0:
448,192,62501,1,0,0:0:0:0:
64,192,62501,1,0,0:0:0:0:
192,192,62580,1,0,0:0:0:0:
64,192,62580,1,0,0:0:0:0:
320,192,62659,1,0,0:0:0:0:
448,192,62659,1,0,0:0:0:0:
192,192,62738,1,0,0:0:0:0:
448,192,62738,1,0,0:0:0:0:
448,192,62817,1,0,0:0:0:0:
64,192,62817,1,0,0:0:0:0:
64,192,62896,1,0,0:0:0:0:
320,192,62896,1,0,0:0:0:0:
192,192,62975,1,0,0:0:0:0:
64,192,62975,1,0,0:0:0:0:
192,192,63054,1,0,0:0:0:0:
320,192,63054,1,0,0:0:0:0:
320,192,63133,1,0,0:0:0:0:
448,192,63133,1,0,0:0:0:0:
192,192,63212,1,0,0:0:0:0:
64,192,63212,1,0,0:0:0:0:
320,192,63291,1,0,0:0:0:0:
192,192,63291,1,0,0:0:0:0:
448,192,63370,1,0,0:0:0:0:
64,192,63370,1,0,0:0:0:0:
64,192,63449,1,0,0:0:0:0:
320,192,63449,1,0,0:0:0:0:
448,192,63528,1,0,0:0:0:0:
192,192,63528,1,0,0:0:0:0:
320,192,63607,1,0,0:0:0:0:
64,192,63607,1,0,0:0:0:0:
192,192,63686,1,0,0:0:0:0:
64,192,63686,1,0,0:0:0:0:
320,192,63764,1,0,0:0:0:0:
448,192,63764,1,0,0:0:0:0:
192,192,63843,1,0,0:0:0:0:
64,192,63922,1,0,0:0:0:0:
192,192,63975,1,0,0:0:0:0:
320,192,64028,1,0,0:0:0:0:
448,192,64080,1,0,0:0:0:0:
192,192,64080,1,0,0:0:0:0:
64,192,64080,1,0,0:0:0:0:
192,192,64159,1,0,0:0:0:0:
448,192,64159,1,0,0:0:0:0:
320,192,64238,1,0,0:0:0:0:
192,192,64317,1,0,0:0:0:0:
64,192,64396,1,0,0:0:0:0:
320,192,64396,1,0,0:0:0:0:
192,192,64475,1,0,0:0:0:0:
448,192,64475,1,0,0:0:0:0:
320,192,64554,1,0,0:0:0:0:
192,192,64633,1,0,0:0:0:0:
320,192,64712,1,0,0:0:0:0:
448,192,64712,1,0,0:0:0:0:
192,192,64791,1,0,0:0:0:0:
64,192,64791,1,0,0:0:0:0:
320,192,64870,1,0,0:0:0:0:
192,192,64949,1,0,0:0:0:0:
64,192,65028,1,0,0:0:0:0:
448,192,65028,1,0,0:0:0:0:
192,192,65107,1,0,0:0:0:0:
448,192,65107,1,0,0:0:0:0:
320,192,65186,1,0,0:0:0:0:
192,192,65186,1,0,0:0:0:0:
64,192,65264,1,0,0:0:0:0:
192,192,65343,1,0,0:0:0:0:
448,192,65343,1,0,0:0:0:0:
320,192,65422,1,0,0:0:0:0:
64,192,65422,1,0,0:0:0:0:
64,192,65501,1,0,0:0:0:0:
192,192,65501,1,0,0:0:0:0:
320,192,65580,1,0,0:0:0:0:
448,192,65580,1,0,0:0:0:0:
448,192,65659,1,0,0:0:0:0:
192,192,65659,1,0,0:0:0:0:
64,192,65738,1,0,0:0:0:0:
320,192,65738,1,0,0:0:0:0:
192,192,65817,1,0,0:0:0:0:
320,192,65896,1,0,0:0:0:0:
192,192,65975,1,0,0:0:0:0:
64,192,65975,1,0,0:0:0:0:
320,192,66054,1,0,0:0:0:0:
448,192,66054,1,0,0:0:0:0:
192,192,66133,1,0,0:0:0:0:
320,192,66133,1,0,0:0:0:0:
320,192,66212,1,0,0:0:0:0:
448,192,66212,1,0,0:0:0:0:
192,192,66291,1,0,0:0:0:0:
64,192,66291,1,0,0:0:0:0:
320,192,66370,1,0,0:0:0:0:
448,192,66449,1,0,0:0:0:0:
64,192,66449,1,0,0:0:0:0:
192,192,66501,1,0,0:0:0:0:
320,192,66554,1,0,0:0:0:0:
448,192,66607,1,0,0:0:0:0:
192,192,66607,1,0,0:0:0:0:
64,192,66607,1,0,0:0:0:0:
192,192,66686,1,0,0:0:0:0:
448,192,66686,1,0,0:0:0:0:
320,192,66764,1,0,0:0:0:0:
192,192,66843,1,0,0:0:0:0:
64,192,66922,1,0,0:0:0:0:
320,192,66922,1,0,0:0:0:0:
192,192,67001,1,0,0:0:0:0:
64,192,67080,1,0,0:0:0:0:
320,192,67159,1,0,0:0:0:0:
192,192,67238,1,0,0:0:0:0:
448,192,67238,1,0,0:0:0:0:
64,192,67317,1,0,0:0:0:0:
192,192,67396,1,0,0:0:0:0:
320,192,67475,1,0,0:0:0:0:
448,192,67554,1,0,0:0:0:0:
192,192,67554,1,0,0:0:0:0:
320,192,67633,1,0,0:0:0:0:
64,192,67633,1,0,0:0:0:0:
64,192,67712,1,0,0:0:0:0:
192,192,67712,1,0,0:0:0:0:
192,192,67791,1,0,0:0:0:0:
320,192,67791,1,0,0:0:0:0:
320,192,67870,1,0,0:0:0:0:
448,192,67870,1,0,0:0:0:0:
64,192,67949,1,0,0:0:0:0:
192,192,67949,1,0,0:0:0:0:
320,192,68028,1,0,0:0:0:0:
448,192,68028,1,0,0:0:0:0:
192,192,68107,1,0,0:0:0:0:
64,192,68107,1,0,0:0:0:0:
192,192,68186,1,0,0:0:0:0:
448,192,68186,1,0,0:0:0:0:
320,192,68264,1,0,0:0:0:0:
64,192,68264,1,0,0:0:0:0:
64,192,68343,1,0,0:0:0:0:
192,192,68343,1,0,0:0:0:0:
192,192,68422,1,0,0:0:0:0:
320,192,68422,1,0,0:0:0:0:
320,192,68501,1,0,0:0:0:0:
448,192,68501,1,0,0:0:0:0:
192,192,68580,1,0,0:0:0:0:
64,192,68580,1,0,0:0:0:0:
320,192,68659,1,0,0:0:0:0:
448,192,68659,1,0,0:0:0:0:
192,192,68738,1,0,0:0:0:0:
64,192,68738,1,0,0:0:0:0:
192,192,68817,1,0,0:0:0:0:
448,192,68817,1,0,0:0:0:0:
320,192,68896,1,0,0:0:0:0:
64,192,68975,1,0,0:0:0:0:
448,192,68975,1,0,0:0:0:0:
192,192,69054,1,0,0:0:0:0:
64,192,69133,1,0,0:0:0:0:
448,192,69133,1,0,0:0:0:0:
320,192,69212,1,0,0:0:0:0:
192,192,69291,1,0,0:0:0:0:
64,192,69291,1,0,0:0:0:0:
320,192,69370,1,0,0:0:0:0:
448,192,69370,1,0,0:0:0:0:
64,192,69449,1,0,0:0:0:0:
192,192,69449,1,0,0:0:0:0:
192,192,69528,1,0,0:0:0:0:
320,192,69528,1,0,0:0:0:0:
320,192,69607,1,0,0:0:0:0:
448,192,69607,1,0,0:0:0:0:
192,192,69686,1,0,0:0:0:0:
64,192,69764,1,0,0:0:0:0:
320,192,69764,1,0,0:0:0:0:
448,192,69843,1,0,0:0:0:0:
192,192,69843,1,0,0:0:0:0:
320,192,69922,1,0,0:0:0:0:
448,192,69922,1,0,0:0:0:0:
192,192,70001,1,0,0:0:0:0:
64,192,70080,1,0,0:0:0:0:
448,192,70080,1,0,0:0:0:0:
320,192,70159,1,0,0:0:0:0:
64,192,70159,1,0,0:0:0:0:
192,192,70238,1,0,0:0:0:0:
448,192,70238,1,0,0:0:0:0:
320,192,70317,1,0,0:0:0:0:
448,192,70317,1,0,0:0:0:0:
192,192,70396,1,0,0:0:0:0:
64,192,70396,1,0,0:0:0:0:
64,192,70475,1,0,0:0:0:0:
320,192,70475,1,0,0:0:0:0:
192,192,70554,1,0,0:0:0:0:
320,192,70554,1,0,0:0:0:0:
192,192,70633,1,0,0:0:0:0:
448,192,70633,1,0,0:0:0:0:
320,192,70712,1,0,0:0:0:0:
448,192,70712,1,0,0:0:0:0:
192,192,70791,1,0,0:0:0:0:
320,192,70791,1,0,0:0:0:0:
192,192,70870,1,0,0:0:0:0:
64,192,70870,1,0,0:0:0:0:
320,192,70949,1,0,0:0:0:0:
448,192,70949,1,0,0:0:0:0:
64,192,71028,1,0,0:0:0:0:
448,192,71028,1,0,0:0:0:0:
64,192,71107,1,0,0:0:0:0:
320,192,71107,1,0,0:0:0:0:
192,192,71186,1,0,0:0:0:0:
64,192,71186,1,0,0:0:0:0:
320,192,71264,1,0,0:0:0:0:
448,192,71264,1,0,0:0:0:0:
64,192,71343,1,0,0:0:0:0:
448,192,71343,1,0,0:0:0:0:
64,192,71659,1,0,0:0:0:0:
448,192,71659,1,0,0:0:0:0:
320,192,71738,1,0,0:0:0:0:
192,192,71817,1,0,0:0:0:0:
64,192,71817,1,0,0:0:0:0:
320,192,71896,1,0,0:0:0:0:
192,192,71975,1,0,0:0:0:0:
448,192,71975,1,0,0:0:0:0:
64,192,72054,1,0,0:0:0:0:
192,192,72133,1,0,0:0:0:0:
320,192,72133,1,0,0:0:0:0:
448,192,72212,1,0,0:0:0:0:
64,192,72291,1,0,0:0:0:0:
320,192,72291,1,0,0:0:0:0:
192,192,72370,1,0,0:0:0:0:
320,192,72449,1,0,0:0:0:0:
448,192,72449,1,0,0:0:0:0:
64,192,72528,1,0,0:0:0:0:
192,192,72607,1,0,0:0:0:0:
320,192,72607,1,0,0:0:0:0:
64,192,72686,1,0,0:0:0:0:
320,192,72764,1,0,0:0:0:0:
448,192,72764,1,0,0:0:0:0:
192,192,72843,1,0,0:0:0:0:
64,192,72922,1,0,0:0:0:0:
320,192,72922,1,0,0:0:0:0:
448,192,73001,1,0,0:0:0:0:
64,192,73080,1,0,0:0:0:0:
192,192,73080,1,0,0:0:0:0:
448,192,73159,1,0,0:0:0:0:
320,192,73238,1,0,0:0:0:0:
192,192,73238,1,0,0:0:0:0:
64,192,73317,1,0,0:0:0:0:
192,192,73396,1,0,0:0:0:0:
448,192,73396,1,0,0:0:0:0:
320,192,73475,1,0,0:0:0:0:
448,192,73554,1,0,0:0:0:0:
192,192,73554,1,0,0:0:0:0:
64,192,73633,1,0,0:0:0:0:
192,192,73712,1,0,0:0:0:0:
320,192,73712,1,0,0:0:0:0:
64,192,73791,1,0,0:0:0:0:
320,192,73870,1,0,0:0:0:0:
448,192,73870,1,0,0:0:0:0:
64,192,73949,1,0,0:0:0:0:
192,192,74028,1,0,0:0:0:0:
320,192,74028,1,0,0:0:0:0:
448,192,74107,1,0,0:0:0:0:
320,192,74186,1,0,0:0:0:0:
64,192,74186,1,0,0:0:0:0:
192,192,74264,1,0,0:0:0:0:
64,192,74343,1,0,0:0:0:0:
320,192,74343,1,0,0:0:0:0:
448,192,74422,1,0,0:0:0:0:
64,192,74501,1,0,0:0:0:0:
192,192,74501,1,0,0:0:0:0:
448,192,74580,1,0,0:0:0:0:
320,192,74659,1,0,0:0:0:0:
192,192,74659,1,0,0:0:0:0:
64,192,74738,1,0,0:0:0:0:
192,192,74817,1,0,0:0:0:0:
448,192,74817,1,0,0:0:0:0:
320,192,74896,1,0,0:0:0:0:
448,192,74975,1,0,0:0:0:0:
192,192,74975,1,0,0:0:0:0:
64,192,75054,1,0,0:0:0:0:
320,192,75133,1,0,0:0:0:0:
448,192,75133,1,0,0:0:0:0:
64,192,75212,1,0,0:0:0:0:
192,192,75291,1,0,0:0:0:0:
320,192,75291,1,0,0:0:0:0:
448,192,75370,1,0,0:0:0:0:
320,192,75449,1,0,0:0:0:0:
64,192,75449,1,0,0:0:0:0:
192,192,75528,1,0,0:0:0:0:
64,192,75607,1,0,0:0:0:0:
320,192,75607,1,0,0:0:0:0:
448,192,75686,1,0,0:0:0:0:
320,192,75764,1,0,0:0:0:0:
192,192,75764,1,0,0:0:0:0:
64,192,75843,1,0,0:0:0:0:
192,192,75922,1,0,0:0:0:0:
448,192,75922,1,0,0:0:0:0:
320,192,76001,1,0,0:0:0:0:
192,192,76080,1,0,0:0:0:0:
64,192,76080,1,0,0:0:0:0:
320,192,76159,1,0,0:0:0:0:
64,192,76238,1,0,0:0:0:0:
448,192,76238,1,0,0:0:0:0:
192,192,76317,1,0,0:0:0:0:
320,192,76396,1,0,0:0:0:0:
448,192,76396,1,0,0:0:0:0:
64,192,76475,1,0,0:0:0:0:
192,192,76554,1,0,0:0:0:0:
320,192,76554,1,0,0:0:0:0:
64,192,76633,1,0,0:0:0:0:
320,192,76712,1,0,0:0:0:0:
448,192,76712,1,0,0:0:0:0:
64,192,76791,1,0,0:0:0:0:
192,192,76870,1,0,0:0:0:0:
448,192,76870,1,0,0:0:0:0:
320,192,76949,1,0,0:0:0:0:
448,192,77028,1,0,0:0:0:0:
192,192,77028,1,0,0:0:0:0:
64,192,77107,1,0,0:0:0:0:
320,192,77186,1,0,0:0:0:0:
448,192,77186,1,0,0:0:0:0:
64,192,77264,1,0,0:0:0:0:
192,192,77343,1,0,0:0:0:0:
320,192,77343,1,0,0:0:0:0:
448,192,77422,1,0,0:0:0:0:
320,192,77501,1,0,0:0:0:0:
64,192,77501,1,0,0:0:0:0:
192,192,77580,1,0,0:0:0:0:
64,192,77659,1,0,0:0:0:0:
448,192,77659,1,0,0:0:0:0:
320,192,77738,1,0,0:0:0:0:
192,192,77817,1,0,0:0:0:0:
448,192,77817,1,0,0:0:0:0:
320,192,77896,1,0,0:0:0:0:
64,192,77975,1,0,0:0:0:0:
192,192,77975,1,0,0:0:0:0:
448,192,78054,1,0,0:0:0:0:
64,192,78133,1,0,0:0:0:0:
320,192,78133,1,0,0:0:0:0:
192,192,78212,1,0,0:0:0:0:
64,192,78291,1,0,0:0:0:0:
448,192,78291,1,0,0:0:0:0:
320,192,78370,1,0,0:0:0:0:
192,192,78449,1,0,0:0:0:0:
448,192,78449,1,0,0:0:0:0:
64,192,78528,1,0,0:0:0:0:
192,192,78607,1,0,0:0:0:0:
320,192,78607,1,0,0:0:0:0:
448,192,78686,1,0,0:0:0:0:
64,192,78764,1,0,0:0:0:0:
320,192,78764,1,0,0:0:0:0:
192,192,78843,1,0,0:0:0:0:
64,192,78922,1,0,0:0:0:0:
448,192,78922,1,0,0:0:0:0:
320,192,79001,1,0,0:0:0:0:
64,192,79080,1,0,0:0:0:0:
448,192,79080,1,0,0:0:0:0:
192,192,79159,1,0,0:0:0:0:
320,192,79238,1,0,0:0:0:0:
448,192,79238,1,0,0:0:0:0:
64,192,79317,1,0,0:0:0:0:
192,192,79396,1,0,0:0:0:0:
320,192,79396,1,0,0:0:0:0:
64,192,79475,1,0,0:0:0:0:
320,192,79554,1,0,0:0:0:0:
448,192,79554,1,0,0:0:0:0:
64,192,79633,1,0,0:0:0:0:
192,192,79712,1,0,0:0:0:0:
320,192,79712,1,0,0:0:0:0:
448,192,79791,1,0,0:0:0:0:
320,192,79870,1,0,0:0:0:0:
64,192,79870,1,0,0:0:0:0:
192,192,79949,1,0,0:0:0:0:
64,192,80028,1,0,0:0:0:0:
448,192,80028,1,0,0:0:0:0:
320,192,80107,1,0,0:0:0:0:
192,192,80186,1,0,0:0:0:0:
64,192,80186,1,0,0:0:0:0:
320,192,80264,1,0,0:0:0:0:
448,192,80264,1,0,0:0:0:0:
192,192,80343,1,0,0:0:0:0:
320,192,80343,1,0,0:0:0:0:
320,192,80422,1,0,0:0:0:0:
448,192,80422,1,0,0:0:0:0:
64,192,80501,1,0,0:0:0:0:
320,192,80501,1,0,0:0:0:0:
192,192,80580,1,0,0:0:0:0:
64,192,80580,1,0,0:0:0:0:
192,192,80659,1,0,0:0:0:0:
320,192,80659,1,0,0:0:0:0:
192,192,80738,1,0,0:0:0:0:
64,192,80738,1,0,0:0:0:0:
64,192,80817,1,0,0:0:0:0:
320,192,80817,1,0,0:0:0:0:
192,192,80896,1,0,0:0:0:0:
448,192,80896,1,0,0:0:0:0:
320,192,80975,1,0,0:0:0:0:
448,192,80975,1,0,0:0:0:0:
192,192,81054,1,0,0:0:0:0:
448,192,81054,1,0,0:0:0:0:
320,192,81133,1,0,0:0:0:0:
64,192,81133,1,0,0:0:0:0:
64,192,81212,1,0,0:0:0:0:
192,192,81212,1,0,0:0:0:0:
192,192,81291,1,0,0:0:0:0:
320,192,81291,1,0,0:0:0:0:
64,192,81370,1,0,0:0:0:0:
192,192,81370,1,0,0:0:0:0:
64,192,81449,1,0,0:0:0:0:
448,192,81449,1,0,0:0:0:0:
320,192,81528,1,0,0:0:0:0:
192,192,81607,1,0,0:0:0:0:
64,192,81686,1,0,0:0:0:0:
192,192,81764,1,0,0:0:0:0:
448,192,81764,1,0,0:0:0:0:
320,192,81764,1,0,0:0:0:0:
64,192,81843,1,0,0:0:0:0:
192,192,81922,1,0,0:0:0:0:
448,192,81922,1,0,0:0:0:0:
320,192,82001,1,0,0:0:0:0:
448,192,82080,1,0,0:0:0:0:
64,192,82080,1,0,0:0:0:0:
192,192,82159,1,0,0:0:0:0:
64,192,82238,1,0,0:0:0:0:
320,192,82238,1,0,0:0:0:0:
448,192,82317,1,0,0:0:0:0:
320,192,82396,1,0,0:0:0:0:
192,192,82396,1,0,0:0:0:0:
448,192,82475,1,0,0:0:0:0:
64,192,82554,1,0,0:0:0:0:
320,192,82554,1,0,0:0:0:0:
192,192,82633,1,0,0:0:0:0:
64,192,82712,1,0,0:0:0:0:
320,192,82712,1,0,0:0:0:0:
448,192,82791,1,0,0:0:0:0:
192,192,82870,1,0,0:0:0:0:
320,192,82870,1,0,0:0:0:0:
64,192,82949,1,0,0:0:0:0:
192,192,83028,1,0,0:0:0:0:
448,192,83028,1,0,0:0:0:0:
320,192,83107,1,0,0:0:0:0:
448,192,83186,1,0,0:0:0:0:
64,192,83186,1,0,0:0:0:0:
192,192,83264,1,0,0:0:0:0:
64,192,83343,1,0,0:0:0:0:
448,192,83343,1,0,0:0:0:0:
320,192,83422,1,0,0:0:0:0:
192,192,83501,1,0,0:0:0:0:
64,192,83501,1,0,0:0:0:0:
448,192,83580,1,0,0:0:0:0:
320,192,83659,1,0,0:0:0:0:
192,192,83659,1,0,0:0:0:0:
448,192,83738,1,0,0:0:0:0:
64,192,83817,1,0,0:0:0:0:
320,192,83817,1,0,0:0:0:0:
192,192,83896,1,0,0:0:0:0:
64,192,83975,1,0,0:0:0:0:
320,192,83975,1,0,0:0:0:0:
448,192,84054,1,0,0:0:0:0:
192,192,84133,1,0,0:0:0:0:
320,192,84133,1,0,0:0:0:0:
64,192,84212,1,0,0:0:0:0:
192,192,84291,1,0,0:0:0:0:
448,192,84291,1,0,0:0:0:0:
320,192,84370,1,0,0:0:0:0:
448,192,84449,1,0,0:0:0:0:
192,192,84449,1,0,0:0:0:0:
64,192,84528,1,0,0:0:0:0:
320,192,84607,1,0,0:0:0:0:
448,192,84607,1,0,0:0:0:0:
64,192,84686,1,0,0:0:0:0:
320,192,84764,1,0,0:0:0:0:
192,192,84764,1,0,0:0:0:0:
448,192,84843,1,0,0:0:0:0:
320,192,84922,1,0,0:0:0:0:
64,192,84922,1,0,0:0:0:0:
192,192,85001,1,0,0:0:0:0:
64,192,85080,1,0,0:0:0:0:
448,192,85080,1,0,0:0:0:0:
320,192,85159,1,0,0:0:0:0:
192,192,85238,1,0,0:0:0:0:
64,192,85238,1,0,0:0:0:0:
320,192,85317,1,0,0:0:0:0:
192,192,85396,1,0,0:0:0:0:
448,192,85396,1,0,0:0:0:0:
64,192,85475,1,0,0:0:0:0:
192,192,85554,1,0,0:0:0:0:
320,192,85554,1,0,0:0:0:0:
448,192,85633,1,0,0:0:0:0:
320,192,85712,1,0,0:0:0:0:
64,192,85712,1,0,0:0:0:0:
192,192,85791,1,0,0:0:0:0:
64,192,85870,1,0,0:0:0:0:
448,192,85870,1,0,0:0:0:0:
320,192,85949,1,0,0:0:0:0:
192,192,86028,1,0,0:0:0:0:
64,192,86028,1,0,0:0:0:0:
448,192,86107,1,0,0:0:0:0:
64,192,86186,1,0,0:0:0:0:
320,192,86186,1,0,0:0:0:0:
64,192,86264,1,0,0:0:0:0:
192,192,86264,1,0,0:0:0:0:
64,192,86343,1,0,0:0:0:0:
448,192,86343,1,0,0:0:0:0:
64,192,86422,1,0,0:0:0:0:
320,192,86422,1,0,0:0:0:0:
64,192,86501,1,0,0:0:0:0:
448,192,86501,1,0,0:0:0:0:
320,192,86580,1,0,0:0:0:0:
64,192,86659,1,0,0:0:0:0:
448,192,86659,1,0,0:0:0:0:
192,192,86738,1,0,0:0:0:0:
320,192,86817,1,0,0:0:0:0:
448,192,86817,1,0,0:0:0:0:
64,192,86896,1,0,0:0:0:0:
192,192,86975,1,0,0:0:0:0:
320,192,86975,1,0,0:0:0:0:
64,192,87054,1,0,0:0:0:0:
192,192,87133,1,0,0:0:0:0:
448,192,87133,1,0,0:0:0:0:
320,192,87212,1,0,0:0:0:0:
64,192,87291,1,0,0:0:0:0:
192,192,87291,1,0,0:0:0:0:
448,192,87370,1,0,0:0:0:0:
320,192,87449,1,0,0:0:0:0:
192,192,87449,1,0,0:0:0:0:
64,192,87528,1,0,0:0:0:0:
192,192,87607,1,0,0:0:0:0:
448,192,87607,1,0,0:0:0:0:
320,192,87686,1,0,0:0:0:0:
448,192,87764,1,0,0:0:0:0:
192,192,87764,1,0,0:0:0:0:
64,192,87843,1,0,0:0:0:0:
192,192,87922,1,0,0:0:0:0:
320,192,87922,1,0,0:0:0:0:
64,192,88001,1,0,0:0:0:0:
192,192,88080,1,0,0:0:0:0:
448,192,88080,1,0,0:0:0:0:
320,192,88159,1,0,0:0:0:0:
448,192,88238,1,0,0:0:0:0:
64,192,88238,1,0,0:0:0:0:
192,192,88317,1,0,0:0:0:0:
64,192,88396,1,0,0:0:0:0:
448,192,88396,1,0,0:0:0:0:
320,192,88475,1,0,0:0:0:0:
192,192,88554,1,0,0:0:0:0:
64,192,88554,1,0,0:0:0:0:
448,192,88633,1,0,0:0:0:0:
320,192,88712,1,0,0:0:0:0:
192,192,88712,1,0,0:0:0:0:
448,192,88791,1,0,0:0:0:0:
64,192,88870,1,0,0:0:0:0:
320,192,88870,1,0,0:0:0:0:
192,192,88949,1,0,0:0:0:0:
320,192,89028,1,0,0:0:0:0:
448,192,89028,1,0,0:0:0:0:
64,192,89107,1,0,0:0:0:0:
192,192,89107,1,0,0:0:0:0:
192,192,89186,1,0,0:0:0:0:
320,192,89186,1,0,0:0:0:0:
64,192,89264,1,0,0:0:0:0:
320,192,89264,1,0,0:0:0:0:
192,192,89343,1,0,0:0:0:0:
448,192,89343,1,0,0:0:0:0:
320,192,89422,1,0,0:0:0:0:
448,192,89501,1,0,0:0:0:0:
192,192,89501,1,0,0:0:0:0:
64,192,89580,1,0,0:0:0:0:
320,192,89580,1,0,0:0:0:0:
320,192,89659,1,0,0:0:0:0:
448,192,89659,1,0,0:0:0:0:
64,192,89738,1,0,0:0:0:0:
192,192,89738,1,0,0:0:0:0:
192,192,89817,1,0,0:0:0:0:
320,192,89817,1,0,0:0:0:0:
448,192,89896,1,0,0:0:0:0:
320,192,89896,1,0,0:0:0:0:
320,192,89975,1,0,0:0:0:0:
64,192,89975,1,0,0:0:0:0:
192,192,90054,1,0,0:0:0:0:
448,192,90054,1,0,0:0:0:0:
64,192,90133,1,0,0:0:0:0:
448,192,90133,1,0,0:0:0:0:
320,192,90212,1,0,0:0:0:0:
192,192,90212,1,0,0:0:0:0:
64,192,90291,1,0,0:0:0:0:
448,192,90291,1,0,0:0:0:0:
320,192,90330,1,0,0:0:0:0:
192,192,90370,1,0,0:0:0:0:
64,192,90409,1,0,0:0:0:0:
448,192,90449,1,0,0:0:0:0:
320,192,90488,1,0,0:0:0:0:
192,192,90528,1,0,0:0:0:0:
64,192,90567,1,0,0:0:0:0:
448,192,90607,1,0,0:0:0:0:
320,192,90646,1,0,0:0:0:0:
192,192,90686,1,0,0:0:0:0:
64,192,90725,1,0,0:0:0:0:
448,192,90764,1,0,0:0:0:0:
320,192,90804,1,0,0:0:0:0:
192,192,90843,1,0,0:0:0:0:
64,192,90883,1,0,0:0:0:0:
64,192,90922,1,0,0:0:0:0:
192,192,90962,1,0,0:0:0:0:
320,192,91001,1,0,0:0:0:0:
448,192,91041,1,0,0:0:0:0:
64,192,91080,1,0,0:0:0:0:
192,192,91120,1,0,0:0:0:0:
320,192,91159,1,0,0:0:0:0:
448,192,91199,1,0,0:0:0:0:
64,192,91238,1,0,0:0:0:0:
192,192,91278,1,0,0:0:0:0:
320,192,91317,1,0,0:0:0:0:
448,192,91357,1,0,0:0:0:0:
64,192,91396,1,0,0:0:0:0:
192,192,91436,1,0,0:0:0:0:
320,192,91475,1,0,0:0:0:0:
448,192,91514,1,0,0:0:0:0:
320,192,91554,1,0,0:0:0:0:
192,192,91554,1,0,0:0:0:0:
64,192,91554,1,0,0:0:0:0:
192,192,91869,1,0,0:0:0:0:
448,192,91869,1,0,0:0:0:0:
320,192,92185,1,0,0:0:0:0:
448,192,92185,1,0,0:0:0:0:
64,192,92343,1,0,0:0:0:0:
192,192,92343,1,0,0:0:0:0:
192,192,92501,1,0,0:0:0:0:
320,192,92501,1,0,0:0:0:0:
64,192,92817,1,0,0:0:0:0:
448,192,92817,1,0,0:0:0:0:
192,192,93132,1,0,0:0:0:0:
64,192,93132,1,0,0:0:0:0:
448,192,93290,1,0,0:0:0:0:
64,192,93448,1,0,0:0:0:0:
320,192,93448,1,0,0:0:0:0:
192,192,93606,1,0,0:0:0:0:
320,192,93606,1,0,0:0:0:0:
448,192,93764,1,0,0:0:0:0:
320,192,93764,1,0,0:0:0:0:
320,192,94080,1,0,0:0:0:0:
448,192,94080,1,0,0:0:0:0:
64,192,94396,1,0,0:0:0:0:
192,192,94396,1,0,0:0:0:0:
192,192,94711,1,0,0:0:0:0:
448,192,94711,1,0,0:0:0:0:
320,192,94869,1,0,0:0:0:0:
192,192,95027,1,0,0:0:0:0:
448,192,95027,1,0,0:0:0:0:
64,192,95343,1,0,0:0:0:0:
320,192,95343,1,0,0:0:0:0:
320,192,95501,1,0,0:0:0:0:
192,192,95659,1,0,0:0:0:0:
448,192,95659,1,0,0:0:0:0:
320,192,95817,1,0,0:0:0:0:
64,192,95975,1,0,0:0:0:0:
192,192,95975,1,0,0:0:0:0:
320,192,96132,1,0,0:0:0:0:
64,192,96290,1,0,0:0:0:0:
448,192,96290,1,0,0:0:0:0:
320,192,96448,1,0,0:0:0:0:
192,192,96527,1,0,0:0:0:0:
64,192,96606,1,0,0:0:0:0:
448,192,96606,1,0,0:0:0:0:
320,192,96922,1,0,0:0:0:0:
448,192,96922,1,0,0:0:0:0:
64,192,97238,1,0,0:0:0:0:
320,192,97238,1,0,0:0:0:0:
192,192,97396,1,0,0:0:0:0:
64,192,97554,1,0,0:0:0:0:
448,192,97554,1,0,0:0:0:0:
320,192,97869,1,0,0:0:0:0:
448,192,97869,1,0,0:0:0:0:
192,192,98027,1,0,0:0:0:0:
64,192,98027,1,0,0:0:0:0:
320,192,98185,1,0,0:0:0:0:
192,192,98343,1,0,0:0:0:0:
64,192,98501,1,0,0:0:0:0:
448,192,98501,1,0,0:0:0:0:
192,192,98659,1,0,0:0:0:0:
64,192,98817,1,0,0:0:0:0:
448,192,98817,1,0,0:0:0:0:
320,192,99132,1,0,0:0:0:0:
448,192,99132,1,0,0:0:0:0:
64,192,99448,1,0,0:0:0:0:
192,192,99448,1,0,0:0:0:0:
320,192,99764,1,0,0:0:0:0:
192,192,99922,1,0,0:0:0:0:
64,192,100080,1,0,0:0:0:0:
448,192,100080,1,0,0:0:0:0:
64,192,100396,1,0,0:0:0:0:
320,192,100396,1,0,0:0:0:0:
192,192,100554,1,0,0:0:0:0:
448,192,100554,1,0,0:0:0:0:
320,192,100632,1,0,0:0:0:0:
64,192,100711,1,0,0:0:0:0:
192,192,100869,1,0,0:0:0:0:
448,192,100869,1,0,0:0:0:0:
64,192,101027,1,0,0:0:0:0:
320,192,101027,1,0,0:0:0:0:
192,192,101185,1,0,0:0:0:0:
64,192,101343,1,0,0:0:0:0:
448,192,101343,1,0,0:0:0:0:
320,192,101422,1,0,0:0:0:0:
192,192,101501,1,0,0:0:0:0:
448,192,101501,1,0,0:0:0:0:
320,192,101580,1,0,0:0:0:0:
192,192,101659,1,0,0:0:0:0:
64,192,101659,1,0,0:0:0:0:
320,192,101809,1,0,0:0:0:0:
192,192,101959,1,0,0:0:0:0:
448,192,101959,1,0,0:0:0:0:
320,192,102109,1,0,0:0:0:0:
64,192,102259,1,0,0:0:0:0:
448,192,102259,1,0,0:0:0:0:
320,192,102409,1,0,0:0:0:0:
192,192,102559,1,0,0:0:0:0:
64,192,102559,1,0,0:0:0:0:
320,192,102709,1,0,0:0:0:0:
64,192,102859,1,0,0:0:0:0:
448,192,102859,1,0,0:0:0:0:
320,192,102995,1,0,0:0:0:0:
192,192,103131,1,0,0:0:0:0:
448,192,103131,1,0,0:0:0:0:
320,192,103268,1,0,0:0:0:0:
64,192,103404,1,0,0:0:0:0:
448,192,103404,1,0,0:0:0:0:
192,192,103540,1,0,0:0:0:0:
320,192,103677,1,0,0:0:0:0:
448,192,103677,1,0,0:0:0:0:
192,192,103813,1,0,0:0:0:0:
64,192,103949,1,0,0:0:0:0:
320,192,103949,1,0,0:0:0:0:
448,192,104074,1,0,0:0:0:0:
320,192,104199,1,0,0:0:0:0:
192,192,104199,1,0,0:0:0:0:
448,192,104324,1,0,0:0:0:0:
64,192,104449,1,0,0:0:0:0:
320,192,104449,1,0,0:0:0:0:
192,192,104574,1,0,0:0:0:0:
64,192,104699,1,0,0:0:0:0:
448,192,104699,1,0,0:0:0:0:
320,192,104824,1,0,0:0:0:0:
192,192,104949,1,0,0:0:0:0:
64,192,104949,1,0,0:0:0:0:
320,192,105064,1,0,0:0:0:0:
448,192,105064,1,0,0:0:0:0:
192,192,105179,1,0,0:0:0:0:
448,192,105179,1,0,0:0:0:0:
320,192,105295,1,0,0:0:0:0:
64,192,105410,1,0,0:0:0:0:
448,192,105410,1,0,0:0:0:0:
192,192,105525,1,0,0:0:0:0:
448,192,105641,1,0,0:0:0:0:
64,192,105641,1,0,0:0:0:0:
320,192,105756,1,0,0:0:0:0:
64,192,105872,1,0,0:0:0:0:
448,192,105872,1,0,0:0:0:0:
192,192,105979,1,0,0:0:0:0:
320,192,105979,1,0,0:0:0:0:
64,192,106086,1,0,0:0:0:0:
448,192,106086,1,0,0:0:0:0:
192,192,106193,1,0,0:0:0:0:
320,192,106193,1,0,0:0:0:0:
448,192,106300,1,0,0:0:0:0:
320,192,106300,1,0,0:0:0:0:
192,192,106407,1,0,0:0:0:0:
64,192,106407,1,0,0:0:0:0:
320,192,106514,1,0,0:0:0:0:
448,192,106514,1,0,0:0:0:0:
192,192,106622,1,0,0:0:0:0:
64,192,106622,1,0,0:0:0:0:
64,192,106729,1,0,0:0:0:0:
320,192,106729,1,0,0:0:0:0:
192,192,106829,1,0,0:0:0:0:
448,192,106829,1,0,0:0:0:0:
320,192,106929,1,0,0:0:0:0:
448,192,106929,1,0,0:0:0:0:
320,192,107029,1,0,0:0:0:0:
192,192,107029,1,0,0:0:0:0:
64,192,107129,1,0,0:0:0:0:
192,192,107129,1,0,0:0:0:0:
192,192,107229,1,0,0:0:0:0:
320,192,107229,1,0,0:0:0:0:
320,192,107329,1,0,0:0:0:0:
448,192,107329,1,0,0:0:0:0:
320,192,107429,1,0,0:0:0:0:
192,192,107429,1,0,0:0:0:0:
64,192,107529,1,0,0:0:0:0:
448,192,107529,1,0,0:0:0:0:
320,192,107575,1,0,0:0:0:0:
192,192,107622,1,0,0:0:0:0:
64,192,107622,1,0,0:0:0:0:
320,192,107669,1,0,0:0:0:0:
448,192,107716,1,0,0:0:0:0:
192,192,107716,1,0,0:0:0:0:
64,192,107763,1,0,0:0:0:0:
192,192,107810,1,0,0:0:0:0:
320,192,107810,1,0,0:0:0:0:
448,192,107857,1,0,0:0:0:0:
320,192,107904,1,0,0:0:0:0:
64,192,107904,1,0,0:0:0:0:
192,192,107950,1,0,0:0:0:0:
64,192,107997,1,0,0:0:0:0:
320,192,107997,1,0,0:0:0:0:
448,192,108044,1,0,0:0:0:0:
192,192,108091,1,0,0:0:0:0:
320,192,108091,1,0,0:0:0:0:
64,192,108138,1,0,0:0:0:0:
192,192,108185,1,0,0:0:0:0:
448,192,108185,1,0,0:0:0:0:
320,192,108232,1,0,0:0:0:0:
448,192,108279,1,0,0:0:0:0:
64,192,108279,1,0,0:0:0:0:
192,192,108323,1,0,0:0:0:0:
64,192,108367,1,0,0:0:0:0:
448,192,108367,1,0,0:0:0:0:
320,192,108411,1,0,0:0:0:0:
192,192,108455,1,0,0:0:0:0:
64,192,108455,1,0,0:0:0:0:
320,192,108499,1,0,0:0:0:0:
448,192,108543,1,0,0:0:0:0:
192,192,108543,1,0,0:0:0:0:
64,192,108587,1,0,0:0:0:0:
192,192,108631,1,0,0:0:0:0:
320,192,108631,1,0,0:0:0:0:
448,192,108676,1,0,0:0:0:0:
64,192,108720,1,0,0:0:0:0:
320,192,108720,1,0,0:0:0:0:
192,192,108764,1,0,0:0:0:0:
64,192,108808,1,0,0:0:0:0:
320,192,108808,1,0,0:0:0:0:
448,192,108852,1,0,0:0:0:0:
320,192,108896,1,0,0:0:0:0:
192,192,108896,1,0,0:0:0:0:
64,192,108940,1,0,0:0:0:0:
192,192,108984,1,0,0:0:0:0:
320,192,108984,1,0,0:0:0:0:
448,192,109025,1,0,0:0:0:0:
320,192,109067,1,0,0:0:0:0:
64,192,109067,1,0,0:0:0:0:
192,192,109109,1,0,0:0:0:0:
64,192,109150,1,0,0:0:0:0:
448,192,109150,1,0,0:0:0:0:
320,192,109192,1,0,0:0:0:0:
192,192,109234,1,0,0:0:0:0:
64,192,109234,1,0,0:0:0:0:
448,192,109275,1,0,0:0:0:0:
320,192,109317,1,0,0:0:0:0:
64,192,109317,1,0,0:0:0:0:
192,192,109359,1,0,0:0:0:0:
320,192,109400,1,0,0:0:0:0:
448,192,109400,1,0,0:0:0:0:
192,192,109442,1,0,0:0:0:0:
64,192,109484,1,0,0:0:0:0:
320,192,109484,1,0,0:0:0:0:
448,192,109525,1,0,0:0:0:0:
320,192,109567,1,0,0:0:0:0:
192,192,109567,1,0,0:0:0:0:
64,192,109609,1,0,0:0:0:0:
192,192,109650,1,0,0:0:0:0:
448,192,109650,1,0,0:0:0:0:
448,192,109900,1,0,0:0:0:0:
448,192,110150,1,0,0:0:0:0:
448,192,110465,1,0,0:0:0:0:
64,192,111096,1,0,0:0:0:0:
448,192,111096,1,0,0:0:0:0:
192,192,111096,1,0,0:0:0:0:
64,192,111254,1,0,0:0:0:0:
320,192,111254,1,0,0:0:0:0:
448,192,111254,1,0,0:0:0:0:
64,192,111412,1,0,0:0:0:0:
192,192,111412,1,0,0:0:0:0:
320,192,111412,1,0,0:0:0:0:
64,192,111491,1,0,0:0:0:0:
320,192,111491,1,0,0:0:0:0:
192,192,111491,1,0,0:0:0:0:
192,192,111570,1,0,0:0:0:0:
64,192,111570,1,0,0:0:0:0:
320,192,111570,1,0,0:0:0:0:
320,192,111649,1,0,0:0:0:0:
192,192,111649,1,0,0:0:0:0:
64,192,111649,1,0,0:0:0:0:
192,192,111728,1,0,0:0:0:0:
64,192,111728,1,0,0:0:0:0:
320,192,111728,1,0,0:0:0:0:
320,192,111807,1,0,0:0:0:0:
64,192,111807,1,0,0:0:0:0:
192,192,111807,1,0,0:0:0:0:
192,192,111886,1,0,0:0:0:0:
64,192,111886,1,0,0:0:0:0:
320,192,111886,1,0,0:0:0:0:
64,192,111965,1,0,0:0:0:0:
192,192,111965,1,0,0:0:0:0:
320,192,111965,1,0,0:0:0:0:
64,192,112044,1,0,0:0:0:0:
192,192,112044,1,0,0:0:0:0:
448,192,112044,1,0,0:0:0:0:
320,192,112202,1,0,0:0:0:0:
448,192,112202,1,0,0:0:0:0:
64,192,112202,1,0,0:0:0:0:
192,192,112359,1,0,0:0:0:0:
320,192,112359,1,0,0:0:0:0:
448,192,112359,1,0,0:0:0:0:
192,192,112438,1,0,0:0:0:0:
320,192,112438,1,0,0:0:0:0:
448,192,112438,1,0,0:0:0:0:
192,192,112517,1,0,0:0:0:0:
320,192,112517,1,0,0:0:0:0:
448,192,112517,1,0,0:0:0:0:
192,192,112596,1,0,0:0:0:0:
320,192,112596,1,0,0:0:0:0:
448,192,112596,1,0,0:0:0:0:
192,192,112675,1,0,0:0:0:0:
448,192,112675,1,0,0:0:0:0:
320,192,112675,1,0,0:0:0:0:
192,192,112754,1,0,0:0:0:0:
320,192,112754,1,0,0:0:0:0:
448,192,112754,1,0,0:0:0:0:
192,192,112833,1,0,0:0:0:0:
320,192,112833,1,0,0:0:0:0:
448,192,112833,1,0,0:0:0:0:
192,192,112912,1,0,0:0:0:0:
320,192,112912,1,0,0:0:0:0:
448,192,112912,1,0,0:0:0:0:
448,192,112991,1,0,0:0:0:0:
320,192,112991,1,0,0:0:0:0:
64,192,112991,1,0,0:0:0:0:
64,192,113148,1,0,0:0:0:0:
320,192,113148,1,0,0:0:0:0:
448,192,113148,1,0,0:0:0:0:
64,192,113306,1,0,0:0:0:0:
192,192,113306,1,0,0:0:0:0:
448,192,113306,1,0,0:0:0:0:
192,192,113385,1,0,0:0:0:0:
64,192,113385,1,0,0:0:0:0:
448,192,113385,1,0,0:0:0:0:
192,192,113464,1,0,0:0:0:0:
64,192,113464,1,0,0:0:0:0:
448,192,113464,1,0,0:0:0:0:
192,192,113543,1,0,0:0:0:0:
64,192,113543,1,0,0:0:0:0:
448,192,113543,1,0,0:0:0:0:
192,192,113622,1,0,0:0:0:0:
64,192,113622,1,0,0:0:0:0:
448,192,113622,1,0,0:0:0:0:
192,192,113701,1,0,0:0:0:0:
64,192,113701,1,0,0:0:0:0:
448,192,113701,1,0,0:0:0:0:
192,192,113780,1,0,0:0:0:0:
64,192,113780,1,0,0:0:0:0:
448,192,113780,1,0,0:0:0:0:
64,192,113859,1,0,0:0:0:0:
192,192,113859,1,0,0:0:0:0:
448,192,113859,1,0,0:0:0:0:
192,192,113938,1,0,0:0:0:0:
320,192,113938,1,0,0:0:0:0:
448,192,113938,1,0,0:0:0:0:
448,192,114095,1,0,0:0:0:0:
320,192,114095,1,0,0:0:0:0:
192,192,114095,1,0,0:0:0:0:
64,192,114253,1,0,0:0:0:0:
320,192,114253,1,0,0:0:0:0:
448,192,114253,1,0,0:0:0:0:
448,192,114332,1,0,0:0:0:0:
64,192,114332,1,0,0:0:0:0:
320,192,114332,1,0,0:0:0:0:
448,192,114411,1,0,0:0:0:0:
64,192,114411,1,0,0:0:0:0:
320,192,114411,1,0,0:0:0:0:
448,192,114490,1,0,0:0:0:0:
64,192,114490,1,0,0:0:0:0:
320,192,114490,1,0,0:0:0:0:
448,192,114569,1,0,0:0:0:0:
64,192,114569,1,0,0:0:0:0:
320,192,114569,1,0,0:0:0:0:
448,192,114648,1,0,0:0:0:0:
64,192,114648,1,0,0:0:0:0:
320,192,114648,1,0,0:0:0:0:
448,192,114727,1,0,0:0:0:0:
64,192,114727,1,0,0:0:0:0:
320,192,114727,1,0,0:0:0:0:
448,192,114806,1,0,0:0:0:0:
64,192,114806,1,0,0:0:0:0:
320,192,114806,1,0,0:0:0:0:
320,192,114885,1,0,0:0:0:0:
192,192,114885,1,0,0:0:0:0:
64,192,114885,1,0,0:0:0:0:
64,192,115042,1,0,0:0:0:0:
192,192,115042,1,0,0:0:0:0:
320,192,115042,1,0,0:0:0:0:
448,192,115200,1,0,0:0:0:0:
192,192,115200,1,0,0:0:0:0:
320,192,115200,1,0,0:0:0:0:
192,192,115279,1,0,0:0:0:0:
320,192,115279,1,0,0:0:0:0:
448,192,115279,1,0,0:0:0:0:
192,192,115358,1,0,0:0:0:0:
320,192,115358,1,0,0:0:0:0:
448,192,115358,1,0,0:0:0:0:
192,192,115437,1,0,0:0:0:0:
320,192,115437,1,0,0:0:0:0:
448,192,115437,1,0,0:0:0:0:
192,192,115516,1,0,0:0:0:0:
320,192,115516,1,0,0:0:0:0:
448,192,115516,1,0,0:0:0:0:
192,192,115595,1,0,0:0:0:0:
320,192,115595,1,0,0:0:0:0:
448,192,115595,1,0,0:0:0:0:
192,192,115674,1,0,0:0:0:0:
448,192,115674,1,0,0:0:0:0:
320,192,115674,1,0,0:0:0:0:
192,192,115753,1,0,0:0:0:0:
320,192,115753,1,0,0:0:0:0:
448,192,115753,1,0,0:0:0:0:
64,192,115832,1,0,0:0:0:0:
448,192,115832,1,0,0:0:0:0:
320,192,115832,1,0,0:0:0:0:
64,192,115989,1,0,0:0:0:0:
320,192,115989,1,0,0:0:0:0:
448,192,115989,1,0,0:0:0:0:
64,192,116147,1,0,0:0:0:0:
192,192,116147,1,0,0:0:0:0:
320,192,116147,1,0,0:0:0:0:
320,192,116226,1,0,0:0:0:0:
64,192,116226,1,0,0:0:0:0:
192,192,116226,1,0,0:0:0:0:
320,192,116305,1,0,0:0:0:0:
192,192,116305,1,0,0:0:0:0:
64,192,116305,1,0,0:0:0:0:
320,192,116384,1,0,0:0:0:0:
64,192,116384,1,0,0:0:0:0:
192,192,116384,1,0,0:0:0:0:
320,192,116463,1,0,0:0:0:0:
64,192,116463,1,0,0:0:0:0:
192,192,116463,1,0,0:0:0:0:
320,192,116542,1,0,0:0:0:0:
192,192,116542,1,0,0:0:0:0:
64,192,116542,1,0,0:0:0:0:
320,192,116621,1,0,0:0:0:0:
192,192,116621,1,0,0:0:0:0:
64,192,116621,1,0,0:0:0:0:
320,192,116700,1,0,0:0:0:0:
192,192,116700,1,0,0:0:0:0:
64,192,116700,1,0,0:0:0:0:
192,192,116779,1,0,0:0:0:0:
320,192,116779,1,0,0:0:0:0:
448,192,116779,1,0,0:0:0:0:
320,192,116936,1,0,0:0:0:0:
192,192,116936,1,0,0:0:0:0:
64,192,116936,1,0,0:0:0:0:
64,192,117094,1,0,0:0:0:0:
192,192,117094,1,0,0:0:0:0:
448,192,117094,1,0,0:0:0:0:
448,192,117173,1,0,0:0:0:0:
192,192,117173,1,0,0:0:0:0:
64,192,117173,1,0,0:0:0:0:
448,192,117252,1,0,0:0:0:0:
64,192,117252,1,0,0:0:0:0:
192,192,117252,1,0,0:0:0:0:
448,192,117331,1,0,0:0:0:0:
192,192,117331,1,0,0:0:0:0:
64,192,117331,1,0,0:0:0:0:
448,192,117410,1,0,0:0:0:0:
64,192,117410,1,0,0:0:0:0:
192,192,117410,1,0,0:0:0:0:
448,192,117489,1,0,0:0:0:0:
192,192,117489,1,0,0:0:0:0:
64,192,117489,1,0,0:0:0:0:
448,192,117568,1,0,0:0:0:0:
64,192,117568,1,0,0:0:0:0:
192,192,117568,1,0,0:0:0:0:
448,192,117647,1,0,0:0:0:0:
192,192,117647,1,0,0:0:0:0:
64,192,117647,1,0,0:0:0:0:
192,192,117726,1,0,0:0:0:0:
320,192,117726,1,0,0:0:0:0:
448,192,117726,1,0,0:0:0:0:
320,192,117883,1,0,0:0:0:0:
192,192,117883,1,0,0:0:0:0:
64,192,117883,1,0,0:0:0:0:
64,192,118041,1,0,0:0:0:0:
320,192,118041,1,0,0:0:0:0:
448,192,118041,1,0,0:0:0:0:
320,192,118120,1,0,0:0:0:0:
448,192,118120,1,0,0:0:0:0:
64,192,118120,1,0,0:0:0:0:
320,192,118199,1,0,0:0:0:0:
448,192,118199,1,0,0:0:0:0:
64,192,118199,1,0,0:0:0:0:
320,192,118278,1,0,0:0:0:0:
448,192,118278,1,0,0:0:0:0:
64,192,118278,1,0,0:0:0:0:
320,192,118357,1,0,0:0:0:0:
448,192,118357,1,0,0:0:0:0:
64,192,118357,1,0,0:0:0:0:
320,192,118436,1,0,0:0:0:0:
448,192,118436,1,0,0:0:0:0:
64,192,118436,1,0,0:0:0:0:
320,192,118515,1,0,0:0:0:0:
448,192,118515,1,0,0:0:0:0:
64,192,118515,1,0,0:0:0:0:
320,192,118594,1,0,0:0:0:0:
448,192,118594,1,0,0:0:0:0:
64,192,118594,1,0,0:0:0:0:
192,192,118673,1,0,0:0:0:0:
64,192,118673,1,0,0:0:0:0:
448,192,118673,1,0,0:0:0:0:
64,192,118830,1,0,0:0:0:0:
320,192,118830,1,0,0:0:0:0:
448,192,118830,1,0,0:0:0:0:
192,192,118988,1,0,0:0:0:0:
320,192,118988,1,0,0:0:0:0:
448,192,118988,1,0,0:0:0:0:
192,192,119067,1,0,0:0:0:0:
320,192,119067,1,0,0:0:0:0:
448,192,119067,1,0,0:0:0:0:
192,192,119146,1,0,0:0:0:0:
320,192,119146,1,0,0:0:0:0:
448,192,119146,1,0,0:0:0:0:
192,192,119225,1,0,0:0:0:0:
320,192,119225,1,0,0:0:0:0:
448,192,119225,1,0,0:0:0:0:
192,192,119304,1,0,0:0:0:0:
448,192,119304,1,0,0:0:0:0:
320,192,119304,1,0,0:0:0:0:
192,192,119383,1,0,0:0:0:0:
448,192,119383,1,0,0:0:0:0:
320,192,119383,1,0,0:0:0:0:
192,192,119462,1,0,0:0:0:0:
320,192,119462,1,0,0:0:0:0:
448,192,119462,1,0,0:0:0:0:
192,192,119541,1,0,0:0:0:0:
320,192,119541,1,0,0:0:0:0:
448,192,119541,1,0,0:0:0:0:
64,192,119620,1,0,0:0:0:0:
320,192,119620,1,0,0:0:0:0:
448,192,119620,1,0,0:0:0:0:
192,192,119777,1,0,0:0:0:0:
64,192,119777,1,0,0:0:0:0:
448,192,119777,1,0,0:0:0:0:
192,192,119935,1,0,0:0:0:0:
320,192,119935,1,0,0:0:0:0:
448,192,119935,1,0,0:0:0:0:
192,192,120014,1,0,0:0:0:0:
320,192,120014,1,0,0:0:0:0:
448,192,120014,1,0,0:0:0:0:
320,192,120093,1,0,0:0:0:0:
192,192,120093,1,0,0:0:0:0:
64,192,120093,1,0,0:0:0:0:
64,192,120172,1,0,0:0:0:0:
192,192,120172,1,0,0:0:0:0:
320,192,120172,1,0,0:0:0:0:
64,192,120251,1,0,0:0:0:0:
320,192,120251,1,0,0:0:0:0:
448,192,120251,1,0,0:0:0:0:
192,192,120408,1,0,0:0:0:0:
64,192,120566,1,0,0:0:0:0:
448,192,120566,1,0,0:0:0:0:
320,192,120724,1,0,0:0:0:0:
448,192,120882,1,0,0:0:0:0:
64,192,120882,1,0,0:0:0:0:
192,192,121040,1,0,0:0:0:0:
320,192,121119,1,0,0:0:0:0:
448,192,121198,1,0,0:0:0:0:
64,192,121198,1,0,0:0:0:0:
192,192,121277,1,0,0:0:0:0:
320,192,121356,1,0,0:0:0:0:
448,192,121435,1,0,0:0:0:0:
64,192,121514,128,0,125303:0:0:0:0:
192,192,121514,128,0,122777:0:0:0:0:
320,192,121514,128,0,123408:0:0:0:0:
448,192,122777,128,0,125303:0:0:0:0:
192,192,123408,128,0,124040:0:0:0:0:
320,192,124040,128,0,125303:0:0:0:0:
192,192,125303,1,0,0:0:0:0:
64,192,129093,1,0,0:0:0:0:
192,192,129093,1,0,0:0:0:0:
320,192,129093,1,0,0:0:0:0:
