osu file format v14

[General]
AudioFilename: audio.mp3
AudioLeadIn: 0
PreviewTime: 90380
Countdown: 0
SampleSet: Soft
StackLeniency: 0.4
Mode: 0
LetterboxInBreaks: 0
WidescreenStoryboard: 0

[Editor]
Bookmarks: 600,67968,90424,112880,146564,180249,225161,247617,275687
DistanceSpacing: 1.7
BeatDivisor: 8
GridSize: 8
TimelineZoom: 2

[Metadata]
Title:World's End Dancehall (ROCKETMAN remix)
TitleUnicode:ワールズエンド・ダンスホール(ROCKETMAN remix)
Artist:wowaka
ArtistUnicode:wowaka
Creator:Skubi
Version:Until the World Ends
Source:
Tags:ヲワカ 現実逃避P escapismP GenjitsutoshiP Vocaloid Miku Hatsune 初音ミク Luka Megurine 巡音ルカ Dance Remix Vol. 1 Drum and Bass DnB Japanese SaltKing Salty SaltyLucario CptSqBany Seulgij 初音ミク -Project DIVA- f
BeatmapID:2271873
BeatmapSetID:1086389

[Difficulty]
HPDrainRate:5.5
CircleSize:4.2
OverallDifficulty:8.5
ApproachRate:9.3
SliderMultiplier:1.8
SliderTickRate:1

[Events]
//Background and Video events
0,0,"betterbg.jpg",0,0
//Break Periods
//Storyboard Layer 0 (Background)
//Storyboard Layer 1 (Fail)
//Storyboard Layer 2 (Pass)
//Storyboard Layer 3 (Foreground)
//Storyboard Layer 4 (Overlay)
//Storyboard Sound Samples

[TimingPoints]
600,350.877192982456,4,2,1,65,1,0
600,-166.666666666667,4,2,1,65,0,0
6214,-133.333333333333,4,2,3,65,0,0
11828,-111.111111111111,4,2,4,75,0,0
34547,-111.111111111111,4,2,7,65,0,0
45512,-111.111111111111,4,2,7,75,0,0
50468,-111.111111111111,4,2,7,5,0,0
50512,-111.111111111111,4,2,7,75,0,0
50819,-111.111111111111,4,2,7,5,0,0
50863,-111.111111111111,4,2,7,75,0,0
56740,-111.111111111111,4,3,4,65,0,0
67968,-111.111111111111,4,2,7,75,0,0
89722,-200,4,2,7,75,0,0
90424,-80,4,2,2,85,0,1
95599,-80,4,2,2,5,0,1
95687,-80,4,2,2,85,0,1
95950,-80,4,2,2,5,0,1
96038,-80,4,2,2,85,0,1
101214,-80,4,2,2,5,0,1
101301,-66.6666666666667,4,2,2,85,0,0
101564,-80,4,2,2,5,0,1
101652,-80,4,2,2,85,0,1
106828,-80,4,2,2,5,0,1
106915,-80,4,2,2,85,0,1
107178,-80,4,2,2,5,0,1
107266,-80,4,2,2,85,0,1
112178,-100,4,2,1,75,0,0
112880,-100,4,3,4,75,0,0
135336,-142.857142857143,4,2,5,55,0,0
146564,-100,4,2,7,65,0,0
156389,-200,4,2,1,35,0,0
156740,-200,4,2,1,45,0,0
157091,-200,4,2,1,55,0,0
157442,-200,4,2,1,65,0,0
157792,-100,4,2,7,75,0,0
177442,-200,4,2,7,75,0,0
179547,-166.666666666667,4,2,7,75,0,0
180249,-80,4,2,2,85,0,1
182968,-80,4,2,2,5,0,1
183056,-80,4,2,2,85,0,1
185424,-80,4,2,2,5,0,1
185512,-80,4,2,2,85,0,1
185775,-80,4,2,2,5,0,1
185863,-80,4,2,2,85,0,1
191126,-80,4,2,2,85,0,0
191477,-80,4,2,2,85,0,1
194196,-80,4,2,2,5,0,1
194284,-80,4,2,2,85,0,1
196652,-80,4,2,2,5,0,1
196740,-80,4,2,2,85,0,1
197003,-80,4,2,2,5,0,1
197091,-80,4,2,2,85,0,1
201301,-100,4,3,2,75,0,1
201915,-80,4,2,2,5,0,1
202003,-100,4,3,2,75,0,1
202266,-80,4,2,2,5,0,1
202354,-100,4,3,2,75,0,1
202617,-80,4,2,2,5,0,1
202705,-133.333333333333,4,2,6,65,0,0
213582,-80,4,2,6,65,0,0
213933,-133.333333333333,4,2,6,65,0,0
224810,-80,4,2,6,65,0,0
225161,-100,4,3,4,75,0,1
225249,-100,4,3,4,75,0,0
236301,-80,4,2,2,5,0,1
236389,-100,4,3,4,85,0,1
247266,-100,4,3,4,75,0,0
247617,-100,4,3,4,85,0,1
258845,-250,4,3,4,75,0,0
259021,-250,4,2,1,25,0,0
268757,-250,4,2,1,5,0,0

[Colours]
Combo1 : 128,255,255
Combo2 : 255,0,128
Combo3 : 0,255,255
Combo4 : 255,128,191

[HitObjects]
349,94,6214,37,8,3:0:0:0:
349,94,6564,1,8,0:0:0:0:
333,178,6740,1,0,0:0:0:0:
261,120,6915,2,0,L|172:140,1,67.5000025749208,0|8,0:0|3:0,0:0:0:0:
51,73,7266,1,8,0:0:0:0:
122,102,7442,1,0,0:0:0:0:
49,213,7617,6,0,P|59:175|55:141,1,67.5000025749208,8|0,3:0|0:0,0:0:0:0:
136,231,7968,2,0,P|134:264|143:296,1,67.5000025749208,8|0,0:0|0:0,0:0:0:0:
277,260,8319,2,0,B|188:248|188:248,1,67.5000025749208,0|8,0:0|3:0,0:0:0:0:
59,299,8670,1,8,0:0:0:0:
250,358,9021,38,0,L|394:335,1,135.000005149842,8|8,3:0|0:0,0:0:0:0:
491,310,9547,1,0,0:0:0:0:
438,198,9722,2,0,L|427:274,2,67.5000025749208,0|8|8,0:0|3:0|0:0,0:0:0:0:
500,125,10249,1,0,0:0:0:0:
355,140,10424,6,0,P|399:118|443:123,1,67.5000025749208,8|0,3:0|0:0,0:0:0:0:
323,219,10775,1,8,0:0:0:0:
265,153,10950,1,0,0:0:0:0:
174,214,11126,2,0,P|218:236|262:231,1,67.5000025749208,0|8,0:0|3:0,0:0:0:0:
415,197,11477,1,8,0:0:0:0:
415,197,11828,6,0,B|410:310|410:310|369:358,1,161.999995056153,4|8,0:0|0:3,0:0:0:0:
253,342,12354,1,0,0:0:0:0:
242,329,12442,1,0,0:0:0:0:
232,316,12529,2,0,L|237:205,1,80.9999975280763,0|8,0:0|0:3,0:0:0:0:
171,122,12880,1,0,3:0:0:0:
310,155,13056,1,0,0:0:0:0:
148,218,13231,6,0,P|102:208|45:219,1,80.9999975280763,4|0,0:3|0:0,0:0:0:0:
0,105,13582,2,0,P|46:115|103:104,1,80.9999975280763,8|0,0:3|0:0,0:0:0:0:
100,104,13845,1,0,0:0:0:0:
114,96,13933,2,0,L|167:104,1,40.4999987640381
293,128,14108,1,8,0:3:0:0:
194,13,14284,2,0,L|153:19,2,40.4999987640381,0|0|0,3:0|0:0|0:0,0:0:0:0:
372,48,14635,38,0,B|459:58|459:58|414:135,1,161.999995056153,4|8,0:3|0:3,0:0:0:0:
351,240,15161,1,0,0:0:0:0:
492,207,15336,1,0,0:0:0:0:
335,151,15512,1,8,0:3:0:0:
425,280,15687,2,0,L|417:376,1,80.9999975280763,0|0,3:0|0:0,0:0:0:0:
264,290,16038,6,0,L|257:209,1,80.9999975280763,4|0,0:3|0:0,0:0:0:0:
214,65,16389,1,8,0:3:0:0:
106,187,16564,1,0,0:0:0:0:
121,183,16652,1,0,0:0:0:0:
136,179,16740,2,0,L|195:191,2,40.4999987640381,0|0|8,0:0|0:0|0:3,0:0:0:0:
46,292,17091,1,0,3:0:0:0:
61,288,17178,1,0,0:0:0:0:
76,284,17266,1,0,0:0:0:0:
253,330,17442,37,4,0:0:0:0:
131,366,17617,1,0,0:0:0:0:
241,243,17792,2,0,L|353:271,1,80.9999975280763,8|0,0:3|0:0,0:0:0:0:
335,258,18056,1,0,0:0:0:0:
350,255,18143,1,0,0:0:0:0:
496,222,18319,1,8,0:3:0:0:
374,145,18494,2,0,L|267:160,1,80.9999975280763,0|0,3:0|0:0,0:0:0:0:
154,193,18845,6,0,P|165:136|154:95,2,80.9999975280763,4|0|8,0:3|0:0|0:3,0:0:0:0:
6,170,19371,1,0,0:0:0:0:
21,165,19459,1,0,0:0:0:0:
36,160,19547,1,0,0:0:0:0:
51,155,19635,1,0,0:0:0:0:
66,151,19722,1,8,0:3:0:0:
163,272,19898,2,0,L|104:264,1,40.4999987640381,0|0,3:0|0:0,0:0:0:0:
37,255,20073,1,0,0:0:0:0:
209,358,20249,38,0,B|252:331|252:331|261:213,1,161.999995056153,4|8,0:3|0:3,0:0:0:0:
268,79,20775,2,0,L|200:96,2,40.4999987640381
413,40,21126,1,8,0:3:0:0:
319,158,21301,1,0,3:0:0:0:
326,7,21477,1,0,0:0:0:0:
408,133,21652,6,0,P|441:138|505:113,1,80.9999975280763,4|0,0:3|0:0,0:0:0:0:
375,269,22003,2,0,P|336:257|296:261,1,80.9999975280763,4|0,0:3|0:0,0:0:0:0:
273,284,22266,2,0,L|286:336,2,40.4999987640381,0|4|0,0:0|0:3|0:0,0:0:0:0:
242,273,22529,1,0,0:0:0:0:
95,353,22705,37,8,0:3:0:0:
121,334,22792,1,0,0:0:0:0:
135,304,22880,1,0,0:0:0:0:
131,271,22968,1,0,0:0:0:0:
114,243,23056,6,0,B|96:216|72:206|72:206|117:163|106:108,1,161.999995056153,4|8,0:0|0:3,0:0:0:0:
3,45,23582,2,0,L|15:146,1,80.9999975280763
184,194,23933,1,8,0:3:0:0:
200,97,24108,2,0,L|212:-4,1,80.9999975280763,0|0,3:0|0:0,0:0:0:0:
312,200,24459,38,0,L|298:30,1,161.999995056153,4|8,0:3|0:3,0:0:0:0:
427,176,24985,1,0,0:0:0:0:
424,200,25073,1,0,0:0:0:0:
420,224,25161,2,0,L|408:293,1,40.4999987640381
463,359,25336,1,8,0:3:0:0:
303,285,25512,2,0,L|254:293,2,40.4999987640381,0|0|0,3:0|0:0|0:0,0:0:0:0:
181,384,25863,6,0,P|210:324|166:225,1,161.999995056153,4|8,0:3|0:3,0:0:0:0:
46,175,26389,1,0,0:0:0:0:
111,314,26564,1,0,0:0:0:0:
111,314,26740,1,8,0:3:0:0:
138,147,26915,2,0,L|119:47,1,80.9999975280763,0|0,3:0|0:0,0:0:0:0:
261,23,27266,38,0,B|238:64|238:64|293:45|367:77,1,161.999995056153,4|8,0:3|0:3,0:0:0:0:
499,149,27792,1,0,0:0:0:0:
475,154,27880,1,0,0:0:0:0:
451,159,27968,1,0,0:0:0:0:
426,162,28056,1,0,0:0:0:0:
402,166,28143,1,8,0:3:0:0:
489,241,28319,2,0,L|482:172,1,40.4999987640381,0|0,3:0|0:0,0:0:0:0:
472,80,28494,1,0,0:0:0:0:
393,248,28670,6,0,B|307:293|309:203|206:264,1,161.999995056153,4|8,0:0|0:3,0:0:0:0:
129,355,29196,2,0,P|207:348|232:333,1,80.9999975280763
120,183,29547,1,8,0:3:0:0:
160,277,29722,1,0,3:0:0:0:
209,130,29898,1,0,0:0:0:0:
45,231,30073,38,0,L|38:111,1,80.9999975280763,4|0,0:3|0:0,0:0:0:0:
144,23,30424,1,8,0:3:0:0:
154,188,30599,1,0,0:0:0:0:
155,212,30687,1,0,0:0:0:0:
157,236,30775,2,0,L|161:295,2,40.4999987640381,0|0|8,0:0|0:0|0:3,0:0:0:0:
249,126,31126,1,0,3:0:0:0:
250,101,31214,1,0,0:0:0:0:
251,77,31301,1,0,0:0:0:0:
406,32,31477,6,0,B|364:52|364:52|397:106|476:92,1,161.999995056153,4|8,0:3|0:3,0:0:0:0:
505,219,32003,2,0,P|437:221|398:206,1,80.9999975280763
283,168,32354,1,8,0:3:0:0:
343,323,32529,2,0,L|336:222,1,80.9999975280763,0|0,3:0|0:0,0:0:0:0:
169,323,32880,5,4,0:3:0:0:
169,323,33231,1,4,0:3:0:0:
169,323,33582,21,4,0:3:0:0:
172,298,33670,1,2,0:0:0:0:
175,274,33757,1,2,0:0:0:0:
178,249,33845,1,2,0:0:0:0:
181,224,33933,5,2,0:0:0:0:
148,233,34021,1,2,0:0:0:0:
120,235,34108,1,2,0:0:0:0:
93,228,34196,1,2,0:0:0:0:
67,218,34284,6,0,L|62:122,1,80.9999975280763,4|0,0:1|0:0,0:0:0:0:
76,128,34547,2,0,L|71:47,1,80.9999975280763,2|0,0:1|0:0,0:0:0:0:
83,39,34810,2,0,B|114:22|114:22|209:44,1,121.499996292114,2|0,0:1|0:0,0:0:0:0:
213,45,35161,1,0,3:0:0:0:
245,130,35336,1,8,0:0:0:0:
281,0,35512,1,0,0:0:0:0:
244,145,35687,6,0,L|236:243,1,80.9999975280763,2|0,3:1|0:0,0:0:0:0:
250,235,35950,2,0,L|242:333,1,80.9999975280763,2|0,0:1|0:0,0:0:0:0:
243,331,36214,2,0,B|307:367|339:299|399:331,1,161.999995056153,2|0,0:1|3:0,0:0:0:0:
512,384,36740,1,8,0:0:0:0:
412,338,36915,1,0,0:0:0:0:
468,240,37091,38,0,L|480:144,1,80.9999975280763,2|0,3:1|0:0,0:0:0:0:
464,148,37354,2,0,L|476:52,1,80.9999975280763,2|0,0:1|0:0,0:0:0:0:
460,56,37617,2,0,L|467:-1,2,40.4999987640381,2|0|0,0:1|0:0|0:0,0:0:0:0:
347,82,37968,1,0,3:0:0:0:
447,66,38143,1,8,0:2:0:0:
347,96,38319,1,0,0:0:0:0:
231,54,38494,6,0,L|124:52,1,80.9999975280763,2|0,3:1|0:0,0:0:0:0:
140,64,38757,2,0,L|33:62,1,80.9999975280763,2|0,0:1|0:0,0:0:0:0:
44,60,39021,2,0,B|0:80|0:140|0:140|0:216,1,161.999995056153,2|0,0:1|3:0,0:0:0:0:
124,260,39547,1,8,0:0:0:0:
1,221,39722,1,0,0:0:0:0:
60,352,39898,38,0,L|168:336,1,80.9999975280763,2|0,3:1|0:0,0:0:0:0:
152,348,40161,2,0,L|249:333,1,80.9999975280763,2|0,0:1|0:0,0:0:0:0:
244,344,40424,2,0,L|254:296,2,40.4999987640381,2|0|0,0:0|0:0|0:0,0:0:0:0:
366,361,40775,1,0,3:0:0:0:
393,241,40950,1,8,0:0:0:0:
273,214,41126,1,0,0:0:0:0:
156,244,41301,6,0,L|148:164,1,80.9999975280763,2|0,3:1|0:0,0:0:0:0:
160,156,41564,2,0,L|152:76,1,80.9999975280763,2|0,0:1|0:0,0:0:0:0:
150,57,41828,2,0,P|204:8|244:80,1,161.999995056153,2|0,0:1|3:0,0:0:0:0:
273,214,42354,1,8,0:0:0:0:
247,81,42529,1,0,0:0:0:0:
276,231,42705,38,0,L|372:244,1,80.9999975280763,2|0,3:1|0:0,0:0:0:0:
364,256,42968,2,0,L|460:269,1,80.9999975280763,2|0,0:1|0:0,0:0:0:0:
452,281,43231,2,0,L|457:321,2,40.4999987640381,2|0|0,0:1|0:0|0:0,0:0:0:0:
493,191,43582,1,8,0:0:0:0:
459,336,43757,1,0,3:0:0:0:
350,234,43933,1,0,0:0:0:0:
392,97,44108,6,0,L|512:81,1,121.499996292114,2|0,3:1|0:0,0:0:0:0:
500,1,44459,2,0,L|380:17,1,121.499996292114,10|0,0:1|0:0,0:0:0:0:
264,105,44810,2,0,L|384:89,1,121.499996292114,2|0,3:1|0:0,0:0:0:0:
368,10,45161,1,10,0:1:0:0:
397,96,45336,1,0,0:0:0:0:
184,56,45512,38,0,L|176:144,1,80.9999975280763,6|0,3:2|0:0,0:0:0:0:
188,148,45775,2,0,L|180:228,1,80.9999975280763,10|0,0:1|0:0,0:0:0:0:
173,277,46038,1,2,3:1:0:0:
176,261,46126,1,0,0:0:0:0:
179,245,46214,1,0,0:0:0:0:
192,360,46389,1,0,3:0:0:0:
307,347,46564,1,8,0:0:0:0:
422,360,46740,1,0,0:0:0:0:
435,245,46915,6,0,L|427:157,1,80.9999975280763,2|0,3:1|0:0,0:0:0:0:
414,154,47178,2,0,L|407:73,1,80.9999975280763,10|0,0:1|0:0,0:0:0:0:
406,57,47442,2,0,B|342:25|310:89|246:57,1,161.999995056153,2|0,3:1|3:0,0:0:0:0:
144,4,47968,2,0,P|168:40|172:88,1,80.9999975280763,8|0,0:0|0:0,0:0:0:0:
56,152,48319,38,0,L|144:144,1,80.9999975280763,2|0,3:1|0:0,0:0:0:0:
148,156,48582,2,0,L|236:148,1,80.9999975280763,10|0,0:1|0:0,0:0:0:0:
280,152,48845,1,2,3:1:0:0:
261,149,48933,1,0,0:0:0:0:
243,146,49021,1,0,0:0:0:0:
292,228,49196,1,0,0:0:0:0:
328,92,49371,1,8,0:0:0:0:
427,191,49547,1,0,0:0:0:0:
364,320,49722,6,0,L|384:317,1,20.2499993820191,2|0,3:1|0:0,0:0:0:0:
243,326,49898,1,0,0:0:0:0:
171,222,50073,38,0,L|150:219,1,20.2499993820191,10|0,0:1|0:0,0:0:0:0:
292,228,50249,1,0,0:0:0:0:
304,229,50336,1,0,0:0:0:0:
316,230,50424,38,0,L|313:209,1,20.2499993820191,2|0,3:1|0:0,0:0:0:0:
426,140,50599,1,0,0:0:0:0:
414,139,50687,1,0,0:0:0:0:
402,138,50775,6,0,L|399:117,1,20.2499993820191,10|0,0:1|0:0,0:0:0:0:
348,30,50950,1,0,3:0:0:0:
336,31,51038,1,0,0:0:0:0:
324,32,51126,6,0,L|244:28,1,80.9999975280763,4|0,3:2|0:0,0:0:0:0:
232,40,51389,2,0,L|152:36,1,80.9999975280763,10|0,0:1|0:0,0:0:0:0:
110,26,51652,1,2,3:1:0:0:
123,30,51740,1,0,0:0:0:0:
136,34,51828,1,0,0:0:0:0:
55,131,52003,1,0,3:0:0:0:
12,12,52178,1,8,0:0:0:0:
59,143,52354,1,0,0:0:0:0:
12,274,52529,38,0,L|92:270,1,80.9999975280763,2|0,3:1|0:0,0:0:0:0:
104,260,52792,2,0,L|184:256,1,80.9999975280763,8|0,0:1|0:1,0:1:0:0:
199,254,53056,2,0,B|240:252|240:252|247:249|247:249|254:251|254:251|312:248|312:248|319:251|319:251|326:247|326:247|377:245,1,161.999995056153,2|0,3:1|3:0,0:0:0:0:
468,280,53582,1,8,0:0:0:0:
372,244,53757,1,0,0:0:0:0:
496,172,53933,6,0,L|497:255,1,80.9999975280763,2|0,3:1|0:0,0:0:0:0:
508,260,54196,2,0,L|509:343,1,80.9999975280763,10|0,0:1|0:0,0:0:0:0:
504,384,54459,1,2,3:1:0:0:
507,371,54547,1,0,0:0:0:0:
510,357,54635,1,0,0:0:0:0:
404,380,54810,1,0,3:0:0:0:
298,357,54985,1,8,0:0:0:0:
192,380,55161,1,0,0:0:0:0:
86,357,55336,6,0,B|66:349|54:333|54:333|66:313|86:309,1,80.9999975280763,0|0,3:0|0:0,0:0:0:0:
200,268,55599,2,0,B|203:289|195:307|195:307|171:307|158:292,1,80.9999975280763,8|0,0:0|0:0,0:0:0:0:
66,214,55863,2,0,B|82:200|102:198|102:198|114:218|107:237,1,80.9999975280763,0|0,3:0|3:0,0:0:0:0:
118,279,56389,5,8,0:3:0:0:
52,64,56740,5,4,0:2:0:0:
156,52,56915,1,0,0:0:0:0:
260,40,57091,1,8,0:0:0:0:
275,144,57266,1,0,0:0:0:0:
249,141,57354,1,0,0:0:0:0:
223,138,57442,1,0,0:0:0:0:
356,76,57617,1,8,0:0:0:0:
382,73,57705,1,0,0:0:0:0:
408,70,57792,1,2,0:0:0:0:
468,168,57968,1,0,0:0:0:0:
426,275,58143,6,0,L|340:264,1,80.9999975280763,4|0,0:0|0:0,0:0:0:0:
224,300,58494,1,8,0:0:0:0:
330,262,58670,1,0,0:0:0:0:
332,280,58757,1,0,0:0:0:0:
334,298,58845,1,0,0:0:0:0:
235,222,59021,1,8,0:0:0:0:
237,204,59108,1,0,0:0:0:0:
239,186,59196,1,2,0:0:0:0:
241,168,59284,1,0,0:0:0:0:
243,150,59371,1,0,0:0:0:0:
304,24,59547,38,0,L|312:104,2,80.9999975280763,4|0|8,0:0|0:0|0:0,0:0:0:0:
192,64,60073,1,0,0:0:0:0:
178,62,60161,1,0,0:0:0:0:
164,60,60249,1,0,0:0:0:0:
44,16,60424,1,8,0:0:0:0:
150,58,60599,1,2,0:0:0:0:
64,132,60775,1,0,0:0:0:0:
100,240,60950,6,0,L|96:284,2,40.4999987640381,4|0|0,0:0|0:0|0:0,0:0:0:0:
184,164,61301,1,8,0:0:0:0:
244,260,61477,1,0,0:0:0:0:
257,258,61564,1,0,0:0:0:0:
270,256,61652,1,0,0:0:0:0:
196,352,61828,1,8,0:0:0:0:
283,254,62003,1,2,0:0:0:0:
296,252,62091,1,0,0:0:0:0:
309,250,62178,1,0,0:0:0:0:
322,248,62266,1,0,0:0:0:0:
335,246,62354,38,0,L|415:233,1,80.9999975280763,4|0,0:0|0:0,0:0:0:0:
512,308,62705,1,8,0:0:0:0:
428,232,62880,1,0,0:0:0:0:
426,217,62968,1,0,0:0:0:0:
424,202,63056,1,0,0:0:0:0:
500,104,63231,1,8,0:0:0:0:
422,187,63407,1,2,0:0:0:0:
328,124,63582,1,0,0:0:0:0:
250,207,63757,6,0,L|169:194,1,80.9999975280763,4|0,0:0|0:0,0:0:0:0:
60,172,64108,1,8,0:0:0:0:
130,56,64284,1,0,0:0:0:0:
131,69,64371,1,0,0:0:0:0:
132,84,64459,1,0,0:0:0:0:
169,194,64635,1,8,0:0:0:0:
168,207,64722,1,0,0:0:0:0:
167,222,64810,1,2,0:0:0:0:
166,235,64898,1,0,0:0:0:0:
165,250,64985,1,0,0:0:0:0:
39,330,65161,38,0,L|123:314,1,80.9999975280763,4|0,0:0|0:0,0:0:0:0:
231,294,65512,1,8,0:0:0:0:
132,312,65687,1,0,0:0:0:0:
244,291,65863,2,0,L|328:275,1,80.9999975280763,0|8,0:0|0:0,0:0:0:0:
392,368,66214,1,2,0:0:0:0:
337,273,66389,1,0,0:0:0:0:
384,172,66564,6,0,L|392:116,1,40.4999987640381,4|0,0:0|0:0,0:0:0:0:
401,63,66740,1,0,0:0:0:0:
512,85,66915,1,0,0:0:0:0:
387,60,67091,1,0,0:0:0:0:
373,57,67178,1,0,0:0:0:0:
359,54,67266,2,0,L|319:46,1,40.4999987640381
225,100,67442,2,0,L|264:107,1,40.4999987640381
200,24,67617,6,0,L|181:20,12,10.1249996910095
185,166,67968,21,6,0:0:0:0:
87,69,68143,1,2,0:0:0:0:
102,73,68231,1,2,0:0:0:0:
117,76,68319,1,8,0:0:0:0:
10,139,68494,2,0,B|-2:49,1,80.9999975280763,2|0,0:0|0:0,0:0:0:0:
124,180,68845,1,0,3:0:0:0:
96,287,69021,1,8,0:0:0:0:
20,213,69196,1,2,0:0:0:0:
189,258,69371,6,0,L|285:253,1,80.9999975280763,2|0,3:1|0:0,0:0:0:0:
276,268,69635,2,0,L|372:263,1,80.9999975280763,10|0,0:1|0:0,0:0:0:0:
370,272,69898,2,0,B|496:266|496:266|427:245,1,161.999995056153,2|2,3:1|0:0,0:0:0:0:
355,175,70424,1,8,0:0:0:0:
484,147,70599,1,0,0:0:0:0:
370,22,70775,38,0,L|364:113,1,80.9999975280763,2|0,3:1|0:0,0:0:0:0:
353,114,71038,2,0,L|347:205,1,80.9999975280763,10|0,0:1|0:0,0:0:0:0:
336,247,71301,1,2,3:1:0:0:
335,230,71389,1,0,3:0:0:0:
334,213,71477,1,0,3:0:0:0:
428,323,71652,1,0,0:0:0:0:
319,353,71828,1,8,0:0:0:0:
220,308,72003,1,2,0:0:0:0:
119,356,72178,6,0,L|110:275,1,80.9999975280763,2|0,3:1|0:0,0:0:0:0:
121,263,72442,2,0,L|112:182,1,80.9999975280763,10|0,0:1|0:0,0:0:0:0:
124,171,72705,2,0,B|118:118|118:118|140:100|140:100|117:87|117:87|107:15,1,161.999995056153,2|2,3:1|0:0,0:0:0:0:
196,149,73231,1,8,0:0:0:0:
44,101,73407,1,0,0:0:0:0:
184,37,73582,38,0,L|264:42,1,80.9999975280763,2|0,3:1|0:0,0:0:0:0:
272,56,73845,2,0,L|352:61,1,80.9999975280763,10|0,0:1|0:0,0:0:0:0:
364,72,74108,1,2,3:2:0:0:
460,79,74284,2,0,L|380:74,1,80.9999975280763,0|2,0:0|0:0,0:0:0:0:
405,183,74635,1,8,0:0:0:0:
512,165,74810,1,2,0:0:0:0:
445,281,74985,6,0,L|365:286,1,80.9999975280763,2|0,3:1|0:0,0:0:0:0:
357,300,75249,2,0,L|277:305,1,80.9999975280763,10|0,0:1|0:0,0:0:0:0:
220,312,75512,1,2,3:2:0:0:
236,313,75599,1,0,3:0:0:0:
255,313,75687,2,0,L|251:249,1,40.4999987640381,0|0,3:0|0:0,0:0:0:0:
111,310,75863,2,0,L|108:350,1,40.4999987640381,2|0,0:0|0:0,0:0:0:0:
242,255,76038,2,0,L|233:141,1,80.9999975280763,8|0,0:0|0:0,0:0:0:0:
89,101,76389,38,0,L|82:181,1,80.9999975280763,2|0,3:1|0:0,0:0:0:0:
68,190,76652,2,0,L|61:270,1,80.9999975280763,10|0,0:1|0:0,0:0:0:0:
48,280,76915,2,0,B|43:337|43:337,2,40.4999987640381,0|0|0,3:1|3:0|3:0,0:0:0:0:
161,357,77266,1,2,0:0:0:0:
266,311,77442,1,8,0:0:0:0:
369,357,77617,1,2,0:0:0:0:
354,227,77792,6,0,P|374:183|417:156,1,80.9999975280763,2|0,3:1|0:0,0:0:0:0:
512,117,78143,2,0,P|468:97|441:54,1,80.9999975280763,10|0,0:1|3:0,0:0:0:0:
441,57,78407,1,0,3:0:0:0:
439,41,78494,2,0,P|376:57|338:51,1,80.9999975280763,2|0,3:1|0:0,0:0:0:0:
221,112,78845,2,0,P|284:128|322:122,1,80.9999975280763,10|0,0:1|0:0,0:0:0:0:
344,207,79108,1,0,0:0:0:0:
321,226,79196,38,2,L|275:231,2,40.4999987640381,6|2|2,3:2|0:2|3:2,0:2:0:0:
395,315,79547,1,8,0:0:0:0:
378,312,79635,1,0,0:0:0:0:
361,310,79722,1,2,0:0:0:0:
345,307,79810,1,0,0:0:0:0:
326,304,79898,2,0,L|259:312,1,40.4999987640381,2|0,0:0|0:0,0:0:0:0:
210,264,80073,2,0,L|143:272,1,40.4999987640381,2|0,0:0|0:0,0:0:0:0:
76,345,80249,2,0,P|88:293|76:239,1,80.9999975280763,10|0,0:0|0:0,0:0:0:0:
9,148,80599,5,0,3:0:0:0:
151,178,80775,1,2,0:0:0:0:
83,57,80950,1,8,0:0:0:0:
84,73,81038,1,0,0:0:0:0:
85,89,81126,1,2,0:0:0:0:
86,105,81214,1,2,0:0:0:0:
87,120,81301,2,0,L|76:190,2,40.4999987640381,2|0|0,0:0|0:0|0:0,0:0:0:0:
213,31,81652,1,8,0:0:0:0:
215,47,81740,1,0,0:0:0:0:
217,63,81828,1,0,0:0:0:0:
369,141,82003,37,2,3:2:0:0:
371,125,82091,1,0,0:0:0:0:
373,109,82178,2,0,L|378:56,1,40.4999987640381,2|0,0:0|0:0,0:0:0:0:
452,195,82354,1,8,0:0:0:0:
280,188,82529,1,2,0:0:0:0:
282,172,82617,1,0,0:0:0:0:
284,156,82705,2,0,L|289:103,1,40.4999987640381,2|0,0:0|0:0,0:0:0:0:
362,237,82880,1,0,3:0:0:0:
236,277,83056,2,0,L|291:269,1,40.4999987640381,8|0,0:0|0:0,0:0:0:0:
390,329,83231,2,0,L|317:329,1,40.4999987640381
201,350,83407,6,0,P|214:292|194:239,1,80.9999975280763,2|0,3:2|0:0,0:0:0:0:
44,251,83757,2,0,P|87:291|143:300,1,80.9999975280763,8|0,0:0|3:0,0:0:0:0:
123,301,84021,1,0,3:0:0:0:
139,301,84108,2,0,P|82:318|46:362,1,80.9999975280763,2|0,3:2|0:0,0:0:0:0:
129,210,84459,2,0,L|137:149,2,40.4999987640381,10|0|0,0:0|0:0|0:0,0:0:0:0:
26,35,84810,37,0,3:0:0:0:
55,174,84985,1,2,0:0:0:0:
136,81,85161,1,8,0:0:0:0:
152,80,85249,1,0,0:0:0:0:
168,79,85336,1,2,0:0:0:0:
184,78,85424,1,2,0:0:0:0:
200,77,85512,1,2,0:0:0:0:
369,112,85687,1,0,3:0:0:0:
259,200,85863,2,0,L|145:208,1,80.9999975280763,8|0,0:0|0:0,0:0:0:0:
251,278,86126,1,2,0:0:0:0:
272,296,86214,6,0,L|346:301,1,40.4999987640381,2|0,3:2|0:0,0:0:0:0:
400,240,86389,1,0,0:0:0:0:
416,238,86477,1,0,0:0:0:0:
432,236,86564,2,0,L|500:230,2,40.4999987640381,10|0|0,0:0|0:0|0:0,0:0:0:0:
360,182,86828,1,2,3:2:0:0:
337,165,86915,2,0,L|332:64,1,80.9999975280763,2|0,3:2|0:0,0:0:0:0:
486,166,87266,1,10,3:2:0:0:
337,56,87529,37,0,3:2:0:0:
332,84,87617,1,2,3:2:0:0:
248,249,87880,5,0,3:2:0:0:
242,221,87968,1,2,3:2:0:0:
217,114,88143,1,2,3:2:0:0:
339,210,88319,1,2,3:2:0:0:
139,181,88626,38,2,L|133:215,1,20.2499993820191,0|2,3:2|3:2,3:2:0:0:
116,320,88845,1,2,3:2:0:0:
56,159,89021,5,2,3:2:0:0:
236,197,89196,1,2,3:2:0:0:
263,203,89284,1,2,3:2:0:0:
290,209,89371,1,2,3:2:0:0:
440,162,89547,1,2,3:2:0:0:
406,336,89722,38,0,P|381:376|370:321,1,135,2|0,3:2|0:0,0:0:0:0:
427,50,90424,22,0,L|440:166,1,112.5,6|0,3:2|0:0,0:0:0:0:
511,262,90775,1,8,0:0:0:0:
392,225,90950,1,8,0:0:0:0:
216,236,91126,2,0,B|280:204|312:284|376:236,1,168.75,2|0,3:2|0:0,0:0:0:0:
392,225,91477,1,8,0:0:0:0:
328,332,91652,1,0,0:0:0:0:
288,148,91828,5,2,3:2:0:0:
328,332,92003,1,2,0:0:0:0:
280,156,92178,1,8,0:0:0:0:
320,340,92354,1,10,0:0:0:0:
156,308,92529,1,2,3:2:0:0:
185,311,92617,1,0,0:0:0:0:
214,314,92705,1,0,0:0:0:0:
80,368,92880,2,0,B|65:261|65:261|60:208|92:184,1,168.75,10|0,0:0|0:0,0:0:0:0:
88,188,93231,37,2,3:2:0:0:
272,200,93407,1,0,0:0:0:0:
160,244,93582,1,8,0:0:0:0:
196,72,93757,1,8,0:0:0:0:
200,104,93845,1,0,0:0:0:0:
204,136,93933,1,2,3:2:0:0:
132,12,94108,1,2,0:0:0:0:
276,44,94284,1,8,0:0:0:0:
140,20,94459,1,0,0:0:0:0:
356,0,94635,6,0,L|348:112,1,112.5,2|0,3:2|0:0,0:0:0:0:
496,172,94985,2,0,L|488:59,1,112.5,10|10,0:0|0:0,0:0:0:0:
269,176,95336,38,0,P|341:214|418:187,1,168.75,2|0,3:2|0:0,0:0:0:0:
416,274,95687,2,0,B|342:235|342:235|263:266,1,168.75,8|0,0:0|0:0,0:0:0:0:
247,276,96038,5,6,3:2:0:0:
337,336,96214,1,0,0:0:0:0:
164,352,96389,2,0,L|176:236,1,112.5,8|8,0:0|0:0,0:0:0:0:
100,112,96740,2,0,P|104:176|32:144,1,168.75,2|0,3:2|0:0,0:0:0:0:
32,132,97091,1,8,0:0:0:0:
88,268,97266,1,0,0:0:0:0:
128,40,97442,37,2,3:2:0:0:
260,116,97617,1,2,0:0:0:0:
164,128,97792,1,8,0:0:0:0:
272,22,97968,1,8,0:0:0:0:
412,80,98143,1,2,3:2:0:0:
415,113,98231,1,0,0:0:0:0:
419,147,98319,1,0,0:0:0:0:
336,284,98494,2,0,B|404:252|436:316|500:284,1,168.75,8|0,0:0|0:0,0:0:0:0:
512,276,98845,5,2,3:2:0:0:
423,181,99021,1,0,0:0:0:0:
376,356,99196,1,8,0:0:0:0:
256,280,99371,1,0,0:0:0:0:
284,284,99459,1,0,0:0:0:0:
312,288,99547,1,2,3:2:0:0:
200,360,99722,1,2,0:0:0:0:
212,205,99898,1,8,0:0:0:0:
340,292,100073,1,10,0:0:0:0:
328,137,100249,38,0,L|212:124,1,112.5,4|2,3:1|0:0,0:0:0:0:
76,220,100599,2,0,L|187:207,1,112.5,8|2,3:2|0:0,0:0:0:0:
368,65,100950,6,0,B|405:84|411:133|411:133|422:249,1,168.75,6|0,3:1|0:0,0:0:0:0:
508,312,101301,38,0,B|448:300|441:243|441:243|430:127,1,202.500007724762,10|0,3:2|0:0,0:0:0:0:
512,14,101652,6,0,L|400:1,1,112.5,6|0,3:2|0:0,0:0:0:0:
265,33,102003,1,8,0:0:0:0:
384,0,102178,1,8,0:0:0:0:
324,141,102354,2,0,B|260:173|228:93|164:141,1,168.75,2|0,3:2|0:0,0:0:0:0:
153,151,102705,1,8,0:0:0:0:
35,130,102880,1,0,0:0:0:0:
103,258,103056,37,2,3:2:0:0:
95,78,103231,1,2,0:0:0:0:
113,271,103407,1,8,0:0:0:0:
107,88,103582,1,10,0:0:0:0:
123,284,103757,1,2,3:2:0:0:
152,287,103845,1,0,0:0:0:0:
181,290,103933,1,0,0:0:0:0:
406,378,104108,2,0,B|298:364|298:364|246:355|231:318,1,168.75,10|0,0:0|0:0,0:0:0:0:
251,263,104459,5,2,3:2:0:0:
133,360,104635,1,0,0:0:0:0:
181,202,104810,1,8,0:0:0:0:
300,333,104985,1,8,0:0:0:0:
332,329,105073,1,0,0:0:0:0:
364,325,105161,1,2,3:2:0:0:
512,384,105336,1,2,0:0:0:0:
459,248,105512,2,0,L|447:125,1,112.5,10|0,0:2|0:0,0:0:0:0:
339,9,105863,38,0,B|331:93|331:93|267:169,1,168.75,2|0,3:2|0:0,0:0:0:0:
266,170,106214,1,10,0:0:0:0:
236,53,106389,1,10,0:0:0:0:
195,300,106564,6,0,B|287:285|287:285|364:297,1,168.75,2|0,3:2|0:0,0:0:0:0:
459,248,106915,2,0,B|366:262|366:262|290:251,1,168.75,10|0,0:0|0:0,0:0:0:0:
278,247,107266,37,6,3:2:0:0:
292,374,107442,1,0,0:0:0:0:
277,231,107617,2,0,L|264:103,1,112.5,8|8,0:0|0:2,0:0:0:0:
115,173,107968,1,2,3:2:0:0:
101,300,108144,1,0,0:0:0:0:
116,157,108319,2,0,L|129:29,1,112.5,8|0,0:0|0:0,0:0:0:0:
255,23,108670,5,0,3:0:0:0:
130,32,108845,1,0,0:0:0:0:
257,35,109021,1,10,0:0:0:0:
132,20,109196,1,8,0:0:0:0:
329,8,109371,1,2,3:2:0:0:
332,41,109459,1,0,0:0:0:0:
336,75,109547,1,0,0:0:0:0:
337,268,109722,2,0,B|369:200|305:168|337:104,1,168.75,8|0,0:0|0:0,0:0:0:0:
343,93,110073,37,2,3:2:0:0:
243,145,110249,1,0,0:0:0:0:
430,227,110424,1,8,0:0:0:0:
325,286,110599,1,10,0:0:0:0:
297,282,110687,1,0,0:0:0:0:
269,278,110775,1,2,3:2:0:0:
125,329,110950,1,2,0:0:0:0:
222,384,111126,1,8,0:0:0:0:
175,219,111301,1,2,0:0:0:0:
237,105,111477,5,6,3:2:0:0:
196,24,111652,1,0,3:2:0:0:
343,112,111828,1,10,3:2:0:0:
373,108,111915,1,0,3:0:0:0:
404,104,112003,1,0,3:0:0:0:
435,100,112091,1,0,3:0:0:0:
465,96,112178,1,6,3:2:0:0:
465,96,112442,38,0,L|468:56,6,30,0|0|0|0|0|0|0,0:3|0:0|0:0|0:0|0:0|0:0|0:0,0:0:0:0:
456,200,112880,6,0,L|348:218,1,90,4|0,0:2|0:0,0:0:0:0:
194,252,113231,1,8,0:3:0:0:
291,329,113407,1,0,0:0:0:0:
298,312,113494,1,0,0:0:0:0:
305,294,113582,2,0,P|293:241|293:174,1,90,0|8,0:0|0:3,0:0:0:0:
123,264,113933,2,0,P|119:308|108:352,1,90,2|0,0:3|0:0,0:0:0:0:
190,179,114284,5,4,0:3:0:0:
37,199,114459,1,0,0:0:0:0:
132,106,114635,1,8,0:3:0:0:
123,264,114810,1,0,0:0:0:0:
46,100,114985,2,0,L|57:10,1,90,0|8,0:0|0:3,0:0:0:0:
245,33,115336,1,2,0:3:0:0:
228,39,115424,1,0,0:0:0:0:
211,45,115512,2,0,L|137:40,1,45
190,179,115687,6,0,P|258:167|296:171,1,90,4|0,0:3|0:0,0:0:0:0:
452,220,116038,1,8,0:3:0:0:
387,57,116214,1,0,0:0:0:0:
387,74,116301,1,0,0:0:0:0:
387,91,116389,1,0,0:0:0:0:
388,109,116477,1,0,0:0:0:0:
389,126,116564,1,8,0:3:0:0:
352,269,116740,1,2,0:3:0:0:
465,146,116915,1,0,0:0:0:0:
475,315,117091,38,0,B|342:304|342:304|287:315,1,180,4|8,0:3|0:3,0:0:0:0:
145,351,117617,1,0,0:0:0:0:
149,333,117705,1,0,0:0:0:0:
153,315,117792,2,0,L|148:234,2,45,0|0|8,0:0|0:0|0:3,0:0:0:0:
60,168,118143,2,0,L|57:230,1,45,2|0,0:3|0:0,0:0:0:0:
51,304,118319,1,0,0:0:0:0:
171,174,118494,6,0,L|161:67,1,90,4|0,0:2|0:0,0:0:0:0:
310,11,118845,2,0,L|301:100,1,90,8|0,0:3|0:0,0:0:0:0:
298,118,119108,1,0,0:0:0:0:
295,135,119196,1,0,0:0:0:0:
441,208,119371,1,8,0:3:0:0:
313,237,119547,1,2,0:3:0:0:
423,105,119722,1,0,0:0:0:0:
303,243,119898,38,0,P|232:263|197:260,1,90,4|0,0:3|0:0,0:0:0:0:
387,311,120249,2,0,P|428:327|473:330,2,90,8|0|0,0:3|0:0|0:0,0:0:0:0:
216,262,120775,1,8,0:3:0:0:
310,361,120950,1,2,0:3:0:0:
350,220,121126,1,0,0:0:0:0:
215,350,121301,6,0,B|159:316|159:316|23:338,1,180,4|8,0:3|0:3,0:0:0:0:
6,207,121828,1,0,0:0:0:0:
22,213,121915,1,0,0:0:0:0:
39,217,122003,2,0,L|110:208,1,45
208,193,122178,1,8,0:3:0:0:
145,50,122354,2,0,L|139:158,1,90,2|0,0:3|0:0,0:0:0:0:
273,94,122705,38,0,P|352:77|391:78,1,90,4|0,0:3|0:0,0:0:0:0:
499,136,123056,1,8,0:3:0:0:
337,186,123231,1,0,0:0:0:0:
478,249,123407,1,0,0:0:0:0:
476,231,123494,1,0,0:0:0:0:
474,213,123582,1,8,0:3:0:0:
472,195,123670,1,0,0:0:0:0:
468,177,123757,2,0,B|405:158|395:219|314:175,1,135,2|0,0:3|0:0,0:0:0:0:
287,106,124108,6,0,L|190:112,1,90,6|0,0:2|0:0,0:0:0:0:
184,98,124371,2,0,L|87:104,1,90,8|0,0:3|0:0,0:0:0:0:
78,94,124635,2,0,B|84:151|52:186|52:186|43:241|85:290,1,180,6|0,0:2|0:0,0:0:0:0:
185,360,125161,1,8,0:0:0:0:
142,210,125336,1,0,0:0:0:0:
296,296,125512,38,0,L|192:276,1,90,4|0,0:3|0:0,0:0:0:0:
272,138,125863,2,0,L|376:118,1,90,8|0,0:3|0:0,0:0:0:0:
505,82,126214,1,0,0:0:0:0:
353,15,126389,1,8,0:3:0:0:
433,159,126564,1,2,0:3:0:0:
431,177,126652,1,0,0:0:0:0:
429,195,126740,1,0,0:0:0:0:
302,309,126915,6,0,B|361:275|361:275|491:302,1,180,4|8,0:3|0:3,0:0:0:0:
377,360,127442,1,0,0:0:0:0:
233,255,127617,2,0,B|115:269,1,90,0|8,0:0|0:3,0:0:0:0:
0,277,127968,1,2,0:3:0:0:
89,373,128143,1,0,0:0:0:0:
68,208,128319,38,0,B|75:82|75:82|101:151,1,180,4|8,0:3|0:3,0:0:0:0:
160,231,128845,1,0,0:0:0:0:
188,82,129021,2,0,L|197:36,2,45,0|0|8,0:0|0:0|0:3,0:0:0:0:
299,183,129371,1,2,0:3:0:0:
160,231,129547,1,0,0:0:0:0:
280,99,129722,6,0,L|378:88,1,90,6|0,0:2|0:0,0:0:0:0:
382,76,129985,2,0,L|480:65,1,90,8|0,0:3|0:0,0:0:0:0:
488,59,130249,2,0,B|477:121|477:121|491:181|491:181|479:237,1,180,6|0,0:2|0:0,0:0:0:0:
454,367,130775,1,8,0:3:0:0:
386,225,130950,1,0,0:0:0:0:
311,354,131126,37,4,0:3:0:0:
419,299,131301,1,0,0:0:0:0:
254,266,131477,2,0,P|188:277|146:273,1,90,8|0,0:3|0:0,0:0:0:0:
46,163,131828,1,0,0:0:0:0:
202,196,132003,1,8,0:3:0:0:
65,293,132178,1,2,0:3:0:0:
62,275,132266,1,0,0:0:0:0:
59,257,132354,1,0,0:0:0:0:
123,81,132529,6,0,B|168:150|93:190|148:260,1,180,4|8,0:3|0:3,0:0:0:0:
224,202,133056,1,0,0:0:0:0:
62,135,133231,2,0,L|-27:126,1,90,0|8,0:0|0:3,0:0:0:0:
202,66,133582,2,0,L|291:57,1,90,2|0,0:3|0:0,0:0:0:0:
433,98,133933,38,0,P|372:85|256:173,1,180,4|8,0:3|0:3,0:0:0:0:
264,155,134371,1,0,0:0:0:0:
258,172,134459,1,0,0:0:0:0:
389,246,134635,2,0,L|379:181,2,45,0|0|8,0:0|0:0|0:3,0:0:0:0:
413,372,134985,1,2,0:3:0:0:
286,301,135161,1,2,0:2:0:0:
269,304,135249,1,2,0:2:0:0:
252,307,135336,5,4,0:0:0:0:
252,307,136038,38,0,P|211:311|181:301,1,62.9999980773926,2|2,0:0|0:0,0:0:0:0:
161,205,136389,2,0,P|184:238|191:269,1,62.9999980773926,2|0,0:0|0:0,0:0:0:0:
106,361,136740,5,2,0:0:0:0:
106,361,137442,1,0,0:0:0:0:
39,287,137617,2,0,P|54:197|57:147,1,125.999996154785,2|0,0:0|0:0,0:0:0:0:
16,70,138143,37,2,0:0:0:0:
16,70,138670,1,0,0:0:0:0:
125,60,138845,1,2,0:0:0:0:
125,60,138933,2,0,P|158:69|176:69,2,47.2499985580445
225,149,139371,1,0,0:0:0:0:
269,58,139547,5,2,0:0:0:0:
282,59,140249,1,0,0:0:0:0:
315,170,140424,1,2,0:0:0:0:
315,170,140950,38,0,L|308:122,2,31.4999990386963,2|0|0,3:2|3:0|3:0,0:0:0:0:
226,197,141301,2,0,L|219:149,2,31.4999990386963,0|0|0,3:0|3:0|3:0,0:0:0:0:
132,221,141652,2,0,L|125:173,2,31.4999990386963,0|0|0,3:0|3:0|3:0,0:0:0:0:
39,246,142003,2,0,L|32:198,2,31.4999990386963,2|0|0,3:2|3:0|3:0,0:0:0:0:
62,344,142354,5,2,0:0:0:0:
62,344,143056,1,0,0:0:0:0:
154,312,143231,2,0,P|218:341|278:335,1,125.999996154785,2|0,0:0|0:0,0:0:0:0:
232,232,143757,38,0,L|239:184,2,31.4999990386963,2|0|0,3:2|3:0|3:0,0:0:0:0:
321,259,144108,2,0,L|328:211,2,31.4999990386963,0|0|0,3:0|3:0|3:0,0:0:0:0:
415,283,144459,2,0,L|422:235,2,31.4999990386963,0|0|0,3:0|3:0|3:0,0:0:0:0:
508,308,144810,2,0,L|515:260,2,31.4999990386963,2|0|0,3:2|3:0|3:0,0:0:0:0:
443,379,145161,5,2,0:0:0:0:
443,379,145863,1,0,0:0:0:0:
419,240,146038,1,2,0:0:0:0:
512,0,146564,38,0,L|500:120,1,90,6|0,3:2|0:0,0:0:0:0:
492,96,146828,2,0,L|480:216,1,90,10|0,0:1|0:0,0:0:0:0:
488,228,147091,1,2,3:1:0:0:
485,213,147178,1,0,0:0:0:0:
481,198,147266,1,0,0:0:0:0:
444,340,147442,1,0,3:0:0:0:
369,245,147617,1,8,0:0:0:0:
511,302,147792,1,0,0:0:0:0:
316,348,147968,6,0,L|332:196,2,135,2|10|2,3:1|0:0|3:1,0:0:0:0:
314,360,148582,1,0,3:0:0:0:
312,372,148670,1,0,3:0:0:0:
252,240,148845,1,0,3:0:0:0:
167,357,149021,1,8,0:0:0:0:
107,225,149196,1,0,0:0:0:0:
192,108,149371,38,0,L|296:96,1,90,2|0,3:1|0:0,0:0:0:0:
292,104,149635,2,0,L|396:92,1,90,10|0,0:1|0:0,0:0:0:0:
400,44,149898,1,2,0:1:0:0:
396,66,149985,1,0,0:0:0:0:
392,88,150073,1,0,0:0:0:0:
512,4,150249,1,0,3:0:0:0:
404,100,150424,1,8,0:0:0:0:
512,4,150599,1,0,0:0:0:0:
496,148,150775,6,0,L|500:256,1,90,2|0,3:1|0:0,0:0:0:0:
492,248,151038,2,0,L|496:356,1,90,10|0,0:1|0:0,0:0:0:0:
504,384,151301,1,2,3:1:0:0:
500,370,151389,1,0,3:0:0:0:
496,356,151477,1,0,3:0:0:0:
416,246,151652,1,0,3:0:0:0:
346,382,151828,1,8,0:0:0:0:
350,368,151915,1,0,0:0:0:0:
354,354,152003,1,0,0:0:0:0:
416,156,152178,38,0,L|292:168,1,90,2|0,3:1|0:0,0:0:0:0:
316,172,152442,2,0,L|192:184,1,90,10|0,0:1|0:0,0:0:0:0:
216,188,152705,1,2,3:1:0:0:
76,164,152880,1,0,0:0:0:0:
208,196,153056,1,0,3:0:0:0:
28,236,153231,1,8,0:0:0:0:
72,84,153407,1,0,0:0:0:0:
104,304,153582,6,0,L|236:312,1,90,2|0,3:1|0:0,0:0:0:0:
204,316,153845,2,0,L|336:324,1,90,10|0,0:1|0:0,0:0:0:0:
312,348,154108,1,2,3:1:0:0:
308,337,154196,1,0,3:0:0:0:
304,328,154284,1,0,3:0:0:0:
364,196,154459,1,0,3:0:0:0:
452,308,154635,1,8,0:0:0:0:
364,196,154810,1,0,0:0:0:0:
304,60,154985,38,0,L|300:184,1,90,2|0,3:1|0:0,0:0:0:0:
292,156,155249,2,0,L|288:280,1,90,10|0,0:1|0:0,0:0:0:0:
284,256,155512,2,0,P|232:280|212:216,1,135,2|0,3:1|0:0,0:0:0:0:
216,212,155863,1,0,3:0:0:0:
364,244,156038,1,8,0:0:0:0:
216,212,156214,1,0,0:0:0:0:
72,252,156389,6,0,L|63:187,1,45,2|0,0:1|0:0,0:0:0:0:
64,195,156740,2,0,L|55:130,1,45,2|0,0:1|0:0,0:0:0:0:
56,138,157091,2,0,L|47:73,1,45,2|0,0:1|0:0,0:0:0:0:
48,80,157442,2,0,L|38:8,1,67.5,2|0,0:1|0:0,0:0:0:0:
36,0,157792,37,6,3:2:0:0:
197,76,157968,1,0,0:0:0:0:
208,84,158056,2,0,L|312:80,1,90,10|0,0:1|0:0,0:0:0:0:
308,88,158319,2,0,B|386:85|386:85|424:84|448:108,1,135,2|0,0:1|0:0,0:0:0:0:
448,110,158670,1,0,3:0:0:0:
364,224,158845,1,8,0:0:0:0:
505,240,159021,1,2,0:0:0:0:
421,354,159196,6,0,B|360:379|360:379|272:368,1,135,2|2,3:1|0:1,0:0:0:0:
280,368,159547,1,8,0:0:0:0:
192,200,159722,2,0,L|208:368,1,135,2|0,3:1|0:0,0:0:0:0:
204,376,160073,1,2,3:2:0:0:
205,361,160161,1,0,3:0:0:0:
206,346,160249,1,8,0:0:0:0:
272,200,160424,1,0,0:0:0:0:
273,185,160512,1,0,0:0:0:0:
274,170,160599,38,0,L|387:163,1,90,2|0,3:1|0:0,0:0:0:0:
372,156,160863,2,0,L|485:149,1,90,10|0,0:1|0:0,0:0:0:0:
500,152,161126,1,2,3:1:0:0:
487,150,161214,1,0,3:0:0:0:
474,149,161301,1,0,3:0:0:0:
344,84,161477,1,0,3:0:0:0:
384,236,161652,1,8,0:0:0:0:
344,84,161828,1,2,0:0:0:0:
308,288,162003,6,0,L|194:281,1,90,2|0,3:1|0:0,0:0:0:0:
210,274,162266,2,0,L|96:267,1,90,10|0,0:1|0:0,0:0:0:0:
109,267,162529,2,0,P|48:236|64:324,1,180,2|0,3:1|0:0,0:0:0:0:
164,352,163056,1,8,0:0:0:0:
152,353,163143,1,0,0:0:0:0:
140,354,163231,1,0,0:0:0:0:
276,360,163407,38,0,L|389:366,1,90,2|0,3:1|0:0,0:0:0:0:
374,374,163670,2,0,L|487:380,1,90,10|0,0:1|0:0,0:0:0:0:
475,381,163933,2,0,L|469:243,1,135,2|0,3:1|0:0,0:0:0:0:
469,235,164284,1,0,3:0:0:0:
428,108,164459,1,8,0:0:0:0:
512,0,164635,1,2,0:0:0:0:
416,106,164810,6,0,L|318:101,1,90,2|0,3:1|0:0,0:0:0:0:
316,92,165073,2,0,L|218:87,1,90,10|0,0:1|0:0,0:0:0:0:
216,78,165336,2,0,B|129:73|129:73|72:72|40:112,1,180,2|2,3:1|0:2,0:0:0:0:
168,304,165863,2,0,P|176:260|156:172,1,135,8|0,0:0|0:0,0:0:0:0:
112,160,166214,37,2,3:1:0:0:
124,161,166301,1,0,0:0:0:0:
136,163,166389,1,0,0:0:0:0:
240,80,166564,1,8,0:1:0:0:
272,240,166740,1,2,3:2:0:0:
273,228,166828,1,0,0:0:0:0:
274,216,166915,1,0,0:0:0:0:
328,340,167091,1,2,3:2:0:0:
200,296,167266,1,8,0:0:0:0:
328,340,167442,1,2,0:0:0:0:
464,332,167617,6,0,L|476:192,1,135,2|0,3:2|0:0,3:0:0:0:
476,184,167968,1,10,0:1:0:0:
487,49,168143,1,2,3:2:0:0:
486,65,168231,1,2,0:2:0:0:
485,81,168319,1,2,3:2:0:0:
484,97,168407,1,2,3:2:0:0:
483,113,168494,1,2,3:2:0:0:
400,8,168670,2,0,L|256:0,1,135,8|0,0:0|0:0,0:0:0:0:
180,20,169021,37,6,3:2:0:0:
196,32,169108,1,0,0:0:0:0:
208,52,169196,1,0,0:0:0:0:
216,72,169284,1,0,0:0:0:0:
220,92,169371,2,0,L|216:144,3,45,10|0|0|0,0:0|0:0|0:0|0:0,0:0:0:0:
229,187,169722,5,2,3:2:0:0:
239,200,169810,2,0,L|339:192,1,90,2|0,0:2|0:0,0:0:0:0:
308,280,170073,1,8,0:0:0:0:
284,276,170161,1,0,0:0:0:0:
260,272,170249,1,0,0:0:0:0:
60,292,170424,37,2,3:2:0:0:
80,284,170512,1,2,0:2:0:0:
96,268,170599,1,2,0:2:0:0:
108,248,170687,1,0,0:0:0:0:
112,224,170775,2,0,L|112:176,1,45,8|0,0:0|0:0,0:0:0:0:
184,260,170950,2,0,L|184:305,1,45
260,368,171126,5,2,0:2:0:0:
280,376,171214,1,2,0:2:0:0:
304,380,171301,1,2,3:2:0:0:
328,380,171389,1,0,0:0:0:0:
352,364,171477,37,8,0:0:0:0:
350,357,171564,1,0,0:0:0:0:
349,350,171652,1,0,0:0:0:0:
372,62,171828,6,0,L|369:106,1,45,2|0,3:2|0:0,0:0:0:0:
362,227,172003,2,0,L|365:182,1,45,2|0,3:2|0:0,0:0:0:0:
373,50,172178,1,10,0:0:0:0:
473,150,172354,38,0,L|389:146,1,45,2|0,3:2|0:0,0:0:0:0:
262,139,172529,2,0,L|307:142,1,45,2|0,3:2|0:0,0:0:0:0:
485,150,172705,1,2,3:2:0:0:
284,220,172880,5,8,0:0:0:0:
255,218,172968,1,0,0:0:0:0:
227,216,173056,1,0,0:0:0:0:
199,215,173143,1,0,0:0:0:0:
171,213,173231,38,0,L|154:114,1,90,2|0,3:2|0:0,0:0:0:0:
309,115,173582,1,8,0:0:0:0:
262,291,173757,1,2,0:2:0:0:
236,289,173845,1,2,0:2:0:0:
212,288,173933,1,2,3:2:0:0:
89,378,174108,1,0,3:0:0:0:
12,256,174284,2,0,L|9:187,1,45,8|0,0:0|0:0,0:0:0:0:
8,160,174459,2,0,L|5:91,1,45
4,64,174635,5,6,0:2:0:0:
6,42,174722,1,2,0:2:0:0:
8,20,174810,1,2,0:2:0:0:
116,96,174985,37,8,0:0:0:0:
118,118,175073,1,0,0:0:0:0:
120,140,175161,1,0,0:0:0:0:
122,162,175249,1,0,0:0:0:0:
124,184,175336,2,0,P|136:228|152:248,1,45,2|0,0:0|0:0,0:0:0:0:
252,192,175512,2,0,P|207:180|182:184,1,45,2|0,3:2|0:0,0:0:0:0:
212,266,175687,1,10,0:0:0:0:
244,112,175950,1,0,0:0:0:0:
264,80,176038,5,2,3:2:0:0:
283,78,176126,1,2,0:2:0:0:
300,76,176214,2,0,L|344:71,1,45,2|0,0:2|0:0,0:0:0:0:
508,148,176389,37,8,0:0:0:0:
489,146,176477,1,0,0:0:0:0:
472,144,176564,1,0,0:0:0:0:
453,142,176652,1,0,0:0:0:0:
436,140,176740,2,0,L|391:135,1,45,2|0,3:2|0:0,0:0:0:0:
440,256,176915,2,0,L|466:219,1,45,2|0,3:2|0:0,0:0:0:0:
344,224,177091,1,10,0:2:0:0:
208,356,177354,1,0,3:0:0:0:
176,384,177442,6,0,L|92:380,1,67.5,2|0,3:2|0:0,0:0:0:0:
72,376,177792,1,2,3:2:0:0:
56,292,177968,1,0,0:0:0:0:
40,188,178143,38,0,L|124:184,1,78.75,2|0,3:2|0:0,0:0:0:0:
144,184,178494,1,2,3:2:0:0:
160,100,178670,1,0,0:0:0:0:
144,0,178845,5,2,3:2:0:0:
228,156,179021,1,2,3:2:0:0:
252,160,179108,1,2,3:2:0:0:
276,164,179196,1,2,3:2:0:0:
360,320,179371,1,2,3:2:0:0:
404,95,179547,38,0,B|405:43|448:39|448:39|489:51|481:105,1,161.999995056153,2|0,3:2|0:0,0:0:0:0:
447,296,180249,22,0,L|436:172,1,112.5,6|0,3:2|0:0,0:0:0:0:
281,98,180599,1,8,0:0:0:0:
331,251,180775,1,8,0:0:0:0:
404,95,180950,2,0,P|325:97|277:121,1,112.5,2|0,3:2|0:0,0:0:0:0:
181,236,181301,1,8,0:0:0:0:
198,86,181477,1,2,0:0:0:0:
85,240,181652,5,0,3:0:0:0:
274,196,181828,1,2,0:0:0:0:
121,115,182003,2,0,L|7:132,1,112.5,8|2,0:0|3:2,0:0:0:0:
29,159,182266,1,2,3:2:0:0:
48,186,182354,1,2,3:2:0:0:
67,213,182442,1,2,0:2:0:0:
85,240,182529,1,2,3:2:0:0:
169,356,182705,2,0,B|193:326|193:326|58:340,1,168.75,8|0,0:0|0:0,0:0:0:0:
85,240,183056,38,0,B|61:270|61:270|196:256,1,168.75,2|0,3:2|0:0,0:0:0:0:
207,255,183407,1,8,0:0:0:0:
344,351,183582,1,0,0:0:0:0:
420,254,183757,2,0,L|309:267,1,112.5,2|0,3:2|0:0,0:0:0:0:
222,154,184108,1,8,0:0:0:0:
255,158,184196,1,0,0:0:0:0:
288,164,184284,1,0,0:0:0:0:
470,71,184459,5,2,3:2:0:0:
320,170,184635,1,0,3:0:0:0:
351,39,184810,1,10,0:0:0:0:
435,200,184985,2,0,L|428:265,1,56.25,2|2,3:2|0:2,0:0:0:0:
237,109,185161,38,0,B|320:73|309:140|402:103,1,168.75,10|0,3:2|0:0,0:0:0:0:
283,176,185512,2,0,B|228:189|228:189|173:153|119:181,1,168.75,4|0,3:0|0:0,0:0:0:0:
170,254,185863,6,0,P|192:298|178:365,1,112.5,6|0,3:2|0:0,0:0:0:0:
59,254,186214,1,8,0:0:0:0:
168,139,186389,1,8,0:0:0:0:
31,60,186564,2,0,L|28:186,1,112.5,2|0,3:2|0:0,0:0:0:0:
243,102,186915,1,8,0:0:0:0:
117,77,187091,1,2,0:0:0:0:
274,218,187266,37,0,3:0:0:0:
362,75,187442,1,2,3:2:0:0:
385,190,187617,1,8,0:0:0:0:
242,101,187792,1,2,3:2:0:0:
449,124,187968,2,0,P|471:180|453:250,1,112.5,2|0,3:2|0:0,0:0:0:0:
299,312,188319,2,0,P|291:256|313:205,1,112.5,8|0,0:0|0:0,0:0:0:0:
442,341,188670,5,2,3:2:0:0:
442,341,188845,1,0,0:0:0:0:
390,188,189021,1,8,0:0:0:0:
307,331,189196,1,2,3:2:0:0:
273,324,189284,1,0,0:0:0:0:
240,317,189371,1,0,3:0:0:0:
148,183,189547,1,0,3:0:0:0:
43,297,189722,2,0,L|159:277,1,112.5,8|2,0:0|0:0,0:0:0:0:
255,152,190073,37,0,3:0:0:0:
91,121,190249,1,2,3:2:0:0:
233,236,190424,1,8,0:0:0:0:
258,67,190599,1,2,3:2:0:0:
145,224,190775,5,2,3:2:0:0:
149,251,190863,1,2,3:2:0:0:
153,277,190950,1,2,3:2:0:0:
335,179,191126,2,0,L|352:18,1,112.5,8|0,3:2|3:0,0:0:0:0:
419,26,191389,1,2,0:0:0:0:
437,75,191477,38,0,L|421:222,1,112.5,4|0,3:2|0:0,0:0:0:0:
370,345,191828,1,8,0:0:0:0:
512,258,192003,1,8,0:0:0:0:
351,337,192178,1,2,3:2:0:0:
493,250,192354,1,2,3:2:0:0:
462,371,192529,1,8,0:0:0:0:
372,223,192705,1,8,0:0:0:0:
244,334,192880,6,0,L|307:336,2,56.25,2|0|0,3:2|0:0|3:0,0:0:0:0:
77,362,193231,1,8,0:0:0:0:
155,212,193407,1,2,3:2:0:0:
151,245,193494,1,2,0:2:0:0:
148,278,193582,1,2,3:2:0:0:
71,131,193757,1,0,3:0:0:0:
236,167,193933,2,0,B|324:189|324:189|292:89,1,168.75,8|0,0:0|0:0,0:0:0:0:
439,60,194284,38,0,B|351:38|351:38|383:138,1,168.75,2|0,3:2|0:0,0:0:0:0:
380,128,194635,1,8,0:0:0:0:
432,283,194810,1,2,3:2:0:0:
448,253,194898,1,0,0:0:0:0:
463,223,194985,2,0,L|478:352,1,112.5,2|0,3:2|0:0,0:0:0:0:
291,384,195336,2,0,L|303:272,1,112.5,8|0,0:0|0:0,0:0:0:0:
329,84,195687,5,2,3:2:0:0:
305,259,195863,1,2,3:2:0:0:
400,179,196038,1,8,0:0:0:0:
225,155,196214,2,0,L|146:169,1,56.25,2|0,3:2|3:0,0:0:0:0:
41,201,196389,38,0,P|13:158|98:158,1,168.75,10|0,0:0|0:0,0:0:0:0:
114,226,196740,2,0,B|140:260|140:260|122:306|122:306|76:303|76:303|48:270|48:270,1,168.75,4|0,0:3|0:0,0:0:0:0:
169,164,197091,6,0,L|253:277,1,112.5,6|0,3:2|0:0,0:0:0:0:
364,366,197442,1,8,0:0:0:0:
394,204,197617,1,8,0:0:0:0:
380,361,197792,1,2,3:2:0:0:
410,199,197968,1,2,3:2:0:0:
309,265,198143,1,8,0:0:0:0:
471,295,198319,1,8,0:0:0:0:
326,182,198494,38,0,P|264:191|202:191,1,112.5,2|0,3:2|0:0,0:0:0:0:
50,130,198845,1,8,0:0:0:0:
130,274,199021,1,8,0:0:0:0:
151,113,199196,2,0,L|166:-5,1,112.5,2|2,3:2|3:2,0:0:0:0:
28,151,199547,2,0,L|42:262,1,112.5,8|0,0:0|0:0,0:0:0:0:
157,354,199898,5,2,3:2:0:0:
167,216,200073,1,0,0:0:0:0:
278,297,200249,2,0,P|333:306|406:293,1,112.5,8|0,0:0|0:0,0:0:0:0:
506,172,200599,1,2,3:2:0:0:
361,217,200775,1,0,3:0:0:0:
417,116,200950,1,8,0:0:0:0:
462,261,201126,1,0,3:0:0:0:
329,134,201301,38,0,P|333:84|378:42,1,90,10|0,3:0|0:0,0:0:0:0:
254,146,201564,2,0,P|295:174|309:234,1,90,8|0,0:0|0:0,0:0:0:0:
280,76,201828,2,0,P|234:97|201:92,1,45,8|0,0:0|0:0,0:0:0:0:
141,44,202003,6,0,B|133:215,1,135,10|0,0:0|0:0,0:0:0:0:
132,198,202354,2,0,B|146:149|146:149|125:117|125:117|145:61,1,135,2|0,0:1|0:0,0:0:0:0:
231,34,202705,6,0,B|272:19|272:19|382:44,1,135.000005149842,4|2,0:0|1:2,0:0:0:0:
438,62,203231,1,0,0:0:0:0:
440,212,203407,2,0,B|421:172|421:172|436:60,1,135.000005149842,8|0,0:0|0:0,0:0:0:0:
504,161,203933,1,2,0:0:0:0:
477,285,204108,5,0,1:0:0:0:
395,280,204284,1,0,0:0:0:0:
335,336,204459,1,2,1:2:0:0:
253,331,204635,1,2,0:2:0:0:
199,267,204810,37,10,0:0:0:0:
58,319,205161,2,0,L|125:314,1,67.5000025749208,2|0,0:0|0:0,0:0:0:0:
199,267,205512,6,0,L|210:131,1,135.000005149842,2|2,1:2|1:2,0:0:0:0:
216,48,206038,1,0,0:0:0:0:
264,189,206214,2,0,P|201:210|144:176,1,135.000005149842,10|0,0:0|0:0,0:0:0:0:
210,132,206740,1,2,1:2:0:0:
276,276,206915,37,2,1:2:0:0:
356,284,207091,1,0,0:0:0:0:
448,184,207266,1,2,1:2:0:0:
368,192,207442,1,0,0:0:0:0:
276,276,207617,6,0,L|356:284,1,67.5000025749208,10|0,0:0|0:0,0:0:0:0:
448,184,207968,2,0,L|368:192,1,67.5000025749208
352,304,208319,38,0,L|213:290,1,135.000005149842,2|10,1:2|0:0,0:0:0:0:
136,276,208845,1,0,0:0:0:0:
64,360,209021,2,0,L|48:201,1,135.000005149842,10|2,0:0|0:0,0:0:0:0:
43,144,209547,1,0,1:0:0:0:
136,276,209722,5,0,1:0:0:0:
144,196,209898,1,8,0:0:0:0:
224,176,210073,1,2,1:2:0:0:
216,96,210249,1,0,0:0:0:0:
136,76,210424,37,8,0:0:0:0:
289,129,210775,2,0,L|387:119,1,67.5000025749208,2|0,0:2|0:0,0:0:0:0:
439,65,211126,6,0,L|425:199,1,135.000005149842,0|0,1:0|1:0,0:0:0:0:
418,281,211652,1,2,0:0:0:0:
356,122,211828,2,0,L|342:256,1,135.000005149842,10|2,0:0|0:0,0:0:0:0:
335,338,212354,1,0,1:0:0:0:
166,354,212529,37,0,1:0:0:0:
250,346,212705,1,2,0:0:0:0:
148,260,212880,1,0,1:0:0:0:
64,251,213056,1,2,0:0:0:0:
166,354,213231,6,0,L|250:347,1,67.5000025749208,10|0,0:0|0:0,0:0:0:0:
64,251,213582,6,0,L|181:260,1,112.5,10|0,0:0|0:0,0:0:0:0:
194,263,213845,1,0,1:0:0:0:
211,265,213933,38,0,B|244:236|244:236|256:116,1,135.000005149842,4|2,1:2|0:0,0:0:0:0:
263,63,214459,1,2,0:0:0:0:
364,122,214635,2,0,B|331:151|331:151|319:271,1,135.000005149842,8|0,0:0|0:0,0:0:0:0:
313,325,215161,1,2,1:2:0:0:
477,382,215336,37,2,1:2:0:0:
512,314,215512,1,0,0:0:0:0:
458,257,215687,1,2,1:2:0:0:
389,292,215863,1,2,1:2:0:0:
399,369,216038,5,8,0:0:0:0:
236,356,216389,2,0,L|138:348,1,67.5000025749208,2|0,0:0|0:0,0:0:0:0:
73,343,216740,38,0,B|99:313|99:313|85:187,1,135.000005149842,0|2,1:2|1:2,0:0:0:0:
81,136,217266,1,2,0:0:0:0:
0,39,217442,5,8,0:0:0:0:
82,146,217617,1,0,0:0:0:0:
234,80,217792,2,0,L|316:74,1,67.5000025749208,2|0,0:0|1:0,0:0:0:0:
415,95,218143,38,0,B|346:100|346:100|305:105|285:133,1,135.000005149842,2|2,1:2|1:2,0:0:0:0:
249,201,218670,1,0,0:0:0:0:
358,254,218845,2,0,L|353:187,1,67.5000025749208,10|0,0:0|0:0,0:0:0:0:
445,238,219196,2,0,L|439:305,1,67.5000025749208,2|0,0:0|0:0,0:0:0:0:
359,370,219547,6,0,P|329:358|289:352,1,67.5000025749208,0|0,1:0|0:0,0:0:0:0:
212,347,219898,2,0,P|180:351|142:366,1,67.5000025749208,10|0,0:0|0:0,0:0:0:0:
28,361,220249,2,0,P|53:341|78:309,1,67.5000025749208,8|0,0:0|0:0,0:0:0:0:
121,246,220599,2,0,P|133:215|139:175,1,67.5000025749208,2|0,0:0|0:0,0:0:0:0:
201,79,220950,37,0,1:0:0:0:
223,157,221126,1,10,0:0:0:0:
262,228,221301,1,0,1:0:0:0:
325,279,221477,1,10,0:0:0:0:
402,304,221652,6,0,L|482:300,1,67.5000025749208,8|0,0:0|0:0,0:0:0:0:
512,384,222003,2,0,L|444:380,1,67.5000025749208,2|0,1:2|0:0,0:0:0:0:
512,224,222354,37,2,3:0:0:0:
444,380,222880,5,0,0:0:0:0:
512,224,223056,1,2,3:0:0:0:
444,380,223582,37,0,0:0:0:0:
512,224,223757,1,2,3:0:0:0:
356,156,223933,1,8,3:0:0:0:
288,312,224108,1,2,3:2:0:0:
316,300,224196,1,8,3:2:0:0:
344,289,224284,1,8,3:2:0:0:
372,278,224371,1,8,3:2:0:0:
400,267,224459,1,8,3:2:0:0:
400,267,224810,6,0,L|421:217,6,28.125,0|0|0|0|0|0|0,3:0|3:0|3:0|3:0|3:0|3:0|3:0,3:0:0:0:
493,244,225161,38,0,L|476:120,1,90,4|0,0:2|0:0,0:0:0:0:
382,48,225512,2,0,L|369:137,1,90,8|0,0:3|0:0,0:0:0:0:
172,158,225863,1,0,0:0:0:0:
290,72,226038,1,8,0:3:0:0:
191,56,226214,1,2,0:3:0:0:
277,174,226389,1,0,0:0:0:0:
143,239,226564,6,0,P|98:224|43:222,1,90,4|0,0:3|0:0,0:0:0:0:
144,354,226915,1,8,0:0:0:0:
247,264,227091,1,0,0:0:0:0:
264,261,227178,1,0,0:0:0:0:
280,258,227266,2,0,L|401:281,1,90,0|8,0:0|0:0,0:0:0:0:
482,187,227617,1,2,0:0:0:0:
464,191,227705,1,0,0:0:0:0:
446,195,227792,1,0,0:0:0:0:
368,46,227968,38,0,P|377:132|373:168,1,90,4|0,0:0|0:0,0:0:0:0:
230,193,228319,2,0,P|230:148|238:103,1,90,8|0,0:0|0:0,0:0:0:0:
245,87,228582,1,0,0:0:0:0:
254,71,228670,1,0,0:0:0:0:
108,163,228845,1,8,0:0:0:0:
146,22,229021,1,2,0:0:0:0:
238,103,229196,1,0,0:0:0:0:
107,201,229371,6,0,L|0:191,1,90,4|0,0:0|0:0,0:0:0:0:
96,364,229722,1,8,0:0:0:0:
204,262,229898,1,0,0:0:0:0:
221,260,229985,1,0,0:0:0:0:
240,258,230073,1,0,0:0:0:0:
259,257,230161,1,0,0:0:0:0:
278,256,230249,1,8,0:0:0:0:
394,345,230424,2,0,L|477:359,2,45,2|0|0,0:0|0:0|0:0,0:0:0:0:
380,216,230775,38,0,B|501:235|501:235|445:162,1,180,4|8,0:0|0:0,0:0:0:0:
396,89,231301,1,0,0:0:0:0:
291,183,231477,2,0,P|216:176|173:157,1,90,0|8,0:0|0:0,0:0:0:0:
186,162,231740,1,0,0:0:0:0:
169,153,231828,2,0,P|125:141|80:141,1,90,2|0,0:0|0:0,0:0:0:0:
126,314,232178,6,0,L|115:224,1,90,4|0,0:0|0:0,0:0:0:0:
200,80,232529,1,8,0:0:0:0:
247,222,232705,2,0,L|241:289,2,45
305,51,233056,1,8,0:0:0:0:
353,190,233231,1,2,0:0:0:0:
205,117,233407,1,0,0:0:0:0:
385,90,233582,38,0,P|451:104|490:108,1,90,4|0,0:0|0:0,0:0:0:0:
413,257,233933,2,0,P|347:271|308:275,1,90,8|0,0:0|0:0,0:0:0:0:
306,275,234196,1,0,0:0:0:0:
287,275,234284,1,0,0:0:0:0:
138,240,234459,1,8,0:0:0:0:
241,350,234635,1,2,0:0:0:0:
208,170,234810,2,0,L|217:249,1,45
101,311,234985,6,0,L|112:207,1,90,4|0,0:0|0:0,0:0:0:0:
72,68,235336,1,8,0:0:0:0:
88,74,235424,1,0,0:0:0:0:
104,81,235512,1,0,0:0:0:0:
119,88,235599,1,0,0:0:0:0:
135,94,235687,2,0,L|211:82,2,45,0|0|8,0:0|0:0|0:0,0:0:0:0:
244,9,236038,2,0,P|283:56|258:153,1,135,2|0,0:0|0:0,0:0:0:0:
219,195,236389,6,0,L|324:210,1,90,4|0,0:2|0:0,0:0:0:0:
322,196,236652,2,0,L|427:211,1,90,8|0,0:0|0:0,0:0:0:0:
423,195,236915,2,0,B|519:208|519:208|447:287,1,180,4|0,0:2|0:0,0:0:0:0:
367,338,237442,1,8,0:0:0:0:
512,353,237617,1,0,0:0:0:0:
360,252,237792,6,0,L|236:272,1,90,4|0,0:3|0:0,0:0:0:0:
123,340,238143,2,0,L|247:360,1,90,8|0,0:0|0:0,0:0:0:0:
146,221,238494,1,0,0:0:0:0:
37,315,238670,2,0,P|40:263|34:204,1,90,8|2,0:0|0:0,0:0:0:0:
34,207,238933,1,0,0:0:0:0:
28,189,239021,1,0,0:0:0:0:
138,45,239196,38,0,P|135:89|138:134,2,90,4|0|8,0:3|0:0|0:0,0:0:0:0:
285,106,239722,2,0,L|229:96,1,45
143,224,239898,1,0,0:0:0:0:
279,194,240073,1,8,0:0:0:0:
183,318,240249,2,0,L|190:218,1,90,2|0,0:0|0:0,0:0:0:0:
362,155,240599,6,0,B|442:130|487:164|487:164|447:163|418:182,1,180,4|8,0:3|0:0,0:0:0:0:
394,328,241126,1,0,0:0:0:0:
387,311,241214,1,0,0:0:0:0:
381,293,241301,2,0,L|377:223,2,45,0|0|8,0:0|0:0|0:0,0:0:0:0:
271,370,241652,2,0,L|281:297,1,45,2|0,0:0|0:0,0:0:0:0:
255,206,241828,1,0,0:0:0:0:
151,356,242003,38,0,L|137:246,1,90,4|0,0:2|0:0,0:0:0:0:
123,259,242266,2,0,L|109:149,1,90,8|0,0:0|0:0,0:0:0:0:
94,163,242529,2,0,B|80:34|80:34|111:85,1,180,4|0,0:2|0:0,0:0:0:0:
201,194,243056,1,8,0:0:0:0:
243,50,243231,1,0,0:0:0:0:
363,149,243407,6,0,P|266:139|250:142,1,90,4|0,0:0|0:0,0:0:0:0:
136,297,243757,2,0,P|233:287|249:290,1,90,8|0,0:0|0:0,0:0:0:0:
403,351,244108,1,0,0:0:0:0:
332,222,244284,1,8,0:0:0:0:
334,239,244371,1,0,0:0:0:0:
337,256,244459,1,2,0:0:0:0:
443,159,244635,1,0,0:0:0:0:
446,142,244722,1,0,0:0:0:0:
449,124,244810,38,0,B|462:61|462:61|380:89|325:57,1,180,4|8,0:0|0:0,0:0:0:0:
223,17,245336,1,0,0:0:0:0:
242,151,245512,2,0,L|227:217,2,45,0|0|8,0:0|0:0|0:0,0:0:0:0:
125,23,245863,1,2,0:0:0:0:
271,79,246038,1,0,0:0:0:0:
94,119,246214,6,0,P|103:165|101:234,1,90,4|0,0:0|0:0,0:0:0:0:
173,378,246564,2,0,P|174:333|182:288,1,90,8|0,0:0|0:0,0:0:0:0:
189,272,246828,1,0,0:0:0:0:
195,255,246915,2,0,L|125:271,2,45,0|0|8,0:0|0:0|0:0,0:0:0:0:
372,313,247266,1,2,0:0:0:0:
290,191,247442,1,0,0:0:0:0:
290,208,247529,1,0,0:0:0:0:
290,225,247617,38,0,B|316:174|316:174|316:110,1,90,4|0,0:2|0:0,0:0:0:0:
328,128,247880,2,0,L|328:32,1,90,8|0,0:0|0:0,0:0:0:0:
340,24,248143,1,4,0:2:0:0:
391,175,248319,1,0,0:0:0:0:
438,70,248494,1,0,0:0:0:0:
250,98,248670,2,0,B|205:98|205:98|153:85,1,90,8|0,0:0|0:0,0:0:0:0:
16,68,249021,6,0,L|13:7,2,45,4|0|0,0:0|0:0|0:0,0:0:0:0:
23,186,249371,1,8,0:0:0:0:
117,261,249547,1,0,0:0:0:0:
101,259,249635,1,0,0:0:0:0:
85,257,249722,1,0,0:0:0:0:
19,356,249898,1,8,0:0:0:0:
138,342,250073,1,2,0:0:0:0:
154,340,250161,1,0,0:0:0:0:
170,338,250249,1,0,0:0:0:0:
186,336,250336,1,0,0:0:0:0:
202,334,250424,38,0,L|194:230,1,90,4|0,0:0|0:0,0:0:0:0:
186,125,250775,1,8,0:0:0:0:
303,227,250950,1,0,0:0:0:0:
320,224,251038,1,0,0:0:0:0:
337,221,251126,2,0,L|345:117,1,90,0|8,0:0|0:0,0:0:0:0:
356,13,251477,1,2,0:0:0:0:
451,84,251652,1,0,0:0:0:0:
325,136,251828,5,4,0:0:0:0:
308,139,251915,1,0,0:0:0:0:
291,142,252003,1,0,0:0:0:0:
180,101,252178,1,8,0:0:0:0:
75,158,252354,2,0,L|7:148,1,45
40,238,252529,1,0,0:0:0:0:
71,233,252617,1,0,0:0:0:0:
102,228,252705,1,8,0:0:0:0:
191,308,252880,1,2,0:0:0:0:
160,303,252968,1,0,0:0:0:0:
129,298,253056,1,0,0:0:0:0:
208,213,253231,38,0,L|310:198,1,90,4|0,0:2|0:0,0:0:0:0:
310,211,253494,2,0,L|412:196,1,90,8|0,0:0|0:0,0:0:0:0:
412,209,253757,2,0,B|510:194|510:194|483:229,1,135,4|0,0:2|0:0,0:0:0:0:
478,237,254108,1,0,0:0:0:0:
433,118,254284,1,8,0:0:0:0:
359,282,254459,1,0,0:0:0:0:
314,163,254635,6,0,L|212:148,1,90,4|0,0:0|0:0,0:0:0:0:
101,123,254985,1,8,0:0:0:0:
189,12,255161,1,0,0:0:0:0:
190,30,255249,1,0,0:0:0:0:
191,48,255336,1,0,0:0:0:0:
224,149,255512,1,8,0:0:0:0:
131,224,255687,1,2,0:0:0:0:
254,291,255863,1,0,0:0:0:0:
92,351,256038,38,0,L|88:279,2,45,4|0|0,0:0|0:0|0:0,0:0:0:0:
227,374,256389,1,8,0:0:0:0:
363,356,256564,1,0,0:0:0:0:
380,353,256652,1,0,0:0:0:0:
397,350,256740,2,0,L|492:360,1,90,0|8,0:0|0:0,0:0:0:0:
478,200,257091,2,0,L|383:210,1,90,2|0,0:0|0:0,0:0:0:0:
412,51,257442,5,4,0:0:0:0:
440,53,257529,1,0,0:0:0:0:
470,57,257617,1,0,0:0:0:0:
368,124,257792,1,8,0:0:0:0:
316,0,257968,1,0,0:0:0:0:
289,183,258143,37,0,0:0:0:0:
292,209,258231,1,0,0:0:0:0:
295,235,258319,1,8,0:0:0:0:
298,261,258407,1,0,0:0:0:0:
301,288,258494,5,2,0:0:0:0:
267,273,258582,1,4,0:0:0:0:
235,259,258670,1,4,0:0:0:0:
204,244,258757,1,4,0:0:0:0:
216,165,258845,6,4,B|150:58|150:58|43:126,1,252,4|4,0:1|0:0,0:0:0:0:
31,204,260249,2,0,B|97:311|97:311|204:243,1,252,2|0,0:2|0:0,0:0:0:0:
296,165,261652,2,0,B|362:58|362:58|469:126,1,252,2|0,0:2|0:0,0:0:0:0:
481,204,263056,2,0,P|419:302|419:302,1,108,2|0,0:2|0:0,0:0:0:0:
399,300,263757,2,0,B|404:304|308:243,1,108,2|0,0:2|0:0,0:0:0:0:
245,291,264459,6,0,B|144:335|100:246|0:291,1,252,2|0,0:2|0:0,0:0:0:0:
2,192,265863,2,0,B|102:236|146:147|246:192,1,252,2|0,0:2|0:0,0:0:0:0:
320,200,267266,2,0,B|375:255|375:255|417:262|424:241|417:220|375:227|375:227|320:283,1,252,2|0,0:2|0:0,0:0:0:0:
256,244,268670,37,2,0:2:0:0:
256,192,268757,12,0,275687,0:0:0:0:
