osu file format v14

[General]
AudioFilename: audio.mp3
AudioLeadIn: 0
PreviewTime: 90380
Countdown: 0
SampleSet: Soft
StackLeniency: 0.4
Mode: 0
LetterboxInBreaks: 0
WidescreenStoryboard: 1

[Editor]
Bookmarks: 598,90422,112878,163076,225159,247615,275685
DistanceSpacing: 0.7
BeatDivisor: 4
GridSize: 16
TimelineZoom: 1.8

[Metadata]
Title:World's End Dancehall (ROCKETMAN remix)
TitleUnicode:ワールズエンド・ダンスホール(ROCKETMAN remix)
Artist:wowaka
ArtistUnicode:wowaka
Creator:Ducky-
Version:Insane
Source:
Tags:Hikan Hokichi ヲワカ 現実逃避P escapismP GenjitsutoshiP Vocaloid Miku Hatsune 初音ミク Luka Megurine 巡音ルカ Dance Remix Vol. 1 Drum and Bass DnB Japanese -Project DIVA- f
BeatmapID:2328228
BeatmapSetID:1114556

[Difficulty]
HPDrainRate:5
CircleSize:4
OverallDifficulty:8
ApproachRate:9
SliderMultiplier:1.8
SliderTickRate:1

[Events]
//Background and Video events
0,0,"Untitled-1.png",0,0
//Break Periods
2,135556,145883
2,202925,224128
//Storyboard Layer 0 (Background)
//Storyboard Layer 1 (Fail)
//Storyboard Layer 2 (Pass)
//Storyboard Layer 3 (Foreground)
//Storyboard Layer 4 (Overlay)
//Storyboard Sound Samples

[TimingPoints]
620,350.877192982456,4,2,1,65,1,0
6234,-133.333333333333,4,2,1,65,0,0
11848,-111.111111111111,4,2,1,75,0,0
34655,-111.111111111111,4,2,1,65,0,0
45532,-99.9999999999999,4,2,1,75,0,0
55356,-83.3333333333333,4,2,1,75,0,0
56409,-222.222222222221,4,2,1,75,0,0
56760,-99.9999999999999,4,2,1,65,0,0
67988,-99.9999999999999,4,2,1,75,0,0
77812,-76.9230769230769,4,2,1,75,0,0
79567,-90.9090909090909,4,2,1,75,0,0
80619,-66.6666666666667,4,2,1,75,0,0
84830,-90.9090909090909,4,2,1,75,0,0
85532,-76.9230769230769,4,2,1,75,0,0
86234,-90.9090909090909,4,2,1,75,0,0
89742,-666.666666666667,4,2,1,75,0,0
90444,-80,4,2,1,85,0,1
101321,-66.6666666666667,4,2,1,85,0,0
101672,-80,4,2,1,85,0,1
112198,-80,4,2,1,75,0,1
112432,-50,4,2,1,75,0,0
112900,-100,4,2,1,75,0,0
135356,-100,4,2,1,55,0,0
146584,-100,4,2,1,65,0,0
156409,-100,4,2,1,35,0,0
156760,-100,4,2,1,45,0,0
157111,-200,4,2,1,55,0,0
157462,-200,4,2,1,65,0,0
157812,-100,4,2,1,75,0,0
167637,-83.3333333333333,4,2,1,75,0,0
178514,-90.9090909090909,4,2,1,75,0,0
179567,-666.666666666667,4,2,1,75,0,0
180269,-80,4,2,1,85,0,1
191146,-80,4,2,1,85,0,0
191497,-80,4,2,1,85,0,1
201321,-100,4,2,1,75,0,0
201848,-57.1428571428571,4,2,1,75,0,0
202023,-100,4,2,1,75,0,0
202725,-100,4,2,20,65,0,0
224830,-80,4,2,1,65,0,0
225181,-100,4,2,1,75,0,0
236409,-100,4,2,1,85,0,0
247286,-100,4,2,1,75,0,0
247637,-100,4,2,1,85,0,0
248427,-100,4,2,1,85,0,0
248514,-100,4,2,1,85,0,0
250532,-100,4,2,1,85,0,0
250795,-100,4,2,1,85,0,0
256146,-100,4,2,1,85,0,0
256409,-100,4,2,1,85,0,0
256584,-100,4,2,1,85,0,0
258865,-100,4,2,1,75,0,0

[Colours]
Combo1 : 209,146,143
Combo2 : 177,29,29
Combo3 : 86,53,140

[HitObjects]
18,55,620,5,2,2:0:0:0:
18,55,970,5,2,2:0:0:0:
18,55,1146,1,2,2:0:0:0:
32,143,1321,1,2,2:0:0:0:
32,143,1672,5,2,2:0:0:0:
32,143,1848,1,2,2:0:0:0:
120,129,2023,1,2,2:0:0:0:
120,129,2198,1,2,2:0:0:0:
120,129,2374,5,2,2:0:0:0:
120,129,2725,1,2,2:0:0:0:
106,41,3076,1,2,2:0:0:0:
18,55,3427,1,2,2:0:0:0:
106,41,3953,5,2,2:0:0:0:
18,55,4128,1,2,2:0:0:0:
18,55,4655,5,2,2:0:0:0:
106,41,4830,1,2,2:0:0:0:
120,129,5005,1,2,2:0:0:0:
32,143,5181,1,2,2:0:0:0:
18,55,5356,1,2,2:0:0:0:
106,41,5532,5,2,2:0:0:0:
120,129,5883,1,2,2:0:0:0:
106,41,6234,6,0,P|189:37|218:90,1,135.243005149842,0|8,3:2|2:0,0:0:0:0:
206,83,6935,5,0,0:0:0:0:
277,134,7111,1,0,3:2:0:0:
241,214,7286,1,8,2:0:0:0:
256,207,7637,6,0,P|244:251|219:353,2,135.050630149842,0|8|0,3:2|2:0|0:0,0:0:0:0:
341,261,8514,1,0,3:2:0:0:
396,193,8690,2,0,P|406:145|452:131,1,101.432253862381,8|0,2:0|0:0,0:0:0:0:
474,131,9041,6,0,L|319:97,1,135.243005149842,0|8,3:2|2:0,0:0:0:0:
333,83,9742,5,0,0:0:0:0:
272,28,9918,1,0,3:2:0:0:
202,69,10093,1,8,2:0:0:0:
182,57,10444,6,0,P|192:123|206:208,2,135.050630149842,0|8|0,3:2|2:0|0:0,0:0:0:0:
99,4,11321,1,0,3:2:0:0:
60,89,11497,2,0,P|20:104|42:163,1,101.432253862381,8|0,2:0|0:0,0:0:0:0:
162,209,11848,6,0,B|102:166|102:166|16:186,1,162.291595056153,4|8,2:0|2:1,0:0:0:0:
128,367,12374,1,0,3:0:0:0:
128,367,12462,1,0,3:2:0:0:
128,367,12549,1,0,3:2:0:0:
84,260,12725,1,8,3:1:0:0:
191,216,12900,1,2,3:2:0:0:
235,323,13076,1,0,3:2:0:0:
369,356,13251,5,0,3:0:0:0:
369,356,13427,1,0,0:0:0:0:
331,279,13602,2,0,P|328:234|343:190,1,81.1457975280763,8|0,2:1|3:2,0:0:0:0:
368,179,13865,1,0,3:2:0:0:
368,179,13953,2,0,L|362:130,2,40.5728987640381,0|0|8,3:0|0:0|2:1,0:0:0:0:
279,105,14304,1,0,3:2:0:0:
279,105,14391,1,0,3:2:0:0:
279,105,14479,1,0,3:2:0:0:
253,205,14655,6,0,P|182:183|126:254,1,162.291595056153,0|8,3:2|3:1,0:0:0:0:
4,260,15181,1,0,3:2:0:0:
4,260,15269,1,0,3:2:0:0:
4,260,15356,1,0,3:2:0:0:
60,358,15532,1,8,2:1:0:0:
120,268,15707,2,0,P|112:220|98:182,1,81.1457975280763,2|0,3:2|3:0,0:0:0:0:
167,39,16058,6,0,P|163:97|162:140,2,81.1457975280763,0|0|8,3:2|0:0|2:1,0:0:0:0:
325,0,16584,1,0,3:2:0:0:
299,11,16672,1,0,3:2:0:0:
278,30,16760,1,0,3:2:0:0:
266,56,16848,1,0,3:2:0:0:
264,84,16935,1,8,3:1:0:0:
207,224,17111,5,0,3:2:0:0:
247,216,17199,1,0,3:2:0:0:
286,208,17286,1,8,0:1:0:0:
349,77,17462,6,0,B|316:117|353:161|370:148|400:186|368:250,1,162.291595056153,0|8,3:2|2:1,0:0:0:0:
259,338,17988,1,0,3:2:0:0:
259,338,18076,1,0,3:2:0:0:
259,338,18163,1,0,3:2:0:0:
305,209,18339,1,8,2:1:0:0:
423,244,18514,1,2,3:2:0:0:
387,372,18690,1,0,3:2:0:0:
512,384,18865,5,0,3:2:0:0:
512,384,19041,1,0,3:0:0:0:
445,315,19216,6,0,P|491:306|513:262,1,81.1457975280763,8|0,2:1|3:2,0:0:0:0:
506,248,19479,1,0,3:2:0:0:
506,248,19567,2,0,L|498:200,2,40.5728987640381,0|0|8,3:2|0:0|2:1,0:0:0:0:
425,134,19918,1,0,3:2:0:0:
425,134,20005,1,0,3:2:0:0:
425,134,20093,1,0,3:2:0:0:
301,173,20269,6,0,P|324:183|363:235,2,81.1457975280763,0|0|8,3:2|0:0|2:1,0:0:0:0:
236,281,20795,5,0,3:2:0:0:
251,264,20883,1,0,3:2:0:0:
268,257,20970,1,0,3:2:0:0:
250,372,21146,1,8,2:1:0:0:
135,354,21321,1,2,3:2:0:0:
153,239,21497,1,0,3:2:0:0:
1,184,21672,6,0,P|44:208|58:256,1,80.9999975280763,0|0,3:2|0:0,0:0:0:0:
153,239,22023,1,8,2:1:0:0:
71,105,22198,1,0,3:2:0:0:
111,110,22286,1,0,3:2:0:0:
140,137,22374,1,0,3:2:0:0:
261,25,22549,5,8,2:1:0:0:
237,53,22637,1,0,0:0:0:0:
230,89,22725,1,0,3:2:0:0:
235,124,22812,1,0,3:2:0:0:
253,155,22900,2,0,L|312:149,1,40.5728987640381,0|0,3:2|3:2,0:0:0:0:
319,227,23076,6,0,L|491:206,1,162.291595056153,4|8,2:0|2:1,0:0:0:0:
415,52,23602,2,0,L|405:150,1,81.1457975280763,0|0,3:0|3:2,0:0:0:0:
442,306,23953,5,8,3:1:0:0:
463,226,24128,1,2,3:2:0:0:
512,353,24304,1,0,3:0:0:0:
359,268,24479,6,0,P|322:294|286:293,1,80.9999975280763,0|0,3:0|0:0,0:0:0:0:
260,384,24830,1,8,2:1:0:0:
205,312,25005,5,0,3:2:0:0:
197,276,25093,1,0,3:2:0:0:
208,241,25181,1,0,3:0:0:0:
241,226,25269,1,0,0:0:0:0:
261,196,25356,1,8,2:1:0:0:
128,189,25532,5,0,3:2:0:0:
128,189,25619,1,0,3:2:0:0:
128,189,25707,1,0,3:2:0:0:
141,48,25883,6,0,B|175:22|175:22|231:70|197:138,1,162.291595056153,0|8,3:2|3:1,0:0:0:0:
51,129,26409,2,0,P|90:137|121:162,1,81.1457975280763,0|0,3:2|3:2,0:0:0:0:
226,130,26760,1,8,2:1:0:0:
263,271,26935,1,2,3:2:0:0:
312,183,27111,1,0,3:0:0:0:
175,234,27286,6,0,B|107:245|107:245|82:236|82:236|-4:250,1,162.291595056153,0|8,3:2|2:1,0:0:0:0:
54,384,27812,1,0,3:2:0:0:
59,356,27900,1,0,3:2:0:0:
77,334,27988,1,0,3:2:0:0:
102,322,28076,1,0,3:2:0:0:
130,322,28163,1,8,3:1:0:0:
261,384,28339,5,8,2:1:0:0:
255,343,28427,1,0,3:2:0:0:
250,303,28514,1,0,3:2:0:0:
312,183,28690,6,0,P|268:218|217:140,1,162.291595056153,0|8,3:2|2:1,0:0:0:0:
270,15,29216,2,0,L|284:112,1,81.1457975280763,0|0,3:2|3:2,0:0:0:0:
190,52,29567,1,8,2:1:0:0:
298,102,29742,1,2,3:2:0:0:
127,150,29918,1,0,3:2:0:0:
69,0,30093,6,0,P|93:58|100:103,1,81.1457975280763,0|0,3:2|0:0,0:0:0:0:
40,169,30444,1,8,2:1:0:0:
125,248,30619,5,0,3:2:0:0:
84,244,30707,1,0,3:2:0:0:
48,260,30795,1,0,3:2:0:0:
24,293,30883,1,0,0:0:0:0:
18,332,30970,1,8,2:1:0:0:
223,283,31146,5,0,3:2:0:0:
231,243,31234,1,0,3:2:0:0:
239,203,31321,1,0,3:2:0:0:
156,139,31497,6,0,P|198:115|234:81,1,81.1457975280763,0|0,3:2|0:0,0:0:0:0:
329,148,31848,1,8,2:1:0:0:
306,34,32023,1,0,3:2:0:0:
306,34,32111,1,0,3:2:0:0:
306,34,32198,1,0,3:2:0:0:
497,72,32374,5,8,2:1:0:0:
428,14,32549,1,0,3:2:0:0:
413,104,32725,1,0,3:2:0:0:
496,168,32900,6,0,L|478:259,1,80.9999975280763,8|0,3:2|0:0,0:0:0:0:
382,274,33251,2,0,L|398:369,1,80.9999975280763,8|0,3:2|0:0,0:0:0:0:
298,304,33602,5,8,3:2:0:0:
259,295,33690,1,0,3:2:0:0:
224,313,33777,1,8,3:2:0:0:
210,350,33865,1,0,3:2:0:0:
223,384,33953,5,8,3:2:0:0:
213,366,34041,1,0,3:2:0:0:
198,352,34128,1,8,3:2:0:0:
179,344,34216,1,0,3:2:0:0:
157,341,34304,6,0,L|126:210,1,121.718696292114,6|2,3:2|0:0,0:0:0:0:
119,202,34655,2,0,P|83:235|32:232,1,81.1457975280763,8|2,2:0|3:2,0:0:0:0:
29,259,34918,1,0,0:0:0:0:
29,259,35005,2,0,P|38:193|43:158,1,81.1457975280763,2|2,0:0|3:2,0:0:0:0:
0,81,35356,1,10,2:0:0:0:
121,117,35532,1,2,0:0:0:0:
12,93,35707,6,0,B|84:67|84:67|117:98,1,121.718696292114,2|2,3:2|0:0,0:0:0:0:
121,117,36058,2,0,P|170:93|209:88,1,81.1457975280763,8|2,2:0|0:0,0:0:0:0:
225,106,36321,1,0,0:0:0:0:
225,106,36409,2,0,P|232:60|243:21,1,81.1457975280763,2|0,0:0|3:2,0:0:0:0:
345,88,36760,1,10,2:0:0:0:
298,187,36935,1,0,3:0:0:0:
397,162,37111,6,0,P|449:189|465:259,1,121.718696292114,2|2,3:2|0:0,0:0:0:0:
458,254,37462,2,0,P|439:301|451:344,1,81.1457975280763,8|2,2:0|3:2,0:0:0:0:
455,350,37725,1,0,3:0:0:0:
454,350,37812,2,0,P|415:331|367:332,1,81.1457975280763,0|2,3:0|3:2,0:0:0:0:
254,280,38163,1,10,2:0:0:0:
307,384,38339,1,2,3:0:0:0:
154,321,38514,6,0,P|172:265|186:203,1,121.718696292114,2|2,3:2|0:0,0:0:0:0:
164,189,38865,2,0,P|214:169|222:132,1,81.1457975280763,8|2,2:0|3:0,0:0:0:0:
214,116,39128,1,0,3:0:0:0:
214,116,39216,2,0,L|295:132,1,81.1457975280763,2|0,3:2|3:2,0:0:0:0:
402,113,39567,1,8,2:0:0:0:
348,202,39742,1,8,0:0:0:0:
463,173,39918,6,0,B|490:130|490:130|477:27,1,121.718696292114,2|2,3:2|0:0,0:0:0:0:
480,34,40269,2,0,P|441:43|408:14,1,81.1457975280763,8|2,2:0|3:2,0:0:0:0:
387,8,40532,1,0,0:0:0:0:
387,8,40619,2,0,L|276:24,1,81.1457975280763,2|2,0:0|3:2,0:0:0:0:
260,135,40970,1,10,2:0:0:0:
203,43,41146,1,2,3:0:0:0:
76,91,41321,6,0,P|137:104|162:158,1,121.718696292114,2|2,3:2|0:0,0:0:0:0:
146,164,41672,2,0,B|134:204|134:204|149:247,1,81.1457975280763,8|2,2:0|0:0,0:0:0:0:
145,266,41935,1,0,0:0:0:0:
145,266,42023,2,0,P|178:243|230:249,1,81.1457975280763,2|0,0:0|3:2,0:0:0:0:
329,209,42374,1,10,2:0:0:0:
284,330,42549,1,0,3:0:0:0:
308,208,42725,6,0,B|330:258|330:258|290:335,1,121.718696292114,2|2,3:2|0:0,0:0:0:0:
284,330,43076,2,0,P|331:342|359:379,1,81.1457975280763,8|2,2:0|3:2,0:0:0:0:
368,378,43339,1,0,0:0:0:0:
368,378,43427,2,0,P|386:327|414:297,1,81.1457975280763,2|2,0:0|3:2,0:0:0:0:
512,257,43777,1,10,2:0:0:0:
480,349,43953,1,2,0:0:0:0:
430,227,44128,6,0,L|450:81,1,121.718696292114,2|0,3:2|0:0,0:0:0:0:
454,91,44479,2,0,P|434:132|365:101,1,121.718696292114,10|0,2:0|0:0,0:0:0:0:
360,37,44830,5,2,2:0:0:0:
307,191,45005,1,0,3:2:0:0:
272,113,45181,6,0,L|263:73,1,40.5728987640381,10|0,2:0|0:0,0:0:0:0:
325,208,45356,2,0,L|316:247,1,40.5728987640381,8|0,0:0|0:0,0:0:0:0:
220,180,45532,6,0,P|171:161|87:158,1,135.081,6|2,3:2|0:0,0:0:0:0:
75,173,45883,2,0,P|94:122|103:79,1,90.225,8|2,2:0|0:0,0:0:0:0:
116,58,46146,1,0,0:0:0:0:
116,58,46234,2,0,L|4:73,1,90.225,2|2,0:0|3:2,0:0:0:0:
93,189,46584,1,10,0:0:0:0:
2,140,46760,1,2,3:0:0:0:
2,274,46935,6,0,P|58:268|97:335,1,135.081,2|2,3:2|0:0,0:0:0:0:
88,335,47286,2,0,L|183:314,1,90.225,8|2,2:0|0:0,0:0:0:0:
188,337,47549,1,2,0:0:0:0:
188,337,47637,2,0,P|227:303|240:263,1,90.225,2|0,0:0|3:2,0:0:0:0:
192,192,47988,1,10,2:0:0:0:
264,121,48163,1,0,0:0:0:0:
229,23,48339,6,0,P|282:16|359:52,1,135.081,2|0,3:2|0:0,0:0:0:0:
358,65,48690,2,0,P|390:34|439:35,1,90.225,8|2,2:0|3:2,0:0:0:0:
467,104,48953,1,2,0:0:0:0:
467,104,49041,1,2,0:0:0:0:
438,203,49216,1,0,3:2:0:0:
339,174,49391,1,10,2:0:0:0:
368,75,49567,1,2,3:0:0:0:
329,164,49742,6,0,P|338:223|351:302,1,135.081,2|0,3:2|0:0,0:0:0:0:
415,347,50093,2,0,P|371:319|328:319,1,90.225,10|2,2:0|0:0,0:0:0:0:
241,384,50356,1,2,0:0:0:0:
241,384,50444,2,0,L|257:291,1,90.225,2|2,2:0|3:2,0:0:0:0:
199,220,50795,1,10,2:0:0:0:
109,310,50970,1,2,0:0:0:0:
109,310,51058,1,0,0:0:0:0:
109,310,51146,6,0,P|74:260|53:183,1,135.081,4|2,3:2|0:0,0:0:0:0:
47,170,51497,2,0,P|87:157|124:127,1,90.225,8|2,2:0|3:2,0:0:0:0:
138,112,51760,1,2,0:0:0:0:
138,112,51848,2,0,L|122:9,1,90.225,2|2,0:0|3:2,0:0:0:0:
272,1,52198,1,10,2:0:0:0:
234,97,52374,1,2,0:0:0:0:
341,76,52549,6,0,P|414:62|445:104,1,135.081,2|2,3:2|0:0,0:0:0:0:
434,114,52900,2,0,P|455:151|449:201,1,90.225,8|2,2:0|0:0,0:0:0:0:
470,223,53163,1,2,0:0:0:0:
469,224,53251,2,0,P|426:230|400:279,1,90.225,2|0,0:0|3:2,0:0:0:0:
426,348,53602,1,10,2:0:0:0:
322,246,53777,1,0,0:0:0:0:
332,342,53953,6,0,P|249:333|204:359,1,135.081,2|2,3:2|0:0,0:0:0:0:
200,373,54304,2,2,L|212:279,1,90.225,10|2,2:0|3:2,0:0:0:0:
227,259,54567,1,2,0:0:0:0:
227,259,54655,2,0,P|189:233|178:185,1,90.225,2|2,0:0|3:2,0:0:0:0:
204,118,55005,1,10,2:0:0:0:
123,83,55181,1,2,0:0:0:0:
193,26,55356,6,0,B|250:44|250:44|351:15,2,162.291595056153,2|8|8,3:2|2:0|3:2,0:0:0:0:
70,23,56058,6,0,B|15:8|15:8|-15:65|31:128,1,162.291595056153,2|0,2:0|0:0,0:0:0:0:
86,174,56409,6,0,B|102:203|102:203|77:237,1,60.8593481460572,8|0,2:1|0:0,0:0:0:0:
10,263,56760,6,0,P|97:253|159:341,1,180.324,4|8,2:0|2:1,0:0:0:0:
250,295,57286,1,0,3:0:0:0:
240,339,57374,1,0,3:2:0:0:
231,383,57462,1,2,3:2:0:0:
343,275,57637,1,8,3:1:0:0:
383,358,57812,2,0,L|497:338,1,90.162,2|0,3:2|3:2,0:0:0:0:
497,180,58163,6,0,P|492:253|426:209,1,180.324,2|8,3:0|2:1,0:0:0:0:
382,123,58690,1,0,3:2:0:0:
341,139,58777,1,0,3:2:0:0:
325,180,58865,1,2,3:0:0:0:
343,275,59041,1,8,2:1:0:0:
211,178,59216,5,0,3:2:0:0:
228,204,59304,1,0,3:2:0:0:
240,233,59391,1,0,3:2:0:0:
248,263,59479,1,0,3:2:0:0:
250,295,59567,6,0,P|161:293|137:373,1,180.324,2|8,3:2|3:1,0:0:0:0:
17,288,60093,6,0,L|0:219,1,45.081,0|0,3:2|3:2,0:0:0:0:
86,182,60269,2,0,L|96:225,1,45.081,2|0,3:2|0:0,0:0:0:0:
26,278,60444,6,0,L|9:209,1,45.081,8|0,2:1|0:0,0:0:0:0:
95,172,60619,2,0,L|105:215,1,45.081,2|0,3:2|0:0,0:0:0:0:
10,138,60795,1,0,3:0:0:0:
124,81,60970,6,0,P|204:100|300:125,1,180.324,2|8,3:2|2:1,0:0:0:0:
445,95,61497,6,0,B|432:77|432:77|393:85,1,45.081,0|0,3:2|3:2,0:0:0:0:
383,179,61672,2,0,B|396:197|396:197|435:189,1,45.081,2|0,3:2|3:2,0:0:0:0:
437,90,61848,6,0,B|421:74|421:74|384:89,1,45.081,8|0,3:1|0:0,0:0:0:0:
390,183,62023,2,0,B|406:199|406:199|443:184,1,45.081,8|0,2:1|3:2,0:0:0:0:
477,314,62198,5,0,3:2:0:0:
447,319,62286,1,0,3:2:0:0:
427,352,62374,6,0,P|361:314|300:388,1,180.324,2|8,3:2|2:1,0:0:0:0:
229,291,62900,2,0,P|253:246|263:195,1,90.162,0|2,3:2|3:2,0:0:0:0:
196,124,63251,1,8,2:1:0:0:
102,142,63427,2,0,P|160:120|226:98,1,90.162,2|0,3:2|3:2,0:0:0:0:
171,204,63777,5,2,3:2:0:0:
199,311,63953,1,0,0:0:0:0:
84,384,64128,2,0,L|96:324,1,45.081,8|0,2:1|0:0,0:0:0:0:
20,296,64304,1,0,3:2:0:0:
20,296,64391,1,0,3:2:0:0:
20,296,64479,6,0,P|6:240|-4:194,1,90.162,2|8,3:2|2:1,0:0:0:0:
6,68,64830,1,0,3:2:0:0:
36,75,64918,1,0,3:2:0:0:
63,91,65005,1,0,3:2:0:0:
84,113,65093,1,0,3:2:0:0:
99,141,65181,6,0,P|152:104|223:112,1,135.243,2|0,3:2|0:0,0:0:0:0:
278,186,65532,1,8,2:1:0:0:
303,95,65707,6,0,P|303:78|296:47,1,45.081,0|0,3:2|3:2,0:0:0:0:
197,187,65883,2,0,P|191:208|191:231,1,45.081,2|0,3:2|0:0,0:0:0:0:
361,209,66058,6,0,P|361:190|353:156,1,45.081,8|0,2:1|0:0,0:0:0:0:
282,283,66234,2,0,B|293:327|293:327|290:338|290:338|300:383,2,90.162,2|0|2,3:2|3:2|3:2,0:0:0:0:
472,28,67988,6,0,P|425:29|400:80,1,90.162,6|0,3:2|0:0,0:0:0:0:
418,88,68251,1,2,0:0:0:0:
418,88,68339,1,10,2:0:0:0:
268,0,68514,2,0,P|294:41|309:81,1,90.162,0|0,3:2|0:0,0:0:0:0:
280,202,68865,1,2,3:2:0:0:
322,90,69041,1,10,2:0:0:0:
194,114,69216,1,2,0:0:0:0:
302,197,69391,6,0,P|280:273|265:337,1,135.243,2|2,3:2|0:0,0:0:0:0:
259,350,69742,2,0,P|300:315|345:314,1,90.162,8|2,2:0|3:0,0:0:0:0:
351,291,70005,1,0,0:0:0:0:
351,291,70093,2,0,P|391:326|387:365,1,90.162,0|2,0:0|3:2,0:0:0:0:
468,283,70444,1,10,2:0:0:0:
381,202,70619,1,0,3:0:0:0:
281,220,70795,6,0,P|229:201|209:162,1,90.162,2|2,3:2|0:0,0:0:0:0:
226,136,71058,1,0,0:0:0:0:
226,136,71146,1,8,2:0:0:0:
88,219,71321,2,0,P|125:167|138:123,1,90.162,2|2,3:2|0:0,0:0:0:0:
73,31,71672,1,0,3:2:0:0:
145,122,71848,1,8,2:0:0:0:
194,25,72023,1,0,3:0:0:0:
71,14,72198,6,0,P|146:30|227:56,1,135.243,0|2,3:2|0:0,0:0:0:0:
194,25,72549,2,0,P|254:18|306:19,1,90.162,8|2,2:0|0:0,0:0:0:0:
318,17,72812,1,2,0:0:0:0:
318,17,72900,2,0,P|298:68|297:114,1,90.162,0|0,0:0|3:2,0:0:0:0:
380,219,73251,1,8,2:0:0:0:
308,116,73427,1,0,3:0:0:0:
256,206,73602,6,0,P|217:228|195:275,1,90.162,2|2,3:2|0:0,0:0:0:0:
216,307,73865,1,0,0:0:0:0:
216,307,73953,1,8,2:0:0:0:
15,245,74128,2,0,P|70:255|104:282,1,90.162,2|2,3:2|0:0,0:0:0:0:
0,384,74479,1,0,3:2:0:0:
107,262,74655,1,8,2:0:0:0:
93,371,74830,1,0,3:0:0:0:
6,234,75005,6,0,B|15:167|15:167|20:164|20:164|31:91,1,135.243,0|0,3:2|0:0,0:0:0:0:
20,87,75356,2,0,P|53:42|95:44,1,90.162,8|2,2:0|0:0,0:0:0:0:
107,21,75619,1,2,0:0:0:0:
107,21,75707,2,0,P|148:44|141:96,1,90.162,2|0,0:0|3:2,0:0:0:0:
209,194,76058,1,8,2:0:0:0:
103,147,76234,1,0,3:0:0:0:
229,105,76409,6,0,L|327:93,1,90.162,2|2,3:2|0:0,0:0:0:0:
328,71,76672,1,0,0:0:0:0:
328,71,76760,1,8,2:0:0:0:
451,90,76935,2,0,L|462:139,1,45.081,2|2,3:2|0:0,0:0:0:0:
483,4,77111,1,2,0:0:0:0:
354,55,77286,1,0,3:2:0:0:
493,158,77462,2,0,L|479:255,1,90.162,8|0,2:0|3:0,0:0:0:0:
389,309,77812,6,0,B|357:305|339:274|339:274|334:305|305:326,1,117.210594644165,2|0,3:2|0:0,0:0:0:0:
307,347,78163,2,0,B|339:351|359:380|359:380|362:348|391:330,1,117.210594644165,10|0,2:0|0:0,0:0:0:0:
356,236,78514,6,0,L|370:162,1,58.6052973220826,2|0,2:0|0:0,0:0:0:0:
276,202,78690,2,0,L|265:259,1,58.6052973220826,0|0,3:2|0:0,0:0:0:0:
180,321,78865,6,0,P|91:316|59:385,1,175.815891966248,10|2,2:0|0:0,0:0:0:0:
67,361,79216,5,4,3:2:0:0:
62,329,79304,1,0,0:0:0:0:
58,298,79391,1,0,0:0:0:0:
55,266,79479,1,0,0:0:0:0:
53,242,79567,2,0,L|60:187,3,49.5891015106202,10|2|2|2,2:0|0:0|3:2|0:0,0:0:0:0:
116,108,79918,2,0,L|109:58,3,49.5891015106202,2|2|2|2,0:0|0:0|3:2|0:0,0:0:0:0:
165,189,80269,6,0,L|228:198,1,49.5891015106202,8|0,2:0|0:0,0:0:0:0:
279,126,80444,2,0,L|328:118,1,49.5891015106202
306,237,80619,6,0,L|327:390,2,135.243005149842,0|2|10,3:2|0:0|2:0,0:0:0:0:
325,209,81058,1,2,0:0:0:0:
353,191,81146,1,2,0:0:0:0:
386,185,81234,1,2,0:0:0:0:
419,193,81321,2,0,B|447:216|447:216|487:205,3,67.6215025749208,0|0|0|0,0:0|0:0|3:2|0:0,0:0:0:0:
397,100,81672,5,10,2:0:0:0:
389,74,81760,1,2,0:0:0:0:
366,59,81848,1,0,0:0:0:0:
203,10,82023,5,2,3:2:0:0:
195,165,82198,1,2,0:0:0:0:
195,165,82286,1,2,0:0:0:0:
195,165,82374,2,0,L|182:81,1,67.6215025749208,10|0,2:0|0:0,0:0:0:0:
76,128,82549,5,2,3:2:0:0:
146,266,82725,1,2,0:0:0:0:
146,266,82812,1,2,0:0:0:0:
146,266,82900,2,0,L|92:199,1,67.6215025749208,2|0,3:2|0:0,0:0:0:0:
293,215,83076,5,10,2:0:0:0:
293,215,83163,1,2,0:0:0:0:
293,215,83251,2,0,L|239:281,1,67.6215025749208,2|0,0:0|0:0,0:0:0:0:
101,349,83427,6,0,P|211:354|309:394,1,202.864507724762,2|0,3:2|0:0,0:0:0:0:
304,384,83777,6,0,B|310:294|428:309|428:309|400:258,1,202.864507724762,10|2,2:0|0:0,0:0:0:0:
378,194,84128,6,0,P|459:159|404:50,1,202.864507724762,2|0,2:0|0:0,0:0:0:0:
363,36,84479,6,0,P|278:76|303:167,1,202.864507724762,10|0,2:0|0:0,0:0:0:0:
204,242,84830,6,0,L|213:193,1,49.5891015106202,4|0,3:2|0:0,0:0:0:0:
130,227,85005,2,0,L|139:178,1,49.5891015106202
186,108,85181,5,10,2:0:0:0:
188,99,85269,1,2,0:0:0:0:
182,93,85356,1,2,3:2:0:0:
174,97,85444,1,2,0:0:0:0:
175,106,85532,2,0,P|150:88|118:84,1,58.6052973220826
100,3,85707,2,0,P|71:15|52:41,1,58.6052973220826,2|0,3:2|0:0,0:0:0:0:
54,128,85883,1,10,2:0:0:0:
133,233,86058,5,2,0:0:0:0:
133,233,86146,1,10,2:0:0:0:
133,233,86234,2,0,L|118:300,1,49.5891015106202,2|2,3:2|0:0,0:0:0:0:
0,384,86409,5,2,0:0:0:0:
8,356,86497,1,2,0:0:0:0:
38,339,86584,1,10,2:0:0:0:
76,342,86672,1,2,0:0:0:0:
101,370,86760,2,0,L|160:360,2,49.5891015106202,10|10|8,2:0|2:0|2:0,0:0:0:0:
289,252,87111,1,2,3:2:0:0:
269,377,87286,6,0,P|265:323|259:264,1,99.1782030212403,10|0,2:0|0:0,0:0:0:0:
194,231,87549,1,8,2:0:0:0:
194,231,87637,1,8,3:2:0:0:
311,0,87900,5,8,2:0:0:0:
311,0,87988,1,8,2:0:0:0:
202,129,88163,1,8,2:0:0:0:
126,0,88339,5,8,2:0:0:0:
0,90,88602,5,8,2:0:0:0:
10,81,88690,2,0,L|18:149,1,49.5891015106202,8|0,2:0|0:0,0:0:0:0:
90,113,88865,2,0,L|98:181,1,49.5891015106202,8|0,2:0|0:0,0:0:0:0:
170,145,89041,6,2,L|178:213,1,49.5891015106202,2|2,3:2|3:2,3:2:0:0:
248,181,89216,1,2,3:2:0:0:
252,169,89304,1,0,3:2:0:0:
255,160,89391,2,2,L|263:228,1,49.5891015106202,2|2,3:2|3:2,3:2:0:0:
335,192,89567,2,0,L|343:260,1,49.5891015106202,2|0,3:2|0:0,0:0:0:0:
415,224,89742,6,0,L|421:275,1,47.2580985580445,2|0,3:2|0:0,0:0:0:0:
442,303,90444,6,0,B|368:272|328:319|352:339|305:389|235:356,1,225.405,6|10,3:2|2:0,0:0:0:0:
151,224,90970,1,2,2:0:0:0:
274,271,91146,1,2,2:0:0:0:
274,271,91234,1,0,0:0:0:0:
274,271,91321,1,8,2:0:0:0:
145,362,91497,2,0,L|169:239,1,112.7025,2|2,3:2|2:0,0:0:0:0:
39,180,91848,5,2,3:0:0:0:
39,180,92023,1,2,2:0:0:0:
94,82,92198,1,10,2:0:0:0:
181,155,92374,1,2,2:0:0:0:
226,56,92549,6,0,L|214:-5,1,56.35125,2|0,2:0|0:0,0:0:0:0:
319,102,92725,1,0,3:0:0:0:
319,102,92812,1,0,0:0:0:0:
319,102,92900,2,0,P|361:88|388:93,1,56.35125,10|0,2:0|0:0,0:0:0:0:
414,13,93076,2,0,P|447:42|456:68,1,56.35125,0|0,3:0|0:0,0:0:0:0:
413,163,93251,6,0,B|427:238|427:238|431:242|431:242|451:344,1,169.05375,2|0,3:2|0:0,0:0:0:0:
459,352,93602,6,0,L|377:330,1,56.35125,8|0,2:0|0:0,0:0:0:0:
346,284,93777,2,0,L|264:262,1,56.35125,2|0,2:0|0:0,0:0:0:0:
259,364,93953,5,2,2:0:0:0:
363,275,94128,1,8,2:0:0:0:
206,192,94304,6,0,L|217:256,1,56.35125,0|0,3:0|0:0,0:0:0:0:
142,266,94479,2,0,L|132:210,1,56.35125,2|0,2:0|0:0,0:0:0:0:
194,36,94655,5,2,3:2:0:0:
194,36,94830,1,2,2:0:0:0:
151,134,95005,1,8,2:0:0:0:
42,80,95181,1,2,2:0:0:0:
18,160,95356,6,0,P|80:106|163:123,1,169.05375,2|0,2:0|3:0,0:0:0:0:
151,134,95707,2,0,P|229:113|241:201,1,169.05375,10|0,2:0|0:0,0:0:0:0:
244,190,96058,6,0,B|324:187|324:187|369:224|369:224|464:217,1,225.405,2|10,3:2|2:0,0:0:0:0:
375,257,96584,1,2,2:0:0:0:
395,141,96760,1,2,2:0:0:0:
399,113,96848,1,0,0:0:0:0:
403,86,96935,1,8,2:0:0:0:
455,217,97111,2,0,B|473:252|473:252|449:329,1,112.5,2|2,3:2|2:0,0:0:0:0:
315,326,97462,5,2,3:0:0:0:
315,326,97637,1,2,2:0:0:0:
399,384,97812,1,10,2:0:0:0:
375,257,97988,1,2,2:0:0:0:
287,384,98163,6,0,L|294:328,1,56.35125,2|0,2:0|0:0,0:0:0:0:
224,313,98339,2,0,L|217:369,1,56.35125,0|0,3:0|0:0,0:0:0:0:
280,242,98514,6,0,P|252:193|160:243,1,169.05375,10|0,2:0|0:0,0:0:0:0:
159,246,98865,6,0,P|52:264|52:385,1,225.405,2|8,3:2|2:0,0:0:0:0:
123,322,99391,1,2,2:0:0:0:
31,249,99567,6,0,B|32:211|15:190|15:190|18:154|45:137,2,112.7025,2|8|0,2:0|2:0|3:0,0:0:0:0:
163,167,100093,6,0,B|184:150|184:150|173:116,1,56.35125,2|0,2:0|0:0,0:0:0:0:
110,39,100269,2,0,P|47:24|-21:14,1,112.7025,2|2,3:2|2:0,0:0:0:0:
21,128,100619,5,10,2:0:0:0:
107,53,100795,1,2,2:0:0:0:
206,108,100970,2,0,B|265:95|265:95|296:108|296:108|374:93,1,169.05375,2|0,2:0|0:0,0:0:0:0:
376,114,101321,2,0,B|341:144|341:144|364:241,1,135.243005149842,10|0,3:2|3:0,0:0:0:0:
400,312,101584,1,0,3:0:0:0:
414,305,101672,6,0,P|327:255|229:338,1,225.405,6|10,3:2|2:0,0:0:0:0:
284,384,102198,1,2,2:0:0:0:
150,313,102374,2,0,L|162:241,2,56.35125,2|0|8,2:0|0:0|2:0,0:0:0:0:
264,247,102725,6,0,L|248:181,1,56.35125,2|0,3:2|0:0,0:0:0:0:
149,124,102900,2,0,L|133:58,1,56.35125,2|0,2:0|0:0,0:0:0:0:
240,99,103076,5,2,3:2:0:0:
157,217,103251,1,2,2:0:0:0:
2,201,103427,6,0,P|40:208|58:230,1,56.35125,10|0,2:0|0:0,0:0:0:0:
148,220,103602,2,0,P|160:256|150:282,1,56.35125,2|2,2:0|0:0,0:0:0:0:
53,359,103777,6,0,P|43:301|61:356,1,169.05375,2|0,2:0|0:0,0:0:0:0:
159,308,104128,2,0,B|218:282|254:319|246:330|273:358|333:338,1,169.05375,10|0,2:0|0:0,0:0:0:0:
402,234,104479,6,0,P|391:275|403:308,1,56.35125,2|0,3:2|0:0,0:0:0:0:
314,342,104655,2,0,P|344:372|378:378,1,56.35125,2|0,0:0|0:0,0:0:0:0:
480,354,104830,6,0,P|488:340|473:353,1,56.35125,8|0,2:0|0:0,0:0:0:0:
314,258,105005,1,2,2:0:0:0:
314,258,105093,1,0,0:0:0:0:
314,258,105181,2,0,L|301:163,1,56.35125,2|0,2:0|0:0,0:0:0:0:
419,88,105356,2,0,L|411:143,1,56.35125,10|0,2:0|0:0,0:0:0:0:
302,276,105532,2,0,L|286:158,1,112.7025,2|2,3:2|2:0,0:0:0:0:
300,66,105883,6,0,B|258:50|222:78|232:92|193:129|146:104,1,169.05375,2|0,3:2|0:0,0:0:0:0:
53,32,106234,2,0,B|38:62|38:62|58:140,1,112.7025,10|2,2:0|2:0,0:0:0:0:
30,228,106497,5,0,0:0:0:0:
36,222,106584,2,0,P|92:228|149:274,1,112.7025,2|0,2:0|3:0,0:0:0:0:
159,371,106848,5,0,0:0:0:0:
164,379,106935,2,0,P|196:325|226:266,1,112.7025,10|0,2:0|3:0,0:0:0:0:
374,169,107286,6,0,B|346:136|346:136|207:180|207:180|186:150,1,225.405,2|10,3:2|2:0,0:0:0:0:
361,314,107988,5,2,2:0:0:0:
495,307,108163,1,8,2:0:0:0:
440,382,108339,2,0,L|464:261,1,112.7025,2|0,3:2|0:0,0:0:0:0:
383,143,108690,6,0,L|358:18,2,112.7025,2|2|10,3:2|2:0|2:0,0:0:0:0:
461,127,109216,1,2,2:0:0:0:
390,249,109391,1,2,2:0:0:0:
301,161,109567,2,0,L|246:152,1,56.35125,0|0,3:0|0:0,0:0:0:0:
250,60,109742,5,10,2:0:0:0:
228,163,109918,1,0,3:0:0:0:
137,7,110093,6,0,P|85:44|36:39,2,112.7025,2|2|8,3:2|3:2|2:0,0:0:0:0:
141,111,110619,1,2,2:0:0:0:
36,71,110795,1,2,2:0:0:0:
74,162,110970,1,8,2:0:0:0:
74,162,111058,1,0,0:0:0:0:
74,162,111146,2,0,P|30:173|18:236,1,112.7025,0|2,3:0|2:0,0:0:0:0:
100,296,111497,5,2,3:2:0:0:
153,200,111672,1,2,2:0:0:0:
289,260,111848,5,10,2:0:0:0:
261,266,111935,1,8,2:0:0:0:
234,272,112023,1,10,2:0:0:0:
206,278,112111,1,8,2:0:0:0:
179,284,112198,1,8,2:0:0:0:
477,179,112432,6,2,P|482:198|474:183,7,60,0|0|0|0|0|0|0|0,0:0|0:0|0:0|0:0|0:0|0:0|0:0|0:0,0:0:0:0:
463,278,112900,6,0,P|400:236|391:163,1,135.243,6|0,2:0|0:0,0:0:0:0:
378,171,113251,2,0,P|414:140|412:83,1,90.162,8|0,2:1|3:0,0:0:0:0:
409,76,113514,1,0,3:2:0:0:
409,76,113602,2,0,L|297:63,1,90.162,2|8,3:2|3:1,0:0:0:0:
210,57,113953,1,2,3:2:0:0:
303,27,114128,1,0,3:2:0:0:
265,134,114304,6,0,P|202:179|116:110,1,180.324,2|8,3:0|2:1,0:0:0:0:
28,146,114830,1,0,3:2:0:0:
28,146,114918,1,0,3:2:0:0:
28,146,115005,1,2,3:0:0:0:
111,53,115181,1,8,2:1:0:0:
14,13,115356,6,0,L|23:58,1,45.081,0|0,3:2|3:2,0:0:0:0:
126,68,115532,2,0,L|117:112,1,45.081,0|0,3:2|3:2,0:0:0:0:
58,220,115707,6,0,P|116:225|156:292,1,135.243,2|0,3:2|0:0,0:0:0:0:
151,311,116058,2,0,P|201:289|246:306,1,90.162,8|0,3:1|3:2,0:0:0:0:
255,330,116321,1,0,3:2:0:0:
255,330,116409,2,0,L|272:222,1,90.162,2|8,3:2|2:1,0:0:0:0:
246,115,116760,1,2,3:2:0:0:
282,223,116935,1,0,3:0:0:0:
341,138,117111,6,0,B|391:112|434:168|414:176|449:222|506:196,1,180.324,2|8,3:2|2:1,0:0:0:0:
489,117,117637,1,0,3:2:0:0:
489,117,117725,1,0,3:2:0:0:
489,117,117812,1,2,3:2:0:0:
402,201,117988,1,8,3:1:0:0:
496,294,118163,1,8,2:1:0:0:
468,279,118251,1,0,3:2:0:0:
437,283,118339,1,0,3:2:0:0:
414,303,118427,1,0,3:2:0:0:
406,333,118514,6,0,P|325:329|246:385,2,180.0675,2|8|2,3:2|2:1|3:2,0:0:0:0:
324,364,119391,1,8,2:1:0:0:
238,284,119567,2,0,L|251:184,1,90.162,2|0,3:2|3:2,0:0:0:0:
362,155,119918,6,0,P|410:128|379:56,1,135,2|0,3:2|0:0,0:0:0:0:
360,51,120269,2,0,L|265:70,1,90.162,8|0,2:1|3:2,0:0:0:0:
202,0,120532,1,0,3:2:0:0:
202,0,120619,2,0,P|239:23|253:65,1,90.162,2|8,3:2|2:1,0:0:0:0:
183,115,120883,1,0,0:0:0:0:
183,115,120970,2,0,P|145:91|131:49,1,90.162,0|0,3:2|3:2,0:0:0:0:
10,133,121321,5,2,3:2:0:0:
41,131,121409,1,0,0:0:0:0:
70,142,121497,1,0,0:0:0:0:
93,163,121584,1,0,0:0:0:0:
106,192,121672,2,0,L|117:282,1,90.162,8|0,2:1|3:2,0:0:0:0:
103,315,121935,1,0,3:2:0:0:
103,315,122023,2,0,P|190:309|227:362,1,135.243,0|0,3:2|0:0,0:0:0:0:
215,361,122374,6,0,L|283:352,1,45.081,2|0,3:2|0:0,0:0:0:0:
338,342,122549,2,0,L|406:333,1,45.081,0|0,3:2|0:0,0:0:0:0:
460,323,122725,6,0,P|472:259|424:215,1,135.243,2|0,3:2|0:0,0:0:0:0:
401,217,123076,2,0,L|415:117,1,90.162,8|0,2:1|3:2,0:0:0:0:
403,104,123339,1,0,3:2:0:0:
367,77,123427,1,2,3:2:0:0:
323,75,123514,1,0,3:2:0:0:
286,100,123602,2,0,L|242:91,1,45.081,8|0,2:1|0:0,0:0:0:0:
177,129,123777,2,0,L|132:119,1,45.081,0|0,3:2|3:2,0:0:0:0:
26,30,123953,1,0,3:2:0:0:
26,30,124041,1,0,3:2:0:0:
26,30,124128,6,0,P|40:67|53:175,1,135.243,6|2,2:0|0:0,0:0:0:0:
30,192,124479,2,0,P|76:192|110:248,1,90.162,8|2,2:1|3:2,0:0:0:0:
100,256,124742,1,0,3:2:0:0:
100,256,124830,2,0,L|224:240,1,90.162,0|8,3:2|3:1,0:0:0:0:
292,280,125181,1,2,3:2:0:0:
247,174,125356,1,0,3:0:0:0:
234,342,125532,6,0,B|267:370|267:370|415:350,1,180.324,2|8,3:0|2:1,0:0:0:0:
507,384,126058,1,0,3:2:0:0:
507,384,126146,1,0,3:2:0:0:
507,384,126234,1,2,3:0:0:0:
512,272,126409,1,8,2:1:0:0:
422,231,126584,6,0,L|430:291,1,45.081,0|0,3:2|3:2,0:0:0:0:
356,288,126760,2,0,L|350:243,1,45.081,0|0,3:2|3:2,0:0:0:0:
274,245,126935,6,0,B|281:185|281:185|286:178|286:178|300:58,1,180.324,2|8,3:2|3:1,0:0:0:0:
233,11,127462,6,0,L|223:72,1,45.081,0|0,3:2|3:2,0:0:0:0:
213,129,127637,2,0,L|205:173,1,45,2|0,3:2|0:0,0:0:0:0:
136,226,127812,1,8,2:1:0:0:
33,100,127988,2,0,L|151:120,1,90,2|0,3:2|3:0,0:0:0:0:
131,244,128339,6,0,B|90:230|69:183|69:183|87:228|74:279,1,180.324,2|8,3:2|2:1,0:0:0:0:
223,349,128865,6,0,B|245:359|245:359|266:334,1,45.081,0|0,3:2|3:2,0:0:0:0:
248,265,129041,2,0,B|226:255|226:255|205:280,1,45.081,2|0,3:2|3:2,0:0:0:0:
225,358,129216,6,0,B|247:368|247:368|268:343,1,45.081,8|0,3:1|0:0,0:0:0:0:
246,256,129391,2,0,B|224:246|224:246|203:271,1,45.081,8|0,2:1|3:2,0:0:0:0:
143,327,129567,1,0,3:2:0:0:
322,296,129742,6,0,P|379:286|411:403,1,180.324,2|8,3:2|2:1,0:0:0:0:
485,239,130269,1,2,3:2:0:0:
485,239,130444,6,0,P|497:170|444:128,1,135.243,0|0,3:2|0:0,0:0:0:0:
435,147,130795,2,0,P|381:102|318:127,1,135.243,2|0,3:2|3:0,0:0:0:0:
316,138,131146,6,0,P|299:106|209:51,1,135.243,0|0,3:2|0:0,0:0:0:0:
208,71,131497,2,0,B|173:81|173:81|167:87|167:87|110:104,1,90.162,8|0,2:1|3:2,0:0:0:0:
94,101,131760,1,0,3:2:0:0:
94,101,131848,2,0,P|125:154|138:216,1,90.162,2|8,3:2|2:1,0:0:0:0:
34,267,132198,5,0,3:2:0:0:
34,267,132286,1,0,3:2:0:0:
34,267,132374,2,0,L|98:261,1,45.081,0|0,3:2|3:2,0:0:0:0:
138,336,132549,6,0,B|190:305|227:344|222:356|267:389|334:355,1,180.324,2|8,3:2|2:1,0:0:0:0:
313,232,133076,6,0,P|290:246|281:278,1,45.081,0|0,3:2|3:2,0:0:0:0:
402,273,133251,2,0,P|425:259|434:227,1,45.081,0|0,3:2|0:0,0:0:0:0:
282,243,133427,6,0,P|269:266|277:298,1,45.081,8|0,2:1|0:0,0:0:0:0:
433,262,133602,2,0,P|445:238|437:206,1,45.081,2|0,3:2|0:0,0:0:0:0:
370,158,133777,1,0,3:2:0:0:
477,90,133953,6,0,P|424:83|374:8,1,135.243,2|0,3:2|0:0,0:0:0:0:
458,10,134304,1,8,2:1:0:0:
323,86,134479,5,0,3:2:0:0:
300,83,134567,1,0,3:2:0:0:
278,80,134655,1,2,3:2:0:0:
178,4,134830,5,8,3:1:0:0:
196,34,134918,1,0,0:0:0:0:
199,69,135005,1,8,2:1:0:0:
182,101,135093,1,0,3:2:0:0:
164,132,135181,1,0,3:2:0:0:
159,167,135269,1,0,3:2:0:0:
171,201,135356,1,6,3:2:0:0:
59,50,146584,6,0,B|87:63|87:63|98:141,1,90.162,6|0,3:2|0:0,0:0:0:0:
86,154,146848,1,2,0:0:0:0:
86,154,146935,2,0,P|119:132|173:147,2,90.162,8|2|0,2:0|3:2|0:0,0:0:0:0:
22,243,147462,6,0,P|45:255|62:290,1,45.081,2|0,3:2|0:0,0:0:0:0:
141,239,147637,2,0,P|142:264|120:297,1,45.081,10|0,2:0|0:0,0:0:0:0:
203,340,147812,2,0,P|181:353|142:351,1,45.081,2|0,0:0|0:0,0:0:0:0:
32,372,147988,6,0,B|10:343|10:343|167:380,1,180.324,2|8,3:2|2:0,0:0:0:0:
291,316,148514,5,2,0:0:0:0:
284,275,148602,1,0,0:0:0:0:
279,235,148690,1,2,0:0:0:0:
387,341,148865,6,0,P|379:357|370:390,1,45.081,0|0,3:2|0:0,0:0:0:0:
463,271,149041,2,0,P|474:264|508:252,1,45.081,10|0,2:0|0:0,0:0:0:0:
468,362,149216,1,0,3:0:0:0:
380,251,149391,6,0,L|392:148,1,90.162,2|0,3:2|0:0,0:0:0:0:
409,147,149655,1,2,0:0:0:0:
409,147,149742,2,0,L|397:44,1,90.162,8|2,2:0|3:2,0:0:0:0:
377,36,150005,1,0,0:0:0:0:
377,36,150093,1,0,0:0:0:0:
275,115,150269,6,0,L|344:98,1,45.081,2|0,3:2|0:0,0:0:0:0:
227,42,150444,2,0,L|183:52,1,45.081,10|0,2:0|0:0,0:0:0:0:
203,135,150619,1,2,3:0:0:0:
108,81,150795,6,0,B|49:97|49:97|77:236,1,180.324,2|8,3:2|2:0,0:0:0:0:
86,313,151321,5,2,0:0:0:0:
83,304,151409,1,0,0:0:0:0:
81,295,151497,2,0,L|140:314,1,45.081,2|0,0:0|0:0,0:0:0:0:
200,334,151672,2,0,L|259:353,1,45.081,0|0,3:2|0:0,0:0:0:0:
325,343,151848,5,8,2:0:0:0:
368,334,151935,1,0,0:0:0:0:
412,344,152023,1,0,3:0:0:0:
426,358,152111,1,0,0:0:0:0:
421,378,152198,6,0,L|404:275,1,90.162,2|0,3:2|0:0,0:0:0:0:
420,259,152462,1,2,0:0:0:0:
420,259,152549,2,0,P|456:239|499:280,2,90.162,8|2|0,2:0|3:2|0:0,0:0:0:0:
299,262,153076,6,0,L|290:212,1,45.081,2|0,3:2|0:0,0:0:0:0:
235,163,153251,1,10,2:0:0:0:
308,85,153427,1,2,3:0:0:0:
154,7,153602,6,0,P|259:39|279:106,1,180.324,2|8,3:2|2:0,0:0:0:0:
162,160,154128,5,2,0:0:0:0:
168,124,154216,1,0,0:0:0:0:
175,89,154304,1,2,0:0:0:0:
27,64,154479,6,0,P|42:39|50:21,1,45.081,0|0,3:2|0:0,0:0:0:0:
121,127,154655,2,0,P|130:147|142:166,1,45.081,8|0,2:0|0:0,0:0:0:0:
33,175,154830,1,0,3:0:0:0:
64,259,155005,6,0,P|140:294|146:369,1,135.243,2|2,3:2|0:0,0:0:0:0:
52,367,155356,2,0,P|64:355|58:372,1,45.081,8|0,2:0|0:0,0:0:0:0:
177,357,155532,5,2,3:2:0:0:
191,339,155619,1,0,0:0:0:0:
197,318,155707,1,2,0:0:0:0:
193,221,155883,6,0,L|257:240,1,45.081,2|0,3:2|0:0,0:0:0:0:
316,260,156058,2,0,L|380:279,1,45.081,10|0,2:0|0:0,0:0:0:0:
439,299,156234,1,2,3:0:0:0:
380,344,156409,5,2,3:2:0:0:
331,75,156760,1,10,2:0:0:0:
407,119,156935,5,8,2:0:0:0:
404,127,157023,1,8,2:0:0:0:
402,134,157111,2,0,L|434:127,3,22.5405,10|8|8|8,2:0|2:0|2:0|2:0,0:0:0:0:
306,160,157462,2,0,L|283:164,3,22.5405,10|8|8|8,2:0|2:0|2:0|2:0,0:0:0:0:
185,166,157812,6,0,L|197:64,1,90.162,4|0,3:2|0:0,0:0:0:0:
187,44,158076,1,2,0:0:0:0:
187,44,158163,2,0,L|118:39,1,45.081,10|0,2:0|0:0,0:0:0:0:
90,97,158339,2,0,L|-11:89,1,90.162,2|0,3:2|0:0,0:0:0:0:
19,0,158690,5,2,3:2:0:0:
95,118,158865,1,10,2:0:0:0:
8,190,159041,1,2,3:2:0:0:
165,225,159216,6,0,B|143:196|143:196|-20:225,1,180.324,2|8,3:2|2:0,0:0:0:0:
0,355,159742,5,2,3:0:0:0:
3,332,159830,1,2,0:0:0:0:
7,310,159918,1,2,0:0:0:0:
161,302,160093,6,0,L|117:312,1,45.081,2|0,3:2|0:0,0:0:0:0:
182,371,160269,2,0,P|252:382|291:387,1,90.162,10|0,2:0|0:0,0:0:0:0:
375,216,160619,6,0,P|328:218|299:252,1,90.162,2|0,3:2|0:0,0:0:0:0:
350,341,160883,1,2,0:0:0:0:
350,341,160970,2,0,P|361:319|363:283,1,45.081,8|0,2:0|0:0,0:0:0:0:
406,224,161146,6,0,L|391:123,1,90.162,2|0,3:2|0:0,0:0:0:0:
372,28,161497,1,2,3:2:0:0:
472,102,161672,1,10,2:0:0:0:
460,2,161848,1,2,3:2:0:0:
325,96,162023,6,0,L|215:81,1,90.162,2|0,3:2|0:0,0:0:0:0:
176,15,162286,1,2,0:0:0:0:
176,15,162374,2,0,L|96:30,1,45.081,10|0,2:0|0:0,0:0:0:0:
65,98,162549,5,2,3:2:0:0:
65,98,162637,1,0,0:0:0:0:
65,98,162725,2,0,L|79:151,2,45.081,2|0|2,2:0|0:0|3:2,0:0:0:0:
173,195,163076,2,0,L|184:151,2,45.081,10|0|0,2:0|0:0|3:0,0:0:0:0:
43,234,163427,6,0,P|86:236|102:279,1,90.162,6|0,3:2|0:0,0:0:0:0:
81,356,163690,1,2,0:0:0:0:
81,356,163777,2,0,L|160:343,1,45.081,8|0,2:0|0:0,0:0:0:0:
192,284,163953,2,0,B|231:288|231:288|235:293|235:293|289:300,1,90.162,2|0,3:2|0:0,0:0:0:0:
353,361,164304,1,2,3:2:0:0:
361,250,164479,1,10,2:0:0:0:
266,384,164655,1,2,3:2:0:0:
418,303,164830,6,0,B|449:281|449:281|425:168,1,135.243,2|2,3:2|0:0,0:0:0:0:
406,179,165181,2,0,P|399:131|434:97,1,90.162,8|2,2:0|3:2,0:0:0:0:
512,74,165444,1,0,0:0:0:0:
512,74,165532,2,0,L|502:31,1,45.081
422,2,165707,1,0,3:2:0:0:
410,89,165883,2,0,B|352:101|352:101|340:128|340:128|282:143,1,135.243,10|0,2:0|0:0,0:0:0:0:
282,114,166234,6,0,L|294:4,1,90.162,2|0,3:2|0:0,0:0:0:0:
268,3,166497,1,2,0:0:0:0:
268,3,166584,2,0,P|215:12|171:40,2,90.162,8|2|0,2:0|3:2|0:0,0:0:0:0:
155,107,167111,6,0,P|178:111|208:103,1,45.081,2|0,3:2|0:0,0:0:0:0:
109,172,167286,2,0,P|117:194|138:216,1,45.081,10|0,2:0|0:0,0:0:0:0:
30,165,167462,2,0,P|14:183|6:212,1,45.081,2|0,3:0|0:0,0:0:0:0:
35,296,167637,6,0,B|75:278|122:308|108:324|143:356|197:322,1,162.291595056153,10|0,3:2|0:0,0:0:0:0:
245,235,167988,2,0,P|194:262|210:316,1,108.194396704102,10|0,3:2|0:0,0:0:0:0:
272,376,168251,5,2,0:0:0:0:
272,376,168339,2,0,L|347:362,1,54.0971983520508,2|2,2:0|0:0,0:0:0:0:
362,293,168514,2,0,L|308:283,1,54.0971983520508,2|0,3:2|0:0,0:0:0:0:
250,216,168690,2,0,L|409:186,1,162.291595056153,8|0,2:1|0:0,0:0:0:0:
441,203,169041,5,4,3:2:0:0:
417,157,169128,1,0,3:0:0:0:
446,114,169216,1,0,3:0:0:0:
389,24,169391,5,10,2:0:0:0:
353,22,169479,1,2,0:0:0:0:
324,43,169567,1,2,3:2:0:0:
312,79,169655,1,2,0:0:0:0:
287,99,169742,2,0,L|201:84,3,54.0971983520508,2|2|0|0,0:0|0:0|3:2|0:0,0:0:0:0:
169,197,170093,2,0,L|255:182,3,54.0971983520508,8|0|0|0,2:0|0:0|0:0|0:0,0:0:0:0:
148,106,170444,5,2,3:2:0:0:
107,95,170532,1,2,0:0:0:0:
90,60,170619,1,2,0:0:0:0:
46,59,170707,1,2,0:0:0:0:
23,94,170795,2,0,L|41:150,3,54.0971983520508,10|2|2|2,2:0|0:0|0:0|0:0,0:0:0:0:
87,237,171146,2,0,L|69:293,3,54.0971983520508,2|2|2|2,0:0|0:0|3:2|0:0,0:0:0:0:
169,197,171497,1,10,2:0:0:0:
169,197,171584,1,2,0:0:0:0:
169,197,171672,2,0,L|248:203,1,54.0971983520508
330,214,171848,5,0,3:2:0:0:
272,326,172023,1,2,0:0:0:0:
272,326,172111,1,2,0:0:0:0:
272,326,172198,2,0,L|258:241,1,54.0971983520508,10|0,2:0|0:0,0:0:0:0:
348,208,172374,5,0,3:2:0:0:
290,96,172549,1,2,0:0:0:0:
290,96,172637,1,2,0:0:0:0:
290,96,172725,2,0,L|276:181,1,54.0971983520508,2|0,3:2|0:0,0:0:0:0:
387,77,172900,5,10,2:0:0:0:
387,77,172988,1,2,0:0:0:0:
387,77,173076,2,0,L|373:-8,1,54.0971983520508,2|2,0:0|0:0,0:0:0:0:
470,140,173251,6,0,B|504:170|485:231|469:209|442:254|484:307,1,162.291595056153,2|0,3:2|0:0,0:0:0:0:
505,337,173602,6,0,P|440:310|400:362,1,108.194396704102,10|0,2:0|0:0,0:0:0:0:
405,357,173865,5,0,0:0:0:0:
405,357,173953,2,0,L|308:341,1,54.0971983520508,2|0,2:0|0:0,0:0:0:0:
278,334,174128,2,0,L|181:318,1,54.0971983520508,2|0,0:0|0:0,0:0:0:0:
151,311,174304,1,10,2:0:0:0:
151,311,174391,1,2,0:0:0:0:
151,311,174479,2,0,L|54:295,1,54.0971983520508,2|2,0:0|0:0,0:0:0:0:
23,293,174655,6,0,P|26:221|71:197,1,108.194396704102,6|2,3:2|0:0,0:0:0:0:
78,188,174918,1,0,0:0:0:0:
78,188,175005,2,0,L|95:117,3,54.0971983520508,10|2|2|2,2:0|0:0|3:2|0:0,0:0:0:0:
205,196,175356,2,0,L|217:248,3,54.0971983520508,2|2|2|0,0:0|0:0|3:2|0:0,0:0:0:0:
173,106,175707,1,10,2:0:0:0:
323,141,175883,1,0,3:2:0:0:
323,141,175970,1,0,3:2:0:0:
323,141,176058,6,0,L|389:124,3,54.0971983520508,2|2|2|0,3:2|0:0|0:0|0:0,0:0:0:0:
298,44,176409,2,0,L|245:57,3,54.0971983520508,10|2|10|10,2:0|0:0|2:0|2:0,0:0:0:0:
348,144,176760,6,0,L|414:127,1,54.0971983520508,8|0,2:0|0:0,0:0:0:0:
323,47,176935,2,0,L|270:60,1,54.0971983520508,2|0,3:2|0:0,0:0:0:0:
161,90,177111,6,0,L|201:205,1,108.194396704102,10|0,2:0|0:0,0:0:0:0:
275,209,177374,1,8,2:0:0:0:
275,209,177462,1,8,3:2:0:0:
0,166,177725,5,8,2:0:0:0:
0,166,177812,1,8,2:0:0:0:
75,108,177988,1,8,2:0:0:0:
0,65,178163,1,8,2:0:0:0:
6,294,178427,5,8,2:0:0:0:
10,303,178514,2,0,L|18:235,1,49.5891015106202,8|0,2:0|0:0,0:0:0:0:
90,271,178690,2,0,L|98:203,1,49.5891015106202,8|0,2:0|0:0,0:0:0:0:
170,239,178865,6,0,L|178:171,1,49.5891015106202,2|0,3:2|0:0,0:0:0:0:
246,203,179041,1,2,3:2:0:0:
251,215,179128,1,0,3:2:0:0:
255,224,179216,2,0,L|263:156,1,49.5891015106202,2|0,3:2|0:0,0:0:0:0:
335,192,179391,2,0,L|343:124,1,49.5891015106202,2|0,3:2|0:0,0:0:0:0:
415,160,179567,6,0,L|421:109,1,47.2580985580445,2|0,3:2|0:0,0:0:0:0:
429,80,180269,6,0,B|385:104|341:64|361:53|297:21|256:64,1,169.05375,6|0,3:2|0:0,0:0:0:0:
189,0,180619,2,0,L|198:73,1,56.35125,10|0,2:0|0:0,0:0:0:0:
118,13,180795,2,0,L|127:86,1,56.35125,2|0,2:0|0:0,0:0:0:0:
57,121,180970,6,0,B|82:156|82:156|224:130,1,169.05375,2|0,2:0|0:0,0:0:0:0:
296,179,181321,2,0,L|303:124,1,56.35125,2|0,3:2|0:0,0:0:0:0:
367,192,181497,2,0,L|374:137,1,56.35125,2|0,2:0|0:0,0:0:0:0:
437,240,181672,6,0,P|446:258|440:306,1,56.35125,2|0,3:2|0:0,0:0:0:0:
512,333,181848,2,0,P|500:349|456:368,1,56.35125,2|0,2:0|0:0,0:0:0:0:
393,376,182023,6,0,L|337:383,1,56.35125,10|0,2:0|0:0,0:0:0:0:
363,300,182198,2,0,L|307:307,1,56.35125,2|0,3:2|0:0,0:0:0:0:
239,376,182374,6,0,P|212:313|265:222,1,169.05375,2|0,3:2|3:0,0:0:0:0:
254,228,182725,2,0,P|185:267|83:242,1,169.05375,10|0,2:0|0:0,0:0:0:0:
92,268,183076,6,0,L|107:133,1,112.7025,2|0,3:2|0:0,0:0:0:0:
95,41,183427,6,0,P|81:26|92:45,1,56.35125,8|0,2:0|0:0,0:0:0:0:
27,133,183602,1,2,2:0:0:0:
165,100,183777,1,2,2:0:0:0:
34,127,183953,6,0,L|23:197,1,56.35125,8|0,2:0|0:0,0:0:0:0:
174,109,184128,2,0,L|183:54,1,56.35125,0|0,3:0|0:0,0:0:0:0:
40,200,184304,1,2,2:0:0:0:
193,220,184479,6,0,P|249:213|305:205,1,112.7025,2|2,3:2|2:0,0:0:0:0:
278,307,184830,1,10,2:0:0:0:
135,377,185005,5,2,3:2:0:0:
137,365,185093,1,2,3:2:0:0:
139,354,185181,2,0,L|230:380,1,56.35125,2|0,3:2|0:0,0:0:0:0:
270,320,185356,2,0,L|361:346,1,56.35125,0|0,3:0|0:0,0:0:0:0:
426,384,185532,5,10,2:0:0:0:
412,346,185619,1,0,0:0:0:0:
400,309,185707,1,0,3:0:0:0:
390,271,185795,1,0,0:0:0:0:
381,233,185883,6,0,B|367:166|419:147|419:147|437:183|474:192,1,169.05375,2|0,3:2|0:0,0:0:0:0:
492,112,186234,2,0,L|484:57,1,56.35125,10|0,2:0|0:0,0:0:0:0:
410,66,186409,2,0,L|418:121,1,56.35125,2|0,2:0|0:0,0:0:0:0:
349,161,186584,6,0,P|286:135|188:108,1,169.05375,2|0,2:0|0:0,0:0:0:0:
89,130,186935,1,2,3:2:0:0:
89,130,187111,1,2,2:0:0:0:
182,19,187286,6,0,L|192:84,1,56.35125,2|0,3:2|0:0,0:0:0:0:
245,164,187462,2,0,L|236:219,1,56.35125,2|0,2:0|0:0,0:0:0:0:
201,319,187637,5,10,2:0:0:0:
158,185,187812,1,2,2:0:0:0:
74,274,187988,6,0,L|133:268,1,56.35125,2|0,2:0|0:0,0:0:0:0:
211,334,188163,1,0,3:0:0:0:
211,334,188251,1,0,0:0:0:0:
211,334,188339,2,0,P|288:320|363:392,1,169.05375,10|0,2:0|0:0,0:0:0:0:
366,384,188690,6,0,L|378:306,1,56.35125,2|0,3:2|0:0,0:0:0:0:
450,290,188865,2,0,L|462:212,1,56.35125,2|0,3:2|0:0,0:0:0:0:
364,242,189041,1,8,2:0:0:0:
451,82,189216,6,0,P|438:106|409:123,1,56.35125,2|0,3:2|0:0,0:0:0:0:
392,33,189391,2,0,P|368:48|355:72,1,56.35125,2|0,2:0|0:0,0:0:0:0:
352,162,189567,1,8,2:0:0:0:
263,34,189742,5,0,3:0:0:0:
199,137,189918,2,0,L|261:126,1,56.35125,2|0,2:0|0:0,0:0:0:0:
122,76,190093,6,0,P|92:55|63:34,1,56.35125,2|0,3:2|0:0,0:0:0:0:
158,221,190269,2,0,P|180:234|203:267,1,56.35125,2|0,2:0|0:0,0:0:0:0:
66,157,190444,2,0,P|41:172|7:188,1,56.35125,10|0,2:0|0:0,0:0:0:0:
73,274,190619,5,2,2:0:0:0:
73,274,190707,1,0,0:0:0:0:
73,274,190795,2,0,P|62:296|53:331,3,56.35125,2|0|0|0,3:2|3:2|3:2|3:2,0:0:0:0:
181,384,191146,2,0,P|173:356|161:331,3,56.35125,10|0|0|0,3:2|0:0|3:0|3:0,0:0:0:0:
268,308,191497,6,0,P|329:281|408:368,1,169.05375,6|0,3:2|0:0,0:0:0:0:
405,369,191848,6,0,P|412:338|445:316,1,56.35125,10|0,2:0|0:0,0:0:0:0:
399,252,192023,2,0,P|429:242|464:260,1,56.35125,2|0,2:0|0:0,0:0:0:0:
315,205,192198,6,0,L|299:150,1,56.35125,2|0,2:0|0:0,0:0:0:0:
416,100,192374,2,0,L|400:154,1,56.35125,8|0,2:0|0:0,0:0:0:0:
380,268,192549,5,2,3:2:0:0:
380,268,192725,1,2,2:0:0:0:
229,199,192900,6,0,P|208:203|170:219,1,56.35125,2|0,3:2|0:0,0:0:0:0:
41,321,193076,2,0,P|77:304|112:287,1,56.35125,2|0,2:0|0:0,0:0:0:0:
65,159,193251,6,0,P|78:197|90:225,1,56.35125,10|0,2:0|0:0,0:0:0:0:
174,347,193427,2,0,P|186:308|196:275,1,56.35125,2|0,2:0|0:0,0:0:0:0:
253,190,193602,5,2,2:0:0:0:
136,114,193777,1,0,3:0:0:0:
136,114,193865,1,0,3:0:0:0:
136,114,193953,2,0,P|109:30|26:40,1,169.05375,10|0,2:0|0:0,0:0:0:0:
22,49,194304,6,0,B|67:85|125:41|117:28|189:8|237:48,1,225.405,2|8,3:2|2:0,0:0:0:0:
331,139,194830,1,2,2:0:0:0:
315,47,195005,6,0,P|323:20|346:0,1,56.35125,2|0,2:0|0:0,0:0:0:0:
402,91,195181,2,0,P|429:84|459:93,1,56.35125,10|0,2:0|0:0,0:0:0:0:
325,149,195356,1,2,3:2:0:0:
409,269,195532,2,0,P|412:239|421:205,1,56.35125,2|0,2:0|0:0,0:0:0:0:
447,344,195707,6,0,P|473:349|501:366,1,56.35125,2|0,3:2|0:0,0:0:0:0:
332,291,195883,2,0,P|313:264|289:232,1,56.35125
423,263,196058,1,10,2:0:0:0:
364,384,196234,1,2,2:0:0:0:
253,303,196409,6,0,P|174:302|106:385,1,169.05375,2|0,2:0|0:2,0:0:0:0:
111,384,196760,2,0,L|101:296,1,56.35125,10|0,2:0|0:0,0:0:0:0:
36,384,196935,2,0,L|26:296,1,56.35125,0|0,3:2|0:0,0:0:0:0:
42,247,197111,6,0,P|124:243|165:166,1,169.05375,2|0,3:2|0:0,0:0:0:0:
166,160,197462,2,0,P|179:188|210:207,1,56.35125,10|0,2:0|0:0,0:0:0:0:
266,160,197637,2,0,P|253:132|222:113,1,56.35125
163,77,197812,6,0,L|86:111,1,56.35125,2|0,2:0|0:0,0:0:0:0:
77,35,197988,2,0,L|128:12,1,56.35125,8|0,2:0|0:0,0:0:0:0:
241,35,198163,6,0,P|272:44|307:66,1,56.35125,2|0,3:2|0:0,0:0:0:0:
367,12,198339,2,0,P|374:43|373:84,1,56.35125
416,133,198514,6,0,P|439:119|478:119,1,56.35125,2|0,3:2|0:0,0:0:0:0:
318,179,198690,2,0,P|288:170|248:150,1,56.35125,2|0,2:0|0:0,0:0:0:0:
394,214,198865,6,0,P|408:245|414:282,1,56.35125,10|0,2:0|0:0,0:0:0:0:
381,347,199041,1,2,2:0:0:0:
204,264,199216,6,0,P|263:259|308:284,1,112.7025,2|0,2:0|3:0,0:0:0:0:
272,365,199567,1,10,2:0:0:0:
291,244,199742,1,0,3:0:0:0:
205,305,199918,6,0,B|155:302|110:320|110:320|84:361|84:361|39:360|-9:376,1,225.405,2|8,3:2|2:0,0:0:0:0:
28,285,200444,1,2,2:0:0:0:
117,299,200619,6,0,L|102:242,1,56.35125,2|0,2:0|0:0,0:0:0:0:
79,172,200795,2,0,L|64:115,1,56.35125,8|0,2:0|0:0,0:0:0:0:
96,37,200970,1,0,3:0:0:0:
0,0,201146,1,2,2:0:0:0:
110,47,201321,6,0,P|155:62|175:113,1,90.162,2|0,3:2|0:0,0:0:0:0:
243,206,201584,6,0,P|233:158|268:115,1,90.162,2|0,3:2|0:0,0:0:0:0:
314,12,201848,6,0,P|277:43|223:35,1,78.8917507510185,2|0,3:2|0:0,0:0:0:0:
333,107,202023,6,0,L|479:134,1,135.243,2|0,3:2|0:0,0:0:0:0:
489,215,202374,6,0,B|501:253|501:253|466:312,1,90.162,4|0,2:0|0:0,0:0:0:0:
402,246,202725,5,2,2:0:0:0:
6,74,224830,6,2,L|0:47,6,28.175625,2|2|2|2|2|2|2,2:0|0:0|0:0|0:0|0:0|0:0|0:0,0:0:0:0:
31,100,225181,6,0,P|87:95|113:165,1,135.243,6|0,2:0|0:0,0:0:0:0:
96,180,225532,2,0,P|149:178|173:219,1,90.162,8|0,3:1|3:2,0:0:0:0:
163,227,225795,1,0,3:2:0:0:
163,227,225883,2,0,L|259:217,1,90.162,2|8,3:2|2:1,0:0:0:0:
343,247,226234,1,2,3:2:0:0:
281,303,226409,1,0,3:0:0:0:
313,171,226584,6,0,B|283:75|283:75|319:41,1,135.243,2|0,3:2|0:0,0:0:0:0:
339,47,226935,2,0,P|393:78|430:77,1,90.162,8|0,2:1|3:2,0:0:0:0:
444,93,227198,1,0,3:2:0:0:
444,93,227286,2,0,P|482:51|526:19,2,90.162,2|8|8,3:2|3:1|2:1,0:0:0:0:
403,174,227812,2,0,L|413:236,1,45.081,0|0,3:2|3:2,0:0:0:0:
396,251,227988,6,0,P|437:272|424:363,1,135.243,2|0,3:2|0:0,0:0:0:0:
423,360,228339,2,0,L|353:351,1,45.081,8|0,2:1|0:0,0:0:0:0:
348,351,228514,1,0,3:2:0:0:
348,351,228602,1,0,3:2:0:0:
348,351,228690,1,2,3:2:0:0:
281,277,228865,1,8,2:1:0:0:
244,384,229041,6,0,L|227:326,1,45.081,2|0,3:2|0:0,0:0:0:0:
286,264,229216,2,0,L|269:206,1,45.081,0|0,3:2|0:0,0:0:0:0:
235,148,229391,6,0,P|183:157|144:235,1,135.243,2|0,3:2|0:0,0:0:0:0:
123,237,229742,2,0,P|162:272|155:320,1,90.162,8|0,2:1|3:2,0:0:0:0:
140,321,230005,1,0,3:2:0:0:
140,321,230093,1,2,3:2:0:0:
46,367,230269,1,8,2:1:0:0:
32,263,230444,5,0,3:2:0:0:
34,240,230532,1,0,3:2:0:0:
37,218,230619,1,0,3:2:0:0:
40,196,230707,1,0,3:2:0:0:
43,173,230795,6,0,P|108:162|187:149,1,135.243,2|0,3:2|0:0,0:0:0:0:
193,164,231146,2,0,P|231:136|222:84,1,90.162,8|0,2:1|3:2,0:0:0:0:
219,79,231409,1,0,3:2:0:0:
219,79,231497,1,2,3:2:0:0:
72,16,231672,6,0,L|4:34,1,45.081,8|0,2:1|0:0,0:0:0:0:
89,88,231848,2,0,L|132:76,1,45.081,2|0,3:2|0:0,0:0:0:0:
167,2,232023,1,0,3:2:0:0:
219,79,232198,6,0,B|270:63|306:122|288:133|320:185|378:160,1,180.324,2|8,3:2|2:1,0:0:0:0:
371,91,232725,1,0,3:2:0:0:
371,91,232812,1,0,3:2:0:0:
371,91,232900,1,2,3:2:0:0:
458,161,233076,6,0,P|478:153|511:150,1,45.081,8|0,2:1|0:0,0:0:0:0:
409,233,233251,2,0,P|428:241|454:262,1,45.081,0|0,3:2|3:2,0:0:0:0:
323,249,233427,2,0,P|331:269|334:302,1,45.081,0|0,3:2|3:2,0:0:0:0:
251,200,233602,6,0,P|191:167|118:130,1,135.243,6|0,2:0|0:0,0:0:0:0:
112,150,233953,2,0,P|98:95|43:67,1,90.162,8|0,2:1|3:0,0:0:0:0:
48,84,234216,1,0,3:2:0:0:
48,84,234304,2,0,L|31:22,1,45.081,2|0,3:2|0:0,0:0:0:0:
0,157,234479,2,0,L|11:200,1,45.081,8|0,3:1|0:0,0:0:0:0:
93,232,234655,1,2,3:2:0:0:
93,232,234830,1,0,3:0:0:0:
9,319,235005,6,0,B|69:292|112:379|112:379|165:355,1,180.324,2|8,3:0|2:1,0:0:0:0:
218,241,235532,5,0,3:2:0:0:
213,272,235619,1,0,3:2:0:0:
209,303,235707,2,0,P|225:324|229:358,3,45.081,2|0|8|0,3:0|3:2|2:1|0:0,0:0:0:0:
325,359,236058,6,0,P|344:344|369:331,1,45.081,0|0,3:2|3:2,0:0:0:0:
357,240,236234,2,0,P|337:251|319:265,1,45.081,0|0,3:2|3:2,0:0:0:0:
257,205,236409,6,0,P|251:142|240:64,1,135.243,2|0,3:2|0:0,0:0:0:0:
257,56,236760,2,0,P|286:93|327:89,1,90.162,8|2,3:1|3:2,0:0:0:0:
342,75,237023,1,0,3:2:0:0:
342,75,237111,2,0,B|395:72|395:72|419:104,1,90.162,0|8,3:2|2:1,0:0:0:0:
451,190,237462,1,2,3:2:0:0:
512,121,237637,1,0,3:0:0:0:
373,164,237812,6,0,B|348:212|348:212|391:345,1,180.324,2|8,3:2|2:1,0:0:0:0:
475,384,238339,1,0,3:2:0:0:
475,384,238427,1,0,3:2:0:0:
475,384,238514,1,2,3:2:0:0:
455,287,238690,1,8,3:1:0:0:
379,360,238865,6,0,L|318:352,1,45.081,8|0,2:1|3:2,0:0:0:0:
288,285,239041,2,0,L|227:277,1,45.081,0|0,3:2|3:2,0:0:0:0:
177,336,239216,6,0,B|139:320|139:320|95:369|31:342,1,135.243,2|0,3:2|0:0,0:0:0:0:
23,354,239567,2,0,P|6:309|23:261,1,90.162,8|0,2:1|3:2,0:0:0:0:
44,264,239830,1,0,3:2:0:0:
45,264,239918,2,0,B|73:242|73:242|64:179,1,90.162,2|8,3:2|2:1,0:0:0:0:
15,88,240269,1,2,3:2:0:0:
73,162,240444,1,0,3:2:0:0:
119,78,240619,6,0,B|181:56|240:127|221:198,1,180.324,2|8,3:2|2:1,0:0:0:0:
157,250,241146,1,0,3:2:0:0:
157,250,241234,1,0,3:2:0:0:
157,250,241321,1,2,3:2:0:0:
249,201,241497,6,0,L|305:211,1,45.081,8|0,0:1|0:0,0:0:0:0:
246,331,241672,2,0,P|239:307|230:285,1,45.081,0|0,3:2|3:2,0:0:0:0:
333,276,241848,1,0,3:2:0:0:
366,384,242023,6,0,B|376:346|376:346|400:325|400:325|422:258,1,135.243,2|0,3:2|0:0,0:0:0:0:
434,275,242374,2,0,L|422:169,1,90.162,8|2,2:1|3:2,0:0:0:0:
438,157,242637,1,0,3:2:0:0:
438,157,242725,2,0,P|399:178|346:167,1,90.162,0|8,3:2|2:1,0:0:0:0:
299,93,243076,2,0,L|248:104,1,45.081,2|0,3:2|0:0,0:0:0:0:
185,72,243251,2,0,L|134:83,1,45.081,0|0,3:2|0:0,0:0:0:0:
121,163,243427,6,0,P|194:176|207:241,1,135.243,2|0,3:2|0:0,0:0:0:0:
188,252,243777,2,0,P|202:308|211:351,1,90.162,8|0,2:1|3:2,0:0:0:0:
113,383,244128,1,2,3:2:0:0:
78,285,244304,6,0,P|105:292|134:306,1,45.081,8|0,3:1|0:0,0:0:0:0:
212,369,244479,2,0,P|233:360|255:355,1,45.594,8|0,2:1|3:2,0:0:0:0:
314,282,244655,1,0,3:2:0:0:
404,335,244830,6,0,B|431:304|431:304|409:188,1,135.243,2|0,3:2|0:0,0:0:0:0:
400,192,245181,2,0,P|458:191|489:159,1,90.162,8|0,3:1|3:2,0:0:0:0:
512,92,245532,1,2,3:2:0:0:
512,92,245619,1,0,3:0:0:0:
512,92,245707,1,8,2:1:0:0:
409,65,245883,6,0,L|421:121,1,45.081,2|0,3:2|0:0,0:0:0:0:
348,129,246058,2,0,L|338:84,1,45.081,0|0,3:0|0:0,0:0:0:0:
282,29,246234,6,0,B|230:9|191:44|211:65|164:91|116:64,1,180.324,2|8,3:2|2:1,0:0:0:0:
26,40,246760,5,0,3:2:0:0:
42,55,246848,1,0,3:2:0:0:
49,75,246935,2,0,L|42:130,3,45.081,2|0|8|0,3:2|3:2|3:1|0:0,0:0:0:0:
128,185,247286,2,0,L|123:141,3,45.081,8|0|0|0,2:1|3:2|3:2|3:2,0:0:0:0:
39,218,247637,6,0,B|54:291|54:291|50:298|50:298|63:358,1,135.243,2|0,3:2|0:0,0:0:0:0:
44,378,247988,2,0,P|99:357|137:350,1,90.162,8|0,2:1|3:2,0:0:0:0:
239,384,248339,1,2,3:2:0:0:
239,384,248427,1,0,0:0:0:0:
239,384,248514,1,8,2:1:0:0:
192,297,248690,6,0,L|182:242,1,45.081,2|0,3:2|0:0,0:0:0:0:
251,203,248865,2,0,L|259:158,1,45.081,0|0,3:2|0:0,0:0:0:0:
167,93,249041,6,0,P|140:156|40:115,2,180.0675,2|8|2,3:2|2:1|3:2,0:0:0:0:
233,43,249918,2,0,L|251:-20,1,45.081,8|0,2:1|0:0,0:0:0:0:
300,114,250093,2,0,L|288:157,1,45.594,0|0,3:2|3:2,0:0:0:0:
355,43,250269,1,0,3:2:0:0:
398,145,250444,5,2,3:2:0:0:
398,145,250532,1,0,0:0:0:0:
398,145,250619,2,0,P|406:171|411:206,1,45.081
396,221,250795,2,0,P|447:240|463:278,1,90.162,8|0,2:1|3:2,0:0:0:0:
481,297,251058,1,0,3:2:0:0:
481,297,251146,2,0,L|464:357,1,45.081,2|0,3:2|0:0,0:0:0:0:
396,307,251321,2,0,L|379:367,1,45.081,8|0,2:1|0:0,0:0:0:0:
301,376,251497,5,2,3:2:0:0:
269,253,251672,1,0,3:2:0:0:
155,325,251848,6,0,P|210:302|301:265,1,135.243,2|0,3:2|0:0,0:0:0:0:
269,253,252198,2,0,P|264:204|261:158,1,90.162,8|0,2:1|3:2,0:0:0:0:
289,141,252462,1,0,3:2:0:0:
289,141,252549,1,2,3:2:0:0:
336,55,252725,1,8,2:1:0:0:
206,20,252900,6,0,P|219:40|239:73,1,45.081,0|0,3:2|3:2,0:0:0:0:
154,93,253076,2,0,P|142:73|129:55,1,45.369,0|0,3:2|3:2,0:0:0:0:
63,8,253251,6,0,B|25:37|25:37|12:144,1,135.243,6|0,2:0|0:0,0:0:0:0:
13,157,253602,2,0,P|70:165|77:202,1,90.162,8|2,2:1|3:2,0:0:0:0:
80,228,253865,1,0,3:2:0:0:
80,228,253953,2,0,L|180:216,1,90.162,0|8,3:2|3:1,0:0:0:0:
231,313,254304,1,2,3:2:0:0:
177,196,254479,1,0,3:0:0:0:
280,171,254655,6,0,L|274:223,1,45.081,2|0,3:2|0:0,0:0:0:0:
346,225,254830,2,0,L|351:180,1,45.081
319,76,255005,5,8,2:1:0:0:
319,76,255181,1,0,3:2:0:0:
394,24,255356,6,0,P|415:18|452:19,1,45.081,2|0,3:2|0:0,0:0:0:0:
304,88,255532,2,0,P|281:87|259:80,1,45.081,8|0,2:1|0:0,0:0:0:0:
403,109,255707,6,0,P|444:130|460:183,1,90.162,0|0,3:2|3:2,0:0:0:0:
350,229,256058,5,2,3:2:0:0:
350,229,256146,1,0,0:0:0:0:
350,229,256234,2,0,P|357:175|357:165,2,45.081,0|0|8,0:0|0:0|3:1,0:0:0:0:
304,301,256584,5,0,3:2:0:0:
304,301,256672,1,0,3:2:0:0:
304,301,256760,2,0,P|280:287|254:280,1,45.081,2|0,3:2|0:0,0:0:0:0:
235,206,256935,2,0,P|210:219|191:238,1,45.081,8|0,2:1|0:0,0:0:0:0:
187,326,257111,6,0,L|123:308,1,45.081,2|0,3:2|0:0,0:0:0:0:
68,352,257286,2,0,L|4:334,1,45.081,0|0,3:0|0:0,0:0:0:0:
69,270,257462,6,0,B|98:238|80:199|69:208|55:176|85:140,1,135.243,2|0,3:2|0:0,0:0:0:0:
98,133,257812,2,0,L|162:124,1,45.081,8|0,2:1|0:0,0:0:0:0:
193,68,257988,2,0,L|257:59,1,45.081,0|0,3:2|3:2,0:0:0:0:
316,110,258163,5,2,3:2:0:0:
337,125,258251,1,0,3:2:0:0:
363,133,258339,1,8,3:1:0:0:
390,131,258427,1,0,3:0:0:0:
414,121,258514,1,8,2:1:0:0:
434,103,258602,1,0,3:2:0:0:
446,79,258690,1,0,3:2:0:0:
450,52,258777,1,0,3:2:0:0:
444,26,258865,5,4,3:2:0:0:
