osu file format v14

[General]
AudioFilename: audio.mp3
AudioLeadIn: 0
PreviewTime: 90380
Countdown: 0
SampleSet: Soft
StackLeniency: 0.4
Mode: 0
LetterboxInBreaks: 0
WidescreenStoryboard: 0

[Editor]
Bookmarks: 598,115685,202725,275685
DistanceSpacing: 0.7
BeatDivisor: 8
GridSize: 32
TimelineZoom: 2.799999

[Metadata]
Title:World's End Dancehall (ROCKETMAN remix)
TitleUnicode:ワールズエンド・ダンスホール(ROCKETMAN remix)
Artist:wowaka
ArtistUnicode:wowaka
Creator:Ducky-
Version:Dancing under the fallen sky with Hikan
Source:
Tags:Hikan Hokichi ヲワカ 現実逃避P escapismP GenjitsutoshiP Vocaloid Miku Hatsune 初音ミク Luka Megurine 巡音ルカ Dance Remix Vol. 1 Drum and Bass DnB Japanese -Project DIVA- f
BeatmapID:2328227
BeatmapSetID:1114556

[Difficulty]
HPDrainRate:5.5
CircleSize:4.2
OverallDifficulty:9.1
ApproachRate:9.4
SliderMultiplier:1.8
SliderTickRate:1

[Events]
//Background and Video events
0,0,"Untitled-1.png",0,0
//Break Periods
//Storyboard Layer 0 (Background)
//Storyboard Layer 1 (Fail)
//Storyboard Layer 2 (Pass)
//Storyboard Layer 3 (Foreground)
//Storyboard Layer 4 (Overlay)
//Storyboard Sound Samples

[TimingPoints]
620,350.877192982456,4,2,1,65,1,0
6234,-133.333333333333,4,2,1,65,0,0
11848,-111.111111111111,4,2,1,75,0,0
34567,-111.111111111111,4,2,1,65,0,0
45532,-100,4,2,1,75,0,0
55356,-83.3333333333333,4,2,1,75,0,0
56760,-99.9999999999999,4,2,1,65,0,0
66584,-66.6666666666667,4,2,1,65,0,0
67988,-99.9999999999999,4,2,1,75,0,0
77812,-76.9230769230769,4,2,1,75,0,0
81321,-66.6666666666667,4,2,1,75,0,0
89567,-83.3333333333333,4,2,1,75,0,0
89742,-333.333333333333,4,2,1,75,0,0
90444,-66.6666666666667,4,2,1,85,0,1
91497,-100,4,2,1,85,0,1
91848,-80,4,2,1,85,0,1
93251,-66.6666666666667,4,2,1,85,0,1
96058,-62.5,4,2,1,85,0,1
96409,-80,4,2,1,85,0,1
96760,-66.6666666666667,4,2,1,85,0,1
97462,-80,4,2,1,85,0,1
97812,-66.6666666666667,4,2,1,85,0,1
101146,-50,4,2,1,85,0,1
101321,-76.9230769230769,4,2,1,85,0,1
101672,-66.6666666666667,4,2,1,85,0,1
103076,-80,4,2,1,85,0,1
105883,-66.6666666666667,4,2,1,85,0,1
106760,-80,4,2,1,85,0,1
107286,-66.6666666666667,4,2,1,85,0,1
107637,-80,4,2,1,85,0,1
108690,-66.6666666666667,4,2,1,85,0,1
109742,-80,4,2,1,85,0,1
110970,-100,4,2,1,85,0,1
112198,-100,4,2,1,75,0,0
112432,-50,4,2,1,75,0,0
112900,-100,4,2,1,75,0,0
117462,-76.9230769230769,4,2,1,75,0,0
120269,-100,4,2,1,75,0,0
122725,-76.9230769230769,4,2,1,75,0,0
124128,-71.4285714285714,4,2,1,75,0,0
125532,-100,4,2,1,75,0,0
126935,-83.3333333333333,4,2,1,75,0,0
129391,-66.6666666666667,4,2,1,75,0,0
129742,-71.4285714285714,4,2,1,75,0,0
131146,-100,4,2,1,75,0,0
132198,-83.3333333333333,4,2,1,75,0,0
135356,-142.857142857143,4,2,1,55,0,0
146584,-100,4,2,1,65,0,0
150269,-66.6666666666667,4,2,1,65,0,0
150795,-100,4,2,1,65,0,0
155005,-83.3333333333333,4,2,1,65,0,0
156409,-83.3333333333333,4,2,1,35,0,0
156760,-83.3333333333333,4,2,1,45,0,0
157812,-66.6666666666667,4,2,1,75,0,0
158339,-100,4,2,1,75,0,0
159216,-66.6666666666667,4,2,1,75,0,0
160093,-100,4,2,1,75,0,0
161497,-83.3333333333333,4,2,1,75,0,0
162374,-66.6666666666667,4,2,1,75,0,0
162900,-100,4,2,1,75,0,0
164304,-83.3333333333333,4,2,1,75,0,0
166234,-100,4,2,1,75,0,0
167111,-83.3333333333333,4,2,1,75,0,0
168865,-66.6666666666667,4,2,1,75,0,0
169918,-125,4,2,1,75,0,0
173251,-71.4285714285714,4,2,1,75,0,0
175532,-100,4,2,1,75,0,0
175883,-62.5,4,2,1,75,0,0
176760,-125,4,2,1,75,0,0
177812,-100,4,2,1,75,0,0
178865,-50,4,2,1,75,0,0
179567,-349.65034965035,4,2,1,75,0,0
180269,-80,4,2,1,85,0,1
183076,-76.9230769230769,4,2,1,85,0,1
184830,-62.5,4,2,1,85,0,1
185356,-125,4,2,1,85,0,1
185532,-45.4545454545455,4,2,1,85,0,1
185883,-80,4,2,1,85,0,1
189041,-100,4,2,1,85,0,1
191146,-50,4,2,1,85,0,0
191497,-80,4,2,1,85,0,1
192549,-71.4285714285714,4,2,1,85,0,1
192900,-80,4,2,1,85,0,1
193251,-62.5,4,2,1,85,0,1
194304,-66.6666666666667,4,2,1,85,0,1
195181,-80,4,2,1,85,0,1
196760,-105.263157894737,4,2,1,85,0,1
197111,-80,4,2,1,85,0,1
198163,-66.6666666666667,4,2,1,85,0,1
198514,-100,4,2,1,85,0,1
198865,-66.6666666666667,4,2,1,85,0,1
199567,-100,4,2,1,85,0,1
199918,-55.5555555555556,4,2,1,85,0,1
200269,-100,4,2,1,85,0,1
200619,-55.5555555555556,4,2,1,85,0,1
200970,-100,4,2,1,85,0,1
201321,-44.4444444444445,4,2,1,75,0,1
202023,-100,4,2,1,75,0,1
202374,-33.3333333333333,4,2,1,75,0,1
202725,-133.333333333333,4,2,20,65,0,0
203777,-133.333333333333,4,2,20,65,0,0
204128,-133.333333333333,4,2,20,65,0,0
206409,-133.333333333333,4,2,20,65,0,0
206935,-133.333333333333,4,2,20,65,0,0
207988,-500,4,2,20,65,0,0
208163,-500,4,2,20,65,0,0
208339,-133.333333333333,4,2,20,65,0,0
209216,-133.333333333333,4,2,20,65,0,0
209742,-500,4,2,20,65,0,0
209918,-500,4,2,20,65,0,0
210093,-500,4,2,20,65,0,0
210269,-500,4,2,20,65,0,0
210444,-133.333333333333,4,2,20,65,0,0
212023,-133.333333333333,4,2,20,65,0,0
212549,-133.333333333333,4,2,20,65,0,0
213076,-133.333333333333,4,2,20,65,0,0
213251,-133.333333333333,4,2,20,65,0,0
214830,-133.333333333333,4,2,20,65,0,0
215356,-133.333333333333,4,2,20,65,0,0
216234,-133.333333333333,4,2,20,65,0,0
216409,-133.333333333333,4,2,20,65,0,0
216584,-133.333333333333,4,2,20,65,0,0
216760,-133.333333333333,4,2,20,65,0,0
217286,-133.333333333333,4,2,20,65,0,0
217462,-133.333333333333,4,2,20,65,0,0
217637,-133.333333333333,4,2,20,65,0,0
218163,-133.333333333333,4,2,20,65,0,0
220093,-133.333333333333,4,2,20,65,0,0
220269,-133.333333333333,4,2,20,65,0,0
220444,-133.333333333333,4,2,20,65,0,0
220970,-133.333333333333,4,2,20,65,0,0
224830,-80,4,2,1,65,0,0
225181,-83.3333333333333,4,2,1,75,0,0
225532,-66.6666666666667,4,2,1,75,0,0
225883,-100,4,2,1,75,0,0
226584,-83.3333333333333,4,2,1,75,0,0
228339,-66.6666666666667,4,2,1,75,0,0
228690,-100,4,2,1,75,0,0
229041,-76.9230769230769,4,2,1,75,0,0
229391,-83.3333333333333,4,2,1,75,0,0
231497,-100,4,2,1,75,0,0
232549,-66.6666666666667,4,2,1,75,0,0
233076,-83.3333333333333,4,2,1,75,0,0
233427,-66.6666666666667,4,2,1,75,0,0
233602,-83.3333333333333,4,2,1,75,0,0
233953,-66.6666666666667,4,2,1,75,0,0
235005,-83.3333333333333,4,2,1,75,0,0
235356,-100,4,2,1,75,0,0
236409,-80,4,2,1,85,0,0
238163,-66.6666666666667,4,2,1,85,0,0
238514,-100,4,2,1,85,0,0
238690,-83.3333333333333,4,2,1,85,0,0
240619,-66.6666666666667,4,2,1,85,0,0
240970,-83.3333333333333,4,2,1,85,0,0
243076,-66.6666666666667,4,2,1,85,0,0
243427,-83.3333333333333,4,2,1,85,0,0
244479,-66.6666666666667,4,2,1,85,0,0
244830,-83.3333333333333,4,2,1,85,0,0
247286,-83.3333333333333,4,2,1,75,0,0
247637,-83.3333333333333,4,2,1,85,0,0
249391,-66.6666666666667,4,2,1,85,0,0
250093,-100,4,2,1,85,0,0
250444,-80,4,2,1,85,0,0
250795,-66.6666666666667,4,2,1,85,0,0
252549,-83.3333333333333,4,2,1,85,0,0
253777,-66.6666666666667,4,2,1,85,0,0
254655,-83.3333333333333,4,2,1,85,0,0
255707,-66.6666666666667,4,2,1,85,0,0
256058,-100,4,2,1,85,0,0
256409,-83.3333333333333,4,2,1,85,0,0
258865,-83.3333333333333,4,2,1,75,0,0

[Colours]
Combo1 : 209,146,143
Combo2 : 177,29,29
Combo3 : 86,53,140

[HitObjects]
337,131,620,5,2,2:0:0:0:
196,111,970,5,2,2:0:0:0:
176,252,1146,1,2,2:0:0:0:
317,272,1321,1,2,2:0:0:0:
328,120,1672,5,2,2:0:0:0:
185,125,1848,1,2,2:0:0:0:
190,268,2023,1,2,2:0:0:0:
333,263,2198,1,2,2:0:0:0:
314,109,2374,5,2,2:0:0:0:
174,139,2725,1,2,2:0:0:0:
204,279,3076,1,2,2:0:0:0:
344,249,3427,1,2,2:0:0:0:
298,100,3953,5,2,2:0:0:0:
165,154,4128,1,2,2:0:0:0:
219,287,4655,5,2,2:0:0:0:
352,233,4830,1,2,2:0:0:0:
281,95,5005,1,2,2:0:0:0:
160,171,5181,1,2,2:0:0:0:
236,292,5356,5,2,2:0:0:0:
357,216,5532,1,2,2:0:0:0:
264,92,5883,1,2,2:0:0:0:
62,18,6234,6,0,P|114:39|120:124,1,135.243005149842,0|8,3:2|2:0,0:0:0:0:
142,96,6935,1,0,0:0:0:0:
47,138,7111,1,0,3:2:0:0:
96,259,7286,2,0,P|112:219|128:171,1,67.6215025749208,8|0,2:0|0:0,0:0:0:0:
168,303,7637,6,0,P|219:302|260:384,1,135.243005149842,0|8,3:2|2:0,0:0:0:0:
270,352,8339,1,0,0:0:0:0:
343,293,8514,1,0,3:2:0:0:
285,218,8690,2,0,P|334:205|358:195,1,67.6215025749208,8|0,2:0|0:0,0:0:0:0:
482,213,9041,6,0,P|426:167|396:104,1,135.243005149842,0|8,3:2|2:0,0:0:0:0:
385,127,9742,1,0,0:0:0:0:
416,34,9918,1,0,3:2:0:0:
300,0,10093,2,0,P|317:33|328:72,1,67.6215025749208,8|0,2:0|0:0,0:0:0:0:
265,131,10444,6,0,P|203:106|111:94,1,135.243005149842,0|8,3:2|2:0,0:0:0:0:
155,89,11146,1,0,0:0:0:0:
123,190,11321,1,0,3:2:0:0:
41,128,11497,1,8,2:0:0:0:
41,128,11848,6,0,P|54:71|66:28,1,81.1457975280763,4|0,2:0|0:0,0:0:0:0:
198,224,12198,1,8,2:1:0:0:
13,226,12374,5,0,3:0:0:0:
52,217,12462,1,0,3:2:0:0:
92,208,12549,1,0,3:2:0:0:
285,166,12725,5,8,3:1:0:0:
140,297,12900,1,2,3:2:0:0:
193,103,13076,1,0,3:2:0:0:
291,326,13251,6,0,L|284:382,1,40.5728987640381,0|0,3:0|0:0,0:0:0:0:
302,217,13427,2,0,L|307:176,1,40.5728987640381,0|0,0:0|0:0,0:0:0:0:
218,269,13602,1,8,2:1:0:0:
384,288,13777,5,0,3:2:0:0:
423,279,13865,1,0,3:2:0:0:
463,271,13953,2,0,L|454:322,1,40.5728987640381,0|0,3:0|0:0,0:0:0:0:
307,176,14128,2,0,L|299:136,1,40.5728987640381,8|0,2:1|0:0,0:0:0:0:
437,8,14304,5,0,3:2:0:0:
473,23,14391,1,0,3:2:0:0:
496,56,14479,1,0,3:2:0:0:
496,96,14567,1,0,3:2:0:0:
475,130,14655,6,0,P|434:111|381:103,1,81.1457975280763,0|0,3:2|2:1,0:0:0:0:
205,187,15005,1,8,3:1:0:0:
286,63,15181,6,0,L|306:11,1,40.5728987640381,0|0,3:2|3:2,0:0:0:0:
103,144,15356,2,0,L|117:181,1,40.5728987640381,0|0,3:2|0:0,0:0:0:0:
284,174,15532,6,0,L|304:122,1,40.5728987640381,8|0,2:1|0:0,0:0:0:0:
104,254,15707,2,0,L|118:291,1,40.5728987640381,2|0,3:2|0:0,0:0:0:0:
200,140,15883,1,0,3:0:0:0:
338,332,16058,6,0,P|395:313|424:307,1,81.1457975280763,0|0,3:2|0:0,0:0:0:0:
512,384,16409,1,8,2:1:0:0:
393,150,16584,5,0,3:2:0:0:
414,140,16672,1,0,3:2:0:0:
435,139,16760,1,0,3:2:0:0:
457,191,16848,1,0,3:2:0:0:
427,239,16935,1,8,3:1:0:0:
206,273,17111,5,0,3:2:0:0:
162,282,17198,1,0,3:2:0:0:
118,291,17286,2,0,L|130:348,1,40.5728987640381,8|0,0:1|3:2,0:0:0:0:
304,384,17462,6,0,L|286:288,1,81.1457975280763,0|0,3:2|0:0,0:0:0:0:
339,111,17812,1,8,2:1:0:0:
176,205,17988,5,0,3:2:0:0:
214,192,18076,1,0,3:2:0:0:
254,186,18163,1,0,3:2:0:0:
471,185,18339,1,8,2:1:0:0:
266,45,18514,1,2,3:2:0:0:
351,257,18690,1,0,3:2:0:0:
470,38,18865,6,0,L|529:31,1,40.5728987640381,0|0,3:2|0:0,0:0:0:0:
339,111,19041,2,0,L|298:115,1,40.5728987640381,0|0,3:0|0:0,0:0:0:0:
364,9,19216,1,8,2:1:0:0:
475,168,19391,5,0,3:2:0:0:
456,178,19479,1,0,3:2:0:0:
441,191,19567,2,0,L|449:230,1,40.5728987640381,0|0,3:2|0:0,0:0:0:0:
282,344,19742,2,0,L|273:383,1,40.5728987640381,8|0,2:1|0:0,0:0:0:0:
512,384,19918,5,0,3:2:0:0:
475,366,20005,1,0,3:2:0:0:
438,349,20093,1,0,3:2:0:0:
402,332,20181,1,0,3:2:0:0:
365,314,20269,6,0,P|352:269|336:221,1,80.9999975280763,0|0,3:2|0:0,0:0:0:0:
166,169,20619,1,8,2:1:0:0:
339,111,20795,6,0,L|414:122,1,40.5728987640381,0|0,3:2|3:2,0:0:0:0:
159,255,20970,2,0,L|118:249,1,40.5728987640381,0|0,3:2|0:0,0:0:0:0:
252,43,21146,6,0,L|327:54,1,40.5728987640381,8|0,2:1|0:0,0:0:0:0:
77,145,21321,2,0,L|36:139,1,40.5728987640381,2|0,3:2|0:0,0:0:0:0:
264,166,21497,1,0,3:2:0:0:
126,15,21672,6,0,P|147:51|156:95,1,81.1457975280763,0|0,3:2|0:0,0:0:0:0:
101,270,22023,1,8,2:1:0:0:
368,136,22198,5,0,3:2:0:0:
356,122,22286,1,0,3:2:0:0:
339,111,22374,1,0,3:2:0:0:
304,121,22462,1,0,3:2:0:0:
293,161,22549,2,0,L|307:214,1,40.8320987640381,8|0,2:1|0:0,0:0:0:0:
436,384,22725,5,0,3:2:0:0:
396,376,22812,1,0,3:2:0:0:
356,368,22900,2,0,L|344:317,1,40.5728987640381,0|0,3:2|3:2,0:0:0:0:
416,232,23076,6,0,P|456:230|497:228,1,81.1457975280763,4|0,2:0|0:0,0:0:0:0:
264,300,23427,1,8,2:1:0:0:
264,300,23602,2,0,P|301:255|311:225,1,81.1457975280763,0|0,3:0|3:2,0:0:0:0:
217,80,23953,5,8,3:1:0:0:
401,202,24128,1,2,3:2:0:0:
231,207,24304,1,0,3:0:0:0:
436,0,24479,6,0,P|455:56|475:97,1,81.1457975280763,0|0,3:0|0:0,0:0:0:0:
328,115,24830,1,8,2:1:0:0:
501,171,25005,5,0,3:2:0:0:
463,158,25093,1,0,3:2:0:0:
425,170,25181,1,0,3:0:0:0:
401,202,25269,1,0,0:0:0:0:
400,242,25356,1,8,2:1:0:0:
238,355,25532,5,0,3:2:0:0:
243,310,25619,1,0,3:2:0:0:
250,267,25707,1,0,3:2:0:0:
256,224,25795,1,0,3:2:0:0:
259,187,25883,6,0,L|168:205,1,80.9999975280763,0|0,3:2|0:0,0:0:0:0:
50,277,26234,1,8,3:1:0:0:
50,277,26409,2,0,P|95:294|114:325,1,81.1457975280763,0|0,3:2|3:2,0:0:0:0:
96,175,26760,1,8,2:1:0:0:
236,327,26935,1,2,3:2:0:0:
56,384,27111,1,0,3:0:0:0:
251,231,27286,6,0,P|285:239|329:289,1,81.1457975280763,0|0,3:2|0:0,0:0:0:0:
416,192,27637,1,8,2:1:0:0:
418,372,27812,5,0,3:2:0:0:
420,336,27900,1,0,3:2:0:0:
451,310,27988,1,0,3:2:0:0:
478,280,28076,1,0,3:2:0:0:
477,240,28163,1,8,3:1:0:0:
512,57,28339,5,8,2:1:0:0:
471,31,28427,1,0,3:2:0:0:
423,35,28514,1,0,3:2:0:0:
388,67,28602,1,0,3:2:0:0:
378,114,28690,6,0,P|331:87|297:84,1,81.1457975280763,0|0,3:2|0:0,0:0:0:0:
164,0,29041,1,8,2:1:0:0:
164,0,29216,2,0,P|194:44|204:79,1,81.1457975280763,0|0,3:2|3:2,0:0:0:0:
148,247,29567,1,8,2:1:0:0:
313,162,29742,1,2,3:2:0:0:
325,327,29918,1,0,3:2:0:0:
165,153,30093,6,0,L|81:169,1,81.1457975280763,0|0,3:2|0:0,0:0:0:0:
228,84,30444,1,8,2:1:0:0:
270,227,30619,5,0,3:2:0:0:
242,256,30707,1,0,3:2:0:0:
218,289,30795,1,0,3:2:0:0:
199,324,30883,1,0,0:0:0:0:
185,362,30970,1,8,2:1:0:0:
420,274,31146,5,0,3:2:0:0:
466,267,31234,1,0,3:2:0:0:
502,298,31321,1,0,3:2:0:0:
504,345,31409,1,0,3:2:0:0:
470,378,31497,6,0,L|478:298,1,81.1457975280763,0|0,3:2|0:0,0:0:0:0:
365,194,31848,1,8,2:1:0:0:
365,194,32023,2,0,P|418:185|446:177,1,81.1457975280763,0|0,3:2|3:2,0:0:0:0:
320,280,32374,1,8,2:1:0:0:
397,96,32549,1,0,3:2:0:0:
512,214,32725,1,0,3:2:0:0:
267,81,32900,6,0,L|174:63,1,81.1457975280763,8|0,3:2|0:0,0:0:0:0:
238,150,33251,2,0,L|145:132,1,81.1457975280763,8|0,3:2|0:0,0:0:0:0:
26,60,33602,5,8,3:2:0:0:
18,45,33690,1,0,3:2:0:0:
27,31,33777,1,8,3:2:0:0:
43,29,33865,1,0,3:2:0:0:
55,39,33953,5,8,3:2:0:0:
70,80,34041,1,0,3:2:0:0:
67,124,34128,1,8,3:2:0:0:
44,162,34216,1,0,3:2:0:0:
11,192,34304,6,0,P|38:214|67:266,1,81.1457975280763,6|0,3:2|0:0,0:0:0:0:
40,369,34567,1,2,0:0:0:0:
40,369,34655,2,0,P|76:342|134:340,1,81.1457975280763,8|2,2:0|3:2,0:0:0:0:
201,246,34918,1,0,0:0:0:0:
201,246,35005,1,2,0:0:0:0:
372,346,35181,6,0,L|357:396,1,40.5728987640381,2|0,3:2|0:0,0:0:0:0:
273,209,35356,2,0,L|261:170,1,40.5728987640381,10|0,2:0|0:0,0:0:0:0:
437,270,35532,1,2,0:0:0:0:
317,279,35707,6,0,P|280:293|211:355,1,121.718696292114,2|2,3:2|0:0,0:0:0:0:
389,182,36058,2,0,L|410:131,1,40.5728987640381,8|0,2:0|0:0,0:0:0:0:
430,293,36234,1,2,0:0:0:0:
430,293,36321,1,0,0:0:0:0:
430,293,36409,1,2,0:0:0:0:
273,209,36584,1,0,3:2:0:0:
344,33,36760,6,0,L|355:90,1,40.5728987640381,10|0,2:0|0:0,0:0:0:0:
500,211,36935,2,0,L|493:172,1,40.5728987640381,0|0,3:0|0:0,0:0:0:0:
512,47,37111,6,0,P|474:59|440:81,1,81.1457975280763,2|0,3:2|0:0,0:0:0:0:
389,182,37374,1,2,0:0:0:0:
389,182,37462,2,0,P|346:157|309:144,1,81.1457975280763,8|2,2:0|3:2,0:0:0:0:
265,56,37725,1,0,3:0:0:0:
265,56,37812,1,0,3:0:0:0:
52,168,37988,6,0,P|73:159|92:153,1,40.5728987640381,2|0,3:2|0:0,0:0:0:0:
199,274,38163,2,0,P|178:265|159:259,1,40.5728987640381,10|0,2:0|0:0,0:0:0:0:
174,159,38339,1,2,3:0:0:0:
73,269,38514,6,0,P|96:336|112:400,1,121.718696292114,2|2,3:2|0:0,0:0:0:0:
174,159,38865,2,0,L|195:108,1,40.5728987640381,8|0,2:0|0:0,0:0:0:0:
1,237,39041,1,2,3:0:0:0:
1,237,39128,1,0,3:0:0:0:
1,237,39216,1,2,3:2:0:0:
217,292,39391,1,0,3:2:0:0:
134,72,39567,6,0,L|145:6,1,40.5728987640381,8|0,2:0|0:0,0:0:0:0:
270,164,39742,2,0,L|276:203,1,40.5728987640381,8|0,0:0|0:0,0:0:0:0:
419,20,39918,6,0,L|518:2,1,81.1457975280763,2|0,3:2|0:0,0:0:0:0:
349,86,40181,1,2,0:0:0:0:
349,86,40269,2,0,P|389:108|422:148,1,81.1457975280763,8|2,2:0|3:2,0:0:0:0:
408,224,40532,1,0,0:0:0:0:
408,224,40619,1,2,0:0:0:0:
487,187,40795,6,0,P|497:175|511:149,1,40.5728987640381,2|0,3:2|0:0,0:0:0:0:
320,265,40970,2,0,P|329:285|342:298,1,40.4999987640381,10|0,2:0|0:0,0:0:0:0:
458,295,41146,1,2,3:0:0:0:
320,164,41321,6,0,P|283:180|224:242,1,121.718696292114,2|2,3:2|0:0,0:0:0:0:
185,339,41672,2,0,L|196:387,1,40.5728987640381,8|0,2:0|0:0,0:0:0:0:
133,204,41848,1,2,0:0:0:0:
133,204,41935,1,0,0:0:0:0:
133,204,42023,1,2,0:0:0:0:
258,309,42198,1,0,3:2:0:0:
99,298,42374,6,0,L|52:314,1,40.5728987640381,10|0,2:0|0:0,0:0:0:0:
229,194,42549,2,0,L|276:210,1,40.5728987640381,0|0,3:0|0:0,0:0:0:0:
98,124,42725,6,0,P|89:78|82:34,1,81.1457975280763,2|0,3:2|0:0,0:0:0:0:
286,0,42988,1,2,0:0:0:0:
286,0,43076,2,0,P|279:39|271:79,1,81.1457975280763,8|2,2:0|3:2,0:0:0:0:
213,179,43339,1,0,0:0:0:0:
213,179,43427,1,2,0:0:0:0:
177,48,43602,1,2,3:2:0:0:
396,168,43777,6,0,L|458:163,1,40.5728987640381,10|0,2:0|0:0,0:0:0:0:
266,272,43953,2,0,L|204:267,1,40.5728987640381,2|0,0:0|0:0,0:0:0:0:
414,384,44128,6,0,P|396:304|372:252,1,121.718696292114,2|0,3:2|0:0,0:0:0:0:
310,182,44479,5,10,2:0:0:0:
426,308,44655,1,0,0:0:0:0:
426,308,44742,1,0,0:0:0:0:
426,308,44830,1,2,2:0:0:0:
306,384,45005,6,0,L|317:334,1,40.5728987640381,0|0,3:2|0:0,0:0:0:0:
310,182,45181,1,10,2:0:0:0:
471,238,45356,1,8,0:0:0:0:
368,67,45532,6,0,L|388:175,1,90.225,6|0,3:2|0:0,0:0:0:0:
223,336,45795,1,2,0:0:0:0:
223,336,45883,2,0,L|244:234,1,90,8|2,2:0|0:0,0:0:0:0:
214,148,46146,1,0,0:0:0:0:
214,148,46234,1,2,0:0:0:0:
326,267,46409,6,0,L|388:256,1,45.369,2|0,3:2|0:0,0:0:0:0:
165,213,46584,1,10,0:0:0:0:
234,345,46760,1,2,3:0:0:0:
305,164,46935,6,0,L|276:18,1,135,2|2,3:2|0:0,0:0:0:0:
212,33,47286,2,0,L|269:41,1,45.369,8|0,2:0|0:0,0:0:0:0:
167,125,47462,1,2,0:0:0:0:
167,125,47549,1,2,0:0:0:0:
167,125,47637,1,2,0:0:0:0:
80,7,47812,1,0,3:2:0:0:
0,120,47988,6,0,L|93:102,1,90.225,10|0,2:0|0:0,0:0:0:0:
239,174,48339,6,0,P|200:203|183:241,1,90.225,2|0,3:2|0:0,0:0:0:0:
99,233,48602,1,0,0:0:0:0:
99,233,48690,2,0,P|104:282|131:319,1,90.225,8|2,2:0|3:2,0:0:0:0:
206,359,48953,1,2,0:0:0:0:
206,359,49041,1,2,0:0:0:0:
350,232,49216,6,0,L|358:176,1,45.369,0|0,3:2|0:0,0:0:0:0:
428,331,49391,2,0,L|433:378,1,45.369,10|0,2:0|0:0,0:0:0:0:
329,325,49567,1,2,3:0:0:0:
504,210,49742,6,0,L|485:113,1,90.225,2|0,3:2|0:0,0:0:0:0:
360,160,50093,1,10,2:0:0:0:
451,43,50269,1,2,0:0:0:0:
451,43,50356,1,2,0:0:0:0:
451,43,50444,2,0,L|510:53,1,45.369,2|0,2:0|0:0,0:0:0:0:
304,1,50619,5,2,3:2:0:0:
432,212,50795,1,10,2:0:0:0:
432,212,50883,1,2,0:0:0:0:
432,212,50970,1,2,0:0:0:0:
260,101,51146,6,0,P|301:88|346:78,1,90.225,4|0,3:2|0:0,0:0:0:0:
161,177,51409,1,2,0:0:0:0:
161,177,51497,2,0,P|199:197|238:222,1,90.225,8|2,2:0|3:2,0:0:0:0:
285,323,51760,1,2,0:0:0:0:
285,323,51848,1,2,0:0:0:0:
384,235,52023,6,0,L|431:246,1,45.369,2|0,3:2|0:0,0:0:0:0:
196,293,52198,2,0,L|149:304,1,45.369,10|0,2:0|0:0,0:0:0:0:
342,384,52374,1,2,0:0:0:0:
302,241,52549,6,0,L|323:83,1,135.081,2|2,3:2|0:0,0:0:0:0:
218,66,52900,2,0,L|267:60,1,45.369,8|0,2:0|0:0,0:0:0:0:
408,162,53076,1,2,0:0:0:0:
408,162,53163,1,2,0:0:0:0:
408,162,53251,1,2,0:0:0:0:
367,45,53427,1,0,3:2:0:0:
209,198,53602,2,0,P|168:165|130:161,1,90.225,10|0,2:0|0:0,0:0:0:0:
30,267,53953,6,0,P|50:210|58:180,1,90.225,2|0,3:2|0:0,0:0:0:0:
158,299,54216,1,2,0:0:0:0:
158,299,54304,2,2,P|170:342|186:386,1,90.225,10|2,2:0|3:2,0:0:0:0:
50,375,54567,1,2,0:0:0:0:
50,375,54655,1,2,0:0:0:0:
133,221,54830,1,2,3:2:0:0:
260,330,55005,6,0,L|307:338,1,45.369,10|0,2:0|0:0,0:0:0:0:
187,223,55181,2,0,L|140:231,1,45.369,2|0,0:0|0:0,0:0:0:0:
385,102,55356,6,0,P|419:165|394:207,1,108.194396704102,2|0,3:2|0:0,0:0:0:0:
382,201,55619,6,0,P|435:215|453:270,1,108.194396704102,8|0,2:0|0:0,0:0:0:0:
449,273,55883,6,0,L|511:260,1,54.0971983520508,8|0,3:2|0:0,0:0:0:0:
362,384,56058,6,0,L|380:224,1,162.291595056153,2|0,2:0|0:0,0:0:0:0:
479,38,56409,5,8,2:1:0:0:
479,38,56760,6,0,P|424:83|345:66,1,135.243,4|0,2:0|0:0,0:0:0:0:
402,0,57111,1,8,2:1:0:0:
242,52,57286,6,0,L|232:2,2,45.081,0|0|2,3:0|3:2|3:2,0:0:0:0:
311,157,57637,1,8,3:1:0:0:
181,159,57812,6,0,L|123:143,1,45.081,2|0,3:2|0:0,0:0:0:0:
274,267,57988,2,0,L|317:255,1,45.081,0|0,3:2|0:0,0:0:0:0:
153,383,58163,6,0,P|172:312|193:246,1,135.243,2|0,3:0|0:0,0:0:0:0:
49,305,58514,1,8,2:1:0:0:
0,195,58690,5,0,3:2:0:0:
44,200,58777,1,0,3:2:0:0:
87,214,58865,1,2,3:0:0:0:
242,151,59041,1,8,2:1:0:0:
64,91,59216,5,0,3:2:0:0:
65,70,59304,1,0,3:2:0:0:
81,59,59391,2,0,L|139:70,1,45.081,0|0,3:2|3:2,0:0:0:0:
252,0,59567,6,0,P|236:65|227:132,1,135.243,2|0,3:2|0:0,0:0:0:0:
284,228,59918,1,8,3:1:0:0:
400,140,60093,6,0,L|459:133,1,45.081,0|0,3:2|3:2,0:0:0:0:
272,241,60269,2,0,L|227:246,1,45.081,2|0,3:2|0:0,0:0:0:0:
449,214,60444,6,0,L|508:207,1,45.081,8|0,2:1|0:0,0:0:0:0:
321,315,60619,2,0,L|276:320,1,45.081,2|0,3:2|0:0,0:0:0:0:
315,156,60795,1,0,3:0:0:0:
432,383,60970,6,0,P|423:339|410:289,1,90.162,2|0,3:2|0:0,0:0:0:0:
475,136,61321,1,8,2:1:0:0:
297,161,61497,5,0,3:2:0:0:
303,205,61584,1,0,3:2:0:0:
309,250,61672,1,2,3:2:0:0:
408,64,61848,6,0,L|417:6,1,45.081,8|0,3:1|0:0,0:0:0:0:
343,7,62023,2,0,L|336:51,1,45.081,8|0,2:1|3:2,0:0:0:0:
129,138,62198,1,0,3:2:0:0:
132,115,62286,1,0,3:2:0:0:
135,93,62374,6,0,P|179:87|216:181,1,135.243,2|0,3:2|0:0,0:0:0:0:
127,271,62725,1,8,2:1:0:0:
44,194,62900,6,0,L|-1:204,2,45.081,0|0|2,3:2|3:2|3:2,0:0:0:0:
226,242,63251,1,8,2:1:0:0:
50,340,63427,6,0,L|37:395,1,45.081,2|0,3:2|0:0,0:0:0:0:
139,181,63602,2,0,L|128:137,1,45.081,0|0,3:2|0:0,0:0:0:0:
268,338,63777,6,0,B|291:373|291:373|194:346,1,135.243,2|0,3:2|0:0,0:0:0:0:
127,271,64128,1,8,2:1:0:0:
254,170,64304,5,0,3:2:0:0:
265,126,64391,1,0,3:2:0:0:
276,82,64479,1,2,3:2:0:0:
345,239,64655,1,8,2:1:0:0:
478,28,64830,5,0,3:2:0:0:
426,32,64918,1,0,3:2:0:0:
398,76,65005,2,0,L|410:127,1,45.081,0|0,3:2|3:2,0:0:0:0:
512,155,65181,6,0,P|459:192|445:271,1,135.243,2|0,3:2|0:0,0:0:0:0:
512,344,65532,1,8,2:1:0:0:
317,360,65707,6,0,L|392:342,1,45.081,0|0,3:2|3:2,0:0:0:0:
164,278,65883,2,0,L|89:260,1,45.081,2|0,3:2|0:0,0:0:0:0:
121,369,66058,6,0,L|46:351,1,45.081,8|0,2:1|0:0,0:0:0:0:
274,287,66234,2,0,L|349:269,1,45.081,2|0,3:2|0:0,0:0:0:0:
223,384,66409,5,0,3:2:0:0:
24,93,66584,6,0,B|69:50|69:50|42:200,1,202.864507724762,2|0,3:2|0:0,0:0:0:0:
149,46,66935,5,2,3:2:0:0:
195,32,67023,1,0,3:0:0:0:
240,49,67111,1,0,3:0:0:0:
268,88,67198,1,0,3:0:0:0:
254,122,67286,5,2,3:2:0:0:
237,117,67374,1,0,3:0:0:0:
220,126,67462,1,0,3:0:0:0:
212,150,67549,1,0,3:0:0:0:
242,187,67637,5,2,3:2:0:0:
306,157,67725,1,0,3:0:0:0:
364,198,67812,1,0,3:0:0:0:
358,269,67900,1,0,3:0:0:0:
285,264,67988,6,0,P|334:240|384:219,1,90.162,6|0,3:2|0:0,0:0:0:0:
472,160,68251,1,2,0:0:0:0:
472,160,68339,2,0,P|458:225|458:285,2,90.162,10|0|0,2:0|3:2|0:0,0:0:0:0:
426,0,68865,5,2,3:2:0:0:
512,68,69041,1,10,2:0:0:0:
390,139,69216,1,2,0:0:0:0:
317,45,69391,6,0,P|274:23|223:14,1,90.162,2|0,3:2|0:0,0:0:0:0:
156,79,69655,1,2,0:0:0:0:
156,79,69742,1,8,2:0:0:0:
217,215,69918,2,0,P|237:152|252:110,1,90.162,2|0,3:0|0:0,0:0:0:0:
73,285,70269,5,2,3:2:0:0:
63,275,70356,1,2,0:0:0:0:
52,268,70444,2,0,L|-4:282,1,45.081,10|0,2:0|0:0,0:0:0:0:
140,384,70619,2,0,L|183:373,1,45.081,0|0,3:0|0:0,0:0:0:0:
139,214,70795,5,2,3:2:0:0:
142,201,70883,1,2,0:0:0:0:
144,190,70970,1,2,0:0:0:0:
78,117,71146,1,8,2:0:0:0:
210,269,71321,5,2,3:2:0:0:
254,260,71409,1,2,0:0:0:0:
297,251,71497,1,2,0:0:0:0:
445,333,71672,1,0,3:2:0:0:
369,188,71848,1,8,2:0:0:0:
512,244,72023,1,0,3:0:0:0:
355,384,72198,6,0,L|374:252,1,90.162,0|0,3:2|0:0,0:0:0:0:
451,190,72462,1,2,0:0:0:0:
451,190,72549,1,8,2:0:0:0:
311,36,72725,5,2,0:0:0:0:
320,80,72812,1,2,0:0:0:0:
329,123,72900,1,0,0:0:0:0:
455,107,73076,6,0,L|512:122,1,45.081,0|0,3:2|0:0,0:0:0:0:
355,216,73251,1,8,2:0:0:0:
417,23,73427,1,0,3:0:0:0:
218,50,73602,5,2,3:2:0:0:
222,61,73690,1,2,0:0:0:0:
226,72,73777,1,2,0:0:0:0:
188,198,73953,1,8,2:0:0:0:
32,160,74128,5,2,3:2:0:0:
76,153,74216,1,2,0:0:0:0:
121,147,74304,1,2,0:0:0:0:
74,238,74479,2,0,L|61:294,1,45.081,0|0,3:2|0:0,0:0:0:0:
43,54,74655,1,8,2:0:0:0:
148,163,74830,1,0,3:0:0:0:
201,61,75005,6,0,L|308:50,1,90.162,0|0,3:2|0:0,0:0:0:0:
417,102,75356,1,8,2:0:0:0:
317,225,75532,1,2,0:0:0:0:
321,180,75619,1,2,0:0:0:0:
326,135,75707,1,2,0:0:0:0:
465,281,75883,6,0,L|482:341,1,45.081,0|0,3:2|0:0,0:0:0:0:
484,205,76058,1,8,2:0:0:0:
363,341,76234,1,0,3:0:0:0:
198,265,76409,5,2,3:2:0:0:
202,277,76497,1,2,0:0:0:0:
206,289,76584,1,2,0:0:0:0:
99,241,76760,1,8,2:0:0:0:
2,362,76935,1,2,3:2:0:0:
46,353,77023,1,2,0:0:0:0:
89,344,77111,1,2,0:0:0:0:
202,384,77286,5,0,3:2:0:0:
292,246,77462,1,8,2:0:0:0:
94,196,77637,2,0,L|101:269,1,45.081,0|0,3:0|0:0,0:0:0:0:
163,117,77812,6,0,P|173:59|181:0,1,117.210594644165,2|0,3:2|0:0,0:0:0:0:
306,119,78163,2,0,P|359:144|371:217,1,117.210594644165,10|0,2:0|0:0,0:0:0:0:
223,226,78427,1,2,0:0:0:0:
223,226,78514,2,0,L|303:213,1,58.6052973220826,2|0,2:0|0:0,0:0:0:0:
457,287,78690,2,0,L|399:296,1,58.6052973220826,0|0,3:2|0:0,0:0:0:0:
310,339,78865,5,10,2:0:0:0:
460,144,79041,5,2,0:0:0:0:
466,128,79128,1,2,0:0:0:0:
472,111,79216,5,4,3:2:0:0:
408,119,79304,1,0,0:0:0:0:
344,128,79391,1,0,0:0:0:0:
55,27,79567,5,10,2:0:0:0:
105,0,79655,1,2,0:0:0:0:
161,14,79742,1,2,3:2:0:0:
193,61,79830,1,2,0:0:0:0:
200,106,79918,5,2,0:0:0:0:
175,91,80005,1,2,0:0:0:0:
147,93,80093,1,2,3:2:0:0:
124,112,80181,1,2,0:0:0:0:
117,139,80269,2,0,P|135:167|141:202,1,58.6052973220826,8|0,2:0|0:0,0:0:0:0:
0,303,80444,2,0,P|7:274|24:251,1,58.6052973220826,0|0,0:0|0:0,0:0:0:0:
312,317,80619,5,0,3:2:0:0:
88,309,80795,1,2,0:0:0:0:
185,384,80970,5,10,2:0:0:0:
192,344,81058,1,2,0:0:0:0:
200,304,81146,1,2,0:0:0:0:
207,264,81234,1,2,0:0:0:0:
215,224,81321,2,0,L|127:243,1,67.6215025749208
376,367,81497,2,0,L|441:352,1,67.6215025749208,0|0,3:2|0:0,0:0:0:0:
360,173,81672,5,10,2:0:0:0:
348,195,81760,1,2,0:0:0:0:
334,221,81848,2,0,L|399:206,1,67.6215025749208,0|0,0:0|0:0,0:0:0:0:
504,210,82023,5,2,3:2:0:0:
244,1,82198,5,2,0:0:0:0:
258,66,82286,1,2,0:0:0:0:
273,132,82374,1,10,2:0:0:0:
2,321,82549,5,2,3:2:0:0:
257,113,82725,5,2,0:0:0:0:
242,178,82812,1,2,0:0:0:0:
227,244,82900,1,2,3:2:0:0:
274,356,83076,5,10,2:0:0:0:
259,290,83163,1,2,0:0:0:0:
244,225,83251,1,2,0:0:0:0:
14,20,83427,6,0,B|-5:74|43:105|59:86|127:130|90:195,1,202.864507724762,2|0,3:2|0:0,0:0:0:0:
2,321,83777,2,0,P|65:264|127:279,1,135.243005149842,10|0,2:0|0:0,0:0:0:0:
244,175,84041,1,2,0:0:0:0:
244,175,84128,2,0,L|235:244,1,67.6215025749208,2|0,2:0|0:0,0:0:0:0:
118,336,84304,2,0,L|109:269,1,67.6215025749208,0|0,3:2|0:0,0:0:0:0:
410,371,84479,6,0,P|272:328|190:310,1,202.864507724762,10|0,2:0|0:0,0:0:0:0:
458,267,84830,6,0,P|472:243|498:202,1,67.6215025749208,4|0,3:2|0:0,0:0:0:0:
435,85,85005,2,0,P|452:55|470:27,1,67.6215025749208,0|0,0:0|0:0,0:0:0:0:
321,25,85181,1,10,2:0:0:0:
354,73,85269,1,2,0:0:0:0:
334,123,85356,1,2,3:2:0:0:
371,159,85444,1,2,0:0:0:0:
354,203,85532,6,0,P|356:234|364:280,1,67.6215025749208,0|0,0:0|0:0,0:0:0:0:
244,175,85707,2,0,P|230:202|214:246,1,67.6215025749208,2|0,3:2|0:0,0:0:0:0:
162,95,85883,1,10,2:0:0:0:
45,362,86058,5,2,0:0:0:0:
66,353,86146,1,10,2:0:0:0:
89,351,86234,5,2,3:2:0:0:
72,328,86321,1,2,0:0:0:0:
58,304,86409,1,2,0:0:0:0:
52,263,86497,1,2,0:0:0:0:
62,224,86584,1,10,2:0:0:0:
86,191,86672,1,2,0:0:0:0:
85,150,86760,1,10,2:0:0:0:
56,120,86848,1,10,2:0:0:0:
19,103,86935,6,0,P|61:85|94:62,1,67.6215025749208,8|0,2:0|0:0,0:0:0:0:
232,107,87111,2,0,P|248:64|256:24,1,67.6215025749208,2|0,3:2|0:0,0:0:0:0:
402,58,87286,1,10,2:0:0:0:
283,294,87462,6,0,P|276:253|269:217,2,67.6215025749208,0|8|8,0:0|2:0|3:2,0:0:0:0:
512,384,87900,5,8,2:0:0:0:
407,363,87988,1,8,2:0:0:0:
435,139,88163,5,8,2:0:0:0:
181,248,88339,6,0,P|226:159|333:164,1,202.864507724762,8|8,2:0|2:0,0:0:0:0:
355,73,88690,6,0,P|355:57|362:77,1,67.6215025749208,8|0,2:0|0:0,0:0:0:0:
187,9,88865,6,0,P|203:38|213:74,1,67.6215025749208,8|0,2:0|0:0,0:0:0:0:
47,203,89041,6,2,L|113:190,1,67.5000025749208,2|2,3:2|3:2,3:2:0:0:
400,203,89216,1,2,3:2:0:0:
353,211,89304,1,0,3:2:0:0:
307,221,89391,2,2,L|324:129,1,67.5000025749208,2|2,3:2|3:2,3:2:0:0:
195,331,89567,6,0,L|204:384,1,54.4427983520508,2|0,3:2|0:0,0:0:0:0:
146,115,89742,6,0,P|120:106|102:47,1,94.5161971160888,2|0,3:2|0:0,0:0:0:0:
115,40,90444,6,0,L|160:257,1,202.864507724762,6|0,3:2|0:0,0:0:0:0:
95,278,90795,6,0,P|126:265|159:255,1,67.6215025749208,10|0,2:0|0:0,0:0:0:0:
239,153,90970,2,0,P|271:142|304:136,1,67.6215025749208,2|0,2:0|0:0,0:0:0:0:
444,252,91146,6,0,B|470:215|470:215|358:197|316:273,1,202.864507724762,2|0,2:0|0:0,0:0:0:0:
241,330,91497,6,0,P|269:338|288:351,1,45.081,2|0,3:2|0:0,0:0:0:0:
393,338,91672,2,0,P|400:366|398:389,1,45.081,2|0,2:0|0:0,0:0:0:0:
444,252,91848,6,0,L|459:177,1,56.35125,2|0,3:0|0:0,0:0:0:0:
410,58,92023,2,0,L|422:3,1,56.35125,2|0,2:0|0:0,0:0:0:0:
186,60,92198,6,0,L|241:72,1,56.35125,10|0,2:0|0:0,0:0:0:0:
376,143,92374,1,2,2:0:0:0:
376,143,92462,1,0,0:0:0:0:
376,143,92549,1,2,2:0:0:0:
159,281,92725,6,0,P|166:269|164:289,1,56.35125,0|0,3:0|0:0,0:0:0:0:
303,200,92900,6,0,P|295:172|281:132,1,56.35125,10|0,2:0|0:0,0:0:0:0:
274,358,93076,2,0,P|306:374|338:393,1,56.35125,0|0,3:0|0:0,0:0:0:0:
72,224,93251,6,0,L|5:236,1,67.6215025749208,2|0,3:2|0:0,0:0:0:0:
127,116,93427,2,0,L|70:78,1,67.6215025749208,2|0,0:0|0:0,0:0:0:0:
242,78,93602,2,0,L|229:11,1,67.6215025749208,8|0,2:0|0:0,0:0:0:0:
227,227,93777,1,2,2:0:0:0:
84,239,93953,6,0,L|21:263,1,67.6215025749208,2|0,2:0|0:0,0:0:0:0:
119,123,94128,2,0,L|57:95,1,67.6215025749208,8|0,2:0|0:0,0:0:0:0:
226,66,94304,2,0,L|201:3,1,67.6215025749208,0|0,3:0|0:0,0:0:0:0:
237,215,94479,1,2,2:0:0:0:
99,252,94655,6,0,L|41:286,1,67.6215025749208,2|0,3:2|0:0,0:0:0:0:
113,132,94830,6,0,L|47:115,1,67.6215025749208,2|0,2:0|0:0,0:0:0:0:
209,57,95005,6,0,L|174:0,1,67.6215025749208,8|0,2:0|0:0,0:0:0:0:
329,71,95181,6,0,L|345:5,1,67.6215025749208,2|0,2:0|0:0,0:0:0:0:
446,161,95356,2,0,L|429:226,1,67.6215025749208,2|0,2:0|0:0,0:0:0:0:
301,168,95532,5,0,3:0:0:0:
301,168,95619,1,0,3:0:0:0:
301,168,95707,2,0,L|370:151,1,68.0535025749208,10|0,2:0|0:0,0:0:0:0:
437,71,95883,2,0,L|506:54,1,68.0535025749208,0|0,3:0|0:0,0:0:0:0:
389,327,96058,6,0,P|323:272|165:271,1,216.3888,2|0,3:2|0:0,0:0:0:0:
173,276,96409,6,0,B|188:295|188:295|178:341,1,56.35125,10|0,2:0|0:0,0:0:0:0:
81,332,96584,2,0,B|96:351|96:351|86:397,1,56.35125,2|0,2:0|0:0,0:0:0:0:
0,194,96760,6,0,B|-14:162|-14:162|55:156|75:183|54:193|91:231|159:202,1,202.864507724762,2|0,2:0|0:0,0:0:0:0:
260,16,97111,6,0,L|245:90,1,67.6215025749208,2|0,3:2|0:0,0:0:0:0:
393,216,97286,2,0,L|467:231,1,67.6215025749208,2|0,2:0|0:0,0:0:0:0:
223,282,97462,6,0,P|198:294|173:309,1,56.35125,2|0,3:0|0:0,0:0:0:0:
366,125,97637,2,0,P|391:93|404:66,1,56.35125,2|0,2:0|0:0,0:0:0:0:
197,151,97812,6,0,P|164:141|132:131,1,67.6215025749208,10|0,2:0|0:0,0:0:0:0:
345,300,97988,2,0,P|361:327|377:363,1,67.6215025749208,2|0,2:0|0:0,0:0:0:0:
5,298,98163,5,2,2:0:0:0:
174,310,98339,1,0,3:0:0:0:
30,372,98514,6,0,L|15:295,1,67.6215025749208,10|0,2:0|0:0,0:0:0:0:
199,384,98690,2,0,L|184:307,1,67.6215025749208,0|0,3:0|0:0,0:0:0:0:
54,214,98865,6,0,P|28:195|10:159,1,67.6215025749208,2|0,3:2|0:0,0:0:0:0:
94,66,99041,2,0,P|97:34|119:1,1,67.6215025749208,2|0,0:0|0:0,0:0:0:0:
243,27,99216,2,0,P|271:14|311:16,1,67.6215025749208,8|0,2:0|0:0,0:0:0:0:
183,143,99391,1,2,2:0:0:0:
38,197,99567,6,0,P|16:174|4:136,1,67.6215025749208,2|0,2:0|0:0,0:0:0:0:
103,57,99742,2,0,P|111:26|139:-2,1,67.6215025749208,8|0,2:0|0:0,0:0:0:0:
256,45,99918,2,0,P|286:37|325:46,1,67.6215025749208,0|0,3:0|0:0,0:0:0:0:
177,150,100093,1,2,2:0:0:0:
24,178,100269,6,0,P|6:152|1:112,1,67.6215025749208,2|0,3:2|0:0,0:0:0:0:
114,51,100444,6,0,P|127:22|159:-1,1,67.6215025749208,2|0,2:0|0:0,0:0:0:0:
266,66,100619,6,0,P|297:63|334:79,1,67.6215025749208,10|0,2:0|0:0,0:0:0:0:
329,206,100795,6,0,P|346:231|351:271,1,67.6215025749208,2|0,2:0|0:0,0:0:0:0:
232,373,100970,1,2,2:0:0:0:
92,219,101146,6,0,P|133:232|186:257,1,90.162,0|0,3:0|0:0,0:0:0:0:
341,287,101321,2,0,P|352:307|361:343,1,58.6052973220826,10|0,3:2|0:0,0:0:0:0:
232,373,101497,5,0,3:0:0:0:
253,299,101584,1,0,3:0:0:0:
274,221,101672,2,0,L|238:16,1,202.864507724762,6|0,3:2|0:0,0:0:0:0:
108,28,102023,6,0,B|94:32|94:32|165:48,1,67.6215025749208,10|0,2:0|0:0,0:0:0:0:
188,120,102198,2,0,B|174:124|174:124|245:140,1,67.6215025749208,2|0,2:0|0:0,0:0:0:0:
430,82,102374,6,0,B|401:40|401:40|316:74|351:167,1,202.864507724762,2|0,2:0|0:0,0:0:0:0:
484,216,102725,6,0,P|454:193|417:182,1,67.6215025749208,2|0,3:2|0:0,0:0:0:0:
337,324,102900,2,0,P|362:302|394:290,1,67.6215025749208,2|0,2:0|0:0,0:0:0:0:
481,384,103076,6,0,L|426:369,1,56.35125,2|0,3:2|0:0,0:0:0:0:
327,233,103251,2,0,L|273:219,1,56.35125,2|0,2:0|0:0,0:0:0:0:
220,384,103427,6,0,L|234:329,1,56.35125,10|0,2:0|0:0,0:0:0:0:
191,212,103602,1,2,2:0:0:0:
191,212,103690,1,2,0:0:0:0:
191,212,103777,2,0,L|212:151,1,56.35125,2|0,2:0|0:0,0:0:0:0:
300,242,103953,6,0,L|355:258,1,56.35125,0|0,3:0|0:0,0:0:0:0:
148,294,104128,6,0,B|118:274|75:304|89:329|35:363|-1:333,1,169.05375,10|0,2:0|0:0,0:0:0:0:
57,218,104479,6,0,L|45:164,1,56.35125,2|0,3:2|0:0,0:0:0:0:
120,79,104655,2,0,L|107:24,1,56.35125,2|0,0:0|0:0,0:0:0:0:
198,149,104830,6,0,P|230:129|266:129,1,56.35125,8|0,2:0|0:0,0:0:0:0:
292,38,105005,2,0,P|328:46|354:71,1,56.35125,2|0,2:0|0:0,0:0:0:0:
452,79,105181,6,0,P|446:51|429:29,1,56.35125,2|0,2:0|0:0,0:0:0:0:
336,61,105356,2,0,P|312:45|284:41,1,56.35125,10|0,2:0|0:0,0:0:0:0:
242,130,105532,2,0,P|214:135|192:152,1,56.35125,2|0,3:2|0:0,0:0:0:0:
224,245,105707,2,0,P|208:268|204:296,1,56.35125,2|0,2:0|0:0,0:0:0:0:
346,323,105883,6,0,B|281:333|281:333|249:372|249:372|150:387,1,202.864507724762,2|0,3:2|0:0,0:0:0:0:
0,353,106234,6,0,P|23:331|63:323,1,67.6215025749208,10|0,2:0|0:0,0:0:0:0:
65,235,106409,2,0,P|95:243|122:274,1,67.6215025749208,2|0,2:0|0:0,0:0:0:0:
213,351,106584,5,2,2:0:0:0:
213,351,106672,1,2,0:0:0:0:
213,351,106760,2,0,L|199:267,1,56.35125,0|0,3:0|0:0,0:0:0:0:
308,205,106935,6,0,L|392:191,1,56.35125,10|0,2:0|0:0,0:0:0:0:
182,96,107111,6,0,L|191:151,1,56.35125,0|0,3:0|0:0,0:0:0:0:
307,310,107286,6,0,P|448:329|473:379,1,202.864507724762,2|0,3:2|0:0,0:0:0:0:
471,384,107637,6,0,B|477:330|477:330|481:326|481:326|489:250,1,112.7025,10|0,2:0|0:0,0:0:0:0:
382,44,107988,5,2,2:0:0:0:
445,203,108163,1,8,2:0:0:0:
510,92,108339,6,0,B|474:75|428:96|441:116|389:156|338:119,1,168.75,2|0,3:2|0:0,0:0:0:0:
238,0,108690,6,0,L|252:82,1,67.6215025749208,2|0,3:2|0:0,0:0:0:0:
191,151,108865,2,0,L|202:217,1,67.6215025749208,2|0,2:0|0:0,0:0:0:0:
82,90,109041,6,0,L|164:76,1,67.6215025749208,10|0,2:0|0:0,0:0:0:0:
289,141,109216,2,0,L|355:129,1,67.6215025749208,2|0,2:0|0:0,0:0:0:0:
263,242,109391,5,2,2:0:0:0:
263,242,109479,1,2,0:0:0:0:
263,242,109567,2,0,P|225:221|188:217,1,67.6215025749208,0|0,3:0|0:0,0:0:0:0:
29,166,109742,6,0,P|85:187|93:294,1,169.05375,10|0,2:0|0:0,0:0:0:0:
30,341,110093,5,2,3:2:0:0:
30,341,110269,1,2,3:2:0:0:
255,72,110444,6,0,L|241:9,1,56.35125,8|0,2:0|0:0,0:0:0:0:
172,1,110619,1,2,2:0:0:0:
391,226,110795,5,2,2:0:0:0:
391,226,110970,2,0,L|399:154,1,45.081,8|0,2:0|0:0,0:0:0:0:
331,140,111146,2,0,L|222:157,1,90.162,0|2,3:0|2:0,0:0:0:0:
159,211,111497,5,2,3:2:0:0:
220,336,111672,1,2,2:0:0:0:
166,121,111848,5,10,2:0:0:0:
122,105,111935,1,8,2:0:0:0:
77,119,112023,1,10,2:0:0:0:
49,155,112111,1,8,2:0:0:0:
47,202,112198,1,8,2:0:0:0:
60,341,112432,6,2,P|45:325|50:341,7,60
36,251,112900,6,0,B|69:232|112:255|100:263|131:292|175:274,1,135.243,6|0,2:0|0:0,0:0:0:0:
151,193,113251,2,0,L|149:145,1,45.081,8|0,2:1|0:0,0:0:0:0:
284,340,113427,2,0,L|282:384,1,45.081,0|0,3:0|3:2,0:0:0:0:
263,232,113602,5,2,3:2:0:0:
263,232,113690,1,0,0:0:0:0:
263,232,113777,1,8,3:1:0:0:
174,357,113953,1,2,3:2:0:0:
362,274,114128,1,0,3:2:0:0:
287,65,114304,6,0,P|207:76|183:134,1,135.243,2|0,3:0|0:0,0:0:0:0:
266,187,114655,2,0,L|261:231,1,45.081,8|0,2:1|0:0,0:0:0:0:
372,65,114830,2,0,L|368:21,1,45.081,0|0,3:2|3:2,0:0:0:0:
377,183,115005,5,2,3:0:0:0:
377,183,115093,1,2,3:0:0:0:
377,183,115181,1,8,2:1:0:0:
202,111,115356,1,0,3:2:0:0:
362,274,115532,1,0,3:2:0:0:
454,209,115707,6,0,L|468:57,1,135.243,2|0,3:2|0:0,0:0:0:0:
368,21,116058,2,0,L|375:97,1,45.081,8|0,3:1|0:0,0:0:0:0:
481,164,116234,2,0,L|485:119,1,45.081,0|0,3:2|3:2,0:0:0:0:
362,274,116409,1,2,3:2:0:0:
512,310,116584,2,0,B|414:287|443:386|307:353,1,180.324,8|0,2:1|3:0,0:0:0:0:
346,359,117111,6,0,L|357:208,1,135.243,2|0,3:2|0:0,0:0:0:0:
394,158,117462,2,0,P|428:195|424:237,1,58.6052973220826,8|0,2:1|0:0,0:0:0:0:
270,282,117637,5,0,3:2:0:0:
236,254,117725,1,0,3:2:0:0:
217,215,117812,1,2,3:2:0:0:
216,171,117900,1,0,3:2:0:0:
233,132,117988,2,0,L|303:127,1,58.6052973220826,8|0,3:1|0:0,0:0:0:0:
464,88,118163,6,0,L|369:76,1,58.6052973220826,8|0,2:1|3:2,0:0:0:0:
474,15,118339,2,0,L|379:3,1,58.6052973220826,0|0,3:2|3:2,0:0:0:0:
301,201,118514,6,0,B|363:196|363:196|399:227|399:227|502:219,1,175.815891966248,2|0,3:2|0:0,0:0:0:0:
508,159,118865,1,8,2:1:0:0:
333,287,119041,1,2,3:2:0:0:
429,357,119216,5,2,3:2:0:0:
430,357,119304,1,2,3:2:0:0:
430,357,119391,2,0,L|442:245,1,58.6052973220826,8|0,2:1|0:0,0:0:0:0:
301,201,119567,1,2,3:2:0:0:
512,289,119742,1,0,3:2:0:0:
286,368,119918,6,0,B|264:326|289:283|289:283|326:229|281:162,1,175.815891966248,2|0,3:2|0:0,0:0:0:0:
232,160,120269,2,0,L|160:168,1,45.081,8|0,2:1|0:0,0:0:0:0:
370,94,120444,2,0,L|442:102,1,45.081,0|0,3:2|3:2,0:0:0:0:
275,22,120619,5,2,3:2:0:0:
275,22,120707,1,2,0:0:0:0:
275,22,120795,2,0,L|285:110,1,45.081,8|0,2:1|0:0,0:0:0:0:
321,183,120970,1,0,3:2:0:0:
437,84,121146,1,0,3:2:0:0:
298,199,121321,6,0,P|326:238|434:230,1,135.243,2|0,3:2|0:0,0:0:0:0:
480,223,121672,2,0,L|473:165,1,45.081,8|0,2:1|0:0,0:0:0:0:
438,349,121848,6,0,B|425:363|425:363|406:228,1,135.243,0|0,3:2|0:0,0:0:0:0:
395,176,122198,1,8,2:1:0:0:
465,108,122374,6,0,L|397:99,1,45.081,2|0,3:2|0:0,0:0:0:0:
326,90,122549,2,0,L|258:81,1,45.081,0|0,3:2|0:0,0:0:0:0:
173,200,122725,6,0,B|203:213|203:213|189:45,1,175.815891966248,2|0,3:2|0:0,0:0:0:0:
25,85,123076,2,0,P|117:130|141:108,1,117.210594644165,8|0,2:1|3:2,0:0:0:0:
191,70,123339,1,0,3:2:0:0:
232,64,123427,1,2,3:2:0:0:
273,58,123514,1,0,3:2:0:0:
314,52,123602,2,0,L|308:117,1,58.6052973220826,8|0,2:1|0:0,0:0:0:0:
363,250,123777,6,0,P|384:192|296:186,1,175.815891966248,0|0,3:2|3:2,0:0:0:0:
219,285,124128,6,0,P|318:282|390:333,1,189.340194232178,6|2,2:0|0:0,0:0:0:0:
455,310,124479,1,8,2:1:0:0:
504,377,124655,6,0,L|489:154,1,189.340194232178,2|0,3:2|0:0,0:0:0:0:
512,118,125005,1,8,3:1:0:0:
297,183,125181,1,2,3:2:0:0:
405,218,125356,5,0,3:0:0:0:
405,218,125444,1,0,3:0:0:0:
405,218,125532,2,0,P|414:147|424:96,1,90.162,2|0,3:0|0:0,0:0:0:0:
300,17,125883,2,0,P|307:61|312:106,1,90.162,8|0,2:1|3:2,0:0:0:0:
227,192,126234,5,2,3:0:0:0:
227,192,126321,1,2,3:0:0:0:
227,192,126409,2,0,P|182:184|166:183,1,45.081,8|0,2:1|0:0,0:0:0:0:
127,117,126584,6,0,P|136:71|141:41,1,45.081,0|0,3:2|3:2,0:0:0:0:
264,269,126760,2,0,P|255:315|250:345,1,45.081,0|0,3:2|3:2,0:0:0:0:
36,257,126935,6,0,P|107:190|163:222,1,162.291595056153,2|0,3:2|0:0,0:0:0:0:
183,280,127286,2,0,L|171:370,2,54.0971983520508,8|0|0,3:1|3:0|3:2,0:0:0:0:
263,124,127637,1,2,3:2:0:0:
175,50,127812,6,0,L|183:104,1,54.0971983520508,8|0,2:1|0:0,0:0:0:0:
344,186,127988,2,0,B|222:169|222:169|256:217,1,162.291595056153,2|0,3:2|0:0,0:0:0:0:
277,275,128339,6,0,P|363:274|403:334,1,162.291595056153,2|0,3:2|0:0,0:0:0:0:
409,340,128690,2,0,L|418:270,1,54.0971983520508,8|0,2:1|0:0,0:0:0:0:
482,80,128865,5,0,3:2:0:0:
484,106,128953,1,0,3:2:0:0:
487,133,129041,1,2,3:2:0:0:
489,160,129128,1,0,3:2:0:0:
492,187,129216,2,0,L|501:117,1,54.0971983520508,8|0,3:1|0:0,0:0:0:0:
305,0,129391,6,0,P|313:49|345:71,1,67.6215025749208,8|0,2:1|3:2,0:0:0:0:
346,145,129567,2,0,P|392:162|427:145,1,67.6215025749208,0|0,3:2|3:2,0:0:0:0:
309,338,129742,6,0,P|365:261|456:294,1,189.340194232178,2|2,3:2|0:0,0:0:0:0:
484,340,130093,1,8,2:1:0:0:
408,158,130269,6,0,P|318:149|206:142,1,189.340194232178,2|0,3:2|0:0,0:0:0:0:
170,197,130619,1,8,2:1:0:0:
140,6,130795,1,2,3:2:0:0:
303,84,130970,5,0,3:2:0:0:
303,84,131058,1,0,3:0:0:0:
303,84,131146,2,0,P|260:125|204:120,1,90.162,0|0,3:2|0:0,0:0:0:0:
74,42,131497,2,0,P|131:58|154:109,1,90.162,8|0,2:1|3:2,0:0:0:0:
131,195,131848,6,0,L|136:252,1,45.081,2|0,3:2|0:0,0:0:0:0:
141,317,132023,2,0,L|146:374,1,45.081,8|0,2:1|0:0,0:0:0:0:
4,247,132198,6,0,B|31:241|31:241|62:261,1,54.0971983520508,0|0,3:2|3:2,0:0:0:0:
227,313,132374,2,0,B|254:319|254:319|285:299,1,54.0971983520508,0|0,3:2|3:2,0:0:0:0:
409,150,132549,6,0,B|377:271|377:271|402:327,1,162.291595056153,2|0,3:2|0:0,0:0:0:0:
419,375,132900,2,0,L|488:368,2,54.0971983520508,8|0|0,2:1|0:0|3:2,0:0:0:0:
278,179,133251,1,0,3:2:0:0:
476,180,133427,6,0,L|422:174,1,54.0971983520508,8|0,2:1|0:0,0:0:0:0:
289,159,133602,1,2,3:2:0:0:
461,69,133777,1,0,3:2:0:0:
392,304,133953,6,0,P|382:176|374:101,1,162.291595056153,2|0,3:2|0:0,0:0:0:0:
317,81,134304,2,0,P|324:38|329:3,1,54.0971983520508,8|0,2:1|0:0,0:0:0:0:
244,140,134479,2,0,P|251:183|256:218,2,54.0971983520508,0|0|2,3:2|3:2|3:2,0:0:0:0:
104,73,134830,6,0,P|111:30|116:-5,1,54.0971983520508,8|0,3:1|0:0,0:0:0:0:
79,318,135005,2,0,P|75:291|71:265,1,54.0971983520508,8|0,2:1|3:2,0:0:0:0:
18,124,135181,5,0,3:2:0:0:
18,124,135269,1,0,3:2:0:0:
18,124,135356,2,0,P|72:168|132:151,1,126.226796154785,6|0,3:2|0:0,0:0:0:0:
123,157,136058,5,2,2:0:0:0:
83,168,136234,1,2,2:0:0:0:
43,156,136409,1,2,2:0:0:0:
18,124,136584,1,2,2:0:0:0:
187,39,136760,5,2,2:0:0:0:
187,39,137462,5,2,2:0:0:0:
222,73,137637,1,2,2:0:0:0:
216,120,137988,1,2,2:0:0:0:
48,253,138163,5,2,2:0:0:0:
48,253,138865,5,2,2:0:0:0:
85,223,139391,1,2,2:0:0:0:
306,285,139567,5,2,2:0:0:0:
306,285,140269,5,2,2:0:0:0:
276,242,140444,1,2,2:0:0:0:
512,228,140970,5,2,2:0:0:0:
512,228,141672,5,2,2:0:0:0:
467,253,141848,1,2,2:0:0:0:
416,244,142023,1,2,2:0:0:0:
383,205,142198,1,2,2:0:0:0:
422,10,142374,5,2,2:0:0:0:
422,10,143076,5,2,2:0:0:0:
454,55,143251,1,2,2:0:0:0:
440,104,143602,1,2,2:0:0:0:
185,175,143777,5,2,2:0:0:0:
185,175,144479,5,2,2:0:0:0:
171,126,144655,1,2,0:0:0:0:
192,77,145005,1,2,2:0:0:0:
412,221,145181,5,2,2:0:0:0:
412,221,145883,5,2,2:0:0:0:
436,274,146058,1,2,2:0:0:0:
409,323,146584,6,0,L|307:315,1,90.162,6|0,3:2|0:0,0:0:0:0:
215,359,146848,1,2,0:0:0:0:
202,347,146935,2,0,L|196:290,1,45.081,8|0,2:0|0:0,0:0:0:0:
266,252,147111,2,0,L|275:162,1,90.162,2|0,3:2|0:0,0:0:0:0:
214,97,147462,6,0,L|139:107,1,45.081,2|0,3:2|0:0,0:0:0:0:
336,82,147637,2,0,L|261:92,1,45.081,10|0,2:0|0:0,0:0:0:0:
458,67,147812,2,0,L|383:77,1,45.081,2|0,0:0|0:0,0:0:0:0:
275,162,147988,6,0,P|354:188|364:216,1,90.162,2|0,3:2|0:0,0:0:0:0:
435,197,148251,1,2,0:0:0:0:
435,197,148339,2,0,P|447:241|436:268,1,45.081,8|0,2:0|0:0,0:0:0:0:
356,317,148514,5,2,0:0:0:0:
364,305,148602,1,0,0:0:0:0:
383,308,148690,1,2,0:0:0:0:
449,357,148865,1,0,3:2:0:0:
268,344,149041,6,0,L|275:283,1,45.081,10|0,2:0|0:0,0:0:0:0:
348,232,149216,2,0,L|355:171,1,45.081,0|0,3:0|0:0,0:0:0:0:
507,159,149391,6,0,P|468:196|403:175,1,90.162,2|0,3:2|0:0,0:0:0:0:
403,119,149655,1,2,0:0:0:0:
403,119,149742,2,0,L|410:58,1,45.081,8|0,2:0|0:0,0:0:0:0:
252,38,149918,2,0,L|342:27,1,90.162,2|0,3:2|0:0,0:0:0:0:
408,74,150269,6,0,P|443:132|430:159,1,67.6215025749208,2|0,3:2|0:0,0:0:0:0:
508,186,150444,2,0,P|475:245|445:247,1,67.6215025749208,10|0,2:0|0:0,0:0:0:0:
461,328,150619,2,0,P|393:329|376:304,1,67.6215025749208,2|0,3:0|0:0,0:0:0:0:
302,363,150795,6,0,L|317:230,1,90.162,2|0,3:2|0:0,0:0:0:0:
247,215,151058,1,2,0:0:0:0:
238,223,151146,2,0,L|167:215,1,45.081,8|0,2:0|0:0,0:0:0:0:
52,259,151321,5,2,0:0:0:0:
62,271,151409,1,0,0:0:0:0:
81,270,151497,1,2,0:0:0:0:
180,239,151672,1,0,3:2:0:0:
85,149,151848,6,0,L|91:215,1,45.081,8|0,2:0|0:0,0:0:0:0:
101,299,152023,2,0,L|107:365,1,45.081,0|0,3:0|0:0,0:0:0:0:
232,301,152198,6,0,P|262:248|243:200,1,90.162,2|0,3:2|0:0,0:0:0:0:
199,143,152462,1,2,0:0:0:0:
208,155,152549,2,0,L|279:145,1,45.081,8|0,2:0|0:0,0:0:0:0:
340,49,152725,2,0,L|327:203,1,135.243,2|0,3:2|0:0,0:0:0:0:
410,137,153076,6,0,L|413:92,1,45.081,2|0,3:2|0:0,0:0:0:0:
487,114,153251,2,0,L|483:158,1,45.081,10|0,2:0|0:0,0:0:0:0:
512,283,153427,2,0,L|508:238,1,45.081,2|0,3:0|0:0,0:0:0:0:
429,224,153602,6,0,L|439:318,1,90.162,2|0,3:2|0:0,0:0:0:0:
382,364,153865,1,2,0:0:0:0:
382,364,153953,2,0,L|304:359,1,45.081,8|0,2:0|0:0,0:0:0:0:
240,312,154128,5,2,0:0:0:0:
250,299,154216,1,0,0:0:0:0:
272,304,154304,1,2,0:0:0:0:
352,260,154479,1,0,3:2:0:0:
264,174,154655,6,0,P|278:224|285:259,1,45.081,8|0,2:0|0:0,0:0:0:0:
240,312,154830,2,0,P|254:362|261:397,1,45.081,0|0,3:0|0:0,0:0:0:0:
160,250,155005,6,0,P|84:264|42:181,1,162.291595056153,2|2,3:2|0:0,0:0:0:0:
78,139,155356,2,0,P|119:146|151:152,1,54.0971983520508,8|0,2:0|0:0,0:0:0:0:
276,217,155532,5,2,3:2:0:0:
256,231,155619,1,0,0:0:0:0:
236,224,155707,1,2,0:0:0:0:
342,143,155883,1,2,3:2:0:0:
382,259,156058,6,0,P|375:290|369:320,1,54.0971983520508,10|0,2:0|0:0,0:0:0:0:
191,85,156234,2,0,P|184:54|178:24,1,54.0971983520508,2|0,3:0|0:0,0:0:0:0:
446,17,156409,5,2,3:2:0:0:
446,17,156760,5,10,2:0:0:0:
467,97,156935,5,8,2:0:0:0:
467,97,157023,1,8,2:0:0:0:
489,185,157111,5,10,2:0:0:0:
489,185,157198,1,8,2:0:0:0:
489,185,157286,1,8,2:0:0:0:
489,185,157374,1,8,2:0:0:0:
508,267,157462,5,10,2:0:0:0:
508,267,157549,1,8,2:0:0:0:
508,267,157637,2,0,P|494:304|498:323,1,53.9999983520508,8|8,2:0|2:0,0:0:0:0:
512,364,157812,6,0,P|459:323|379:325,1,135.243005149842,4|0,3:2|0:0,0:0:0:0:
317,344,158076,1,2,0:0:0:0:
304,355,158163,2,0,L|308:264,1,67.6215025749208,10|0,2:0|0:0,0:0:0:0:
236,231,158339,2,0,L|231:325,1,90.162,2|0,3:2|0:0,0:0:0:0:
0,278,158690,6,0,B|-9:254|-9:254|4:277,1,45.081,2|0,3:2|0:0,0:0:0:0:
81,257,158865,2,0,B|89:232|89:232|84:258,1,45.081,10|0,2:0|0:0,0:0:0:0:
156,292,159041,2,0,B|178:278|178:278|157:295,1,45.081,2|0,3:2|0:0,0:0:0:0:
67,353,159216,6,0,L|49:136,1,202.864507724762,2|2,3:2|0:0,0:0:0:0:
12,85,159567,1,8,2:0:0:0:
254,117,159742,5,2,3:0:0:0:
240,156,159830,1,2,0:0:0:0:
209,184,159918,1,2,0:0:0:0:
168,193,160005,1,2,0:0:0:0:
128,182,160093,2,0,L|132:119,1,45.081,2|0,3:2|0:0,0:0:0:0:
249,39,160269,2,0,L|312:43,1,45.081,10|0,2:0|0:0,0:0:0:0:
392,160,160444,2,0,L|388:223,1,45.081,0|0,0:0|0:0,0:0:0:0:
298,307,160619,6,0,P|347:279|396:292,1,90.162,2|0,3:2|0:0,0:0:0:0:
453,316,160883,1,2,0:0:0:0:
453,316,160970,2,0,L|450:372,1,45.081,8|0,2:0|0:0,0:0:0:0:
459,368,161146,2,0,L|466:226,1,135.243,2|0,3:2|0:0,0:0:0:0:
426,132,161497,6,0,P|460:154|497:140,1,54.0971983520508,2|0,3:2|0:0,0:0:0:0:
347,169,161672,2,0,P|336:208|361:238,1,54.0971983520508,10|0,2:0|0:0,0:0:0:0:
416,46,161848,2,0,P|447:20|445:-19,1,54.0971983520508,2|0,3:2|0:0,0:0:0:0:
279,110,162023,6,0,L|169:101,1,108.194396704102,2|0,3:2|0:0,0:0:0:0:
64,74,162286,1,2,0:0:0:0:
64,74,162374,2,0,P|80:103|73:147,1,67.6215025749208,10|0,2:0|0:0,0:0:0:0:
54,268,162549,6,0,P|35:191|122:228,1,202.864507724762,2|0,3:2|0:0,0:0:0:0:
160,291,162900,2,0,L|155:344,1,45.081,2|0,3:2|0:0,0:0:0:0:
226,216,163076,2,0,L|221:163,1,45.081,10|0,2:0|0:0,0:0:0:0:
301,313,163251,6,0,P|289:321|292:301,1,45.081,0|0,3:0|0:0,0:0:0:0:
356,218,163427,6,0,B|408:214|393:259|457:251,1,90.162,6|0,3:2|0:0,0:0:0:0:
501,203,163690,1,2,0:0:0:0:
501,203,163777,2,0,L|506:149,1,45.081,8|0,2:0|0:0,0:0:0:0:
484,324,163953,6,0,L|365:339,1,90.162,2|0,3:2|0:0,0:0:0:0:
294,220,164304,2,0,B|324:215|324:215|354:234,1,54.0971983520508,2|0,3:2|0:0,0:0:0:0:
301,313,164479,2,0,B|281:325|281:325|251:320,1,54.0971983520508,10|0,2:0|0:0,0:0:0:0:
146,239,164655,2,0,B|176:234|176:234|206:253,1,54.0971983520508,2|0,3:2|0:0,0:0:0:0:
75,360,164830,6,0,L|62:241,1,108.194396704102,2|0,3:2|0:0,0:0:0:0:
92,178,165093,1,2,0:0:0:0:
105,170,165181,2,0,L|115:103,1,54.0971983520508,8|0,2:0|0:0,0:0:0:0:
250,297,165356,6,0,B|238:186,1,108.194396704102,2|0,3:2|0:0,0:0:0:0:
144,328,165707,2,0,P|176:347|218:332,1,54.0971983520508,0|0,3:2|0:0,0:0:0:0:
339,219,165883,2,0,P|312:221|291:237,2,54.0971983520508,10|0|0,2:0|0:0|0:0,0:0:0:0:
411,354,166234,6,0,L|417:247,1,90.162,2|0,3:2|0:0,0:0:0:0:
474,205,166497,1,2,0:0:0:0:
474,205,166584,2,0,P|503:224|551:210,1,45.081,8|0,2:0|0:0,0:0:0:0:
376,192,166760,2,0,P|344:205|299:183,2,45.081,2|0|0,3:2|0:0|0:0,0:0:0:0:
324,201,167111,6,0,P|354:201|376:186,1,54.0971983520508,2|0,3:2|0:0,0:0:0:0:
436,49,167286,2,0,P|420:75|422:101,1,54.0971983520508,10|0,2:0|0:0,0:0:0:0:
512,221,167462,2,0,P|496:194|473:183,1,54.0971983520508,2|0,3:0|0:0,0:0:0:0:
239,151,167637,6,0,L|256:269,1,108.194396704102,10|0,3:2|0:0,0:0:0:0:
489,336,167988,2,0,L|506:218,1,108.194396704102,10|0,3:2|0:0,0:0:0:0:
476,184,168251,5,2,0:0:0:0:
476,184,168339,1,2,2:0:0:0:
469,130,168427,1,2,0:0:0:0:
463,76,168514,6,0,P|495:57|541:79,1,54.0971983520508,2|0,3:2|0:0,0:0:0:0:
393,160,168690,2,0,P|366:157|345:140,1,54.0971983520508,8|0,2:1|0:0,0:0:0:0:
262,55,168865,6,0,B|279:30|279:30|263:83,1,67.6215025749208,0|0,3:0|0:0,0:0:0:0:
178,271,169041,1,4,3:2:0:0:
159,296,169128,1,0,3:0:0:0:
170,272,169216,1,0,3:0:0:0:
127,201,169391,5,10,2:0:0:0:
109,191,169479,1,2,0:0:0:0:
114,155,169567,1,2,3:2:0:0:
65,130,169655,1,2,0:0:0:0:
77,75,169742,1,2,0:0:0:0:
126,76,169830,1,2,0:0:0:0:
159,43,169918,2,0,L|152:-18,1,36.0648,0|0,3:2|0:0,0:0:0:0:
262,55,170093,6,0,L|255:116,1,36.0648,8|0,2:0|0:0,0:0:0:0:
334,108,170269,2,0,L|316:166,1,36.0648,0|0,0:0|0:0,0:0:0:0:
209,199,170444,5,2,3:2:0:0:
240,180,170532,1,2,0:0:0:0:
281,199,170619,1,2,0:0:0:0:
303,249,170707,1,2,0:0:0:0:
319,230,170795,5,10,2:0:0:0:
376,218,170883,1,2,0:0:0:0:
421,253,170970,1,2,0:0:0:0:
458,221,171058,1,2,0:0:0:0:
447,164,171146,5,2,0:0:0:0:
407,133,171234,1,2,0:0:0:0:
374,139,171321,1,2,3:2:0:0:
337,81,171409,1,2,0:0:0:0:
356,32,171497,5,10,2:0:0:0:
404,17,171584,1,2,0:0:0:0:
459,36,171672,2,0,L|449:103,1,36.0648,0|0,0:0|0:0,0:0:0:0:
294,322,171848,6,0,L|304:389,1,36.0648,0|0,3:2|0:0,0:0:0:0:
377,330,172023,5,2,0:0:0:0:
408,342,172111,1,2,0:0:0:0:
390,323,172198,1,10,2:0:0:0:
278,199,172374,6,0,L|288:266,1,36.0648,0|0,3:2|0:0,0:0:0:0:
214,275,172549,5,2,0:0:0:0:
178,305,172637,1,2,0:0:0:0:
192,275,172725,1,2,3:2:0:0:
262,85,172900,5,10,2:0:0:0:
275,96,172988,1,2,0:0:0:0:
263,113,173076,1,2,0:0:0:0:
276,124,173163,1,2,0:0:0:0:
325,115,173251,6,0,P|365:106|428:223,1,189.340194232178,2|0,3:2|0:0,0:0:0:0:
450,285,173602,2,0,P|396:277|377:244,1,63.1133980773926,10|0,2:0|0:0,0:0:0:0:
278,199,173777,5,2,0:0:0:0:
278,199,173865,1,2,0:0:0:0:
278,199,173953,2,0,P|298:249|278:282,1,63.1133980773926,2|0,2:0|0:0,0:0:0:0:
391,273,174128,2,0,P|357:315|318:315,1,63.1133980773926,2|0,0:0|0:0,0:0:0:0:
78,315,174304,5,10,2:0:0:0:
90,270,174391,1,2,0:0:0:0:
126,239,174479,1,2,0:0:0:0:
172,232,174567,1,2,0:0:0:0:
214,251,174655,5,6,3:2:0:0:
238,284,174742,1,2,0:0:0:0:
229,257,174830,1,2,0:0:0:0:
296,73,175005,5,10,2:0:0:0:
309,31,175093,1,2,0:0:0:0:
334,24,175181,1,2,3:2:0:0:
374,40,175269,1,2,0:0:0:0:
368,98,175356,1,2,0:0:0:0:
399,137,175444,1,2,0:0:0:0:
450,113,175532,6,0,L|513:109,1,45.081,2|0,3:2|0:0,0:0:0:0:
325,177,175707,2,0,L|262:173,1,45.081,10|0,2:0|0:0,0:0:0:0:
479,327,175883,6,0,B|496:358|496:358|484:305,1,72.1296,0|0,3:2|3:2,0:0:0:0:
452,252,176058,5,2,3:2:0:0:
433,220,176146,1,2,0:0:0:0:
447,201,176234,1,2,0:0:0:0:
479,327,176409,5,10,2:0:0:0:
407,320,176497,1,2,0:0:0:0:
335,313,176584,1,10,2:0:0:0:
264,306,176672,1,10,2:0:0:0:
192,299,176760,6,0,L|201:352,1,36.0648,8|0,2:0|0:0,0:0:0:0:
325,177,176935,2,0,L|316:230,1,36.0648,2|0,3:2|0:0,0:0:0:0:
159,62,177111,6,0,B|175:141,1,72,10|0,2:0|0:0,0:0:0:0:
260,40,177374,1,8,2:0:0:0:
260,40,177462,1,8,3:2:0:0:
260,40,177725,5,8,2:0:0:0:
260,40,177812,2,0,P|291:86|287:101,1,45.081,8|0,2:0|0:0,0:0:0:0:
374,79,177988,2,0,P|368:134|355:143,1,45.081,8|0,2:0|0:0,0:0:0:0:
483,351,178163,6,0,P|506:279|521:275,1,90.162,8|0,2:0|0:0,0:0:0:0:
476,184,178470,5,2,3:2:0:0:
461,200,178514,2,0,L|409:194,1,45.081,8|0,2:0|0:0,0:0:0:0:
206,260,178690,2,0,L|154:254,1,45.081,8|0,2:0|0:0,0:0:0:0:
325,267,178865,6,0,P|341:295|317:273,1,90.162,2|0,3:2|0:0,0:0:0:0:
213,119,179041,5,2,3:2:0:0:
213,119,179128,1,0,3:2:0:0:
205,131,179216,2,0,P|221:103|197:125,1,90.162,2|0,3:2|0:0,0:0:0:0:
473,44,179391,6,0,P|489:72|482:40,1,90.162,2|0,3:2|0:0,0:0:0:0:
426,303,179567,6,0,P|393:300|422:315,1,90.105441305658,2|0,3:2|0:0,0:0:0:0:
472,233,180269,6,0,L|491:60,1,169.05375,6|0,3:2|0:0,0:0:0:0:
366,76,180619,6,0,B|358:88|358:88|410:80,1,56.25,10|0,2:0|0:0,0:0:0:0:
337,193,180795,2,0,B|329:205|329:205|381:197,1,56.35125,2|0,2:0|0:0,0:0:0:0:
472,233,180970,6,0,L|491:60,1,169.05375,2|0,2:0|0:0,0:0:0:0:
484,62,181321,6,0,L|477:117,1,56.35125,2|0,3:2|0:0,0:0:0:0:
370,198,181497,2,0,L|314:191,1,56.35125,2|0,2:0|0:0,0:0:0:0:
501,288,181672,6,0,P|476:332|458:343,1,56.25,2|0,3:2|0:0,0:0:0:0:
385,358,181848,2,0,P|338:336|326:319,1,56.25,2|0,2:0|0:0,0:0:0:0:
253,291,182023,6,0,L|249:235,1,56.25,10|0,2:0|0:0,0:0:0:0:
243,157,182198,2,0,L|239:101,1,56.25,2|0,3:2|0:0,0:0:0:0:
302,14,182374,6,0,P|349:30|357:64,1,56.25,2|0,3:2|0:0,0:0:0:0:
484,121,182549,2,0,P|445:153|412:144,1,56.25,0|0,3:0|3:0,0:0:0:0:
424,82,182725,2,0,L|438:260,1,168.75,10|0,2:0|0:0,0:0:0:0:
512,294,183076,6,0,B|425:288|425:288|422:291|422:291|334:284,1,175.815891966248,2|0,3:2|0:0,0:0:0:0:
205,363,183427,2,0,P|250:356|267:327,1,58.6052973220826,8|0,2:0|0:0,0:0:0:0:
209,285,183602,2,0,P|225:242|208:213,1,58.6052973220826,2|0,2:0|0:0,0:0:0:0:
347,110,183777,6,0,B|341:197|341:197|344:200|344:200|337:288,1,175.815891966248,2|0,2:0|0:0,0:0:0:0:
205,363,184128,2,0,P|250:356|267:327,1,58.6052973220826,0|0,3:0|0:0,0:0:0:0:
209,285,184304,2,0,P|225:242|208:213,1,58.6052973220826,2|0,2:0|0:0,0:0:0:0:
123,48,184479,6,0,P|151:83|185:83,1,58.6052973220826,2|0,3:2|0:0,0:0:0:0:
371,92,184655,2,0,P|326:99|309:127,1,58.6052973220826,2|0,2:0|0:0,0:0:0:0:
202,297,184830,2,0,P|221:249|202:216,1,72.1296,10|0,2:0|0:0,0:0:0:0:
88,99,185005,5,2,3:2:0:0:
88,99,185093,1,2,3:2:0:0:
88,99,185181,2,0,L|164:91,1,72.1296,2|0,3:2|0:0,0:0:0:0:
223,159,185356,2,0,L|261:163,1,36.0648,0|0,3:0|0:0,0:0:0:0:
70,271,185532,6,0,B|43:292|-27:298|-30:215|49:197|83:213|103:259|104:263|105:267|130:308|181:327|265:267,1,297.000009063721,10|0,2:0|0:0,0:0:0:0:
290,364,185883,6,0,P|367:307|475:330,1,169.05375,2|0,3:2|0:0,0:0:0:0:
446,157,186234,6,0,B|452:237,1,56.25,10|0,2:0|0:0,0:0:0:0:
352,167,186409,2,0,B|358:247,1,56.25,2|0,2:0|0:0,0:0:0:0:
290,364,186584,6,0,P|367:307|475:330,1,169.05375,2|0,2:0|0:0,0:0:0:0:
494,359,186935,6,0,P|513:322|504:278,1,56.35125,2|0,3:2|0:0,0:0:0:0:
487,192,187111,2,0,P|458:161|414:154,1,56.35125,2|0,2:0|0:0,0:0:0:0:
276,173,187286,6,0,L|282:248,1,56.25,2|0,3:2|0:0,0:0:0:0:
285,307,187462,2,0,L|291:382,1,56.25,2|0,2:0|0:0,0:0:0:0:
176,210,187637,2,0,B|158:191|158:191|127:191,1,56.35125,10|0,2:0|0:0,0:0:0:0:
107,265,187812,2,0,B|128:283|128:283|156:282,1,56.35125,2|0,2:0|0:0,0:0:0:0:
276,173,187988,6,0,L|290:48,1,112.7025,2|0,2:0|3:0,0:0:0:0:
15,333,188339,2,0,L|1:208,1,112.7025,10|0,2:0|3:0,0:0:0:0:
0,139,188690,5,2,3:2:0:0:
0,139,188865,1,2,3:2:0:0:
198,308,189041,6,0,L|263:317,1,45.081,8|0,2:0|0:0,0:0:0:0:
299,364,189216,1,2,3:2:0:0:
337,54,189391,5,2,2:0:0:0:
337,54,189567,1,8,2:0:0:0:
462,244,189742,6,0,L|506:237,1,45.081,0|0,3:0|0:0,0:0:0:0:
406,311,189918,5,2,2:0:0:0:
373,125,190093,1,2,3:2:0:0:
406,311,190269,5,2,2:0:0:0:
470,33,190444,1,10,2:0:0:0:
308,296,190619,6,0,L|315:357,1,45.081,2|0,2:0|0:0,0:0:0:0:
229,216,190795,5,2,3:2:0:0:
214,213,190883,1,0,3:2:0:0:
199,210,190970,1,0,3:2:0:0:
184,207,191058,1,0,3:2:0:0:
142,229,191146,6,0,B|203:267|264:223|264:223|327:165|404:213,1,270.486,10|0,3:2|3:0,0:0:0:0:
478,322,191497,6,0,P|369:327|341:273,1,169.05375,6|0,3:2|0:0,0:0:0:0:
447,52,191848,6,0,L|454:107,1,56.35125,10|0,2:0|0:0,0:0:0:0:
467,180,192023,2,0,L|474:235,1,56.35125,2|0,2:0|0:0,0:0:0:0:
478,322,192198,6,0,P|431:314|411:293,1,56.35125,2|0,2:0|0:0,0:0:0:0:
301,292,192374,2,0,P|276:250|280:222,1,56.35125,8|0,2:0|0:0,0:0:0:0:
267,53,192549,6,0,P|299:92|299:131,1,63.1133980773926,2|0,3:2|0:0,0:0:0:0:
388,185,192725,2,0,P|370:232|336:251,1,63.1133980773926,2|0,2:0|0:0,0:0:0:0:
226,337,192900,6,0,L|140:330,1,56.35125,2|0,3:2|0:0,0:0:0:0:
10,319,193076,1,2,2:0:0:0:
205,260,193251,6,0,B|166:264|166:264|103:372|103:372|48:380,1,216.3888,10|0,2:0|0:0,0:0:0:0:
10,319,193602,2,0,L|16:228,1,72.1296,2|0,2:0|0:0,0:0:0:0:
37,88,193777,5,0,3:0:0:0:
37,88,193865,1,0,3:0:0:0:
37,88,193953,2,0,P|92:66|51:157,1,216.3888,10|0,2:0|0:0,0:0:0:0:
14,247,194304,6,0,B|130:229|88:325|213:302,1,202.864507724762,2|0,3:2|0:0,0:0:0:0:
257,243,194655,2,0,L|249:167,1,67.6215025749208,8|0,2:0|0:0,0:0:0:0:
388,316,194830,2,0,L|380:392,1,67.6215025749208,2|0,2:0|0:0,0:0:0:0:
472,265,195005,5,2,2:0:0:0:
457,245,195181,6,0,L|382:234,1,56.35125,10|0,2:0|0:0,0:0:0:0:
257,243,195356,6,0,P|235:201|238:181,1,56.35125,2|0,3:2|0:0,0:0:0:0:
310,111,195532,2,0,P|335:70|354:63,1,56.35125,2|0,2:0|0:0,0:0:0:0:
497,105,195707,6,0,P|470:95|443:99,1,56.35125,2|0,3:2|0:0,0:0:0:0:
337,64,195883,2,0,P|316:82|307:109,1,56.35125,0|0,0:0|0:0,0:0:0:0:
230,190,196058,2,0,P|237:216|257:236,1,56.35125,10|0,2:0|0:0,0:0:0:0:
298,340,196234,2,0,P|325:344|351:334,1,56.35125,2|0,2:0|0:0,0:0:0:0:
507,293,196409,6,0,L|515:207,3,56.35125,2|0|0|0,2:0|0:0|3:2|0:2,0:0:0:0:
431,247,196760,2,0,L|437:315,3,42.8269488584519,10|0|0|0,2:0|0:0|3:2|0:0,0:0:0:0:
351,333,197111,6,0,L|367:149,1,169.05375,2|0,3:2|0:0,0:0:0:0:
384,14,197462,6,0,P|409:56|399:87,1,56.35125,10|0,2:0|0:0,0:0:0:0:
481,134,197637,2,0,P|457:176|425:183,1,56.35125,0|0,0:0|0:0,0:0:0:0:
274,237,197812,6,0,L|203:230,1,56.35125,2|0,2:0|0:0,0:0:0:0:
143,223,197988,2,0,L|72:216,1,56.35125,8|0,2:0|0:0,0:0:0:0:
168,372,198163,6,0,P|180:323|167:299,1,67.6215025749208,2|0,3:2|0:0,0:0:0:0:
215,144,198339,2,0,P|178:109|151:108,1,67.6215025749208,0|0,0:0|0:0,0:0:0:0:
6,165,198514,6,0,L|11:217,1,45,2|0,3:2|0:0,0:0:0:0:
19,283,198690,2,0,L|26:350,1,45,2|0,2:0|0:0,0:0:0:0:
174,374,198865,6,0,P|184:325|170:302,1,67.6215025749208,10|0,2:0|0:0,0:0:0:0:
90,187,199041,2,0,P|127:220|154:220,1,67.6215025749208,2|0,2:0|0:0,0:0:0:0:
294,207,199216,2,0,P|246:222|232:246,1,67.6215025749208,2|0,2:0|0:0,0:0:0:0:
355,356,199391,5,0,3:0:0:0:
355,356,199567,2,0,B|363:315|363:315|363:302|363:302|377:236,1,90.162,10|0,2:0|3:0,0:0:0:0:
316,71,199918,6,0,P|367:161|502:146,1,243.437392584229,2|0,3:2|0:0,0:0:0:0:
498,143,200269,2,0,P|447:137|405:178,1,90.162,8|2,2:0|2:0,0:0:0:0:
246,352,200619,6,0,P|298:262|217:153,1,243.437392584229,2|0,2:0|0:0,0:0:0:0:
217,158,200970,2,0,P|237:205|293:221,1,90.162,0|2,3:0|2:0,0:0:0:0:
373,46,201321,6,0,B|382:15|382:15|340:14|276:78|312:171,1,202.864507724762,2|0,3:2|0:0,0:0:0:0:
447,324,201584,6,0,B|470:345|470:345|434:367|347:343|331:245,1,202.864507724762,2|0,3:2|0:0,0:0:0:0:
392,198,201848,6,0,L|493:215,1,101.432253862381,2|0,3:2|0:0,0:0:0:0:
217,170,202023,6,0,L|117:153,1,90.162,2|0,3:2|0:0,0:0:0:0:
128,155,202374,6,0,B|69:144|69:144|30:180|19:230|34:284|105:306|147:253|132:221|103:202,1,270.486010299683,4|0,2:0|0:0,0:0:0:0:
231,48,202725,6,0,P|298:35|344:91,2,135.050630149842,2|2|2,2:0|2:0|2:0,0:0:0:0:
231,48,203777,5,0,0:0:0:0:
217,170,203953,1,0,0:0:0:0:
33,117,204128,6,0,B|73:136|73:136|178:111,2,135.050630149842,2|2|2,2:0|2:0|2:0,0:0:0:0:
33,117,205181,2,0,B|2:138|2:138|16:202,1,101.250003862381,2|0,2:0|0:0,0:0:0:0:
81,284,205532,6,0,P|141:274|142:206,1,135.243005149842,2|2,2:0|2:0,0:0:0:0:
155,201,206234,5,2,2:0:0:0:
202,341,206409,1,2,2:0:0:0:
342,294,206584,1,2,2:0:0:0:
295,154,206760,1,2,2:0:0:0:
426,130,206935,6,0,P|350:149|278:179,2,135.050630149842,2|2|2,2:0|2:0|2:0,0:0:0:0:
489,27,207988,6,0,L|477:31,1,9,2|0,2:0|0:0,0:0:0:0:
394,54,208163,2,0,L|382:58,1,9,2|0,0:0|0:0,0:0:0:0:
300,77,208339,6,0,P|238:58|160:31,1,135.000005149842,2|2,2:0|2:0,0:0:0:0:
170,56,209041,5,2,2:0:0:0:
82,166,209216,1,0,0:0:0:0:
192,254,209391,1,0,0:0:0:0:
280,144,209567,1,0,0:0:0:0:
148,66,209742,6,0,L|136:68,1,9.0162,2|0,2:0|0:0,0:0:0:0:
91,195,209918,2,0,L|93:206,1,9.0162,2|0,0:0|0:0,0:0:0:0:
220,251,210093,2,0,L|231:248,1,9.0162,2|0,2:0|0:0,0:0:0:0:
277,122,210269,2,0,L|274:110,1,9.0162,2|0,0:0|0:0,0:0:0:0:
15,0,210444,6,0,P|37:64|46:113,1,101.432253862381,2|0,2:0|0:0,0:0:0:0:
76,113,210795,2,0,P|25:125|-2:169,1,101.432253862381,0|0,2:0|0:0,0:0:0:0:
105,349,211146,6,0,P|99:287|90:205,1,135.243005149842,2|2,2:0|2:0,0:0:0:0:
81,223,211848,5,2,2:0:0:0:
189,167,212023,1,0,0:0:0:0:
260,254,212198,1,0,0:0:0:0:
368,198,212374,1,0,0:0:0:0:
331,134,212549,6,0,P|355:158|375:186,1,67.6215025749208,2|0,2:0|0:0,0:0:0:0:
468,132,212900,1,2,2:0:0:0:
421,51,213076,1,0,0:0:0:0:
341,89,213251,6,0,P|270:109|188:124,1,135.000005149842,2|2,2:0|2:0,0:0:0:0:
211,348,213953,6,0,P|185:279|139:212,2,135.000005149842,2|2|2,2:0|2:0|2:0,0:0:0:0:
308,250,214830,1,0,0:0:0:0:
322,173,215005,2,0,L|306:239,1,67.6215025749208,0|0,0:0|0:0,0:0:0:0:
410,59,215356,6,0,P|341:52|311:-18,2,135.050630149842,2|2|2,2:0|2:0|2:0,0:0:0:0:
489,117,216234,1,0,0:0:0:0:
427,188,216409,1,2,2:0:0:0:
480,252,216584,1,0,0:0:0:0:
353,256,216760,6,0,B|332:296|332:296|346:383,1,135.000005149842,2|2,2:0|2:0,0:0:0:0:
227,281,217286,1,0,0:0:0:0:
153,384,217462,1,2,2:0:0:0:
49,311,217637,1,0,0:0:0:0:
123,207,217812,2,0,P|115:151|121:119,1,67.6215025749208,0|0,0:0|0:0,0:0:0:0:
472,99,218163,6,0,P|431:123|360:109,1,101.250003862381,2|0,2:0|0:0,0:0:0:0:
353,207,218514,2,0,P|311:183|288:115,1,101.250003862381,2|0,2:0|0:0,0:0:0:0:
199,157,218865,2,0,P|198:109|246:55,1,101.250003862381,2|0,2:0|0:0,0:0:0:0:
318,43,219216,1,2,2:0:0:0:
512,335,219567,6,0,B|476:319|452:346|457:350|434:382|380:362,1,135.243005149842,2|2,2:0|2:0,0:0:0:0:
355,290,220093,1,0,0:0:0:0:
276,300,220269,1,2,2:0:0:0:
236,371,220444,1,0,0:0:0:0:
154,384,220619,1,0,0:0:0:0:
98,318,220795,1,0,0:0:0:0:
143,250,220970,6,0,L|148:175,1,67.6215025749208,2|0,2:0|0:0,0:0:0:0:
159,40,221321,2,0,L|154:107,1,67.6215025749208,2|0,2:0|0:0,0:0:0:0:
276,300,221672,6,0,L|271:225,1,67.6215025749208,2|0,2:0|0:0,0:0:0:0:
260,90,222023,2,0,L|264:157,1,67.6215025749208,2|0,2:0|0:0,0:0:0:0:
448,110,222374,5,2,3:2:0:0:
0,384,222900,5,0,3:2:0:0:
307,266,223076,1,2,3:2:0:0:
313,275,223602,5,0,3:2:0:0:
160,12,223777,1,2,3:2:0:0:
338,66,223953,1,0,3:2:0:0:
74,207,224128,5,10,3:2:0:0:
87,186,224216,1,8,3:2:0:0:
128,203,224304,1,8,3:2:0:0:
148,247,224391,1,8,3:2:0:0:
139,284,224479,1,10,3:2:0:0:
139,284,224830,6,2,L|147:322,7,28.1298214285713,2|2|2|2|2|2|2|2,2:0|0:0|0:0|0:0|0:0|0:0|0:0|0:0,0:0:0:0:
118,270,225181,6,0,P|206:251|295:244,1,179.999994506836,6|0,2:0|0:0,0:0:0:0:
402,369,225532,2,0,P|404:355|408:375,1,68.0535025749208,8|0,3:1|0:0,0:0:0:0:
454,234,225707,5,0,3:2:0:0:
308,339,225883,2,0,L|229:359,1,45.081,2|0,3:2|0:0,0:0:0:0:
441,258,226058,2,0,L|485:270,1,45.081,8|0,2:1|0:0,0:0:0:0:
244,110,226234,5,2,3:2:0:0:
303,255,226409,1,0,3:0:0:0:
370,54,226584,6,0,B|326:78|294:54|301:37|256:16|214:33,1,162.291595056153,2|0,3:2|0:0,0:0:0:0:
64,81,226935,6,0,L|5:67,1,54.0971983520508,8|0,2:1|0:0,0:0:0:0:
157,167,227111,2,0,L|209:179,1,54.0971983520508,0|0,3:2|3:2,0:0:0:0:
143,24,227286,5,2,3:2:0:0:
149,33,227374,1,0,3:2:0:0:
155,41,227462,2,0,B|136:99,1,54.4427983520508,8|0,3:1|0:0,0:0:0:0:
0,187,227637,6,0,P|67:180|82:262,1,162.291595056153,8|0,2:1|3:2,0:0:0:0:
149,359,227988,6,0,P|172:334|209:326,1,54.0971983520508,2|0,3:2|0:0,0:0:0:0:
246,243,228163,2,0,P|279:241|311:262,1,54.0971983520508,0|0,3:0|0:0,0:0:0:0:
371,160,228339,6,0,B|395:186|395:186|363:319,1,135.243005149842,8|0,2:1|3:2,0:0:0:0:
287,374,228602,5,0,3:2:0:0:
287,374,228690,2,0,P|274:343|273:318,1,45.081,2|0,3:2|0:0,0:0:0:0:
162,230,228865,2,0,P|174:198|191:180,1,45.081,8|0,2:1|0:0,0:0:0:0:
208,88,229041,6,0,P|244:102|256:134,1,58.6052973220826,2|0,3:2|0:0,0:0:0:0:
442,51,229216,2,0,P|447:89|426:115,1,58.6052973220826,0|0,3:2|0:0,0:0:0:0:
334,0,229391,6,0,L|347:166,1,162.291595056153,2|0,3:2|0:0,0:0:0:0:
343,277,229742,1,8,2:1:0:0:
431,333,229918,6,0,P|457:343|481:354,1,54.0971983520508,0|0,3:2|3:2,0:0:0:0:
284,217,230093,2,0,P|256:225|231:241,1,54.0971983520508,2|0,3:2|0:0,0:0:0:0:
437,217,230269,2,0,P|454:195|467:173,1,53.9999983520508,8|0,2:1|0:0,0:0:0:0:
343,277,230444,5,0,3:2:0:0:
326,297,230532,1,0,3:2:0:0:
319,323,230619,1,0,3:2:0:0:
325,350,230707,1,0,3:2:0:0:
340,371,230795,6,0,P|250:349|145:330,1,162.291595056153,2|0,3:2|0:0,0:0:0:0:
87,198,231146,2,0,B|103:156|103:156|119:287,1,162.291595056153,8|0,2:1|3:2,0:0:0:0:
89,357,231497,6,0,L|39:369,1,45.081,2|0,3:2|0:0,0:0:0:0:
195,257,231672,2,0,L|250:248,1,45.081,8|0,2:1|0:0,0:0:0:0:
15,236,231848,6,0,P|5:169|58:122,1,135.243,2|0,3:2|0:0,0:0:0:0:
244,0,232198,6,0,B|240:58|240:58|234:62|234:62|227:146,1,135.243,2|0,3:2|0:0,0:0:0:0:
313,187,232549,6,0,P|341:208|359:241,1,67.6215025749208,8|0,2:1|0:0,0:0:0:0:
195,257,232725,2,0,P|173:285|140:303,1,67.6215025749208,0|0,3:2|3:2,0:0:0:0:
139,131,232900,6,0,P|134:109|149:129,1,67.6215025749208,2|0,3:2|3:2,0:0:0:0:
278,259,233076,6,0,P|286:285|284:312,1,54.0971983520508,8|0,2:1|0:0,0:0:0:0:
324,93,233251,2,0,P|351:95|375:107,1,54.0971983520508,0|0,3:2|3:2,0:0:0:0:
461,127,233427,6,0,P|446:162|421:181,1,67.6215025749208,0|0,3:2|3:2,0:0:0:0:
154,159,233602,6,0,L|323:189,1,162.291595056153,6|0,2:0|0:0,0:0:0:0:
404,285,233953,6,0,P|412:308|401:288,1,67.6215025749208,8|0,2:1|0:0,0:0:0:0:
273,384,234128,2,0,L|297:301,2,67.6215025749208,0|0|2,3:0|3:2|3:2,0:0:0:0:
234,129,234479,6,0,L|222:38,1,67.6215025749208,8|0,3:1|0:0,0:0:0:0:
136,304,234655,1,2,3:2:0:0:
207,225,234830,1,0,3:0:0:0:
170,368,235005,6,0,P|139:323|41:335,1,162.291595056153,2|0,3:0|0:0,0:0:0:0:
32,217,235356,6,0,L|24:154,1,45.081,8|0,2:1|0:0,0:0:0:0:
130,44,235532,5,0,3:2:0:0:
170,27,235619,1,0,3:2:0:0:
213,38,235707,1,2,3:0:0:0:
241,72,235795,1,0,3:2:0:0:
243,116,235883,2,0,L|234:170,1,45.369,8|0,2:1|0:0,0:0:0:0:
113,245,236058,5,0,3:2:0:0:
136,223,236146,1,0,3:2:0:0:
176,222,236234,2,0,L|246:238,1,45.081,0|0,3:2|3:2,0:0:0:0:
383,225,236409,6,0,B|337:250|337:250|356:377,1,169.05375,2|0,3:2|0:0,0:0:0:0:
268,321,236760,1,8,3:1:0:0:
449,76,236935,6,0,P|390:60|335:142,1,169.05375,2|0,3:2|0:0,0:0:0:0:
413,148,237286,1,8,2:1:0:0:
280,31,237462,6,0,L|224:21,1,56.35125,2|0,3:2|0:0,0:0:0:0:
181,99,237637,2,0,L|109:112,1,56.35125,0|0,3:0|0:0,0:0:0:0:
0,50,237812,6,0,B|39:66|39:66|61:204,1,169.05375,2|0,3:2|0:0,0:0:0:0:
242,280,238163,6,0,P|246:252|221:200,1,67.6215025749208,8|0,2:1|0:0,0:0:0:0:
75,304,238339,5,0,3:2:0:0:
72,313,238427,1,0,3:2:0:0:
69,322,238514,2,0,L|121:310,1,45,2|0,3:2|0:0,0:0:0:0:
270,83,238690,6,0,L|282:17,1,53.4815983520508,8|0,3:1|0:0,0:0:0:0:
139,186,238865,2,0,L|148:239,1,54.0971983520508,8|0,2:1|3:2,0:0:0:0:
181,99,239041,1,0,3:2:0:0:
373,232,239216,6,0,P|311:183|229:187,1,162.291595056153,2|0,3:2|0:0,0:0:0:0:
281,283,239567,1,8,2:1:0:0:
426,158,239742,6,0,P|439:125|449:108,1,54.0971983520508,0|0,3:2|3:2,0:0:0:0:
292,273,239918,2,0,P|305:296|314:321,1,54.0971983520508,2|0,3:2|0:0,0:0:0:0:
509,250,240093,5,8,2:1:0:0:
501,242,240181,1,2,0:0:0:0:
492,236,240269,2,0,P|438:273|442:363,1,162.291595056153,2|0,3:2|0:0,0:0:0:0:
469,352,240619,6,0,B|387:359|387:359|382:365|382:365|247:380,1,202.864507724762,2|0,3:2|0:0,0:0:0:0:
124,275,240970,2,0,P|174:291|189:363,1,108.194396704102,8|0,2:1|3:2,0:0:0:0:
292,273,241321,6,0,L|280:195,1,53.9999983520508,2|0,3:2|0:0,0:0:0:0:
327,141,241497,1,8,0:1:0:0:
429,227,241672,5,0,3:2:0:0:
431,235,241760,1,0,3:2:0:0:
433,243,241848,2,0,L|364:226,1,54.0971983520508,0|0,3:2|3:2,0:0:0:0:
247,94,242023,6,0,L|81:114,1,162.291595056153,2|0,3:2|0:0,0:0:0:0:
41,179,242374,1,8,2:1:0:0:
215,383,242549,6,0,B|195:345|233:313|243:322|279:283|254:228,1,162.291595056153,2|0,3:2|0:0,0:0:0:0:
181,259,242900,1,8,2:1:0:0:
52,337,243076,6,0,P|20:307|14:270,1,67.6215025749208,2|0,3:2|0:0,0:0:0:0:
99,260,243251,2,0,P|108:217|138:193,1,67.6215025749208,0|0,3:2|0:0,0:0:0:0:
171,130,243427,6,0,B|204:132|204:132|254:213|254:213|300:217,1,162.291595056153,2|0,3:2|0:0,0:0:0:0:
427,109,243777,2,0,P|376:89|325:119,1,108.194396704102,8|0,2:1|3:2,0:0:0:0:
399,384,244128,6,0,L|385:331,1,54.0971983520508,2|0,3:2|3:2,0:0:0:0:
398,224,244304,2,0,L|384:171,1,54.0971983520508,8|0,3:1|0:0,0:0:0:0:
265,290,244479,6,0,B|296:301|296:301|339:274,1,67.6215025749208,8|0,2:1|3:2,0:0:0:0:
450,292,244655,2,0,B|479:273|479:273|510:284,1,67.6215025749208,0|0,3:2|3:2,0:0:0:0:
496,133,244830,6,0,B|511:24|511:24|499:58|466:69,1,162.291595056153,2|0,3:2|0:0,0:0:0:0:
323,10,245181,2,0,L|431:0,1,108.194396704102,8|0,3:1|3:2,0:0:0:0:
268,193,245532,5,2,3:2:0:0:
262,167,245619,1,0,3:0:0:0:
256,141,245707,1,8,2:1:0:0:
153,40,245883,6,0,L|214:54,1,54.0971983520508,2|0,3:2|0:0,0:0:0:0:
383,99,246058,2,0,L|330:86,1,54.0971983520508,0|0,3:0|0:0,0:0:0:0:
132,127,246234,6,0,P|60:156|78:243,1,162.291595056153,2|0,3:2|0:0,0:0:0:0:
211,335,246584,2,0,P|231:331|216:345,1,54.0971983520508,8|0,2:1|0:0,0:0:0:0:
112,383,246760,5,0,3:2:0:0:
108,330,246848,1,0,3:2:0:0:
130,281,246935,1,2,3:2:0:0:
173,249,247023,1,0,3:2:0:0:
226,242,247111,1,8,3:1:0:0:
276,260,247198,1,0,0:0:0:0:
297,296,247286,5,8,2:1:0:0:
274,234,247374,1,0,3:2:0:0:
307,178,247462,1,0,3:2:0:0:
360,136,247549,1,0,3:2:0:0:
430,140,247637,6,0,B|421:180|421:180|394:45,1,162.291595056153,2|0,3:2|0:0,0:0:0:0:
455,0,247988,1,8,2:1:0:0:
309,50,248163,5,0,3:2:0:0:
255,58,248251,1,0,3:2:0:0:
202,66,248339,1,2,3:2:0:0:
70,12,248514,6,0,B|100:14|100:14|121:41,1,54.0971983520508,8|0,2:1|0:0,0:0:0:0:
193,155,248690,2,0,B|163:153|163:153|142:126,1,54.0971983520508,2|0,3:2|0:0,0:0:0:0:
223,28,248865,5,0,3:2:0:0:
53,111,249041,6,0,B|39:162|70:187|77:179|105:220|80:263,1,162.291595056153,2|0,3:2|0:0,0:0:0:0:
12,345,249391,2,0,P|50:292|106:318,1,135.243005149842,8|0,2:1|3:2,0:0:0:0:
186,283,249655,5,0,3:2:0:0:
186,283,249742,2,0,L|172:204,1,67.6215025749208,2|0,3:2|0:0,0:0:0:0:
276,121,249918,2,0,L|262:42,1,67.6215025749208,8|0,2:1|0:0,0:0:0:0:
337,176,250093,6,0,B|310:197|296:229|296:229|268:201|231:185,1,135.243,0|0,3:2|3:2,0:0:0:0:
365,44,250444,6,0,P|440:39|415:131,1,169.05375,2|0,3:2|0:0,0:0:0:0:
369,243,250795,2,0,P|353:200|349:166,1,67.6215025749208,8|0,2:1|0:0,0:0:0:0:
474,282,250970,5,0,3:2:0:0:
478,289,251058,1,0,3:2:0:0:
480,296,251146,2,0,P|441:320|417:349,1,67.6215025749208,2|0,3:2|0:0,0:0:0:0:
296,313,251321,2,0,P|297:358|310:394,1,67.6215025749208,8|0,2:1|0:0,0:0:0:0:
185,260,251497,6,0,P|224:236|248:207,1,67.6215025749208,2|0,3:2|0:0,0:0:0:0:
369,243,251672,2,0,P|367:197|354:161,1,67.6215025749208,0|0,3:2|0:0,0:0:0:0:
211,7,251848,6,0,P|202:39|203:73,1,67.6215025749208,2|0,3:2|0:0,0:0:0:0:
282,149,252023,1,0,3:0:0:0:
415,8,252198,6,0,P|335:10|309:69,1,135.243005149842,8|0,2:1|3:2,0:0:0:0:
471,135,252462,1,0,3:2:0:0:
461,118,252549,2,0,L|475:61,1,54.4427983520508,2|0,3:2|3:2,0:0:0:0:
349,202,252725,2,0,L|364:269,1,54.4427983520508,8|0,2:1|0:0,0:0:0:0:
102,183,252900,5,0,3:2:0:0:
133,182,252988,1,0,3:2:0:0:
152,166,253076,1,0,3:2:0:0:
157,137,253163,1,0,3:2:0:0:
143,116,253251,6,0,L|166:302,1,162.291595056153,6|0,2:0|0:0,0:0:0:0:
238,309,253602,1,8,2:1:0:0:
1,362,253777,6,0,B|65:386|92:316|78:302|124:249|175:283,1,202.864507724762,2|0,3:2|0:0,0:0:0:0:
159,353,254128,1,8,3:1:0:0:
45,236,254304,1,2,3:2:0:0:
284,134,254479,5,0,3:0:0:0:
284,134,254567,1,0,3:0:0:0:
284,134,254655,2,0,P|281:176|221:201,1,108.194396704102,2|0,3:2|0:0,0:0:0:0:
157,137,255005,2,0,P|160:95|220:70,1,108.194396704102,8|0,2:1|3:2,0:0:0:0:
459,226,255356,6,0,L|519:217,1,54.0971983520508,2|0,3:2|0:0,0:0:0:0:
365,285,255532,2,0,L|311:293,1,54.0971983520508,8|0,2:1|0:0,0:0:0:0:
369,148,255707,6,0,B|390:166|390:166|380:241,1,67.6215025749208,0|0,3:2|3:2,0:0:0:0:
456,379,255883,2,0,B|435:361|435:361|445:286,1,67.6215025749208,0|0,3:2|3:2,0:0:0:0:
307,217,256058,6,0,P|229:242|158:261,1,135.243,2|0,3:2|0:0,0:0:0:0:
84,363,256409,6,0,P|94:342|110:303,1,54.0971983520508,8|0,3:1|0:0,0:0:0:0:
164,190,256584,2,0,P|174:215|183:241,1,54.0971983520508,0|0,3:2|3:2,0:0:0:0:
53,230,256760,5,2,3:2:0:0:
213,340,256935,2,0,P|233:338|220:333,1,54.0971983520508,8|0,2:1|0:0,0:0:0:0:
37,239,257111,6,0,P|47:193|53:172,1,54.0971983520508,2|0,3:2|0:0,0:0:0:0:
78,163,257286,2,0,P|68:117|62:96,1,54.0971983520508,0|0,3:0|0:0,0:0:0:0:
16,115,257462,6,0,B|78:112|78:112|106:130|106:130|179:121,1,162.291595056153,2|0,3:2|0:0,0:0:0:0:
280,28,257812,6,0,B|293:16|293:16|282:56,1,54.0971983520508,8|0,2:1|0:0,0:0:0:0:
263,182,257988,2,0,L|283:242,1,54.0971983520508,0|0,3:2|3:2,0:0:0:0:
277,259,258163,5,2,3:2:0:0:
307,231,258251,1,0,3:2:0:0:
354,247,258339,1,8,3:1:0:0:
400,242,258427,1,0,3:0:0:0:
426,197,258514,1,8,2:1:0:0:
391,161,258602,1,0,3:2:0:0:
408,123,258690,1,0,3:2:0:0:
402,79,258777,1,0,3:2:0:0:
430,38,258865,5,4,3:2:0:0:
