osu file format v14

[General]
AudioFilename: audio135.mp3
AudioLeadIn: 0
PreviewTime: 59296
Countdown: 1
SampleSet: Normal
StackLeniency: 0.7
Mode: 1
LetterboxInBreaks: 0
WidescreenStoryboard: 0

[Editor]
DistanceSpacing: 1.5
BeatDivisor: 4
GridSize: 32
TimelineZoom: 1.6

[Metadata]
Title:Uraomote Lovers
TitleUnicode:裏表ラバーズ
Artist:wowaka
ArtistUnicode:wowaka
Creator:Konpaku Sariel
Version:Stream [1.35x Rate]
Source:
Tags:
BeatmapID:1866105
BeatmapSetID:892766

[Difficulty]
HPDrainRate:6
CircleSize:5
OverallDifficulty:6
ApproachRate:5
SliderMultiplier:1.4
SliderTickRate:1

[Events]
//Background and Video events
0,0,"884670.jpg",0,0
//Break Periods
//Storyboard Layer 0 (Background)
//Storyboard Layer 1 (Fail)
//Storyboard Layer 2 (Pass)
//Storyboard Layer 3 (Foreground)
//Storyboard Sound Samples

[TimingPoints]
2315,279.524807826695,4,1,0,100,1,0
5668,279.524807826695,4,1,0,100,1,0
59336,-100,4,1,0,100,0,1
68281,-100,4,1,0,100,0,0
117478,34.9406009783368,4,1,0,100,1,0
117478,-400,4,1,0,100,0,0
117757,279.524807826695,4,1,0,100,1,1
135646,-1,4,1,0,100,0,0

[HitObjects]
256,192,2314,5,4,0:0:0:0:
256,192,2873,1,4,0:0:0:0:
256,192,3433,1,12,0:0:0:0:
256,192,5110,1,8,0:0:0:0:
256,192,5249,1,8,0:0:0:0:
256,192,5389,1,8,0:0:0:0:
256,192,5459,1,8,0:0:0:0:
256,192,5529,1,8,0:0:0:0:
256,192,5599,1,8,0:0:0:0:
256,192,5668,1,0,0:0:0:0:
256,192,5738,1,0,0:0:0:0:
256,192,5807,1,0,0:0:0:0:
256,192,5878,1,0,0:0:0:0:
256,192,5947,1,8,0:0:0:0:
256,192,6017,1,8,0:0:0:0:
256,192,6087,1,0,0:0:0:0:
256,192,6157,1,8,0:0:0:0:
256,192,6227,1,0,0:0:0:0:
256,192,6367,1,8,0:0:0:0:
256,192,6507,1,0,0:0:0:0:
256,192,6786,1,0,0:0:0:0:
256,192,6856,1,0,0:0:0:0:
256,192,6926,1,8,0:0:0:0:
256,192,6996,1,0,0:0:0:0:
256,192,7065,1,8,0:0:0:0:
256,192,7136,1,8,0:0:0:0:
256,192,7205,1,0,0:0:0:0:
256,192,7275,1,8,0:0:0:0:
256,192,7345,1,0,0:0:0:0:
256,192,7484,1,8,0:0:0:0:
256,192,7624,1,0,0:0:0:0:
256,192,7904,1,0,0:0:0:0:
256,192,7974,1,0,0:0:0:0:
256,192,8044,1,0,0:0:0:0:
256,192,8113,1,0,0:0:0:0:
256,192,8184,1,8,0:0:0:0:
256,192,8253,1,0,0:0:0:0:
256,192,8323,1,8,0:0:0:0:
256,192,8393,1,8,0:0:0:0:
256,192,8463,1,0,0:0:0:0:
256,192,8603,1,8,0:0:0:0:
256,192,8742,1,0,0:0:0:0:
256,192,9022,1,0,0:0:0:0:
256,192,9092,1,0,0:0:0:0:
256,192,9161,1,8,0:0:0:0:
256,192,9232,1,0,0:0:0:0:
256,192,9301,1,8,0:0:0:0:
256,192,9372,1,8,0:0:0:0:
256,192,9441,1,0,0:0:0:0:
256,192,9511,1,0,0:0:0:0:
256,192,9581,1,8,0:0:0:0:
256,192,9721,1,8,0:0:0:0:
256,192,9861,1,8,0:0:0:0:
256,192,10140,1,0,0:0:0:0:
256,192,10210,1,0,0:0:0:0:
256,192,10280,1,8,0:0:0:0:
256,192,10350,1,0,0:0:0:0:
256,192,10420,1,8,0:0:0:0:
256,192,10490,1,8,0:0:0:0:
256,192,10559,1,0,0:0:0:0:
256,192,10630,1,8,0:0:0:0:
256,192,10699,1,0,0:0:0:0:
256,192,10769,1,0,0:0:0:0:
256,192,10839,1,8,0:0:0:0:
256,192,10979,1,0,0:0:0:0:
256,192,11119,1,8,0:0:0:0:
256,192,11259,1,0,0:0:0:0:
256,192,11328,1,0,0:0:0:0:
256,192,11398,1,0,0:0:0:0:
256,192,11468,1,8,0:0:0:0:
256,192,11538,1,8,0:0:0:0:
256,192,11607,1,8,0:0:0:0:
256,192,11678,1,0,0:0:0:0:
256,192,11747,1,8,0:0:0:0:
256,192,11817,1,0,0:0:0:0:
256,192,11887,1,0,0:0:0:0:
256,192,11957,1,8,0:0:0:0:
256,192,12097,1,0,0:0:0:0:
256,192,12236,1,8,0:0:0:0:
256,192,12376,1,0,0:0:0:0:
256,192,12446,1,0,0:0:0:0:
256,192,12516,1,8,0:0:0:0:
256,192,12586,1,8,0:0:0:0:
256,192,12656,1,0,0:0:0:0:
256,192,12726,1,8,0:0:0:0:
256,192,12796,1,8,0:0:0:0:
256,192,12865,1,8,0:0:0:0:
256,192,12936,1,0,0:0:0:0:
256,192,13005,1,0,0:0:0:0:
256,192,13076,1,8,0:0:0:0:
256,192,13215,1,0,0:0:0:0:
256,192,13355,1,8,0:0:0:0:
256,192,13495,1,0,0:0:0:0:
256,192,13564,1,0,0:0:0:0:
256,192,13634,1,8,0:0:0:0:
256,192,13704,1,0,0:0:0:0:
256,192,13774,1,8,0:0:0:0:
256,192,13844,1,8,0:0:0:0:
256,192,13914,1,8,0:0:0:0:
256,192,13984,1,0,0:0:0:0:
256,192,14053,1,8,0:0:0:0:
256,192,14124,1,8,0:0:0:0:
256,192,14193,1,0,0:0:0:0:
256,192,14263,1,0,0:0:0:0:
256,192,14333,1,8,0:0:0:0:
256,192,14403,1,8,0:0:0:0:
256,192,14473,1,8,0:0:0:0:
256,192,14543,1,8,0:0:0:0:
256,192,14613,1,0,0:0:0:0:
256,192,14753,1,8,0:0:0:0:
256,192,14822,1,8,0:0:0:0:
256,192,14892,1,0,0:0:0:0:
256,192,14962,1,0,0:0:0:0:
256,192,15032,1,8,0:0:0:0:
256,192,15101,1,8,0:0:0:0:
256,192,15172,1,0,0:0:0:0:
256,192,15241,1,0,0:0:0:0:
256,192,15311,1,8,0:0:0:0:
256,192,15381,1,0,0:0:0:0:
256,192,15451,1,8,0:0:0:0:
256,192,15521,1,8,0:0:0:0:
256,192,15591,1,0,0:0:0:0:
256,192,15730,1,0,0:0:0:0:
256,192,15870,1,8,0:0:0:0:
256,192,15940,1,0,0:0:0:0:
256,192,16010,1,8,0:0:0:0:
256,192,16080,1,8,0:0:0:0:
256,192,16150,1,0,0:0:0:0:
256,192,16220,1,0,0:0:0:0:
256,192,16290,1,8,0:0:0:0:
256,192,16359,1,8,0:0:0:0:
256,192,16430,1,0,0:0:0:0:
256,192,16499,1,8,0:0:0:0:
256,192,16569,1,0,0:0:0:0:
256,192,16709,1,8,0:0:0:0:
256,192,16849,1,8,0:0:0:0:
256,192,16919,1,0,0:0:0:0:
256,192,16989,1,0,0:0:0:0:
256,192,17059,1,8,0:0:0:0:
256,192,17128,1,0,0:0:0:0:
256,192,17199,1,0,0:0:0:0:
256,192,17268,1,8,0:0:0:0:
256,192,17338,1,0,0:0:0:0:
256,192,17408,1,0,0:0:0:0:
256,192,17478,1,8,0:0:0:0:
256,192,17547,1,0,0:0:0:0:
256,192,17618,1,8,0:0:0:0:
256,192,17687,1,8,0:0:0:0:
256,192,17757,1,0,0:0:0:0:
256,192,17827,1,8,0:0:0:0:
256,192,17897,1,0,0:0:0:0:
256,192,17967,1,8,0:0:0:0:
256,192,18037,1,8,0:0:0:0:
256,192,18107,1,0,0:0:0:0:
256,192,18176,1,8,0:0:0:0:
256,192,18247,1,8,0:0:0:0:
256,192,18316,1,0,0:0:0:0:
256,192,18386,1,8,0:0:0:0:
256,192,18456,1,8,0:0:0:0:
256,192,18526,1,8,0:0:0:0:
256,192,18596,1,0,0:0:0:0:
256,192,18666,1,0,0:0:0:0:
256,192,18736,1,8,0:0:0:0:
256,192,18805,1,8,0:0:0:0:
256,192,18876,1,0,0:0:0:0:
256,192,18945,1,8,0:0:0:0:
256,192,19015,1,8,0:0:0:0:
256,192,19085,1,8,0:0:0:0:
256,192,19224,1,8,0:0:0:0:
256,192,19295,1,0,0:0:0:0:
256,192,19364,1,0,0:0:0:0:
256,192,19434,1,8,0:0:0:0:
256,192,19504,1,0,0:0:0:0:
256,192,19574,1,0,0:0:0:0:
256,192,19644,1,8,0:0:0:0:
256,192,19714,1,8,0:0:0:0:
256,192,19784,1,0,0:0:0:0:
256,192,19853,1,0,0:0:0:0:
256,192,19924,1,8,0:0:0:0:
256,192,19993,1,8,0:0:0:0:
256,192,20063,1,0,0:0:0:0:
256,192,20343,1,12,0:0:0:0:
256,192,20553,1,12,0:0:0:0:
256,192,20762,1,4,0:0:0:0:
256,192,20972,1,4,0:0:0:0:
256,192,21181,1,12,0:0:0:0:
256,192,21321,1,8,0:0:0:0:
256,192,21461,1,0,0:0:0:0:
256,192,21531,1,8,0:0:0:0:
256,192,21670,1,0,0:0:0:0:
256,192,21741,1,8,0:0:0:0:
256,192,21810,1,0,0:0:0:0:
256,192,21880,1,8,0:0:0:0:
256,192,21950,1,8,0:0:0:0:
256,192,22020,1,0,0:0:0:0:
256,192,22090,1,0,0:0:0:0:
256,192,22160,1,8,0:0:0:0:
256,192,22230,1,0,0:0:0:0:
256,192,22299,1,8,0:0:0:0:
256,192,22370,1,0,0:0:0:0:
256,192,22439,1,8,0:0:0:0:
256,192,22579,1,8,0:0:0:0:
256,192,22719,1,8,0:0:0:0:
256,192,22789,1,8,0:0:0:0:
256,192,22859,1,0,0:0:0:0:
256,192,22928,1,0,0:0:0:0:
256,192,22999,1,8,0:0:0:0:
256,192,23068,1,8,0:0:0:0:
256,192,23138,1,0,0:0:0:0:
256,192,23208,1,8,0:0:0:0:
256,192,23278,1,8,0:0:0:0:
256,192,23347,1,0,0:0:0:0:
256,192,23418,1,8,0:0:0:0:
256,192,23557,1,12,0:0:0:0:
256,192,23697,1,0,0:0:0:0:
256,192,23837,1,0,0:0:0:0:
256,192,23976,1,8,0:0:0:0:
256,192,24047,1,8,0:0:0:0:
256,192,24116,1,0,0:0:0:0:
256,192,24187,1,8,0:0:0:0:
256,192,24256,1,0,0:0:0:0:
256,192,24396,1,8,0:0:0:0:
256,192,24466,1,0,0:0:0:0:
256,192,24536,1,8,0:0:0:0:
256,192,24676,1,0,0:0:0:0:
256,192,24745,1,0,0:0:0:0:
256,192,24816,1,8,0:0:0:0:
256,192,24885,1,0,0:0:0:0:
256,192,24955,1,8,0:0:0:0:
256,192,25095,1,8,0:0:0:0:
256,192,25164,1,8,0:0:0:0:
256,192,25235,1,0,0:0:0:0:
256,192,25374,1,0,0:0:0:0:
256,192,25444,1,8,0:0:0:0:
256,192,25514,1,0,0:0:0:0:
256,192,25584,1,0,0:0:0:0:
256,192,25654,1,8,0:0:0:0:
256,192,25793,1,0,0:0:0:0:
256,192,26073,1,8,0:0:0:0:
256,192,26213,1,0,0:0:0:0:
256,192,26283,1,8,0:0:0:0:
256,192,26422,1,8,0:0:0:0:
256,192,26493,1,0,0:0:0:0:
256,192,26562,1,0,0:0:0:0:
256,192,26632,1,8,0:0:0:0:
256,192,26772,1,0,0:0:0:0:
256,192,26912,1,8,0:0:0:0:
256,192,27121,1,0,0:0:0:0:
256,192,27191,1,8,0:0:0:0:
256,192,27331,1,0,0:0:0:0:
256,192,27401,1,8,0:0:0:0:
256,192,27470,1,0,0:0:0:0:
256,192,27541,1,8,0:0:0:0:
256,192,27610,1,0,0:0:0:0:
256,192,27750,1,8,0:0:0:0:
256,192,28030,1,8,0:0:0:0:
256,192,28170,1,0,0:0:0:0:
256,192,28239,1,8,0:0:0:0:
256,192,28310,1,8,0:0:0:0:
256,192,28449,1,8,0:0:0:0:
256,192,28519,1,0,0:0:0:0:
256,192,28589,1,0,0:0:0:0:
256,192,28729,1,8,0:0:0:0:
256,192,28799,1,0,0:0:0:0:
256,192,28868,1,8,0:0:0:0:
256,192,28939,1,8,0:0:0:0:
256,192,29078,1,8,0:0:0:0:
256,192,29287,1,8,0:0:0:0:
256,192,29358,1,0,0:0:0:0:
256,192,29427,1,8,0:0:0:0:
256,192,29567,1,8,0:0:0:0:
256,192,29637,1,8,0:0:0:0:
256,192,29707,1,0,0:0:0:0:
256,192,29777,1,8,0:0:0:0:
256,192,29847,1,0,0:0:0:0:
256,192,29987,1,8,0:0:0:0:
256,192,30126,1,0,0:0:0:0:
256,192,30266,1,8,0:0:0:0:
256,192,30476,1,0,0:0:0:0:
256,192,30545,1,8,0:0:0:0:
256,192,30685,1,0,0:0:0:0:
256,192,30755,1,8,0:0:0:0:
256,192,30825,1,8,0:0:0:0:
256,192,30895,1,0,0:0:0:0:
256,192,31035,1,0,0:0:0:0:
256,192,31104,1,8,0:0:0:0:
256,192,31244,1,0,0:0:0:0:
256,192,31384,1,8,0:0:0:0:
256,192,31594,1,0,0:0:0:0:
256,192,31664,1,8,0:0:0:0:
256,192,31804,1,0,0:0:0:0:
256,192,31873,1,8,0:0:0:0:
256,192,31943,1,8,0:0:0:0:
256,192,32013,1,0,0:0:0:0:
256,192,32083,1,0,0:0:0:0:
256,192,32223,1,8,0:0:0:0:
256,192,32502,1,4,0:0:0:0:
256,192,32642,1,0,0:0:0:0:
256,192,32712,1,0,0:0:0:0:
256,192,32781,1,8,0:0:0:0:
256,192,32852,1,8,0:0:0:0:
256,192,32921,1,0,0:0:0:0:
256,192,32991,1,8,0:0:0:0:
256,192,33061,1,0,0:0:0:0:
256,192,33201,1,8,0:0:0:0:
256,192,33341,1,0,0:0:0:0:
256,192,33620,1,0,0:0:0:0:
256,192,33760,1,0,0:0:0:0:
256,192,33830,1,0,0:0:0:0:
256,192,33900,1,8,0:0:0:0:
256,192,33970,1,0,0:0:0:0:
256,192,34039,1,8,0:0:0:0:
256,192,34110,1,8,0:0:0:0:
256,192,34179,1,0,0:0:0:0:
256,192,34319,1,8,0:0:0:0:
256,192,34459,1,0,0:0:0:0:
256,192,34739,1,0,0:0:0:0:
256,192,34878,1,8,0:0:0:0:
256,192,34948,1,0,0:0:0:0:
256,192,35018,1,8,0:0:0:0:
256,192,35087,1,8,0:0:0:0:
256,192,35158,1,0,0:0:0:0:
256,192,35227,1,8,0:0:0:0:
256,192,35298,1,0,0:0:0:0:
256,192,35437,1,8,0:0:0:0:
256,192,35577,1,0,0:0:0:0:
256,192,35856,1,0,0:0:0:0:
256,192,35996,1,0,0:0:0:0:
256,192,36066,1,0,0:0:0:0:
256,192,36136,1,8,0:0:0:0:
256,192,36206,1,8,0:0:0:0:
256,192,36276,1,0,0:0:0:0:
256,192,36346,1,0,0:0:0:0:
256,192,36416,1,8,0:0:0:0:
256,192,36556,1,8,0:0:0:0:
256,192,36695,1,8,0:0:0:0:
256,192,36975,1,4,0:0:0:0:
256,192,37114,1,0,0:0:0:0:
256,192,37184,1,0,0:0:0:0:
256,192,37254,1,8,0:0:0:0:
256,192,37324,1,8,0:0:0:0:
256,192,37394,1,0,0:0:0:0:
256,192,37464,1,8,0:0:0:0:
256,192,37533,1,0,0:0:0:0:
256,192,37604,1,0,0:0:0:0:
256,192,37673,1,8,0:0:0:0:
256,192,37813,1,0,0:0:0:0:
256,192,38093,1,0,0:0:0:0:
256,192,38162,1,0,0:0:0:0:
256,192,38233,1,8,0:0:0:0:
256,192,38302,1,0,0:0:0:0:
256,192,38372,1,8,0:0:0:0:
256,192,38442,1,8,0:0:0:0:
256,192,38512,1,0,0:0:0:0:
256,192,38581,1,8,0:0:0:0:
256,192,38652,1,0,0:0:0:0:
256,192,38721,1,0,0:0:0:0:
256,192,38791,1,8,0:0:0:0:
256,192,38931,1,0,0:0:0:0:
256,192,39211,1,0,0:0:0:0:
256,192,39350,1,8,0:0:0:0:
256,192,39421,1,0,0:0:0:0:
256,192,39490,1,8,0:0:0:0:
256,192,39560,1,8,0:0:0:0:
256,192,39630,1,0,0:0:0:0:
256,192,39700,1,8,0:0:0:0:
256,192,39770,1,0,0:0:0:0:
256,192,39840,1,0,0:0:0:0:
256,192,39910,1,8,0:0:0:0:
256,192,40050,1,0,0:0:0:0:
256,192,40329,1,8,0:0:0:0:
256,192,40399,1,0,0:0:0:0:
256,192,40469,1,8,0:0:0:0:
256,192,40539,1,0,0:0:0:0:
256,192,40608,1,8,0:0:0:0:
256,192,40679,1,8,0:0:0:0:
256,192,40748,1,0,0:0:0:0:
256,192,40818,1,0,0:0:0:0:
256,192,40888,1,8,0:0:0:0:
256,192,40958,1,8,0:0:0:0:
256,192,41027,1,0,0:0:0:0:
256,192,41098,1,8,0:0:0:0:
256,192,41167,1,8,0:0:0:0:
256,192,41237,1,0,0:0:0:0:
256,192,41307,1,8,0:0:0:0:
256,192,41377,1,8,0:0:0:0:
256,192,41447,1,8,0:0:0:0:
256,192,41587,1,0,0:0:0:0:
256,192,41656,1,0,0:0:0:0:
256,192,41727,1,8,0:0:0:0:
256,192,41796,1,0,0:0:0:0:
256,192,41866,1,8,0:0:0:0:
256,192,41936,1,0,0:0:0:0:
256,192,42006,1,8,0:0:0:0:
256,192,42076,1,0,0:0:0:0:
256,192,42146,1,0,0:0:0:0:
256,192,42216,1,0,0:0:0:0:
256,192,42285,1,8,0:0:0:0:
256,192,42356,1,0,0:0:0:0:
256,192,42425,1,8,0:0:0:0:
256,192,42495,1,0,0:0:0:0:
256,192,42565,1,8,0:0:0:0:
256,192,42705,1,0,0:0:0:0:
256,192,42775,1,0,0:0:0:0:
256,192,42844,1,8,0:0:0:0:
256,192,42984,1,0,0:0:0:0:
256,192,43054,1,0,0:0:0:0:
256,192,43124,1,8,0:0:0:0:
256,192,43194,1,8,0:0:0:0:
256,192,43264,1,0,0:0:0:0:
256,192,43334,1,0,0:0:0:0:
256,192,43404,1,8,0:0:0:0:
256,192,43473,1,0,0:0:0:0:
256,192,43544,1,8,0:0:0:0:
256,192,43613,1,0,0:0:0:0:
256,192,43683,1,8,0:0:0:0:
256,192,43823,1,0,0:0:0:0:
256,192,43893,1,8,0:0:0:0:
256,192,43963,1,8,0:0:0:0:
256,192,44033,1,0,0:0:0:0:
256,192,44102,1,0,0:0:0:0:
256,192,44173,1,8,0:0:0:0:
256,192,44242,1,8,0:0:0:0:
256,192,44312,1,0,0:0:0:0:
256,192,44382,1,8,0:0:0:0:
256,192,44452,1,0,0:0:0:0:
256,192,44521,1,8,0:0:0:0:
256,192,44592,1,8,0:0:0:0:
256,192,44661,1,0,0:0:0:0:
256,192,44731,1,8,0:0:0:0:
256,192,44801,1,8,0:0:0:0:
256,192,44941,1,0,0:0:0:0:
256,192,45011,1,0,0:0:0:0:
256,192,45081,1,8,0:0:0:0:
256,192,45150,1,0,0:0:0:0:
256,192,45221,1,0,0:0:0:0:
256,192,45290,1,8,0:0:0:0:
256,192,45360,1,0,0:0:0:0:
256,192,45430,1,8,0:0:0:0:
256,192,45500,1,0,0:0:0:0:
256,192,45570,1,0,0:0:0:0:
256,192,45640,1,8,0:0:0:0:
256,192,45919,1,8,0:0:0:0:
256,192,45989,1,0,0:0:0:0:
256,192,46059,1,8,0:0:0:0:
256,192,46129,1,0,0:0:0:0:
256,192,46199,1,8,0:0:0:0:
256,192,46269,1,8,0:0:0:0:
256,192,46339,1,0,0:0:0:0:
256,192,46409,1,8,0:0:0:0:
256,192,46479,1,8,0:0:0:0:
256,192,46548,1,0,0:0:0:0:
256,192,46619,1,8,0:0:0:0:
256,192,46688,1,0,0:0:0:0:
256,192,46758,1,8,0:0:0:0:
256,192,46828,1,8,0:0:0:0:
256,192,46967,1,8,0:0:0:0:
256,192,47038,1,8,0:0:0:0:
256,192,47107,1,0,0:0:0:0:
256,192,47177,1,8,0:0:0:0:
256,192,47247,1,0,0:0:0:0:
256,192,47317,1,8,0:0:0:0:
256,192,47387,1,8,0:0:0:0:
256,192,47457,1,0,0:0:0:0:
256,192,47527,1,8,0:0:0:0:
256,192,47596,1,0,0:0:0:0:
256,192,47667,1,8,0:0:0:0:
256,192,47736,1,8,0:0:0:0:
256,192,47806,1,8,0:0:0:0:
256,192,47876,1,0,0:0:0:0:
256,192,48156,1,8,0:0:0:0:
256,192,48225,1,0,0:0:0:0:
256,192,48365,1,0,0:0:0:0:
256,192,48435,1,8,0:0:0:0:
256,192,48575,1,8,0:0:0:0:
256,192,48644,1,0,0:0:0:0:
256,192,48715,1,0,0:0:0:0:
256,192,48784,1,8,0:0:0:0:
256,192,48854,1,0,0:0:0:0:
256,192,48994,1,8,0:0:0:0:
256,192,49064,1,0,0:0:0:0:
256,192,49204,1,0,0:0:0:0:
256,192,49273,1,8,0:0:0:0:
256,192,49413,1,8,0:0:0:0:
256,192,49483,1,0,0:0:0:0:
256,192,49553,1,0,0:0:0:0:
256,192,49623,1,8,0:0:0:0:
256,192,49693,1,8,0:0:0:0:
256,192,49763,1,0,0:0:0:0:
256,192,49833,1,8,0:0:0:0:
256,192,49902,1,8,0:0:0:0:
256,192,49973,1,8,0:0:0:0:
256,192,50042,1,8,0:0:0:0:
256,192,50113,1,8,0:0:0:0:
256,192,50252,1,0,0:0:0:0:
256,192,50392,1,12,0:0:0:0:
256,192,50532,1,8,0:0:0:0:
256,192,50601,1,0,0:0:0:0:
256,192,50671,1,8,0:0:0:0:
256,192,50741,1,8,0:0:0:0:
256,192,50811,1,0,0:0:0:0:
256,192,50881,1,0,0:0:0:0:
256,192,50951,1,8,0:0:0:0:
256,192,51021,1,8,0:0:0:0:
256,192,51161,1,8,0:0:0:0:
256,192,51370,1,0,0:0:0:0:
256,192,51440,1,0,0:0:0:0:
256,192,51510,1,8,0:0:0:0:
256,192,51580,1,0,0:0:0:0:
256,192,51650,1,8,0:0:0:0:
256,192,51719,1,0,0:0:0:0:
256,192,51790,1,8,0:0:0:0:
256,192,51859,1,8,0:0:0:0:
256,192,51929,1,0,0:0:0:0:
256,192,51999,1,8,0:0:0:0:
256,192,52069,1,8,0:0:0:0:
256,192,52139,1,0,0:0:0:0:
256,192,52279,1,8,0:0:0:0:
256,192,52488,1,8,0:0:0:0:
256,192,52558,1,0,0:0:0:0:
256,192,52698,1,8,0:0:0:0:
256,192,52907,1,8,0:0:0:0:
256,192,52977,1,0,0:0:0:0:
256,192,53117,1,0,0:0:0:0:
256,192,53327,1,8,0:0:0:0:
256,192,53396,1,0,0:0:0:0:
256,192,53467,1,0,0:0:0:0:
256,192,53536,1,8,0:0:0:0:
256,192,53746,1,8,0:0:0:0:
256,192,53886,1,0,0:0:0:0:
256,192,53956,1,0,0:0:0:0:
256,192,54026,1,8,0:0:0:0:
256,192,54096,1,0,0:0:0:0:
256,192,54165,1,8,0:0:0:0:
256,192,54236,1,0,0:0:0:0:
256,192,54305,1,8,0:0:0:0:
256,192,54375,1,0,0:0:0:0:
256,192,54445,1,8,0:0:0:0:
256,192,54584,1,8,0:0:0:0:
256,192,54864,1,0,0:0:0:0:
256,192,55004,1,0,0:0:0:0:
256,192,55074,1,0,0:0:0:0:
256,192,55144,1,8,0:0:0:0:
256,192,55284,1,0,0:0:0:0:
256,192,55353,1,8,0:0:0:0:
256,192,55423,1,0,0:0:0:0:
256,192,55563,1,0,0:0:0:0:
256,192,55633,1,8,0:0:0:0:
256,192,55703,1,8,0:0:0:0:
256,192,55842,1,8,0:0:0:0:
256,192,55913,1,0,0:0:0:0:
256,192,55982,1,0,0:0:0:0:
256,192,56122,1,8,0:0:0:0:
256,192,56192,1,0,0:0:0:0:
256,192,56261,1,8,0:0:0:0:
256,192,56401,1,8,0:0:0:0:
256,192,56471,1,8,0:0:0:0:
256,192,56541,1,0,0:0:0:0:
256,192,56611,1,8,0:0:0:0:
256,192,56681,1,0,0:0:0:0:
256,192,56821,1,8,0:0:0:0:
256,192,56961,1,8,0:0:0:0:
256,192,57100,1,0,0:0:0:0:
256,192,57380,1,8,0:0:0:0:
256,192,57520,1,0,0:0:0:0:
256,192,57590,1,8,0:0:0:0:
256,192,57730,1,8,0:0:0:0:
256,192,57799,1,0,0:0:0:0:
256,192,57939,1,8,0:0:0:0:
256,192,58079,1,0,0:0:0:0:
256,192,58219,1,12,0:0:0:0:
256,192,58359,1,0,0:0:0:0:
256,192,58498,1,12,0:0:0:0:
256,192,58638,1,0,0:0:0:0:
256,192,58707,1,0,0:0:0:0:
256,192,58778,1,8,0:0:0:0:
256,192,58847,1,8,0:0:0:0:
256,192,58917,1,0,0:0:0:0:
256,192,58987,1,0,0:0:0:0:
256,192,59057,1,8,0:0:0:0:
256,192,59127,1,8,0:0:0:0:
256,192,59197,1,8,0:0:0:0:
256,192,59336,1,4,0:0:0:0:
256,192,59476,1,0,0:0:0:0:
256,192,59546,1,0,0:0:0:0:
256,192,59616,1,8,0:0:0:0:
256,192,59686,1,8,0:0:0:0:
256,192,59756,1,0,0:0:0:0:
256,192,59826,1,8,0:0:0:0:
256,192,59896,1,0,0:0:0:0:
256,192,59965,1,0,0:0:0:0:
256,192,60036,1,8,0:0:0:0:
256,192,60105,1,8,0:0:0:0:
256,192,60175,1,0,0:0:0:0:
256,192,60315,1,8,0:0:0:0:
256,192,60455,1,0,0:0:0:0:
256,192,60524,1,0,0:0:0:0:
256,192,60594,1,8,0:0:0:0:
256,192,60664,1,0,0:0:0:0:
256,192,60734,1,8,0:0:0:0:
256,192,60804,1,8,0:0:0:0:
256,192,60874,1,0,0:0:0:0:
256,192,60944,1,8,0:0:0:0:
256,192,61013,1,0,0:0:0:0:
256,192,61084,1,0,0:0:0:0:
256,192,61153,1,8,0:0:0:0:
256,192,61224,1,8,0:0:0:0:
256,192,61293,1,0,0:0:0:0:
256,192,61433,1,8,0:0:0:0:
256,192,61573,1,0,0:0:0:0:
256,192,61643,1,0,0:0:0:0:
256,192,61713,1,8,0:0:0:0:
256,192,61782,1,0,0:0:0:0:
256,192,61853,1,8,0:0:0:0:
256,192,61922,1,0,0:0:0:0:
256,192,61992,1,0,0:0:0:0:
256,192,62062,1,8,0:0:0:0:
256,192,62132,1,0,0:0:0:0:
256,192,62201,1,0,0:0:0:0:
256,192,62272,1,8,0:0:0:0:
256,192,62341,1,8,0:0:0:0:
256,192,62411,1,0,0:0:0:0:
256,192,62551,1,8,0:0:0:0:
256,192,62691,1,0,0:0:0:0:
256,192,62761,1,0,0:0:0:0:
256,192,62830,1,8,0:0:0:0:
256,192,62901,1,0,0:0:0:0:
256,192,62970,1,8,0:0:0:0:
256,192,63040,1,8,0:0:0:0:
256,192,63110,1,0,0:0:0:0:
256,192,63180,1,0,0:0:0:0:
256,192,63250,1,8,0:0:0:0:
256,192,63320,1,8,0:0:0:0:
256,192,63390,1,0,0:0:0:0:
256,192,63459,1,8,0:0:0:0:
256,192,63530,1,0,0:0:0:0:
256,192,63599,1,0,0:0:0:0:
256,192,63669,1,8,0:0:0:0:
256,192,63809,1,4,0:0:0:0:
256,192,63949,1,8,0:0:0:0:
256,192,64019,1,0,0:0:0:0:
256,192,64088,1,8,0:0:0:0:
256,192,64159,1,8,0:0:0:0:
256,192,64228,1,0,0:0:0:0:
256,192,64298,1,8,0:0:0:0:
256,192,64368,1,0,0:0:0:0:
256,192,64438,1,0,0:0:0:0:
256,192,64507,1,8,0:0:0:0:
256,192,64578,1,8,0:0:0:0:
256,192,64647,1,0,0:0:0:0:
256,192,64787,1,8,0:0:0:0:
256,192,64927,1,0,0:0:0:0:
256,192,64997,1,0,0:0:0:0:
256,192,65067,1,8,0:0:0:0:
256,192,65137,1,8,0:0:0:0:
256,192,65207,1,0,0:0:0:0:
256,192,65276,1,0,0:0:0:0:
256,192,65347,1,0,0:0:0:0:
256,192,65416,1,8,0:0:0:0:
256,192,65486,1,0,0:0:0:0:
256,192,65556,1,0,0:0:0:0:
256,192,65626,1,8,0:0:0:0:
256,192,65696,1,8,0:0:0:0:
256,192,65766,1,0,0:0:0:0:
256,192,65905,1,8,0:0:0:0:
256,192,66045,1,0,0:0:0:0:
256,192,66115,1,0,0:0:0:0:
256,192,66185,1,8,0:0:0:0:
256,192,66255,1,8,0:0:0:0:
256,192,66324,1,0,0:0:0:0:
256,192,66395,1,8,0:0:0:0:
256,192,66464,1,0,0:0:0:0:
256,192,66534,1,8,0:0:0:0:
256,192,66604,1,0,0:0:0:0:
256,192,66674,1,0,0:0:0:0:
256,192,66744,1,8,0:0:0:0:
256,192,66814,1,8,0:0:0:0:
256,192,66884,1,0,0:0:0:0:
256,192,67024,1,8,0:0:0:0:
256,192,67163,1,8,0:0:0:0:
256,192,67303,1,0,0:0:0:0:
256,192,67373,1,0,0:0:0:0:
256,192,67443,1,8,0:0:0:0:
256,192,67582,1,0,0:0:0:0:
256,192,67653,1,0,0:0:0:0:
256,192,67722,1,8,0:0:0:0:
256,192,67862,1,0,0:0:0:0:
256,192,67932,1,0,0:0:0:0:
256,192,68001,1,8,0:0:0:0:
256,192,68141,1,0,0:0:0:0:
256,192,68281,1,0,0:0:0:0:
256,192,68351,1,0,0:0:0:0:
256,192,68421,1,0,0:0:0:0:
256,192,68491,1,0,0:0:0:0:
256,192,68561,1,8,0:0:0:0:
256,192,68631,1,8,0:0:0:0:
256,192,68701,1,0,0:0:0:0:
256,192,68770,1,8,0:0:0:0:
256,192,68841,1,0,0:0:0:0:
256,192,68910,1,0,0:0:0:0:
256,192,68980,1,8,0:0:0:0:
256,192,69050,1,8,0:0:0:0:
256,192,69120,1,0,0:0:0:0:
256,192,69190,1,8,0:0:0:0:
256,192,69260,1,0,0:0:0:0:
256,192,69330,1,8,0:0:0:0:
256,192,69399,1,0,0:0:0:0:
256,192,69470,1,8,0:0:0:0:
256,192,69539,1,8,0:0:0:0:
256,192,69609,1,0,0:0:0:0:
256,192,69679,1,8,0:0:0:0:
256,192,69749,1,8,0:0:0:0:
256,192,69819,1,0,0:0:0:0:
256,192,69889,1,8,0:0:0:0:
256,192,69959,1,0,0:0:0:0:
256,192,70028,1,0,0:0:0:0:
256,192,70099,1,8,0:0:0:0:
256,192,70168,1,0,0:0:0:0:
256,192,70238,1,8,0:0:0:0:
256,192,70308,1,8,0:0:0:0:
256,192,70378,1,8,0:0:0:0:
256,192,70447,1,8,0:0:0:0:
256,192,70518,1,0,0:0:0:0:
256,192,70587,1,0,0:0:0:0:
256,192,70657,1,8,0:0:0:0:
256,192,70727,1,8,0:0:0:0:
256,192,70797,1,8,0:0:0:0:
256,192,70867,1,0,0:0:0:0:
256,192,70937,1,8,0:0:0:0:
256,192,71007,1,8,0:0:0:0:
256,192,71076,1,0,0:0:0:0:
256,192,71216,1,8,0:0:0:0:
256,192,71286,1,8,0:0:0:0:
256,192,71356,1,0,0:0:0:0:
256,192,71426,1,8,0:0:0:0:
256,192,71496,1,8,0:0:0:0:
256,192,71636,1,4,0:0:0:0:
256,192,71915,1,4,0:0:0:0:
256,192,72195,1,4,0:0:0:0:
256,192,72474,1,4,0:0:0:0:
256,192,72754,1,4,0:0:0:0:
256,192,72893,1,0,0:0:0:0:
256,192,72964,1,0,0:0:0:0:
256,192,73033,1,8,0:0:0:0:
256,192,73103,1,8,0:0:0:0:
256,192,73173,1,0,0:0:0:0:
256,192,73243,1,8,0:0:0:0:
256,192,73313,1,0,0:0:0:0:
256,192,73453,1,8,0:0:0:0:
256,192,73593,1,0,0:0:0:0:
256,192,73872,1,0,0:0:0:0:
256,192,73941,1,0,0:0:0:0:
256,192,74012,1,0,0:0:0:0:
256,192,74081,1,0,0:0:0:0:
256,192,74151,1,8,0:0:0:0:
256,192,74221,1,8,0:0:0:0:
256,192,74291,1,0,0:0:0:0:
256,192,74361,1,8,0:0:0:0:
256,192,74431,1,0,0:0:0:0:
256,192,74501,1,0,0:0:0:0:
256,192,74570,1,8,0:0:0:0:
256,192,74710,1,0,0:0:0:0:
256,192,74990,1,0,0:0:0:0:
256,192,75130,1,0,0:0:0:0:
256,192,75199,1,0,0:0:0:0:
256,192,75270,1,8,0:0:0:0:
256,192,75339,1,0,0:0:0:0:
256,192,75409,1,8,0:0:0:0:
256,192,75479,1,8,0:0:0:0:
256,192,75549,1,0,0:0:0:0:
256,192,75689,1,8,0:0:0:0:
256,192,75828,1,0,0:0:0:0:
256,192,76108,1,0,0:0:0:0:
256,192,76178,1,0,0:0:0:0:
256,192,76248,1,8,0:0:0:0:
256,192,76318,1,0,0:0:0:0:
256,192,76387,1,8,0:0:0:0:
256,192,76458,1,8,0:0:0:0:
256,192,76527,1,0,0:0:0:0:
256,192,76597,1,8,0:0:0:0:
256,192,76667,1,0,0:0:0:0:
256,192,76737,1,0,0:0:0:0:
256,192,76807,1,8,0:0:0:0:
256,192,76947,1,8,0:0:0:0:
256,192,77226,1,4,0:0:0:0:
256,192,77366,1,8,0:0:0:0:
256,192,77436,1,0,0:0:0:0:
256,192,77506,1,8,0:0:0:0:
256,192,77576,1,8,0:0:0:0:
256,192,77645,1,0,0:0:0:0:
256,192,77716,1,8,0:0:0:0:
256,192,77785,1,0,0:0:0:0:
256,192,77855,1,0,0:0:0:0:
256,192,77925,1,8,0:0:0:0:
256,192,77995,1,0,0:0:0:0:
256,192,78064,1,8,0:0:0:0:
256,192,78135,1,8,0:0:0:0:
256,192,78204,1,0,0:0:0:0:
256,192,78274,1,8,0:0:0:0:
256,192,78344,1,0,0:0:0:0:
256,192,78414,1,0,0:0:0:0:
256,192,78484,1,0,0:0:0:0:
256,192,78554,1,8,0:0:0:0:
256,192,78624,1,8,0:0:0:0:
256,192,78693,1,8,0:0:0:0:
256,192,78764,1,0,0:0:0:0:
256,192,78833,1,8,0:0:0:0:
256,192,78903,1,0,0:0:0:0:
256,192,78973,1,8,0:0:0:0:
256,192,79043,1,8,0:0:0:0:
256,192,79113,1,0,0:0:0:0:
256,192,79183,1,8,0:0:0:0:
256,192,79253,1,0,0:0:0:0:
256,192,79322,1,8,0:0:0:0:
256,192,79393,1,8,0:0:0:0:
256,192,79462,1,0,0:0:0:0:
256,192,79532,1,0,0:0:0:0:
256,192,79602,1,8,0:0:0:0:
256,192,79672,1,0,0:0:0:0:
256,192,79742,1,8,0:0:0:0:
256,192,79812,1,8,0:0:0:0:
256,192,79881,1,0,0:0:0:0:
256,192,79952,1,8,0:0:0:0:
256,192,80021,1,0,0:0:0:0:
256,192,80091,1,0,0:0:0:0:
256,192,80161,1,8,0:0:0:0:
256,192,80231,1,0,0:0:0:0:
256,192,80301,1,8,0:0:0:0:
256,192,80371,1,8,0:0:0:0:
256,192,80441,1,0,0:0:0:0:
256,192,80510,1,8,0:0:0:0:
256,192,80581,1,0,0:0:0:0:
256,192,80650,1,0,0:0:0:0:
256,192,80720,1,8,0:0:0:0:
256,192,80790,1,8,0:0:0:0:
256,192,80860,1,0,0:0:0:0:
256,192,80930,1,8,0:0:0:0:
256,192,81000,1,8,0:0:0:0:
256,192,81070,1,0,0:0:0:0:
256,192,81139,1,8,0:0:0:0:
256,192,81210,1,8,0:0:0:0:
256,192,81279,1,0,0:0:0:0:
256,192,81349,1,0,0:0:0:0:
256,192,81419,1,8,0:0:0:0:
256,192,81489,1,8,0:0:0:0:
256,192,81559,1,8,0:0:0:0:
256,192,81699,1,8,0:0:0:0:
256,192,81768,1,8,0:0:0:0:
256,192,81839,1,0,0:0:0:0:
256,192,81908,1,0,0:0:0:0:
256,192,81978,1,8,0:0:0:0:
256,192,82048,1,0,0:0:0:0:
256,192,82118,1,8,0:0:0:0:
256,192,82187,1,0,0:0:0:0:
256,192,82258,1,8,0:0:0:0:
256,192,82327,1,8,0:0:0:0:
256,192,82397,1,0,0:0:0:0:
256,192,82467,1,8,0:0:0:0:
256,192,82537,1,8,0:0:0:0:
256,192,82607,1,8,0:0:0:0:
256,192,82677,1,0,0:0:0:0:
256,192,82816,1,0,0:0:0:0:
256,192,82956,1,8,0:0:0:0:
256,192,83026,1,8,0:0:0:0:
256,192,83096,1,0,0:0:0:0:
256,192,83166,1,8,0:0:0:0:
256,192,83236,1,8,0:0:0:0:
256,192,83306,1,0,0:0:0:0:
256,192,83376,1,8,0:0:0:0:
256,192,83446,1,8,0:0:0:0:
256,192,83516,1,0,0:0:0:0:
256,192,83656,1,8,0:0:0:0:
256,192,83795,1,8,0:0:0:0:
256,192,83935,1,8,0:0:0:0:
256,192,84004,1,0,0:0:0:0:
256,192,84075,1,0,0:0:0:0:
256,192,84144,1,8,0:0:0:0:
256,192,84214,1,0,0:0:0:0:
256,192,84284,1,8,0:0:0:0:
256,192,84354,1,0,0:0:0:0:
256,192,84424,1,0,0:0:0:0:
256,192,84494,1,0,0:0:0:0:
256,192,84564,1,8,0:0:0:0:
256,192,84633,1,0,0:0:0:0:
256,192,84704,1,8,0:0:0:0:
256,192,84773,1,8,0:0:0:0:
256,192,84843,1,0,0:0:0:0:
256,192,84913,1,8,0:0:0:0:
256,192,84983,1,8,0:0:0:0:
256,192,85053,1,0,0:0:0:0:
256,192,85123,1,8,0:0:0:0:
256,192,85193,1,8,0:0:0:0:
256,192,85262,1,0,0:0:0:0:
256,192,85333,1,8,0:0:0:0:
256,192,85402,1,0,0:0:0:0:
256,192,85472,1,8,0:0:0:0:
256,192,85542,1,8,0:0:0:0:
256,192,85612,1,0,0:0:0:0:
256,192,85681,1,8,0:0:0:0:
256,192,85752,1,8,0:0:0:0:
256,192,85821,1,0,0:0:0:0:
256,192,85891,1,8,0:0:0:0:
256,192,85961,1,8,0:0:0:0:
256,192,86031,1,0,0:0:0:0:
256,192,86101,1,8,0:0:0:0:
256,192,86171,1,0,0:0:0:0:
256,192,86241,1,0,0:0:0:0:
256,192,86310,1,8,0:0:0:0:
256,192,86381,1,8,0:0:0:0:
256,192,86450,1,0,0:0:0:0:
256,192,86520,1,8,0:0:0:0:
256,192,86590,1,8,0:0:0:0:
256,192,86660,1,0,0:0:0:0:
256,192,86730,1,8,0:0:0:0:
256,192,86800,1,0,0:0:0:0:
256,192,86870,1,8,0:0:0:0:
256,192,86939,1,0,0:0:0:0:
256,192,87010,1,8,0:0:0:0:
256,192,87079,1,8,0:0:0:0:
256,192,87150,1,0,0:0:0:0:
256,192,87289,1,0,0:0:0:0:
256,192,87429,1,12,0:0:0:0:
256,192,87639,1,12,0:0:0:0:
256,192,87848,1,4,0:0:0:0:
256,192,88058,1,4,0:0:0:0:
256,192,88267,1,12,0:0:0:0:
256,192,88407,1,8,0:0:0:0:
256,192,88477,1,0,0:0:0:0:
256,192,88547,1,0,0:0:0:0:
256,192,88617,1,8,0:0:0:0:
256,192,88687,1,0,0:0:0:0:
256,192,88756,1,8,0:0:0:0:
256,192,88827,1,0,0:0:0:0:
256,192,88896,1,0,0:0:0:0:
256,192,88966,1,8,0:0:0:0:
256,192,89036,1,0,0:0:0:0:
256,192,89176,1,8,0:0:0:0:
256,192,89316,1,0,0:0:0:0:
256,192,89385,1,8,0:0:0:0:
256,192,89525,1,8,0:0:0:0:
256,192,89595,1,8,0:0:0:0:
256,192,89665,1,0,0:0:0:0:
256,192,89735,1,0,0:0:0:0:
256,192,89804,1,8,0:0:0:0:
256,192,89944,1,0,0:0:0:0:
256,192,90014,1,0,0:0:0:0:
256,192,90084,1,8,0:0:0:0:
256,192,90154,1,8,0:0:0:0:
256,192,90224,1,0,0:0:0:0:
256,192,90294,1,8,0:0:0:0:
256,192,90364,1,8,0:0:0:0:
256,192,90433,1,0,0:0:0:0:
256,192,90504,1,8,0:0:0:0:
256,192,90643,1,0,0:0:0:0:
256,192,90923,1,12,0:0:0:0:
256,192,91063,1,0,0:0:0:0:
256,192,91133,1,8,0:0:0:0:
256,192,91273,1,8,0:0:0:0:
256,192,91342,1,0,0:0:0:0:
256,192,91412,1,0,0:0:0:0:
256,192,91482,1,8,0:0:0:0:
256,192,91552,1,0,0:0:0:0:
256,192,91621,1,8,0:0:0:0:
256,192,91761,1,8,0:0:0:0:
256,192,91831,1,0,0:0:0:0:
256,192,91901,1,0,0:0:0:0:
256,192,91971,1,0,0:0:0:0:
256,192,92041,1,8,0:0:0:0:
256,192,92111,1,0,0:0:0:0:
256,192,92181,1,8,0:0:0:0:
256,192,92250,1,8,0:0:0:0:
256,192,92321,1,8,0:0:0:0:
256,192,92460,1,0,0:0:0:0:
256,192,92530,1,8,0:0:0:0:
256,192,92600,1,0,0:0:0:0:
256,192,92670,1,0,0:0:0:0:
256,192,92740,1,8,0:0:0:0:
256,192,92879,1,0,0:0:0:0:
256,192,93089,1,0,0:0:0:0:
256,192,93159,1,8,0:0:0:0:
256,192,93299,1,0,0:0:0:0:
256,192,93369,1,8,0:0:0:0:
256,192,93508,1,8,0:0:0:0:
256,192,93579,1,0,0:0:0:0:
256,192,93648,1,0,0:0:0:0:
256,192,93718,1,8,0:0:0:0:
256,192,93858,1,0,0:0:0:0:
256,192,93998,1,8,0:0:0:0:
256,192,94067,1,0,0:0:0:0:
256,192,94207,1,0,0:0:0:0:
256,192,94277,1,8,0:0:0:0:
256,192,94417,1,0,0:0:0:0:
256,192,94487,1,8,0:0:0:0:
256,192,94557,1,0,0:0:0:0:
256,192,94627,1,8,0:0:0:0:
256,192,94696,1,0,0:0:0:0:
256,192,94836,1,8,0:0:0:0:
256,192,95116,1,8,0:0:0:0:
256,192,95256,1,0,0:0:0:0:
256,192,95325,1,0,0:0:0:0:
256,192,95396,1,8,0:0:0:0:
256,192,95535,1,8,0:0:0:0:
256,192,95605,1,8,0:0:0:0:
256,192,95675,1,0,0:0:0:0:
256,192,95815,1,0,0:0:0:0:
256,192,95884,1,0,0:0:0:0:
256,192,95954,1,8,0:0:0:0:
256,192,96024,1,8,0:0:0:0:
256,192,96164,1,8,0:0:0:0:
256,192,96373,1,8,0:0:0:0:
256,192,96444,1,8,0:0:0:0:
256,192,96513,1,0,0:0:0:0:
256,192,96653,1,8,0:0:0:0:
256,192,96723,1,8,0:0:0:0:
256,192,96793,1,0,0:0:0:0:
256,192,96863,1,8,0:0:0:0:
256,192,96933,1,0,0:0:0:0:
256,192,97073,1,8,0:0:0:0:
256,192,97212,1,8,0:0:0:0:
256,192,97352,1,0,0:0:0:0:
256,192,97631,1,8,0:0:0:0:
256,192,97841,1,8,0:0:0:0:
256,192,97911,1,0,0:0:0:0:
256,192,97981,1,8,0:0:0:0:
256,192,98050,1,0,0:0:0:0:
256,192,98190,1,8,0:0:0:0:
256,192,98261,1,0,0:0:0:0:
256,192,98330,1,0,0:0:0:0:
256,192,98470,1,8,0:0:0:0:
256,192,98680,1,0,0:0:0:0:
256,192,98750,1,8,0:0:0:0:
256,192,98890,1,0,0:0:0:0:
256,192,98959,1,8,0:0:0:0:
256,192,99029,1,8,0:0:0:0:
256,192,99099,1,0,0:0:0:0:
256,192,99239,1,0,0:0:0:0:
256,192,99309,1,8,0:0:0:0:
256,192,99588,1,12,0:0:0:0:
256,192,99728,1,0,0:0:0:0:
256,192,99798,1,0,0:0:0:0:
256,192,99867,1,8,0:0:0:0:
256,192,99938,1,0,0:0:0:0:
256,192,100007,1,8,0:0:0:0:
256,192,100077,1,0,0:0:0:0:
256,192,100147,1,8,0:0:0:0:
256,192,100217,1,0,0:0:0:0:
256,192,100287,1,0,0:0:0:0:
256,192,100357,1,0,0:0:0:0:
256,192,100427,1,8,0:0:0:0:
256,192,100567,1,8,0:0:0:0:
256,192,100636,1,0,0:0:0:0:
256,192,100706,1,8,0:0:0:0:
256,192,100846,1,8,0:0:0:0:
256,192,100916,1,0,0:0:0:0:
256,192,100986,1,8,0:0:0:0:
256,192,101125,1,8,0:0:0:0:
256,192,101196,1,0,0:0:0:0:
256,192,101265,1,8,0:0:0:0:
256,192,101335,1,8,0:0:0:0:
256,192,101405,1,0,0:0:0:0:
256,192,101475,1,0,0:0:0:0:
256,192,101544,1,8,0:0:0:0:
256,192,101615,1,0,0:0:0:0:
256,192,101684,1,8,0:0:0:0:
256,192,101824,1,8,0:0:0:0:
256,192,101964,1,0,0:0:0:0:
256,192,102034,1,0,0:0:0:0:
256,192,102104,1,8,0:0:0:0:
256,192,102174,1,8,0:0:0:0:
256,192,102244,1,0,0:0:0:0:
256,192,102313,1,8,0:0:0:0:
256,192,102384,1,8,0:0:0:0:
256,192,102523,1,0,0:0:0:0:
256,192,102593,1,0,0:0:0:0:
256,192,102663,1,8,0:0:0:0:
256,192,102733,1,0,0:0:0:0:
256,192,102803,1,0,0:0:0:0:
256,192,102873,1,8,0:0:0:0:
256,192,102942,1,8,0:0:0:0:
256,192,103082,1,0,0:0:0:0:
256,192,103152,1,0,0:0:0:0:
256,192,103222,1,8,0:0:0:0:
256,192,103292,1,0,0:0:0:0:
256,192,103432,1,8,0:0:0:0:
256,192,103501,1,0,0:0:0:0:
256,192,103571,1,0,0:0:0:0:
256,192,103641,1,8,0:0:0:0:
256,192,103781,1,0,0:0:0:0:
256,192,104061,1,8,0:0:0:0:
256,192,104130,1,8,0:0:0:0:
256,192,104200,1,0,0:0:0:0:
256,192,104270,1,0,0:0:0:0:
256,192,104340,1,8,0:0:0:0:
256,192,104410,1,8,0:0:0:0:
256,192,104480,1,0,0:0:0:0:
256,192,104550,1,0,0:0:0:0:
256,192,104619,1,8,0:0:0:0:
256,192,104690,1,8,0:0:0:0:
256,192,104759,1,0,0:0:0:0:
256,192,104829,1,8,0:0:0:0:
256,192,104899,1,8,0:0:0:0:
256,192,104969,1,0,0:0:0:0:
256,192,105109,1,8,0:0:0:0:
256,192,105179,1,8,0:0:0:0:
256,192,105248,1,8,0:0:0:0:
256,192,105319,1,0,0:0:0:0:
256,192,105388,1,0,0:0:0:0:
256,192,105458,1,8,0:0:0:0:
256,192,105528,1,0,0:0:0:0:
256,192,105598,1,8,0:0:0:0:
256,192,105668,1,0,0:0:0:0:
256,192,105738,1,8,0:0:0:0:
256,192,105807,1,8,0:0:0:0:
256,192,105878,1,8,0:0:0:0:
256,192,106017,1,0,0:0:0:0:
256,192,106297,1,8,0:0:0:0:
256,192,106367,1,0,0:0:0:0:
256,192,106507,1,8,0:0:0:0:
256,192,106576,1,0,0:0:0:0:
256,192,106716,1,8,0:0:0:0:
256,192,106786,1,0,0:0:0:0:
256,192,106926,1,8,0:0:0:0:
256,192,106996,1,0,0:0:0:0:
256,192,107136,1,8,0:0:0:0:
256,192,107205,1,0,0:0:0:0:
256,192,107345,1,8,0:0:0:0:
256,192,107415,1,0,0:0:0:0:
256,192,107555,1,8,0:0:0:0:
256,192,107624,1,0,0:0:0:0:
256,192,107694,1,8,0:0:0:0:
256,192,107764,1,8,0:0:0:0:
256,192,107834,1,0,0:0:0:0:
256,192,107904,1,0,0:0:0:0:
256,192,107974,1,8,0:0:0:0:
256,192,108044,1,8,0:0:0:0:
256,192,108113,1,8,0:0:0:0:
256,192,108184,1,8,0:0:0:0:
256,192,108253,1,0,0:0:0:0:
256,192,108393,1,8,0:0:0:0:
256,192,108533,1,12,0:0:0:0:
256,192,108673,1,8,0:0:0:0:
256,192,108742,1,0,0:0:0:0:
256,192,108813,1,8,0:0:0:0:
256,192,108882,1,8,0:0:0:0:
256,192,108952,1,0,0:0:0:0:
256,192,109022,1,8,0:0:0:0:
256,192,109092,1,8,0:0:0:0:
256,192,109161,1,0,0:0:0:0:
256,192,109301,1,8,0:0:0:0:
256,192,109511,1,0,0:0:0:0:
256,192,109581,1,0,0:0:0:0:
256,192,109651,1,8,0:0:0:0:
256,192,109791,1,8,0:0:0:0:
256,192,109861,1,0,0:0:0:0:
256,192,109930,1,8,0:0:0:0:
256,192,110001,1,8,0:0:0:0:
256,192,110070,1,0,0:0:0:0:
256,192,110140,1,8,0:0:0:0:
256,192,110210,1,8,0:0:0:0:
256,192,110280,1,0,0:0:0:0:
256,192,110420,1,8,0:0:0:0:
256,192,110630,1,8,0:0:0:0:
256,192,110699,1,0,0:0:0:0:
256,192,110839,1,8,0:0:0:0:
256,192,111049,1,8,0:0:0:0:
256,192,111119,1,0,0:0:0:0:
256,192,111259,1,0,0:0:0:0:
256,192,111468,1,8,0:0:0:0:
256,192,111538,1,0,0:0:0:0:
256,192,111678,1,8,0:0:0:0:
256,192,111887,1,8,0:0:0:0:
256,192,112027,1,0,0:0:0:0:
256,192,112097,1,0,0:0:0:0:
256,192,112167,1,8,0:0:0:0:
256,192,112236,1,0,0:0:0:0:
256,192,112307,1,8,0:0:0:0:
256,192,112376,1,0,0:0:0:0:
256,192,112446,1,0,0:0:0:0:
256,192,112516,1,8,0:0:0:0:
256,192,112586,1,8,0:0:0:0:
256,192,112726,1,8,0:0:0:0:
256,192,113005,1,0,0:0:0:0:
256,192,113145,1,0,0:0:0:0:
256,192,113215,1,0,0:0:0:0:
256,192,113285,1,8,0:0:0:0:
256,192,113424,1,0,0:0:0:0:
256,192,113495,1,8,0:0:0:0:
256,192,113564,1,0,0:0:0:0:
256,192,113704,1,8,0:0:0:0:
256,192,113774,1,0,0:0:0:0:
256,192,113844,1,8,0:0:0:0:
256,192,113984,1,8,0:0:0:0:
256,192,114053,1,8,0:0:0:0:
256,192,114124,1,0,0:0:0:0:
256,192,114263,1,8,0:0:0:0:
256,192,114333,1,0,0:0:0:0:
256,192,114403,1,8,0:0:0:0:
256,192,114543,1,8,0:0:0:0:
256,192,114613,1,8,0:0:0:0:
256,192,114682,1,0,0:0:0:0:
256,192,114753,1,8,0:0:0:0:
256,192,114822,1,0,0:0:0:0:
256,192,114962,1,8,0:0:0:0:
256,192,115101,1,8,0:0:0:0:
256,192,115241,1,0,0:0:0:0:
256,192,115521,1,8,0:0:0:0:
256,192,115730,1,8,0:0:0:0:
256,192,115801,1,0,0:0:0:0:
256,192,115940,1,0,0:0:0:0:
256,192,116080,1,8,0:0:0:0:
256,192,116359,1,12,0:0:0:0:
256,192,116639,1,12,0:0:0:0:
256,192,116919,1,12,0:0:0:0:
256,192,117199,1,12,0:0:0:0:
256,192,117478,1,8,0:0:0:0:
256,192,117617,1,8,0:0:0:0:
256,192,117757,1,4,0:0:0:0:
256,192,117896,1,0,0:0:0:0:
256,192,117967,1,0,0:0:0:0:
256,192,118036,1,8,0:0:0:0:
256,192,118106,1,8,0:0:0:0:
256,192,118176,1,0,0:0:0:0:
256,192,118246,1,8,0:0:0:0:
256,192,118316,1,0,0:0:0:0:
256,192,118386,1,0,0:0:0:0:
256,192,118456,1,8,0:0:0:0:
256,192,118525,1,0,0:0:0:0:
256,192,118596,1,8,0:0:0:0:
256,192,118735,1,0,0:0:0:0:
256,192,118875,1,0,0:0:0:0:
256,192,118944,1,0,0:0:0:0:
256,192,119015,1,0,0:0:0:0:
256,192,119084,1,0,0:0:0:0:
256,192,119154,1,8,0:0:0:0:
256,192,119224,1,8,0:0:0:0:
256,192,119294,1,0,0:0:0:0:
256,192,119364,1,8,0:0:0:0:
256,192,119434,1,0,0:0:0:0:
256,192,119504,1,0,0:0:0:0:
256,192,119573,1,8,0:0:0:0:
256,192,119644,1,0,0:0:0:0:
256,192,119713,1,8,0:0:0:0:
256,192,119853,1,0,0:0:0:0:
256,192,119993,1,0,0:0:0:0:
256,192,120063,1,0,0:0:0:0:
256,192,120133,1,8,0:0:0:0:
256,192,120202,1,0,0:0:0:0:
256,192,120273,1,8,0:0:0:0:
256,192,120342,1,8,0:0:0:0:
256,192,120412,1,0,0:0:0:0:
256,192,120482,1,8,0:0:0:0:
256,192,120552,1,0,0:0:0:0:
256,192,120621,1,8,0:0:0:0:
256,192,120692,1,8,0:0:0:0:
256,192,120761,1,0,0:0:0:0:
256,192,120831,1,8,0:0:0:0:
256,192,120971,1,0,0:0:0:0:
256,192,121111,1,0,0:0:0:0:
256,192,121181,1,0,0:0:0:0:
256,192,121250,1,8,0:0:0:0:
256,192,121321,1,0,0:0:0:0:
256,192,121390,1,8,0:0:0:0:
256,192,121461,1,0,0:0:0:0:
256,192,121530,1,0,0:0:0:0:
256,192,121600,1,0,0:0:0:0:
256,192,121670,1,8,0:0:0:0:
256,192,121740,1,8,0:0:0:0:
256,192,121810,1,0,0:0:0:0:
256,192,121880,1,0,0:0:0:0:
256,192,121950,1,8,0:0:0:0:
256,192,122019,1,0,0:0:0:0:
256,192,122090,1,8,0:0:0:0:
256,192,122229,1,4,0:0:0:0:
256,192,122369,1,8,0:0:0:0:
256,192,122439,1,0,0:0:0:0:
256,192,122509,1,8,0:0:0:0:
256,192,122579,1,8,0:0:0:0:
256,192,122648,1,0,0:0:0:0:
256,192,122719,1,8,0:0:0:0:
256,192,122788,1,0,0:0:0:0:
256,192,122858,1,0,0:0:0:0:
256,192,122928,1,8,0:0:0:0:
256,192,122998,1,0,0:0:0:0:
256,192,123067,1,8,0:0:0:0:
256,192,123207,1,0,0:0:0:0:
256,192,123347,1,0,0:0:0:0:
256,192,123417,1,0,0:0:0:0:
256,192,123487,1,8,0:0:0:0:
256,192,123557,1,0,0:0:0:0:
256,192,123627,1,8,0:0:0:0:
256,192,123696,1,8,0:0:0:0:
256,192,123767,1,0,0:0:0:0:
256,192,123836,1,8,0:0:0:0:
256,192,123906,1,0,0:0:0:0:
256,192,123976,1,0,0:0:0:0:
256,192,124046,1,8,0:0:0:0:
256,192,124116,1,0,0:0:0:0:
256,192,124186,1,8,0:0:0:0:
256,192,124325,1,0,0:0:0:0:
256,192,124465,1,0,0:0:0:0:
256,192,124535,1,0,0:0:0:0:
256,192,124605,1,8,0:0:0:0:
256,192,124675,1,0,0:0:0:0:
256,192,124744,1,8,0:0:0:0:
256,192,124815,1,0,0:0:0:0:
256,192,124884,1,8,0:0:0:0:
256,192,125024,1,0,0:0:0:0:
256,192,125094,1,0,0:0:0:0:
256,192,125164,1,8,0:0:0:0:
256,192,125234,1,0,0:0:0:0:
256,192,125304,1,8,0:0:0:0:
256,192,125444,1,0,0:0:0:0:
256,192,125584,1,12,0:0:0:0:
256,192,125723,1,0,0:0:0:0:
256,192,125863,1,12,0:0:0:0:
256,192,126003,1,0,0:0:0:0:
256,192,126142,1,12,0:0:0:0:
256,192,126282,1,0,0:0:0:0:
256,192,126422,1,12,0:0:0:0:
256,192,126701,1,4,0:0:0:0:
256,192,126841,1,8,0:0:0:0:
256,192,126911,1,0,0:0:0:0:
256,192,126981,1,8,0:0:0:0:
256,192,127051,1,8,0:0:0:0:
256,192,127121,1,0,0:0:0:0:
256,192,127190,1,8,0:0:0:0:
256,192,127261,1,0,0:0:0:0:
256,192,127330,1,0,0:0:0:0:
256,192,127400,1,8,0:0:0:0:
256,192,127470,1,0,0:0:0:0:
256,192,127540,1,8,0:0:0:0:
256,192,127610,1,8,0:0:0:0:
256,192,127680,1,8,0:0:0:0:
256,192,127750,1,8,0:0:0:0:
256,192,127819,1,0,0:0:0:0:
256,192,127890,1,0,0:0:0:0:
256,192,127959,1,8,0:0:0:0:
256,192,128029,1,0,0:0:0:0:
256,192,128099,1,8,0:0:0:0:
256,192,128169,1,8,0:0:0:0:
256,192,128239,1,0,0:0:0:0:
256,192,128309,1,8,0:0:0:0:
256,192,128379,1,0,0:0:0:0:
256,192,128448,1,0,0:0:0:0:
256,192,128519,1,8,0:0:0:0:
256,192,128588,1,0,0:0:0:0:
256,192,128658,1,8,0:0:0:0:
256,192,128728,1,8,0:0:0:0:
256,192,128798,1,8,0:0:0:0:
256,192,128868,1,8,0:0:0:0:
256,192,128938,1,0,0:0:0:0:
256,192,129007,1,0,0:0:0:0:
256,192,129078,1,0,0:0:0:0:
256,192,129147,1,0,0:0:0:0:
256,192,129217,1,8,0:0:0:0:
256,192,129287,1,0,0:0:0:0:
256,192,129357,1,8,0:0:0:0:
256,192,129427,1,8,0:0:0:0:
256,192,129497,1,0,0:0:0:0:
256,192,129567,1,0,0:0:0:0:
256,192,129636,1,8,0:0:0:0:
256,192,129707,1,0,0:0:0:0:
256,192,129776,1,8,0:0:0:0:
256,192,129846,1,8,0:0:0:0:
256,192,129916,1,8,0:0:0:0:
256,192,129986,1,8,0:0:0:0:
256,192,130056,1,0,0:0:0:0:
256,192,130126,1,0,0:0:0:0:
256,192,130196,1,8,0:0:0:0:
256,192,130265,1,0,0:0:0:0:
256,192,130336,1,8,0:0:0:0:
256,192,130405,1,8,0:0:0:0:
256,192,130475,1,0,0:0:0:0:
256,192,130545,1,0,0:0:0:0:
256,192,130615,1,8,0:0:0:0:
256,192,130684,1,8,0:0:0:0:
256,192,130755,1,0,0:0:0:0:
256,192,130824,1,0,0:0:0:0:
256,192,130894,1,8,0:0:0:0:
256,192,130964,1,0,0:0:0:0:
256,192,131034,1,8,0:0:0:0:
256,192,131174,1,4,0:0:0:0:
256,192,131313,1,8,0:0:0:0:
256,192,131384,1,0,0:0:0:0:
256,192,131453,1,0,0:0:0:0:
256,192,131523,1,8,0:0:0:0:
256,192,131593,1,0,0:0:0:0:
256,192,131663,1,8,0:0:0:0:
256,192,131733,1,0,0:0:0:0:
256,192,131803,1,0,0:0:0:0:
256,192,131873,1,8,0:0:0:0:
256,192,131942,1,0,0:0:0:0:
256,192,132013,1,8,0:0:0:0:
256,192,132082,1,8,0:0:0:0:
256,192,132152,1,8,0:0:0:0:
256,192,132222,1,8,0:0:0:0:
256,192,132292,1,0,0:0:0:0:
256,192,132361,1,8,0:0:0:0:
256,192,132432,1,8,0:0:0:0:
256,192,132501,1,0,0:0:0:0:
256,192,132572,1,8,0:0:0:0:
256,192,132641,1,0,0:0:0:0:
256,192,132711,1,8,0:0:0:0:
256,192,132781,1,8,0:0:0:0:
256,192,132851,1,0,0:0:0:0:
256,192,132921,1,0,0:0:0:0:
256,192,132991,1,8,0:0:0:0:
256,192,133061,1,0,0:0:0:0:
256,192,133130,1,8,0:0:0:0:
256,192,133201,1,8,0:0:0:0:
256,192,133270,1,8,0:0:0:0:
256,192,133340,1,8,0:0:0:0:
256,192,133410,1,0,0:0:0:0:
256,192,133480,1,0,0:0:0:0:
256,192,133550,1,8,0:0:0:0:
256,192,133620,1,0,0:0:0:0:
256,192,133690,1,8,0:0:0:0:
256,192,133759,1,0,0:0:0:0:
256,192,133830,1,8,0:0:0:0:
256,192,133899,1,8,0:0:0:0:
256,192,133969,1,0,0:0:0:0:
256,192,134039,1,0,0:0:0:0:
256,192,134109,1,8,0:0:0:0:
256,192,134179,1,8,0:0:0:0:
256,192,134249,1,0,0:0:0:0:
256,192,134319,1,0,0:0:0:0:
256,192,134388,1,8,0:0:0:0:
256,192,134459,1,0,0:0:0:0:
256,192,134528,1,8,0:0:0:0:
256,192,134598,1,0,0:0:0:0:
256,192,134668,1,0,0:0:0:0:
256,192,134738,1,0,0:0:0:0:
256,192,134807,1,8,0:0:0:0:
256,192,134878,1,0,0:0:0:0:
256,192,134947,1,0,0:0:0:0:
256,192,135017,1,0,0:0:0:0:
256,192,135087,1,8,0:0:0:0:
256,192,135157,1,0,0:0:0:0:
256,192,135227,1,0,0:0:0:0:
256,192,135297,1,0,0:0:0:0:
256,192,135367,1,8,0:0:0:0:
256,192,135436,1,0,0:0:0:0:
256,192,135507,1,0,0:0:0:0:
256,192,135576,1,0,0:0:0:0:
256,192,135646,1,8,0:0:0:0:
