osu file format v14

[General]
AudioFilename: audio120.mp3
AudioLeadIn: 0
PreviewTime: 66708
Countdown: 1
SampleSet: Normal
StackLeniency: 0.7
Mode: 1
LetterboxInBreaks: 0
WidescreenStoryboard: 0

[Editor]
DistanceSpacing: 1.5
BeatDivisor: 4
GridSize: 32
TimelineZoom: 1.6

[Metadata]
Title:Uraomote Lovers
TitleUnicode:裏表ラバーズ
Artist:wowaka
ArtistUnicode:wowaka
Creator:Konpaku Sariel
Version:Stream [1.2x Rate]
Source:
Tags:
BeatmapID:1866104
BeatmapSetID:892766

[Difficulty]
HPDrainRate:6
CircleSize:5
OverallDifficulty:6
ApproachRate:5
SliderMultiplier:1.4
SliderTickRate:1

[Events]
//Background and Video events
0,0,"884670.jpg",0,0
//Break Periods
//Storyboard Layer 0 (Background)
//Storyboard Layer 1 (Fail)
//Storyboard Layer 2 (Pass)
//Storyboard Layer 3 (Foreground)
//Storyboard Sound Samples

[TimingPoints]
2599,314.465408805032,4,1,0,100,1,0
6372,314.465408805032,4,1,0,100,1,0
66748,-100,4,1,0,100,0,1
76812,-100,4,1,0,100,0,0
132158,39.3081761006289,4,1,0,100,1,0
132158,-400,4,1,0,100,0,0
132472,314.465408805032,4,1,0,100,1,1
152597,-1,4,1,0,100,0,0

[HitObjects]
256,192,2598,5,4,0:0:0:0:
256,192,3228,1,4,0:0:0:0:
256,192,3857,1,12,0:0:0:0:
256,192,5743,1,8,0:0:0:0:
256,192,5900,1,8,0:0:0:0:
256,192,6058,1,8,0:0:0:0:
256,192,6136,1,8,0:0:0:0:
256,192,6215,1,8,0:0:0:0:
256,192,6293,1,8,0:0:0:0:
256,192,6372,1,0,0:0:0:0:
256,192,6450,1,0,0:0:0:0:
256,192,6528,1,0,0:0:0:0:
256,192,6608,1,0,0:0:0:0:
256,192,6686,1,8,0:0:0:0:
256,192,6764,1,8,0:0:0:0:
256,192,6843,1,0,0:0:0:0:
256,192,6922,1,8,0:0:0:0:
256,192,7000,1,0,0:0:0:0:
256,192,7158,1,8,0:0:0:0:
256,192,7315,1,0,0:0:0:0:
256,192,7629,1,0,0:0:0:0:
256,192,7708,1,0,0:0:0:0:
256,192,7787,1,8,0:0:0:0:
256,192,7865,1,0,0:0:0:0:
256,192,7943,1,8,0:0:0:0:
256,192,8022,1,8,0:0:0:0:
256,192,8101,1,0,0:0:0:0:
256,192,8179,1,8,0:0:0:0:
256,192,8258,1,0,0:0:0:0:
256,192,8415,1,8,0:0:0:0:
256,192,8572,1,0,0:0:0:0:
256,192,8887,1,0,0:0:0:0:
256,192,8966,1,0,0:0:0:0:
256,192,9044,1,0,0:0:0:0:
256,192,9122,1,0,0:0:0:0:
256,192,9202,1,8,0:0:0:0:
256,192,9280,1,0,0:0:0:0:
256,192,9358,1,8,0:0:0:0:
256,192,9438,1,8,0:0:0:0:
256,192,9516,1,0,0:0:0:0:
256,192,9673,1,8,0:0:0:0:
256,192,9830,1,0,0:0:0:0:
256,192,10145,1,0,0:0:0:0:
256,192,10223,1,0,0:0:0:0:
256,192,10302,1,8,0:0:0:0:
256,192,10381,1,0,0:0:0:0:
256,192,10459,1,8,0:0:0:0:
256,192,10538,1,8,0:0:0:0:
256,192,10617,1,0,0:0:0:0:
256,192,10695,1,0,0:0:0:0:
256,192,10774,1,8,0:0:0:0:
256,192,10931,1,8,0:0:0:0:
256,192,11088,1,8,0:0:0:0:
256,192,11402,1,0,0:0:0:0:
256,192,11482,1,0,0:0:0:0:
256,192,11560,1,8,0:0:0:0:
256,192,11638,1,0,0:0:0:0:
256,192,11718,1,8,0:0:0:0:
256,192,11796,1,8,0:0:0:0:
256,192,11874,1,0,0:0:0:0:
256,192,11953,1,8,0:0:0:0:
256,192,12032,1,0,0:0:0:0:
256,192,12110,1,0,0:0:0:0:
256,192,12189,1,8,0:0:0:0:
256,192,12346,1,0,0:0:0:0:
256,192,12503,1,8,0:0:0:0:
256,192,12661,1,0,0:0:0:0:
256,192,12739,1,0,0:0:0:0:
256,192,12818,1,0,0:0:0:0:
256,192,12897,1,8,0:0:0:0:
256,192,12975,1,8,0:0:0:0:
256,192,13053,1,8,0:0:0:0:
256,192,13132,1,0,0:0:0:0:
256,192,13211,1,8,0:0:0:0:
256,192,13289,1,0,0:0:0:0:
256,192,13368,1,0,0:0:0:0:
256,192,13447,1,8,0:0:0:0:
256,192,13604,1,0,0:0:0:0:
256,192,13761,1,8,0:0:0:0:
256,192,13918,1,0,0:0:0:0:
256,192,13997,1,0,0:0:0:0:
256,192,14076,1,8,0:0:0:0:
256,192,14154,1,8,0:0:0:0:
256,192,14232,1,0,0:0:0:0:
256,192,14312,1,8,0:0:0:0:
256,192,14390,1,8,0:0:0:0:
256,192,14468,1,8,0:0:0:0:
256,192,14548,1,0,0:0:0:0:
256,192,14626,1,0,0:0:0:0:
256,192,14705,1,8,0:0:0:0:
256,192,14862,1,0,0:0:0:0:
256,192,15019,1,8,0:0:0:0:
256,192,15177,1,0,0:0:0:0:
256,192,15255,1,0,0:0:0:0:
256,192,15333,1,8,0:0:0:0:
256,192,15412,1,0,0:0:0:0:
256,192,15491,1,8,0:0:0:0:
256,192,15569,1,8,0:0:0:0:
256,192,15648,1,8,0:0:0:0:
256,192,15727,1,0,0:0:0:0:
256,192,15805,1,8,0:0:0:0:
256,192,15884,1,8,0:0:0:0:
256,192,15962,1,0,0:0:0:0:
256,192,16041,1,0,0:0:0:0:
256,192,16120,1,8,0:0:0:0:
256,192,16198,1,8,0:0:0:0:
256,192,16277,1,8,0:0:0:0:
256,192,16356,1,8,0:0:0:0:
256,192,16434,1,0,0:0:0:0:
256,192,16592,1,8,0:0:0:0:
256,192,16670,1,8,0:0:0:0:
256,192,16748,1,0,0:0:0:0:
256,192,16828,1,0,0:0:0:0:
256,192,16906,1,8,0:0:0:0:
256,192,16984,1,8,0:0:0:0:
256,192,17063,1,0,0:0:0:0:
256,192,17142,1,0,0:0:0:0:
256,192,17220,1,8,0:0:0:0:
256,192,17299,1,0,0:0:0:0:
256,192,17378,1,8,0:0:0:0:
256,192,17456,1,8,0:0:0:0:
256,192,17535,1,0,0:0:0:0:
256,192,17692,1,0,0:0:0:0:
256,192,17849,1,8,0:0:0:0:
256,192,17928,1,0,0:0:0:0:
256,192,18007,1,8,0:0:0:0:
256,192,18085,1,8,0:0:0:0:
256,192,18163,1,0,0:0:0:0:
256,192,18242,1,0,0:0:0:0:
256,192,18321,1,8,0:0:0:0:
256,192,18399,1,8,0:0:0:0:
256,192,18478,1,0,0:0:0:0:
256,192,18557,1,8,0:0:0:0:
256,192,18635,1,0,0:0:0:0:
256,192,18792,1,8,0:0:0:0:
256,192,18950,1,8,0:0:0:0:
256,192,19028,1,0,0:0:0:0:
256,192,19108,1,0,0:0:0:0:
256,192,19186,1,8,0:0:0:0:
256,192,19264,1,0,0:0:0:0:
256,192,19343,1,0,0:0:0:0:
256,192,19422,1,8,0:0:0:0:
256,192,19500,1,0,0:0:0:0:
256,192,19579,1,0,0:0:0:0:
256,192,19658,1,8,0:0:0:0:
256,192,19736,1,0,0:0:0:0:
256,192,19815,1,8,0:0:0:0:
256,192,19893,1,8,0:0:0:0:
256,192,19972,1,0,0:0:0:0:
256,192,20051,1,8,0:0:0:0:
256,192,20129,1,0,0:0:0:0:
256,192,20208,1,8,0:0:0:0:
256,192,20287,1,8,0:0:0:0:
256,192,20365,1,0,0:0:0:0:
256,192,20443,1,8,0:0:0:0:
256,192,20522,1,8,0:0:0:0:
256,192,20601,1,0,0:0:0:0:
256,192,20679,1,8,0:0:0:0:
256,192,20758,1,8,0:0:0:0:
256,192,20837,1,8,0:0:0:0:
256,192,20915,1,0,0:0:0:0:
256,192,20994,1,0,0:0:0:0:
256,192,21072,1,8,0:0:0:0:
256,192,21151,1,8,0:0:0:0:
256,192,21230,1,0,0:0:0:0:
256,192,21308,1,8,0:0:0:0:
256,192,21387,1,8,0:0:0:0:
256,192,21466,1,8,0:0:0:0:
256,192,21622,1,8,0:0:0:0:
256,192,21702,1,0,0:0:0:0:
256,192,21780,1,0,0:0:0:0:
256,192,21858,1,8,0:0:0:0:
256,192,21938,1,0,0:0:0:0:
256,192,22016,1,0,0:0:0:0:
256,192,22094,1,8,0:0:0:0:
256,192,22173,1,8,0:0:0:0:
256,192,22252,1,0,0:0:0:0:
256,192,22330,1,0,0:0:0:0:
256,192,22409,1,8,0:0:0:0:
256,192,22488,1,8,0:0:0:0:
256,192,22566,1,0,0:0:0:0:
256,192,22881,1,12,0:0:0:0:
256,192,23117,1,12,0:0:0:0:
256,192,23352,1,4,0:0:0:0:
256,192,23588,1,4,0:0:0:0:
256,192,23824,1,12,0:0:0:0:
256,192,23982,1,8,0:0:0:0:
256,192,24138,1,0,0:0:0:0:
256,192,24218,1,8,0:0:0:0:
256,192,24374,1,0,0:0:0:0:
256,192,24453,1,8,0:0:0:0:
256,192,24532,1,0,0:0:0:0:
256,192,24610,1,8,0:0:0:0:
256,192,24689,1,8,0:0:0:0:
256,192,24768,1,0,0:0:0:0:
256,192,24846,1,0,0:0:0:0:
256,192,24925,1,8,0:0:0:0:
256,192,25003,1,0,0:0:0:0:
256,192,25082,1,8,0:0:0:0:
256,192,25161,1,0,0:0:0:0:
256,192,25239,1,8,0:0:0:0:
256,192,25397,1,8,0:0:0:0:
256,192,25553,1,8,0:0:0:0:
256,192,25632,1,8,0:0:0:0:
256,192,25711,1,0,0:0:0:0:
256,192,25789,1,0,0:0:0:0:
256,192,25868,1,8,0:0:0:0:
256,192,25947,1,8,0:0:0:0:
256,192,26025,1,0,0:0:0:0:
256,192,26104,1,8,0:0:0:0:
256,192,26182,1,8,0:0:0:0:
256,192,26261,1,0,0:0:0:0:
256,192,26340,1,8,0:0:0:0:
256,192,26497,1,12,0:0:0:0:
256,192,26654,1,0,0:0:0:0:
256,192,26812,1,0,0:0:0:0:
256,192,26968,1,8,0:0:0:0:
256,192,27048,1,8,0:0:0:0:
256,192,27126,1,0,0:0:0:0:
256,192,27205,1,8,0:0:0:0:
256,192,27283,1,0,0:0:0:0:
256,192,27441,1,8,0:0:0:0:
256,192,27519,1,0,0:0:0:0:
256,192,27598,1,8,0:0:0:0:
256,192,27755,1,0,0:0:0:0:
256,192,27833,1,0,0:0:0:0:
256,192,27912,1,8,0:0:0:0:
256,192,27991,1,0,0:0:0:0:
256,192,28069,1,8,0:0:0:0:
256,192,28227,1,8,0:0:0:0:
256,192,28305,1,8,0:0:0:0:
256,192,28384,1,0,0:0:0:0:
256,192,28541,1,0,0:0:0:0:
256,192,28620,1,8,0:0:0:0:
256,192,28698,1,0,0:0:0:0:
256,192,28777,1,0,0:0:0:0:
256,192,28856,1,8,0:0:0:0:
256,192,29012,1,0,0:0:0:0:
256,192,29328,1,8,0:0:0:0:
256,192,29484,1,0,0:0:0:0:
256,192,29563,1,8,0:0:0:0:
256,192,29720,1,8,0:0:0:0:
256,192,29799,1,0,0:0:0:0:
256,192,29878,1,0,0:0:0:0:
256,192,29956,1,8,0:0:0:0:
256,192,30113,1,0,0:0:0:0:
256,192,30271,1,8,0:0:0:0:
256,192,30507,1,0,0:0:0:0:
256,192,30585,1,8,0:0:0:0:
256,192,30742,1,0,0:0:0:0:
256,192,30821,1,8,0:0:0:0:
256,192,30899,1,0,0:0:0:0:
256,192,30978,1,8,0:0:0:0:
256,192,31057,1,0,0:0:0:0:
256,192,31214,1,8,0:0:0:0:
256,192,31528,1,8,0:0:0:0:
256,192,31686,1,0,0:0:0:0:
256,192,31764,1,8,0:0:0:0:
256,192,31843,1,8,0:0:0:0:
256,192,32000,1,8,0:0:0:0:
256,192,32079,1,0,0:0:0:0:
256,192,32158,1,0,0:0:0:0:
256,192,32315,1,8,0:0:0:0:
256,192,32393,1,0,0:0:0:0:
256,192,32472,1,8,0:0:0:0:
256,192,32551,1,8,0:0:0:0:
256,192,32708,1,8,0:0:0:0:
256,192,32943,1,8,0:0:0:0:
256,192,33022,1,0,0:0:0:0:
256,192,33101,1,8,0:0:0:0:
256,192,33258,1,8,0:0:0:0:
256,192,33337,1,8,0:0:0:0:
256,192,33415,1,0,0:0:0:0:
256,192,33494,1,8,0:0:0:0:
256,192,33572,1,0,0:0:0:0:
256,192,33730,1,8,0:0:0:0:
256,192,33887,1,0,0:0:0:0:
256,192,34044,1,8,0:0:0:0:
256,192,34280,1,0,0:0:0:0:
256,192,34358,1,8,0:0:0:0:
256,192,34516,1,0,0:0:0:0:
256,192,34594,1,8,0:0:0:0:
256,192,34673,1,8,0:0:0:0:
256,192,34752,1,0,0:0:0:0:
256,192,34909,1,0,0:0:0:0:
256,192,34988,1,8,0:0:0:0:
256,192,35145,1,0,0:0:0:0:
256,192,35302,1,8,0:0:0:0:
256,192,35538,1,0,0:0:0:0:
256,192,35617,1,8,0:0:0:0:
256,192,35774,1,0,0:0:0:0:
256,192,35852,1,8,0:0:0:0:
256,192,35931,1,8,0:0:0:0:
256,192,36010,1,0,0:0:0:0:
256,192,36088,1,0,0:0:0:0:
256,192,36246,1,8,0:0:0:0:
256,192,36560,1,4,0:0:0:0:
256,192,36718,1,0,0:0:0:0:
256,192,36796,1,0,0:0:0:0:
256,192,36874,1,8,0:0:0:0:
256,192,36953,1,8,0:0:0:0:
256,192,37032,1,0,0:0:0:0:
256,192,37110,1,8,0:0:0:0:
256,192,37189,1,0,0:0:0:0:
256,192,37346,1,8,0:0:0:0:
256,192,37503,1,0,0:0:0:0:
256,192,37818,1,0,0:0:0:0:
256,192,37975,1,0,0:0:0:0:
256,192,38053,1,0,0:0:0:0:
256,192,38132,1,8,0:0:0:0:
256,192,38211,1,0,0:0:0:0:
256,192,38289,1,8,0:0:0:0:
256,192,38368,1,8,0:0:0:0:
256,192,38447,1,0,0:0:0:0:
256,192,38604,1,8,0:0:0:0:
256,192,38761,1,0,0:0:0:0:
256,192,39076,1,0,0:0:0:0:
256,192,39232,1,8,0:0:0:0:
256,192,39312,1,0,0:0:0:0:
256,192,39390,1,8,0:0:0:0:
256,192,39468,1,8,0:0:0:0:
256,192,39548,1,0,0:0:0:0:
256,192,39626,1,8,0:0:0:0:
256,192,39705,1,0,0:0:0:0:
256,192,39862,1,8,0:0:0:0:
256,192,40019,1,0,0:0:0:0:
256,192,40333,1,0,0:0:0:0:
256,192,40491,1,0,0:0:0:0:
256,192,40569,1,0,0:0:0:0:
256,192,40648,1,8,0:0:0:0:
256,192,40727,1,8,0:0:0:0:
256,192,40805,1,0,0:0:0:0:
256,192,40884,1,0,0:0:0:0:
256,192,40962,1,8,0:0:0:0:
256,192,41120,1,8,0:0:0:0:
256,192,41277,1,8,0:0:0:0:
256,192,41592,1,4,0:0:0:0:
256,192,41748,1,0,0:0:0:0:
256,192,41828,1,0,0:0:0:0:
256,192,41906,1,8,0:0:0:0:
256,192,41984,1,8,0:0:0:0:
256,192,42063,1,0,0:0:0:0:
256,192,42142,1,8,0:0:0:0:
256,192,42220,1,0,0:0:0:0:
256,192,42299,1,0,0:0:0:0:
256,192,42378,1,8,0:0:0:0:
256,192,42535,1,0,0:0:0:0:
256,192,42849,1,0,0:0:0:0:
256,192,42928,1,0,0:0:0:0:
256,192,43007,1,8,0:0:0:0:
256,192,43085,1,0,0:0:0:0:
256,192,43163,1,8,0:0:0:0:
256,192,43242,1,8,0:0:0:0:
256,192,43321,1,0,0:0:0:0:
256,192,43399,1,8,0:0:0:0:
256,192,43478,1,0,0:0:0:0:
256,192,43557,1,0,0:0:0:0:
256,192,43635,1,8,0:0:0:0:
256,192,43792,1,0,0:0:0:0:
256,192,44108,1,0,0:0:0:0:
256,192,44264,1,8,0:0:0:0:
256,192,44343,1,0,0:0:0:0:
256,192,44422,1,8,0:0:0:0:
256,192,44500,1,8,0:0:0:0:
256,192,44579,1,0,0:0:0:0:
256,192,44658,1,8,0:0:0:0:
256,192,44736,1,0,0:0:0:0:
256,192,44815,1,0,0:0:0:0:
256,192,44893,1,8,0:0:0:0:
256,192,45051,1,0,0:0:0:0:
256,192,45365,1,8,0:0:0:0:
256,192,45443,1,0,0:0:0:0:
256,192,45522,1,8,0:0:0:0:
256,192,45601,1,0,0:0:0:0:
256,192,45679,1,8,0:0:0:0:
256,192,45758,1,8,0:0:0:0:
256,192,45837,1,0,0:0:0:0:
256,192,45915,1,0,0:0:0:0:
256,192,45994,1,8,0:0:0:0:
256,192,46072,1,8,0:0:0:0:
256,192,46151,1,0,0:0:0:0:
256,192,46230,1,8,0:0:0:0:
256,192,46308,1,8,0:0:0:0:
256,192,46387,1,0,0:0:0:0:
256,192,46466,1,8,0:0:0:0:
256,192,46544,1,8,0:0:0:0:
256,192,46622,1,8,0:0:0:0:
256,192,46780,1,0,0:0:0:0:
256,192,46858,1,0,0:0:0:0:
256,192,46938,1,8,0:0:0:0:
256,192,47016,1,0,0:0:0:0:
256,192,47094,1,8,0:0:0:0:
256,192,47173,1,0,0:0:0:0:
256,192,47252,1,8,0:0:0:0:
256,192,47330,1,0,0:0:0:0:
256,192,47409,1,0,0:0:0:0:
256,192,47488,1,0,0:0:0:0:
256,192,47566,1,8,0:0:0:0:
256,192,47645,1,0,0:0:0:0:
256,192,47723,1,8,0:0:0:0:
256,192,47802,1,0,0:0:0:0:
256,192,47881,1,8,0:0:0:0:
256,192,48038,1,0,0:0:0:0:
256,192,48117,1,0,0:0:0:0:
256,192,48195,1,8,0:0:0:0:
256,192,48352,1,0,0:0:0:0:
256,192,48431,1,0,0:0:0:0:
256,192,48510,1,8,0:0:0:0:
256,192,48588,1,8,0:0:0:0:
256,192,48667,1,0,0:0:0:0:
256,192,48746,1,0,0:0:0:0:
256,192,48824,1,8,0:0:0:0:
256,192,48902,1,0,0:0:0:0:
256,192,48982,1,8,0:0:0:0:
256,192,49060,1,0,0:0:0:0:
256,192,49138,1,8,0:0:0:0:
256,192,49296,1,0,0:0:0:0:
256,192,49374,1,8,0:0:0:0:
256,192,49453,1,8,0:0:0:0:
256,192,49532,1,0,0:0:0:0:
256,192,49610,1,0,0:0:0:0:
256,192,49689,1,8,0:0:0:0:
256,192,49768,1,8,0:0:0:0:
256,192,49846,1,0,0:0:0:0:
256,192,49925,1,8,0:0:0:0:
256,192,50003,1,0,0:0:0:0:
256,192,50082,1,8,0:0:0:0:
256,192,50161,1,8,0:0:0:0:
256,192,50239,1,0,0:0:0:0:
256,192,50318,1,8,0:0:0:0:
256,192,50397,1,8,0:0:0:0:
256,192,50553,1,0,0:0:0:0:
256,192,50632,1,0,0:0:0:0:
256,192,50711,1,8,0:0:0:0:
256,192,50789,1,0,0:0:0:0:
256,192,50868,1,0,0:0:0:0:
256,192,50947,1,8,0:0:0:0:
256,192,51025,1,0,0:0:0:0:
256,192,51104,1,8,0:0:0:0:
256,192,51182,1,0,0:0:0:0:
256,192,51261,1,0,0:0:0:0:
256,192,51340,1,8,0:0:0:0:
256,192,51654,1,8,0:0:0:0:
256,192,51732,1,0,0:0:0:0:
256,192,51812,1,8,0:0:0:0:
256,192,51890,1,0,0:0:0:0:
256,192,51968,1,8,0:0:0:0:
256,192,52048,1,8,0:0:0:0:
256,192,52126,1,0,0:0:0:0:
256,192,52205,1,8,0:0:0:0:
256,192,52283,1,8,0:0:0:0:
256,192,52362,1,0,0:0:0:0:
256,192,52441,1,8,0:0:0:0:
256,192,52519,1,0,0:0:0:0:
256,192,52598,1,8,0:0:0:0:
256,192,52677,1,8,0:0:0:0:
256,192,52833,1,8,0:0:0:0:
256,192,52912,1,8,0:0:0:0:
256,192,52991,1,0,0:0:0:0:
256,192,53069,1,8,0:0:0:0:
256,192,53148,1,0,0:0:0:0:
256,192,53227,1,8,0:0:0:0:
256,192,53305,1,8,0:0:0:0:
256,192,53384,1,0,0:0:0:0:
256,192,53462,1,8,0:0:0:0:
256,192,53541,1,0,0:0:0:0:
256,192,53620,1,8,0:0:0:0:
256,192,53698,1,8,0:0:0:0:
256,192,53777,1,8,0:0:0:0:
256,192,53856,1,0,0:0:0:0:
256,192,54170,1,8,0:0:0:0:
256,192,54248,1,0,0:0:0:0:
256,192,54406,1,0,0:0:0:0:
256,192,54484,1,8,0:0:0:0:
256,192,54642,1,8,0:0:0:0:
256,192,54720,1,0,0:0:0:0:
256,192,54799,1,0,0:0:0:0:
256,192,54878,1,8,0:0:0:0:
256,192,54956,1,0,0:0:0:0:
256,192,55113,1,8,0:0:0:0:
256,192,55192,1,0,0:0:0:0:
256,192,55349,1,0,0:0:0:0:
256,192,55428,1,8,0:0:0:0:
256,192,55585,1,8,0:0:0:0:
256,192,55663,1,0,0:0:0:0:
256,192,55742,1,0,0:0:0:0:
256,192,55821,1,8,0:0:0:0:
256,192,55899,1,8,0:0:0:0:
256,192,55978,1,0,0:0:0:0:
256,192,56057,1,8,0:0:0:0:
256,192,56135,1,8,0:0:0:0:
256,192,56214,1,8,0:0:0:0:
256,192,56292,1,8,0:0:0:0:
256,192,56372,1,8,0:0:0:0:
256,192,56528,1,0,0:0:0:0:
256,192,56686,1,12,0:0:0:0:
256,192,56843,1,8,0:0:0:0:
256,192,56922,1,0,0:0:0:0:
256,192,57000,1,8,0:0:0:0:
256,192,57079,1,8,0:0:0:0:
256,192,57158,1,0,0:0:0:0:
256,192,57236,1,0,0:0:0:0:
256,192,57315,1,8,0:0:0:0:
256,192,57393,1,8,0:0:0:0:
256,192,57551,1,8,0:0:0:0:
256,192,57787,1,0,0:0:0:0:
256,192,57865,1,0,0:0:0:0:
256,192,57943,1,8,0:0:0:0:
256,192,58022,1,0,0:0:0:0:
256,192,58101,1,8,0:0:0:0:
256,192,58179,1,0,0:0:0:0:
256,192,58258,1,8,0:0:0:0:
256,192,58337,1,8,0:0:0:0:
256,192,58415,1,0,0:0:0:0:
256,192,58494,1,8,0:0:0:0:
256,192,58572,1,8,0:0:0:0:
256,192,58651,1,0,0:0:0:0:
256,192,58808,1,8,0:0:0:0:
256,192,59044,1,8,0:0:0:0:
256,192,59122,1,0,0:0:0:0:
256,192,59280,1,8,0:0:0:0:
256,192,59516,1,8,0:0:0:0:
256,192,59594,1,0,0:0:0:0:
256,192,59752,1,0,0:0:0:0:
256,192,59988,1,8,0:0:0:0:
256,192,60066,1,0,0:0:0:0:
256,192,60145,1,0,0:0:0:0:
256,192,60223,1,8,0:0:0:0:
256,192,60459,1,8,0:0:0:0:
256,192,60617,1,0,0:0:0:0:
256,192,60695,1,0,0:0:0:0:
256,192,60774,1,8,0:0:0:0:
256,192,60852,1,0,0:0:0:0:
256,192,60931,1,8,0:0:0:0:
256,192,61010,1,0,0:0:0:0:
256,192,61088,1,8,0:0:0:0:
256,192,61167,1,0,0:0:0:0:
256,192,61246,1,8,0:0:0:0:
256,192,61402,1,8,0:0:0:0:
256,192,61718,1,0,0:0:0:0:
256,192,61874,1,0,0:0:0:0:
256,192,61953,1,0,0:0:0:0:
256,192,62032,1,8,0:0:0:0:
256,192,62189,1,0,0:0:0:0:
256,192,62268,1,8,0:0:0:0:
256,192,62346,1,0,0:0:0:0:
256,192,62503,1,0,0:0:0:0:
256,192,62582,1,8,0:0:0:0:
256,192,62661,1,8,0:0:0:0:
256,192,62818,1,8,0:0:0:0:
256,192,62897,1,0,0:0:0:0:
256,192,62975,1,0,0:0:0:0:
256,192,63132,1,8,0:0:0:0:
256,192,63211,1,0,0:0:0:0:
256,192,63289,1,8,0:0:0:0:
256,192,63447,1,8,0:0:0:0:
256,192,63525,1,8,0:0:0:0:
256,192,63604,1,0,0:0:0:0:
256,192,63682,1,8,0:0:0:0:
256,192,63761,1,0,0:0:0:0:
256,192,63918,1,8,0:0:0:0:
256,192,64076,1,8,0:0:0:0:
256,192,64232,1,0,0:0:0:0:
256,192,64548,1,8,0:0:0:0:
256,192,64705,1,0,0:0:0:0:
256,192,64783,1,8,0:0:0:0:
256,192,64941,1,8,0:0:0:0:
256,192,65019,1,0,0:0:0:0:
256,192,65177,1,8,0:0:0:0:
256,192,65333,1,0,0:0:0:0:
256,192,65491,1,12,0:0:0:0:
256,192,65648,1,0,0:0:0:0:
256,192,65805,1,12,0:0:0:0:
256,192,65962,1,0,0:0:0:0:
256,192,66041,1,0,0:0:0:0:
256,192,66120,1,8,0:0:0:0:
256,192,66198,1,8,0:0:0:0:
256,192,66277,1,0,0:0:0:0:
256,192,66356,1,0,0:0:0:0:
256,192,66434,1,8,0:0:0:0:
256,192,66512,1,8,0:0:0:0:
256,192,66592,1,8,0:0:0:0:
256,192,66748,1,4,0:0:0:0:
256,192,66906,1,0,0:0:0:0:
256,192,66984,1,0,0:0:0:0:
256,192,67063,1,8,0:0:0:0:
256,192,67142,1,8,0:0:0:0:
256,192,67220,1,0,0:0:0:0:
256,192,67299,1,8,0:0:0:0:
256,192,67378,1,0,0:0:0:0:
256,192,67456,1,0,0:0:0:0:
256,192,67535,1,8,0:0:0:0:
256,192,67613,1,8,0:0:0:0:
256,192,67692,1,0,0:0:0:0:
256,192,67849,1,8,0:0:0:0:
256,192,68007,1,0,0:0:0:0:
256,192,68085,1,0,0:0:0:0:
256,192,68163,1,8,0:0:0:0:
256,192,68242,1,0,0:0:0:0:
256,192,68321,1,8,0:0:0:0:
256,192,68399,1,8,0:0:0:0:
256,192,68478,1,0,0:0:0:0:
256,192,68557,1,8,0:0:0:0:
256,192,68635,1,0,0:0:0:0:
256,192,68714,1,0,0:0:0:0:
256,192,68792,1,8,0:0:0:0:
256,192,68872,1,8,0:0:0:0:
256,192,68950,1,0,0:0:0:0:
256,192,69108,1,8,0:0:0:0:
256,192,69264,1,0,0:0:0:0:
256,192,69343,1,0,0:0:0:0:
256,192,69422,1,8,0:0:0:0:
256,192,69500,1,0,0:0:0:0:
256,192,69579,1,8,0:0:0:0:
256,192,69658,1,0,0:0:0:0:
256,192,69736,1,0,0:0:0:0:
256,192,69815,1,8,0:0:0:0:
256,192,69893,1,0,0:0:0:0:
256,192,69972,1,0,0:0:0:0:
256,192,70051,1,8,0:0:0:0:
256,192,70129,1,8,0:0:0:0:
256,192,70208,1,0,0:0:0:0:
256,192,70365,1,8,0:0:0:0:
256,192,70522,1,0,0:0:0:0:
256,192,70601,1,0,0:0:0:0:
256,192,70679,1,8,0:0:0:0:
256,192,70758,1,0,0:0:0:0:
256,192,70837,1,8,0:0:0:0:
256,192,70915,1,8,0:0:0:0:
256,192,70994,1,0,0:0:0:0:
256,192,71072,1,0,0:0:0:0:
256,192,71151,1,8,0:0:0:0:
256,192,71230,1,8,0:0:0:0:
256,192,71308,1,0,0:0:0:0:
256,192,71387,1,8,0:0:0:0:
256,192,71466,1,0,0:0:0:0:
256,192,71544,1,0,0:0:0:0:
256,192,71622,1,8,0:0:0:0:
256,192,71780,1,4,0:0:0:0:
256,192,71938,1,8,0:0:0:0:
256,192,72016,1,0,0:0:0:0:
256,192,72094,1,8,0:0:0:0:
256,192,72173,1,8,0:0:0:0:
256,192,72252,1,0,0:0:0:0:
256,192,72330,1,8,0:0:0:0:
256,192,72409,1,0,0:0:0:0:
256,192,72488,1,0,0:0:0:0:
256,192,72566,1,8,0:0:0:0:
256,192,72645,1,8,0:0:0:0:
256,192,72723,1,0,0:0:0:0:
256,192,72881,1,8,0:0:0:0:
256,192,73038,1,0,0:0:0:0:
256,192,73117,1,0,0:0:0:0:
256,192,73195,1,8,0:0:0:0:
256,192,73274,1,8,0:0:0:0:
256,192,73352,1,0,0:0:0:0:
256,192,73431,1,0,0:0:0:0:
256,192,73510,1,0,0:0:0:0:
256,192,73588,1,8,0:0:0:0:
256,192,73667,1,0,0:0:0:0:
256,192,73746,1,0,0:0:0:0:
256,192,73824,1,8,0:0:0:0:
256,192,73902,1,8,0:0:0:0:
256,192,73982,1,0,0:0:0:0:
256,192,74138,1,8,0:0:0:0:
256,192,74296,1,0,0:0:0:0:
256,192,74374,1,0,0:0:0:0:
256,192,74453,1,8,0:0:0:0:
256,192,74532,1,8,0:0:0:0:
256,192,74610,1,0,0:0:0:0:
256,192,74689,1,8,0:0:0:0:
256,192,74768,1,0,0:0:0:0:
256,192,74846,1,8,0:0:0:0:
256,192,74925,1,0,0:0:0:0:
256,192,75003,1,0,0:0:0:0:
256,192,75082,1,8,0:0:0:0:
256,192,75161,1,8,0:0:0:0:
256,192,75239,1,0,0:0:0:0:
256,192,75397,1,8,0:0:0:0:
256,192,75553,1,8,0:0:0:0:
256,192,75711,1,0,0:0:0:0:
256,192,75789,1,0,0:0:0:0:
256,192,75868,1,8,0:0:0:0:
256,192,76025,1,0,0:0:0:0:
256,192,76104,1,0,0:0:0:0:
256,192,76182,1,8,0:0:0:0:
256,192,76340,1,0,0:0:0:0:
256,192,76418,1,0,0:0:0:0:
256,192,76497,1,8,0:0:0:0:
256,192,76654,1,0,0:0:0:0:
256,192,76812,1,0,0:0:0:0:
256,192,76890,1,0,0:0:0:0:
256,192,76968,1,0,0:0:0:0:
256,192,77048,1,0,0:0:0:0:
256,192,77126,1,8,0:0:0:0:
256,192,77205,1,8,0:0:0:0:
256,192,77283,1,0,0:0:0:0:
256,192,77362,1,8,0:0:0:0:
256,192,77441,1,0,0:0:0:0:
256,192,77519,1,0,0:0:0:0:
256,192,77598,1,8,0:0:0:0:
256,192,77677,1,8,0:0:0:0:
256,192,77755,1,0,0:0:0:0:
256,192,77833,1,8,0:0:0:0:
256,192,77912,1,0,0:0:0:0:
256,192,77991,1,8,0:0:0:0:
256,192,78069,1,0,0:0:0:0:
256,192,78148,1,8,0:0:0:0:
256,192,78227,1,8,0:0:0:0:
256,192,78305,1,0,0:0:0:0:
256,192,78384,1,8,0:0:0:0:
256,192,78462,1,8,0:0:0:0:
256,192,78541,1,0,0:0:0:0:
256,192,78620,1,8,0:0:0:0:
256,192,78698,1,0,0:0:0:0:
256,192,78777,1,0,0:0:0:0:
256,192,78856,1,8,0:0:0:0:
256,192,78934,1,0,0:0:0:0:
256,192,79012,1,8,0:0:0:0:
256,192,79092,1,8,0:0:0:0:
256,192,79170,1,8,0:0:0:0:
256,192,79248,1,8,0:0:0:0:
256,192,79328,1,0,0:0:0:0:
256,192,79406,1,0,0:0:0:0:
256,192,79484,1,8,0:0:0:0:
256,192,79563,1,8,0:0:0:0:
256,192,79642,1,8,0:0:0:0:
256,192,79720,1,0,0:0:0:0:
256,192,79799,1,8,0:0:0:0:
256,192,79878,1,8,0:0:0:0:
256,192,79956,1,0,0:0:0:0:
256,192,80113,1,8,0:0:0:0:
256,192,80192,1,8,0:0:0:0:
256,192,80271,1,0,0:0:0:0:
256,192,80349,1,8,0:0:0:0:
256,192,80428,1,8,0:0:0:0:
256,192,80585,1,4,0:0:0:0:
256,192,80899,1,4,0:0:0:0:
256,192,81214,1,4,0:0:0:0:
256,192,81528,1,4,0:0:0:0:
256,192,81843,1,4,0:0:0:0:
256,192,82000,1,0,0:0:0:0:
256,192,82079,1,0,0:0:0:0:
256,192,82158,1,8,0:0:0:0:
256,192,82236,1,8,0:0:0:0:
256,192,82315,1,0,0:0:0:0:
256,192,82393,1,8,0:0:0:0:
256,192,82472,1,0,0:0:0:0:
256,192,82629,1,8,0:0:0:0:
256,192,82787,1,0,0:0:0:0:
256,192,83101,1,0,0:0:0:0:
256,192,83179,1,0,0:0:0:0:
256,192,83258,1,0,0:0:0:0:
256,192,83337,1,0,0:0:0:0:
256,192,83415,1,8,0:0:0:0:
256,192,83494,1,8,0:0:0:0:
256,192,83572,1,0,0:0:0:0:
256,192,83651,1,8,0:0:0:0:
256,192,83730,1,0,0:0:0:0:
256,192,83808,1,0,0:0:0:0:
256,192,83887,1,8,0:0:0:0:
256,192,84044,1,0,0:0:0:0:
256,192,84358,1,0,0:0:0:0:
256,192,84516,1,0,0:0:0:0:
256,192,84594,1,0,0:0:0:0:
256,192,84673,1,8,0:0:0:0:
256,192,84752,1,0,0:0:0:0:
256,192,84830,1,8,0:0:0:0:
256,192,84909,1,8,0:0:0:0:
256,192,84988,1,0,0:0:0:0:
256,192,85145,1,8,0:0:0:0:
256,192,85302,1,0,0:0:0:0:
256,192,85617,1,0,0:0:0:0:
256,192,85695,1,0,0:0:0:0:
256,192,85774,1,8,0:0:0:0:
256,192,85852,1,0,0:0:0:0:
256,192,85931,1,8,0:0:0:0:
256,192,86010,1,8,0:0:0:0:
256,192,86088,1,0,0:0:0:0:
256,192,86167,1,8,0:0:0:0:
256,192,86246,1,0,0:0:0:0:
256,192,86324,1,0,0:0:0:0:
256,192,86402,1,8,0:0:0:0:
256,192,86560,1,8,0:0:0:0:
256,192,86874,1,4,0:0:0:0:
256,192,87032,1,8,0:0:0:0:
256,192,87110,1,0,0:0:0:0:
256,192,87189,1,8,0:0:0:0:
256,192,87268,1,8,0:0:0:0:
256,192,87346,1,0,0:0:0:0:
256,192,87425,1,8,0:0:0:0:
256,192,87503,1,0,0:0:0:0:
256,192,87582,1,0,0:0:0:0:
256,192,87661,1,8,0:0:0:0:
256,192,87739,1,0,0:0:0:0:
256,192,87818,1,8,0:0:0:0:
256,192,87897,1,8,0:0:0:0:
256,192,87975,1,0,0:0:0:0:
256,192,88053,1,8,0:0:0:0:
256,192,88132,1,0,0:0:0:0:
256,192,88211,1,0,0:0:0:0:
256,192,88289,1,0,0:0:0:0:
256,192,88368,1,8,0:0:0:0:
256,192,88447,1,8,0:0:0:0:
256,192,88525,1,8,0:0:0:0:
256,192,88604,1,0,0:0:0:0:
256,192,88682,1,8,0:0:0:0:
256,192,88761,1,0,0:0:0:0:
256,192,88840,1,8,0:0:0:0:
256,192,88918,1,8,0:0:0:0:
256,192,88997,1,0,0:0:0:0:
256,192,89076,1,8,0:0:0:0:
256,192,89154,1,0,0:0:0:0:
256,192,89232,1,8,0:0:0:0:
256,192,89312,1,8,0:0:0:0:
256,192,89390,1,0,0:0:0:0:
256,192,89468,1,0,0:0:0:0:
256,192,89548,1,8,0:0:0:0:
256,192,89626,1,0,0:0:0:0:
256,192,89705,1,8,0:0:0:0:
256,192,89783,1,8,0:0:0:0:
256,192,89862,1,0,0:0:0:0:
256,192,89941,1,8,0:0:0:0:
256,192,90019,1,0,0:0:0:0:
256,192,90098,1,0,0:0:0:0:
256,192,90177,1,8,0:0:0:0:
256,192,90255,1,0,0:0:0:0:
256,192,90333,1,8,0:0:0:0:
256,192,90412,1,8,0:0:0:0:
256,192,90491,1,0,0:0:0:0:
256,192,90569,1,8,0:0:0:0:
256,192,90648,1,0,0:0:0:0:
256,192,90727,1,0,0:0:0:0:
256,192,90805,1,8,0:0:0:0:
256,192,90884,1,8,0:0:0:0:
256,192,90962,1,0,0:0:0:0:
256,192,91041,1,8,0:0:0:0:
256,192,91120,1,8,0:0:0:0:
256,192,91198,1,0,0:0:0:0:
256,192,91277,1,8,0:0:0:0:
256,192,91356,1,8,0:0:0:0:
256,192,91434,1,0,0:0:0:0:
256,192,91512,1,0,0:0:0:0:
256,192,91592,1,8,0:0:0:0:
256,192,91670,1,8,0:0:0:0:
256,192,91748,1,8,0:0:0:0:
256,192,91906,1,8,0:0:0:0:
256,192,91984,1,8,0:0:0:0:
256,192,92063,1,0,0:0:0:0:
256,192,92142,1,0,0:0:0:0:
256,192,92220,1,8,0:0:0:0:
256,192,92299,1,0,0:0:0:0:
256,192,92378,1,8,0:0:0:0:
256,192,92456,1,0,0:0:0:0:
256,192,92535,1,8,0:0:0:0:
256,192,92613,1,8,0:0:0:0:
256,192,92692,1,0,0:0:0:0:
256,192,92771,1,8,0:0:0:0:
256,192,92849,1,8,0:0:0:0:
256,192,92928,1,8,0:0:0:0:
256,192,93007,1,0,0:0:0:0:
256,192,93163,1,0,0:0:0:0:
256,192,93321,1,8,0:0:0:0:
256,192,93399,1,8,0:0:0:0:
256,192,93478,1,0,0:0:0:0:
256,192,93557,1,8,0:0:0:0:
256,192,93635,1,8,0:0:0:0:
256,192,93714,1,0,0:0:0:0:
256,192,93792,1,8,0:0:0:0:
256,192,93872,1,8,0:0:0:0:
256,192,93950,1,0,0:0:0:0:
256,192,94108,1,8,0:0:0:0:
256,192,94264,1,8,0:0:0:0:
256,192,94422,1,8,0:0:0:0:
256,192,94500,1,0,0:0:0:0:
256,192,94579,1,0,0:0:0:0:
256,192,94658,1,8,0:0:0:0:
256,192,94736,1,0,0:0:0:0:
256,192,94815,1,8,0:0:0:0:
256,192,94893,1,0,0:0:0:0:
256,192,94972,1,0,0:0:0:0:
256,192,95051,1,0,0:0:0:0:
256,192,95129,1,8,0:0:0:0:
256,192,95208,1,0,0:0:0:0:
256,192,95287,1,8,0:0:0:0:
256,192,95365,1,8,0:0:0:0:
256,192,95443,1,0,0:0:0:0:
256,192,95522,1,8,0:0:0:0:
256,192,95601,1,8,0:0:0:0:
256,192,95679,1,0,0:0:0:0:
256,192,95758,1,8,0:0:0:0:
256,192,95837,1,8,0:0:0:0:
256,192,95915,1,0,0:0:0:0:
256,192,95994,1,8,0:0:0:0:
256,192,96072,1,0,0:0:0:0:
256,192,96151,1,8,0:0:0:0:
256,192,96230,1,8,0:0:0:0:
256,192,96308,1,0,0:0:0:0:
256,192,96387,1,8,0:0:0:0:
256,192,96466,1,8,0:0:0:0:
256,192,96544,1,0,0:0:0:0:
256,192,96622,1,8,0:0:0:0:
256,192,96702,1,8,0:0:0:0:
256,192,96780,1,0,0:0:0:0:
256,192,96858,1,8,0:0:0:0:
256,192,96938,1,0,0:0:0:0:
256,192,97016,1,0,0:0:0:0:
256,192,97094,1,8,0:0:0:0:
256,192,97173,1,8,0:0:0:0:
256,192,97252,1,0,0:0:0:0:
256,192,97330,1,8,0:0:0:0:
256,192,97409,1,8,0:0:0:0:
256,192,97488,1,0,0:0:0:0:
256,192,97566,1,8,0:0:0:0:
256,192,97645,1,0,0:0:0:0:
256,192,97723,1,8,0:0:0:0:
256,192,97802,1,0,0:0:0:0:
256,192,97881,1,8,0:0:0:0:
256,192,97959,1,8,0:0:0:0:
256,192,98038,1,0,0:0:0:0:
256,192,98195,1,0,0:0:0:0:
256,192,98352,1,12,0:0:0:0:
256,192,98588,1,12,0:0:0:0:
256,192,98824,1,4,0:0:0:0:
256,192,99060,1,4,0:0:0:0:
256,192,99296,1,12,0:0:0:0:
256,192,99453,1,8,0:0:0:0:
256,192,99532,1,0,0:0:0:0:
256,192,99610,1,0,0:0:0:0:
256,192,99689,1,8,0:0:0:0:
256,192,99768,1,0,0:0:0:0:
256,192,99846,1,8,0:0:0:0:
256,192,99925,1,0,0:0:0:0:
256,192,100003,1,0,0:0:0:0:
256,192,100082,1,8,0:0:0:0:
256,192,100161,1,0,0:0:0:0:
256,192,100318,1,8,0:0:0:0:
256,192,100475,1,0,0:0:0:0:
256,192,100553,1,8,0:0:0:0:
256,192,100711,1,8,0:0:0:0:
256,192,100789,1,8,0:0:0:0:
256,192,100868,1,0,0:0:0:0:
256,192,100947,1,0,0:0:0:0:
256,192,101025,1,8,0:0:0:0:
256,192,101182,1,0,0:0:0:0:
256,192,101261,1,0,0:0:0:0:
256,192,101340,1,8,0:0:0:0:
256,192,101418,1,8,0:0:0:0:
256,192,101497,1,0,0:0:0:0:
256,192,101576,1,8,0:0:0:0:
256,192,101654,1,8,0:0:0:0:
256,192,101732,1,0,0:0:0:0:
256,192,101812,1,8,0:0:0:0:
256,192,101968,1,0,0:0:0:0:
256,192,102283,1,12,0:0:0:0:
256,192,102441,1,0,0:0:0:0:
256,192,102519,1,8,0:0:0:0:
256,192,102677,1,8,0:0:0:0:
256,192,102755,1,0,0:0:0:0:
256,192,102833,1,0,0:0:0:0:
256,192,102912,1,8,0:0:0:0:
256,192,102991,1,0,0:0:0:0:
256,192,103069,1,8,0:0:0:0:
256,192,103227,1,8,0:0:0:0:
256,192,103305,1,0,0:0:0:0:
256,192,103384,1,0,0:0:0:0:
256,192,103462,1,0,0:0:0:0:
256,192,103541,1,8,0:0:0:0:
256,192,103620,1,0,0:0:0:0:
256,192,103698,1,8,0:0:0:0:
256,192,103777,1,8,0:0:0:0:
256,192,103856,1,8,0:0:0:0:
256,192,104012,1,0,0:0:0:0:
256,192,104092,1,8,0:0:0:0:
256,192,104170,1,0,0:0:0:0:
256,192,104248,1,0,0:0:0:0:
256,192,104328,1,8,0:0:0:0:
256,192,104484,1,0,0:0:0:0:
256,192,104720,1,0,0:0:0:0:
256,192,104799,1,8,0:0:0:0:
256,192,104956,1,0,0:0:0:0:
256,192,105035,1,8,0:0:0:0:
256,192,105192,1,8,0:0:0:0:
256,192,105271,1,0,0:0:0:0:
256,192,105349,1,0,0:0:0:0:
256,192,105428,1,8,0:0:0:0:
256,192,105585,1,0,0:0:0:0:
256,192,105742,1,8,0:0:0:0:
256,192,105821,1,0,0:0:0:0:
256,192,105978,1,0,0:0:0:0:
256,192,106057,1,8,0:0:0:0:
256,192,106214,1,0,0:0:0:0:
256,192,106292,1,8,0:0:0:0:
256,192,106372,1,0,0:0:0:0:
256,192,106450,1,8,0:0:0:0:
256,192,106528,1,0,0:0:0:0:
256,192,106686,1,8,0:0:0:0:
256,192,107000,1,8,0:0:0:0:
256,192,107158,1,0,0:0:0:0:
256,192,107236,1,0,0:0:0:0:
256,192,107315,1,8,0:0:0:0:
256,192,107472,1,8,0:0:0:0:
256,192,107551,1,8,0:0:0:0:
256,192,107629,1,0,0:0:0:0:
256,192,107787,1,0,0:0:0:0:
256,192,107865,1,0,0:0:0:0:
256,192,107943,1,8,0:0:0:0:
256,192,108022,1,8,0:0:0:0:
256,192,108179,1,8,0:0:0:0:
256,192,108415,1,8,0:0:0:0:
256,192,108494,1,8,0:0:0:0:
256,192,108572,1,0,0:0:0:0:
256,192,108730,1,8,0:0:0:0:
256,192,108808,1,8,0:0:0:0:
256,192,108887,1,0,0:0:0:0:
256,192,108966,1,8,0:0:0:0:
256,192,109044,1,0,0:0:0:0:
256,192,109202,1,8,0:0:0:0:
256,192,109358,1,8,0:0:0:0:
256,192,109516,1,0,0:0:0:0:
256,192,109830,1,8,0:0:0:0:
256,192,110066,1,8,0:0:0:0:
256,192,110145,1,0,0:0:0:0:
256,192,110223,1,8,0:0:0:0:
256,192,110302,1,0,0:0:0:0:
256,192,110459,1,8,0:0:0:0:
256,192,110538,1,0,0:0:0:0:
256,192,110617,1,0,0:0:0:0:
256,192,110774,1,8,0:0:0:0:
256,192,111010,1,0,0:0:0:0:
256,192,111088,1,8,0:0:0:0:
256,192,111246,1,0,0:0:0:0:
256,192,111324,1,8,0:0:0:0:
256,192,111402,1,8,0:0:0:0:
256,192,111482,1,0,0:0:0:0:
256,192,111638,1,0,0:0:0:0:
256,192,111718,1,8,0:0:0:0:
256,192,112032,1,12,0:0:0:0:
256,192,112189,1,0,0:0:0:0:
256,192,112268,1,0,0:0:0:0:
256,192,112346,1,8,0:0:0:0:
256,192,112425,1,0,0:0:0:0:
256,192,112503,1,8,0:0:0:0:
256,192,112582,1,0,0:0:0:0:
256,192,112661,1,8,0:0:0:0:
256,192,112739,1,0,0:0:0:0:
256,192,112818,1,0,0:0:0:0:
256,192,112897,1,0,0:0:0:0:
256,192,112975,1,8,0:0:0:0:
256,192,113132,1,8,0:0:0:0:
256,192,113211,1,0,0:0:0:0:
256,192,113289,1,8,0:0:0:0:
256,192,113447,1,8,0:0:0:0:
256,192,113525,1,0,0:0:0:0:
256,192,113604,1,8,0:0:0:0:
256,192,113761,1,8,0:0:0:0:
256,192,113840,1,0,0:0:0:0:
256,192,113918,1,8,0:0:0:0:
256,192,113997,1,8,0:0:0:0:
256,192,114076,1,0,0:0:0:0:
256,192,114154,1,0,0:0:0:0:
256,192,114232,1,8,0:0:0:0:
256,192,114312,1,0,0:0:0:0:
256,192,114390,1,8,0:0:0:0:
256,192,114548,1,8,0:0:0:0:
256,192,114705,1,0,0:0:0:0:
256,192,114783,1,0,0:0:0:0:
256,192,114862,1,8,0:0:0:0:
256,192,114941,1,8,0:0:0:0:
256,192,115019,1,0,0:0:0:0:
256,192,115098,1,8,0:0:0:0:
256,192,115177,1,8,0:0:0:0:
256,192,115333,1,0,0:0:0:0:
256,192,115412,1,0,0:0:0:0:
256,192,115491,1,8,0:0:0:0:
256,192,115569,1,0,0:0:0:0:
256,192,115648,1,0,0:0:0:0:
256,192,115727,1,8,0:0:0:0:
256,192,115805,1,8,0:0:0:0:
256,192,115962,1,0,0:0:0:0:
256,192,116041,1,0,0:0:0:0:
256,192,116120,1,8,0:0:0:0:
256,192,116198,1,0,0:0:0:0:
256,192,116356,1,8,0:0:0:0:
256,192,116434,1,0,0:0:0:0:
256,192,116512,1,0,0:0:0:0:
256,192,116592,1,8,0:0:0:0:
256,192,116748,1,0,0:0:0:0:
256,192,117063,1,8,0:0:0:0:
256,192,117142,1,8,0:0:0:0:
256,192,117220,1,0,0:0:0:0:
256,192,117299,1,0,0:0:0:0:
256,192,117378,1,8,0:0:0:0:
256,192,117456,1,8,0:0:0:0:
256,192,117535,1,0,0:0:0:0:
256,192,117613,1,0,0:0:0:0:
256,192,117692,1,8,0:0:0:0:
256,192,117771,1,8,0:0:0:0:
256,192,117849,1,0,0:0:0:0:
256,192,117928,1,8,0:0:0:0:
256,192,118007,1,8,0:0:0:0:
256,192,118085,1,0,0:0:0:0:
256,192,118242,1,8,0:0:0:0:
256,192,118321,1,8,0:0:0:0:
256,192,118399,1,8,0:0:0:0:
256,192,118478,1,0,0:0:0:0:
256,192,118557,1,0,0:0:0:0:
256,192,118635,1,8,0:0:0:0:
256,192,118714,1,0,0:0:0:0:
256,192,118792,1,8,0:0:0:0:
256,192,118872,1,0,0:0:0:0:
256,192,118950,1,8,0:0:0:0:
256,192,119028,1,8,0:0:0:0:
256,192,119108,1,8,0:0:0:0:
256,192,119264,1,0,0:0:0:0:
256,192,119579,1,8,0:0:0:0:
256,192,119658,1,0,0:0:0:0:
256,192,119815,1,8,0:0:0:0:
256,192,119893,1,0,0:0:0:0:
256,192,120051,1,8,0:0:0:0:
256,192,120129,1,0,0:0:0:0:
256,192,120287,1,8,0:0:0:0:
256,192,120365,1,0,0:0:0:0:
256,192,120522,1,8,0:0:0:0:
256,192,120601,1,0,0:0:0:0:
256,192,120758,1,8,0:0:0:0:
256,192,120837,1,0,0:0:0:0:
256,192,120994,1,8,0:0:0:0:
256,192,121072,1,0,0:0:0:0:
256,192,121151,1,8,0:0:0:0:
256,192,121230,1,8,0:0:0:0:
256,192,121308,1,0,0:0:0:0:
256,192,121387,1,0,0:0:0:0:
256,192,121466,1,8,0:0:0:0:
256,192,121544,1,8,0:0:0:0:
256,192,121622,1,8,0:0:0:0:
256,192,121702,1,8,0:0:0:0:
256,192,121780,1,0,0:0:0:0:
256,192,121938,1,8,0:0:0:0:
256,192,122094,1,12,0:0:0:0:
256,192,122252,1,8,0:0:0:0:
256,192,122330,1,0,0:0:0:0:
256,192,122409,1,8,0:0:0:0:
256,192,122488,1,8,0:0:0:0:
256,192,122566,1,0,0:0:0:0:
256,192,122645,1,8,0:0:0:0:
256,192,122723,1,8,0:0:0:0:
256,192,122802,1,0,0:0:0:0:
256,192,122959,1,8,0:0:0:0:
256,192,123195,1,0,0:0:0:0:
256,192,123274,1,0,0:0:0:0:
256,192,123352,1,8,0:0:0:0:
256,192,123510,1,8,0:0:0:0:
256,192,123588,1,0,0:0:0:0:
256,192,123667,1,8,0:0:0:0:
256,192,123746,1,8,0:0:0:0:
256,192,123824,1,0,0:0:0:0:
256,192,123902,1,8,0:0:0:0:
256,192,123982,1,8,0:0:0:0:
256,192,124060,1,0,0:0:0:0:
256,192,124218,1,8,0:0:0:0:
256,192,124453,1,8,0:0:0:0:
256,192,124532,1,0,0:0:0:0:
256,192,124689,1,8,0:0:0:0:
256,192,124925,1,8,0:0:0:0:
256,192,125003,1,0,0:0:0:0:
256,192,125161,1,0,0:0:0:0:
256,192,125397,1,8,0:0:0:0:
256,192,125475,1,0,0:0:0:0:
256,192,125632,1,8,0:0:0:0:
256,192,125868,1,8,0:0:0:0:
256,192,126025,1,0,0:0:0:0:
256,192,126104,1,0,0:0:0:0:
256,192,126182,1,8,0:0:0:0:
256,192,126261,1,0,0:0:0:0:
256,192,126340,1,8,0:0:0:0:
256,192,126418,1,0,0:0:0:0:
256,192,126497,1,0,0:0:0:0:
256,192,126576,1,8,0:0:0:0:
256,192,126654,1,8,0:0:0:0:
256,192,126812,1,8,0:0:0:0:
256,192,127126,1,0,0:0:0:0:
256,192,127283,1,0,0:0:0:0:
256,192,127362,1,0,0:0:0:0:
256,192,127441,1,8,0:0:0:0:
256,192,127598,1,0,0:0:0:0:
256,192,127677,1,8,0:0:0:0:
256,192,127755,1,0,0:0:0:0:
256,192,127912,1,8,0:0:0:0:
256,192,127991,1,0,0:0:0:0:
256,192,128069,1,8,0:0:0:0:
256,192,128227,1,8,0:0:0:0:
256,192,128305,1,8,0:0:0:0:
256,192,128384,1,0,0:0:0:0:
256,192,128541,1,8,0:0:0:0:
256,192,128620,1,0,0:0:0:0:
256,192,128698,1,8,0:0:0:0:
256,192,128856,1,8,0:0:0:0:
256,192,128934,1,8,0:0:0:0:
256,192,129012,1,0,0:0:0:0:
256,192,129092,1,8,0:0:0:0:
256,192,129170,1,0,0:0:0:0:
256,192,129328,1,8,0:0:0:0:
256,192,129484,1,8,0:0:0:0:
256,192,129642,1,0,0:0:0:0:
256,192,129956,1,8,0:0:0:0:
256,192,130192,1,8,0:0:0:0:
256,192,130271,1,0,0:0:0:0:
256,192,130428,1,0,0:0:0:0:
256,192,130585,1,8,0:0:0:0:
256,192,130899,1,12,0:0:0:0:
256,192,131214,1,12,0:0:0:0:
256,192,131528,1,12,0:0:0:0:
256,192,131843,1,12,0:0:0:0:
256,192,132158,1,8,0:0:0:0:
256,192,132314,1,8,0:0:0:0:
256,192,132472,1,4,0:0:0:0:
256,192,132628,1,0,0:0:0:0:
256,192,132708,1,0,0:0:0:0:
256,192,132786,1,8,0:0:0:0:
256,192,132864,1,8,0:0:0:0:
256,192,132943,1,0,0:0:0:0:
256,192,133022,1,8,0:0:0:0:
256,192,133100,1,0,0:0:0:0:
256,192,133179,1,0,0:0:0:0:
256,192,133258,1,8,0:0:0:0:
256,192,133336,1,0,0:0:0:0:
256,192,133415,1,8,0:0:0:0:
256,192,133572,1,0,0:0:0:0:
256,192,133729,1,0,0:0:0:0:
256,192,133808,1,0,0:0:0:0:
256,192,133887,1,0,0:0:0:0:
256,192,133965,1,0,0:0:0:0:
256,192,134043,1,8,0:0:0:0:
256,192,134122,1,8,0:0:0:0:
256,192,134201,1,0,0:0:0:0:
256,192,134279,1,8,0:0:0:0:
256,192,134358,1,0,0:0:0:0:
256,192,134437,1,0,0:0:0:0:
256,192,134515,1,8,0:0:0:0:
256,192,134594,1,0,0:0:0:0:
256,192,134672,1,8,0:0:0:0:
256,192,134830,1,0,0:0:0:0:
256,192,134987,1,0,0:0:0:0:
256,192,135066,1,0,0:0:0:0:
256,192,135144,1,8,0:0:0:0:
256,192,135222,1,0,0:0:0:0:
256,192,135302,1,8,0:0:0:0:
256,192,135380,1,8,0:0:0:0:
256,192,135458,1,0,0:0:0:0:
256,192,135538,1,8,0:0:0:0:
256,192,135616,1,0,0:0:0:0:
256,192,135694,1,8,0:0:0:0:
256,192,135773,1,8,0:0:0:0:
256,192,135852,1,0,0:0:0:0:
256,192,135930,1,8,0:0:0:0:
256,192,136088,1,0,0:0:0:0:
256,192,136245,1,0,0:0:0:0:
256,192,136323,1,0,0:0:0:0:
256,192,136402,1,8,0:0:0:0:
256,192,136481,1,0,0:0:0:0:
256,192,136559,1,8,0:0:0:0:
256,192,136638,1,0,0:0:0:0:
256,192,136717,1,0,0:0:0:0:
256,192,136795,1,0,0:0:0:0:
256,192,136874,1,8,0:0:0:0:
256,192,136952,1,8,0:0:0:0:
256,192,137031,1,0,0:0:0:0:
256,192,137110,1,0,0:0:0:0:
256,192,137188,1,8,0:0:0:0:
256,192,137267,1,0,0:0:0:0:
256,192,137346,1,8,0:0:0:0:
256,192,137502,1,4,0:0:0:0:
256,192,137660,1,8,0:0:0:0:
256,192,137738,1,0,0:0:0:0:
256,192,137818,1,8,0:0:0:0:
256,192,137896,1,8,0:0:0:0:
256,192,137974,1,0,0:0:0:0:
256,192,138053,1,8,0:0:0:0:
256,192,138132,1,0,0:0:0:0:
256,192,138210,1,0,0:0:0:0:
256,192,138289,1,8,0:0:0:0:
256,192,138368,1,0,0:0:0:0:
256,192,138446,1,8,0:0:0:0:
256,192,138603,1,0,0:0:0:0:
256,192,138761,1,0,0:0:0:0:
256,192,138839,1,0,0:0:0:0:
256,192,138918,1,8,0:0:0:0:
256,192,138997,1,0,0:0:0:0:
256,192,139075,1,8,0:0:0:0:
256,192,139153,1,8,0:0:0:0:
256,192,139232,1,0,0:0:0:0:
256,192,139311,1,8,0:0:0:0:
256,192,139389,1,0,0:0:0:0:
256,192,139468,1,0,0:0:0:0:
256,192,139547,1,8,0:0:0:0:
256,192,139625,1,0,0:0:0:0:
256,192,139704,1,8,0:0:0:0:
256,192,139861,1,0,0:0:0:0:
256,192,140018,1,0,0:0:0:0:
256,192,140097,1,0,0:0:0:0:
256,192,140176,1,8,0:0:0:0:
256,192,140254,1,0,0:0:0:0:
256,192,140332,1,8,0:0:0:0:
256,192,140412,1,0,0:0:0:0:
256,192,140490,1,8,0:0:0:0:
256,192,140648,1,0,0:0:0:0:
256,192,140726,1,0,0:0:0:0:
256,192,140805,1,8,0:0:0:0:
256,192,140883,1,0,0:0:0:0:
256,192,140962,1,8,0:0:0:0:
256,192,141119,1,0,0:0:0:0:
256,192,141277,1,12,0:0:0:0:
256,192,141433,1,0,0:0:0:0:
256,192,141591,1,12,0:0:0:0:
256,192,141748,1,0,0:0:0:0:
256,192,141905,1,12,0:0:0:0:
256,192,142062,1,0,0:0:0:0:
256,192,142220,1,12,0:0:0:0:
256,192,142534,1,4,0:0:0:0:
256,192,142692,1,8,0:0:0:0:
256,192,142770,1,0,0:0:0:0:
256,192,142848,1,8,0:0:0:0:
256,192,142928,1,8,0:0:0:0:
256,192,143006,1,0,0:0:0:0:
256,192,143084,1,8,0:0:0:0:
256,192,143163,1,0,0:0:0:0:
256,192,143242,1,0,0:0:0:0:
256,192,143320,1,8,0:0:0:0:
256,192,143399,1,0,0:0:0:0:
256,192,143478,1,8,0:0:0:0:
256,192,143556,1,8,0:0:0:0:
256,192,143635,1,8,0:0:0:0:
256,192,143713,1,8,0:0:0:0:
256,192,143792,1,0,0:0:0:0:
256,192,143871,1,0,0:0:0:0:
256,192,143949,1,8,0:0:0:0:
256,192,144028,1,0,0:0:0:0:
256,192,144107,1,8,0:0:0:0:
256,192,144185,1,8,0:0:0:0:
256,192,144263,1,0,0:0:0:0:
256,192,144342,1,8,0:0:0:0:
256,192,144421,1,0,0:0:0:0:
256,192,144499,1,0,0:0:0:0:
256,192,144578,1,8,0:0:0:0:
256,192,144657,1,0,0:0:0:0:
256,192,144735,1,8,0:0:0:0:
256,192,144814,1,8,0:0:0:0:
256,192,144892,1,8,0:0:0:0:
256,192,144972,1,8,0:0:0:0:
256,192,145050,1,0,0:0:0:0:
256,192,145128,1,0,0:0:0:0:
256,192,145208,1,0,0:0:0:0:
256,192,145286,1,0,0:0:0:0:
256,192,145364,1,8,0:0:0:0:
256,192,145443,1,0,0:0:0:0:
256,192,145522,1,8,0:0:0:0:
256,192,145600,1,8,0:0:0:0:
256,192,145679,1,0,0:0:0:0:
256,192,145758,1,0,0:0:0:0:
256,192,145836,1,8,0:0:0:0:
256,192,145915,1,0,0:0:0:0:
256,192,145993,1,8,0:0:0:0:
256,192,146072,1,8,0:0:0:0:
256,192,146151,1,8,0:0:0:0:
256,192,146229,1,8,0:0:0:0:
256,192,146308,1,0,0:0:0:0:
256,192,146387,1,0,0:0:0:0:
256,192,146465,1,8,0:0:0:0:
256,192,146543,1,0,0:0:0:0:
256,192,146622,1,8,0:0:0:0:
256,192,146701,1,8,0:0:0:0:
256,192,146779,1,0,0:0:0:0:
256,192,146858,1,0,0:0:0:0:
256,192,146937,1,8,0:0:0:0:
256,192,147015,1,8,0:0:0:0:
256,192,147094,1,0,0:0:0:0:
256,192,147172,1,0,0:0:0:0:
256,192,147251,1,8,0:0:0:0:
256,192,147330,1,0,0:0:0:0:
256,192,147408,1,8,0:0:0:0:
256,192,147566,1,4,0:0:0:0:
256,192,147722,1,8,0:0:0:0:
256,192,147802,1,0,0:0:0:0:
256,192,147880,1,0,0:0:0:0:
256,192,147958,1,8,0:0:0:0:
256,192,148038,1,0,0:0:0:0:
256,192,148116,1,8,0:0:0:0:
256,192,148194,1,0,0:0:0:0:
256,192,148273,1,0,0:0:0:0:
256,192,148352,1,8,0:0:0:0:
256,192,148430,1,0,0:0:0:0:
256,192,148509,1,8,0:0:0:0:
256,192,148588,1,8,0:0:0:0:
256,192,148666,1,8,0:0:0:0:
256,192,148745,1,8,0:0:0:0:
256,192,148823,1,0,0:0:0:0:
256,192,148902,1,8,0:0:0:0:
256,192,148981,1,8,0:0:0:0:
256,192,149059,1,0,0:0:0:0:
256,192,149138,1,8,0:0:0:0:
256,192,149217,1,0,0:0:0:0:
256,192,149295,1,8,0:0:0:0:
256,192,149374,1,8,0:0:0:0:
256,192,149452,1,0,0:0:0:0:
256,192,149531,1,0,0:0:0:0:
256,192,149610,1,8,0:0:0:0:
256,192,149688,1,0,0:0:0:0:
256,192,149767,1,8,0:0:0:0:
256,192,149846,1,8,0:0:0:0:
256,192,149924,1,8,0:0:0:0:
256,192,150002,1,8,0:0:0:0:
256,192,150082,1,0,0:0:0:0:
256,192,150160,1,0,0:0:0:0:
256,192,150238,1,8,0:0:0:0:
256,192,150318,1,0,0:0:0:0:
256,192,150396,1,8,0:0:0:0:
256,192,150474,1,0,0:0:0:0:
256,192,150553,1,8,0:0:0:0:
256,192,150632,1,8,0:0:0:0:
256,192,150710,1,0,0:0:0:0:
256,192,150789,1,0,0:0:0:0:
256,192,150868,1,8,0:0:0:0:
256,192,150946,1,8,0:0:0:0:
256,192,151025,1,0,0:0:0:0:
256,192,151103,1,0,0:0:0:0:
256,192,151182,1,8,0:0:0:0:
256,192,151261,1,0,0:0:0:0:
256,192,151339,1,8,0:0:0:0:
256,192,151418,1,0,0:0:0:0:
256,192,151497,1,0,0:0:0:0:
256,192,151575,1,0,0:0:0:0:
256,192,151653,1,8,0:0:0:0:
256,192,151732,1,0,0:0:0:0:
256,192,151811,1,0,0:0:0:0:
256,192,151889,1,0,0:0:0:0:
256,192,151968,1,8,0:0:0:0:
256,192,152047,1,0,0:0:0:0:
256,192,152125,1,0,0:0:0:0:
256,192,152204,1,0,0:0:0:0:
256,192,152282,1,8,0:0:0:0:
256,192,152361,1,0,0:0:0:0:
256,192,152440,1,0,0:0:0:0:
256,192,152518,1,0,0:0:0:0:
256,192,152597,1,8,0:0:0:0:
