osu file format v14

[General]
AudioFilename: audio125.mp3
AudioLeadIn: 0
PreviewTime: 64040
Countdown: 1
SampleSet: Normal
StackLeniency: 0.7
Mode: 1
LetterboxInBreaks: 0
WidescreenStoryboard: 0

[Editor]
DistanceSpacing: 1.5
BeatDivisor: 4
GridSize: 32
TimelineZoom: 1.6

[Metadata]
Title:Uraomote Lovers
TitleUnicode:裏表ラバーズ
Artist:wowaka
ArtistUnicode:wowaka
Creator:Konpaku Sariel
Version:Stream [1.25x Rate]
Source:
Tags:
BeatmapID:1866103
BeatmapSetID:892766

[Difficulty]
HPDrainRate:6
CircleSize:5
OverallDifficulty:6
ApproachRate:5
SliderMultiplier:1.4
SliderTickRate:1

[Events]
//Background and Video events
0,0,"884670.jpg",0,0
//Break Periods
//Storyboard Layer 0 (Background)
//Storyboard Layer 1 (Fail)
//Storyboard Layer 2 (Pass)
//Storyboard Layer 3 (Foreground)
//Storyboard Sound Samples

[TimingPoints]
2497,301.88679245283,4,1,0,100,1,0
6118,301.88679245283,4,1,0,100,1,0
64080,-100,4,1,0,100,0,1
73741,-100,4,1,0,100,0,0
126873,37.7358490566038,4,1,0,100,1,0
126873,-400,4,1,0,100,0,0
127174,301.88679245283,4,1,0,100,1,1
146494,-1,4,1,0,100,0,0

[HitObjects]
256,192,2496,5,4,0:0:0:0:
256,192,3100,1,4,0:0:0:0:
256,192,3704,1,12,0:0:0:0:
256,192,5515,1,8,0:0:0:0:
256,192,5666,1,8,0:0:0:0:
256,192,5817,1,8,0:0:0:0:
256,192,5892,1,8,0:0:0:0:
256,192,5968,1,8,0:0:0:0:
256,192,6043,1,8,0:0:0:0:
256,192,6118,1,0,0:0:0:0:
256,192,6194,1,0,0:0:0:0:
256,192,6269,1,0,0:0:0:0:
256,192,6345,1,0,0:0:0:0:
256,192,6420,1,8,0:0:0:0:
256,192,6495,1,8,0:0:0:0:
256,192,6571,1,0,0:0:0:0:
256,192,6646,1,8,0:0:0:0:
256,192,6722,1,0,0:0:0:0:
256,192,6873,1,8,0:0:0:0:
256,192,7024,1,0,0:0:0:0:
256,192,7326,1,0,0:0:0:0:
256,192,7401,1,0,0:0:0:0:
256,192,7477,1,8,0:0:0:0:
256,192,7552,1,0,0:0:0:0:
256,192,7627,1,8,0:0:0:0:
256,192,7703,1,8,0:0:0:0:
256,192,7778,1,0,0:0:0:0:
256,192,7854,1,8,0:0:0:0:
256,192,7930,1,0,0:0:0:0:
256,192,8080,1,8,0:0:0:0:
256,192,8231,1,0,0:0:0:0:
256,192,8533,1,0,0:0:0:0:
256,192,8609,1,0,0:0:0:0:
256,192,8684,1,0,0:0:0:0:
256,192,8759,1,0,0:0:0:0:
256,192,8835,1,8,0:0:0:0:
256,192,8910,1,0,0:0:0:0:
256,192,8986,1,8,0:0:0:0:
256,192,9062,1,8,0:0:0:0:
256,192,9137,1,0,0:0:0:0:
256,192,9288,1,8,0:0:0:0:
256,192,9438,1,0,0:0:0:0:
256,192,9741,1,0,0:0:0:0:
256,192,9816,1,0,0:0:0:0:
256,192,9891,1,8,0:0:0:0:
256,192,9967,1,0,0:0:0:0:
256,192,10042,1,8,0:0:0:0:
256,192,10118,1,8,0:0:0:0:
256,192,10194,1,0,0:0:0:0:
256,192,10269,1,0,0:0:0:0:
256,192,10345,1,8,0:0:0:0:
256,192,10495,1,8,0:0:0:0:
256,192,10646,1,8,0:0:0:0:
256,192,10948,1,0,0:0:0:0:
256,192,11024,1,0,0:0:0:0:
256,192,11099,1,8,0:0:0:0:
256,192,11174,1,0,0:0:0:0:
256,192,11250,1,8,0:0:0:0:
256,192,11326,1,8,0:0:0:0:
256,192,11401,1,0,0:0:0:0:
256,192,11477,1,8,0:0:0:0:
256,192,11552,1,0,0:0:0:0:
256,192,11627,1,0,0:0:0:0:
256,192,11703,1,8,0:0:0:0:
256,192,11854,1,0,0:0:0:0:
256,192,12005,1,8,0:0:0:0:
256,192,12156,1,0,0:0:0:0:
256,192,12231,1,0,0:0:0:0:
256,192,12306,1,0,0:0:0:0:
256,192,12382,1,8,0:0:0:0:
256,192,12458,1,8,0:0:0:0:
256,192,12533,1,8,0:0:0:0:
256,192,12609,1,0,0:0:0:0:
256,192,12684,1,8,0:0:0:0:
256,192,12759,1,0,0:0:0:0:
256,192,12835,1,0,0:0:0:0:
256,192,12910,1,8,0:0:0:0:
256,192,13062,1,0,0:0:0:0:
256,192,13212,1,8,0:0:0:0:
256,192,13363,1,0,0:0:0:0:
256,192,13438,1,0,0:0:0:0:
256,192,13514,1,8,0:0:0:0:
256,192,13590,1,8,0:0:0:0:
256,192,13665,1,0,0:0:0:0:
256,192,13741,1,8,0:0:0:0:
256,192,13816,1,8,0:0:0:0:
256,192,13891,1,8,0:0:0:0:
256,192,13967,1,0,0:0:0:0:
256,192,14042,1,0,0:0:0:0:
256,192,14118,1,8,0:0:0:0:
256,192,14269,1,0,0:0:0:0:
256,192,14420,1,8,0:0:0:0:
256,192,14571,1,0,0:0:0:0:
256,192,14646,1,0,0:0:0:0:
256,192,14722,1,8,0:0:0:0:
256,192,14798,1,0,0:0:0:0:
256,192,14873,1,8,0:0:0:0:
256,192,14948,1,8,0:0:0:0:
256,192,15024,1,8,0:0:0:0:
256,192,15099,1,0,0:0:0:0:
256,192,15174,1,8,0:0:0:0:
256,192,15250,1,8,0:0:0:0:
256,192,15326,1,0,0:0:0:0:
256,192,15401,1,0,0:0:0:0:
256,192,15477,1,8,0:0:0:0:
256,192,15552,1,8,0:0:0:0:
256,192,15627,1,8,0:0:0:0:
256,192,15703,1,8,0:0:0:0:
256,192,15778,1,0,0:0:0:0:
256,192,15930,1,8,0:0:0:0:
256,192,16005,1,8,0:0:0:0:
256,192,16080,1,0,0:0:0:0:
256,192,16156,1,0,0:0:0:0:
256,192,16231,1,8,0:0:0:0:
256,192,16306,1,8,0:0:0:0:
256,192,16382,1,0,0:0:0:0:
256,192,16458,1,0,0:0:0:0:
256,192,16533,1,8,0:0:0:0:
256,192,16609,1,0,0:0:0:0:
256,192,16684,1,8,0:0:0:0:
256,192,16759,1,8,0:0:0:0:
256,192,16835,1,0,0:0:0:0:
256,192,16986,1,0,0:0:0:0:
256,192,17137,1,8,0:0:0:0:
256,192,17212,1,0,0:0:0:0:
256,192,17288,1,8,0:0:0:0:
256,192,17363,1,8,0:0:0:0:
256,192,17438,1,0,0:0:0:0:
256,192,17514,1,0,0:0:0:0:
256,192,17590,1,8,0:0:0:0:
256,192,17665,1,8,0:0:0:0:
256,192,17741,1,0,0:0:0:0:
256,192,17816,1,8,0:0:0:0:
256,192,17891,1,0,0:0:0:0:
256,192,18042,1,8,0:0:0:0:
256,192,18194,1,8,0:0:0:0:
256,192,18269,1,0,0:0:0:0:
256,192,18345,1,0,0:0:0:0:
256,192,18420,1,8,0:0:0:0:
256,192,18495,1,0,0:0:0:0:
256,192,18571,1,0,0:0:0:0:
256,192,18646,1,8,0:0:0:0:
256,192,18722,1,0,0:0:0:0:
256,192,18798,1,0,0:0:0:0:
256,192,18873,1,8,0:0:0:0:
256,192,18948,1,0,0:0:0:0:
256,192,19024,1,8,0:0:0:0:
256,192,19099,1,8,0:0:0:0:
256,192,19174,1,0,0:0:0:0:
256,192,19250,1,8,0:0:0:0:
256,192,19326,1,0,0:0:0:0:
256,192,19401,1,8,0:0:0:0:
256,192,19477,1,8,0:0:0:0:
256,192,19552,1,0,0:0:0:0:
256,192,19627,1,8,0:0:0:0:
256,192,19703,1,8,0:0:0:0:
256,192,19778,1,0,0:0:0:0:
256,192,19854,1,8,0:0:0:0:
256,192,19930,1,8,0:0:0:0:
256,192,20005,1,8,0:0:0:0:
256,192,20080,1,0,0:0:0:0:
256,192,20156,1,0,0:0:0:0:
256,192,20231,1,8,0:0:0:0:
256,192,20306,1,8,0:0:0:0:
256,192,20382,1,0,0:0:0:0:
256,192,20458,1,8,0:0:0:0:
256,192,20533,1,8,0:0:0:0:
256,192,20609,1,8,0:0:0:0:
256,192,20759,1,8,0:0:0:0:
256,192,20835,1,0,0:0:0:0:
256,192,20910,1,0,0:0:0:0:
256,192,20986,1,8,0:0:0:0:
256,192,21062,1,0,0:0:0:0:
256,192,21137,1,0,0:0:0:0:
256,192,21212,1,8,0:0:0:0:
256,192,21288,1,8,0:0:0:0:
256,192,21363,1,0,0:0:0:0:
256,192,21438,1,0,0:0:0:0:
256,192,21514,1,8,0:0:0:0:
256,192,21590,1,8,0:0:0:0:
256,192,21665,1,0,0:0:0:0:
256,192,21967,1,12,0:0:0:0:
256,192,22194,1,12,0:0:0:0:
256,192,22420,1,4,0:0:0:0:
256,192,22646,1,4,0:0:0:0:
256,192,22873,1,12,0:0:0:0:
256,192,23024,1,8,0:0:0:0:
256,192,23174,1,0,0:0:0:0:
256,192,23250,1,8,0:0:0:0:
256,192,23401,1,0,0:0:0:0:
256,192,23477,1,8,0:0:0:0:
256,192,23552,1,0,0:0:0:0:
256,192,23627,1,8,0:0:0:0:
256,192,23703,1,8,0:0:0:0:
256,192,23778,1,0,0:0:0:0:
256,192,23854,1,0,0:0:0:0:
256,192,23930,1,8,0:0:0:0:
256,192,24005,1,0,0:0:0:0:
256,192,24080,1,8,0:0:0:0:
256,192,24156,1,0,0:0:0:0:
256,192,24231,1,8,0:0:0:0:
256,192,24382,1,8,0:0:0:0:
256,192,24533,1,8,0:0:0:0:
256,192,24609,1,8,0:0:0:0:
256,192,24684,1,0,0:0:0:0:
256,192,24759,1,0,0:0:0:0:
256,192,24835,1,8,0:0:0:0:
256,192,24910,1,8,0:0:0:0:
256,192,24986,1,0,0:0:0:0:
256,192,25062,1,8,0:0:0:0:
256,192,25137,1,8,0:0:0:0:
256,192,25212,1,0,0:0:0:0:
256,192,25288,1,8,0:0:0:0:
256,192,25438,1,12,0:0:0:0:
256,192,25590,1,0,0:0:0:0:
256,192,25741,1,0,0:0:0:0:
256,192,25891,1,8,0:0:0:0:
256,192,25967,1,8,0:0:0:0:
256,192,26042,1,0,0:0:0:0:
256,192,26118,1,8,0:0:0:0:
256,192,26194,1,0,0:0:0:0:
256,192,26345,1,8,0:0:0:0:
256,192,26420,1,0,0:0:0:0:
256,192,26495,1,8,0:0:0:0:
256,192,26646,1,0,0:0:0:0:
256,192,26722,1,0,0:0:0:0:
256,192,26798,1,8,0:0:0:0:
256,192,26873,1,0,0:0:0:0:
256,192,26948,1,8,0:0:0:0:
256,192,27099,1,8,0:0:0:0:
256,192,27174,1,8,0:0:0:0:
256,192,27250,1,0,0:0:0:0:
256,192,27401,1,0,0:0:0:0:
256,192,27477,1,8,0:0:0:0:
256,192,27552,1,0,0:0:0:0:
256,192,27627,1,0,0:0:0:0:
256,192,27703,1,8,0:0:0:0:
256,192,27854,1,0,0:0:0:0:
256,192,28156,1,8,0:0:0:0:
256,192,28306,1,0,0:0:0:0:
256,192,28382,1,8,0:0:0:0:
256,192,28533,1,8,0:0:0:0:
256,192,28609,1,0,0:0:0:0:
256,192,28684,1,0,0:0:0:0:
256,192,28759,1,8,0:0:0:0:
256,192,28910,1,0,0:0:0:0:
256,192,29062,1,8,0:0:0:0:
256,192,29288,1,0,0:0:0:0:
256,192,29363,1,8,0:0:0:0:
256,192,29514,1,0,0:0:0:0:
256,192,29590,1,8,0:0:0:0:
256,192,29665,1,0,0:0:0:0:
256,192,29741,1,8,0:0:0:0:
256,192,29816,1,0,0:0:0:0:
256,192,29967,1,8,0:0:0:0:
256,192,30269,1,8,0:0:0:0:
256,192,30420,1,0,0:0:0:0:
256,192,30495,1,8,0:0:0:0:
256,192,30571,1,8,0:0:0:0:
256,192,30722,1,8,0:0:0:0:
256,192,30798,1,0,0:0:0:0:
256,192,30873,1,0,0:0:0:0:
256,192,31024,1,8,0:0:0:0:
256,192,31099,1,0,0:0:0:0:
256,192,31174,1,8,0:0:0:0:
256,192,31250,1,8,0:0:0:0:
256,192,31401,1,8,0:0:0:0:
256,192,31627,1,8,0:0:0:0:
256,192,31703,1,0,0:0:0:0:
256,192,31778,1,8,0:0:0:0:
256,192,31930,1,8,0:0:0:0:
256,192,32005,1,8,0:0:0:0:
256,192,32080,1,0,0:0:0:0:
256,192,32156,1,8,0:0:0:0:
256,192,32231,1,0,0:0:0:0:
256,192,32382,1,8,0:0:0:0:
256,192,32533,1,0,0:0:0:0:
256,192,32684,1,8,0:0:0:0:
256,192,32910,1,0,0:0:0:0:
256,192,32986,1,8,0:0:0:0:
256,192,33137,1,0,0:0:0:0:
256,192,33212,1,8,0:0:0:0:
256,192,33288,1,8,0:0:0:0:
256,192,33363,1,0,0:0:0:0:
256,192,33514,1,0,0:0:0:0:
256,192,33590,1,8,0:0:0:0:
256,192,33741,1,0,0:0:0:0:
256,192,33891,1,8,0:0:0:0:
256,192,34118,1,0,0:0:0:0:
256,192,34194,1,8,0:0:0:0:
256,192,34345,1,0,0:0:0:0:
256,192,34420,1,8,0:0:0:0:
256,192,34495,1,8,0:0:0:0:
256,192,34571,1,0,0:0:0:0:
256,192,34646,1,0,0:0:0:0:
256,192,34798,1,8,0:0:0:0:
256,192,35099,1,4,0:0:0:0:
256,192,35250,1,0,0:0:0:0:
256,192,35326,1,0,0:0:0:0:
256,192,35401,1,8,0:0:0:0:
256,192,35477,1,8,0:0:0:0:
256,192,35552,1,0,0:0:0:0:
256,192,35627,1,8,0:0:0:0:
256,192,35703,1,0,0:0:0:0:
256,192,35854,1,8,0:0:0:0:
256,192,36005,1,0,0:0:0:0:
256,192,36306,1,0,0:0:0:0:
256,192,36458,1,0,0:0:0:0:
256,192,36533,1,0,0:0:0:0:
256,192,36609,1,8,0:0:0:0:
256,192,36684,1,0,0:0:0:0:
256,192,36759,1,8,0:0:0:0:
256,192,36835,1,8,0:0:0:0:
256,192,36910,1,0,0:0:0:0:
256,192,37062,1,8,0:0:0:0:
256,192,37212,1,0,0:0:0:0:
256,192,37514,1,0,0:0:0:0:
256,192,37665,1,8,0:0:0:0:
256,192,37741,1,0,0:0:0:0:
256,192,37816,1,8,0:0:0:0:
256,192,37891,1,8,0:0:0:0:
256,192,37967,1,0,0:0:0:0:
256,192,38042,1,8,0:0:0:0:
256,192,38118,1,0,0:0:0:0:
256,192,38269,1,8,0:0:0:0:
256,192,38420,1,0,0:0:0:0:
256,192,38722,1,0,0:0:0:0:
256,192,38873,1,0,0:0:0:0:
256,192,38948,1,0,0:0:0:0:
256,192,39024,1,8,0:0:0:0:
256,192,39099,1,8,0:0:0:0:
256,192,39174,1,0,0:0:0:0:
256,192,39250,1,0,0:0:0:0:
256,192,39326,1,8,0:0:0:0:
256,192,39477,1,8,0:0:0:0:
256,192,39627,1,8,0:0:0:0:
256,192,39930,1,4,0:0:0:0:
256,192,40080,1,0,0:0:0:0:
256,192,40156,1,0,0:0:0:0:
256,192,40231,1,8,0:0:0:0:
256,192,40306,1,8,0:0:0:0:
256,192,40382,1,0,0:0:0:0:
256,192,40458,1,8,0:0:0:0:
256,192,40533,1,0,0:0:0:0:
256,192,40609,1,0,0:0:0:0:
256,192,40684,1,8,0:0:0:0:
256,192,40835,1,0,0:0:0:0:
256,192,41137,1,0,0:0:0:0:
256,192,41212,1,0,0:0:0:0:
256,192,41288,1,8,0:0:0:0:
256,192,41363,1,0,0:0:0:0:
256,192,41438,1,8,0:0:0:0:
256,192,41514,1,8,0:0:0:0:
256,192,41590,1,0,0:0:0:0:
256,192,41665,1,8,0:0:0:0:
256,192,41741,1,0,0:0:0:0:
256,192,41816,1,0,0:0:0:0:
256,192,41891,1,8,0:0:0:0:
256,192,42042,1,0,0:0:0:0:
256,192,42345,1,0,0:0:0:0:
256,192,42495,1,8,0:0:0:0:
256,192,42571,1,0,0:0:0:0:
256,192,42646,1,8,0:0:0:0:
256,192,42722,1,8,0:0:0:0:
256,192,42798,1,0,0:0:0:0:
256,192,42873,1,8,0:0:0:0:
256,192,42948,1,0,0:0:0:0:
256,192,43024,1,0,0:0:0:0:
256,192,43099,1,8,0:0:0:0:
256,192,43250,1,0,0:0:0:0:
256,192,43552,1,8,0:0:0:0:
256,192,43627,1,0,0:0:0:0:
256,192,43703,1,8,0:0:0:0:
256,192,43778,1,0,0:0:0:0:
256,192,43854,1,8,0:0:0:0:
256,192,43930,1,8,0:0:0:0:
256,192,44005,1,0,0:0:0:0:
256,192,44080,1,0,0:0:0:0:
256,192,44156,1,8,0:0:0:0:
256,192,44231,1,8,0:0:0:0:
256,192,44306,1,0,0:0:0:0:
256,192,44382,1,8,0:0:0:0:
256,192,44458,1,8,0:0:0:0:
256,192,44533,1,0,0:0:0:0:
256,192,44609,1,8,0:0:0:0:
256,192,44684,1,8,0:0:0:0:
256,192,44759,1,8,0:0:0:0:
256,192,44910,1,0,0:0:0:0:
256,192,44986,1,0,0:0:0:0:
256,192,45062,1,8,0:0:0:0:
256,192,45137,1,0,0:0:0:0:
256,192,45212,1,8,0:0:0:0:
256,192,45288,1,0,0:0:0:0:
256,192,45363,1,8,0:0:0:0:
256,192,45438,1,0,0:0:0:0:
256,192,45514,1,0,0:0:0:0:
256,192,45590,1,0,0:0:0:0:
256,192,45665,1,8,0:0:0:0:
256,192,45741,1,0,0:0:0:0:
256,192,45816,1,8,0:0:0:0:
256,192,45891,1,0,0:0:0:0:
256,192,45967,1,8,0:0:0:0:
256,192,46118,1,0,0:0:0:0:
256,192,46194,1,0,0:0:0:0:
256,192,46269,1,8,0:0:0:0:
256,192,46420,1,0,0:0:0:0:
256,192,46495,1,0,0:0:0:0:
256,192,46571,1,8,0:0:0:0:
256,192,46646,1,8,0:0:0:0:
256,192,46722,1,0,0:0:0:0:
256,192,46798,1,0,0:0:0:0:
256,192,46873,1,8,0:0:0:0:
256,192,46948,1,0,0:0:0:0:
256,192,47024,1,8,0:0:0:0:
256,192,47099,1,0,0:0:0:0:
256,192,47174,1,8,0:0:0:0:
256,192,47326,1,0,0:0:0:0:
256,192,47401,1,8,0:0:0:0:
256,192,47477,1,8,0:0:0:0:
256,192,47552,1,0,0:0:0:0:
256,192,47627,1,0,0:0:0:0:
256,192,47703,1,8,0:0:0:0:
256,192,47778,1,8,0:0:0:0:
256,192,47854,1,0,0:0:0:0:
256,192,47930,1,8,0:0:0:0:
256,192,48005,1,0,0:0:0:0:
256,192,48080,1,8,0:0:0:0:
256,192,48156,1,8,0:0:0:0:
256,192,48231,1,0,0:0:0:0:
256,192,48306,1,8,0:0:0:0:
256,192,48382,1,8,0:0:0:0:
256,192,48533,1,0,0:0:0:0:
256,192,48609,1,0,0:0:0:0:
256,192,48684,1,8,0:0:0:0:
256,192,48759,1,0,0:0:0:0:
256,192,48835,1,0,0:0:0:0:
256,192,48910,1,8,0:0:0:0:
256,192,48986,1,0,0:0:0:0:
256,192,49062,1,8,0:0:0:0:
256,192,49137,1,0,0:0:0:0:
256,192,49212,1,0,0:0:0:0:
256,192,49288,1,8,0:0:0:0:
256,192,49590,1,8,0:0:0:0:
256,192,49665,1,0,0:0:0:0:
256,192,49741,1,8,0:0:0:0:
256,192,49816,1,0,0:0:0:0:
256,192,49891,1,8,0:0:0:0:
256,192,49967,1,8,0:0:0:0:
256,192,50042,1,0,0:0:0:0:
256,192,50118,1,8,0:0:0:0:
256,192,50194,1,8,0:0:0:0:
256,192,50269,1,0,0:0:0:0:
256,192,50345,1,8,0:0:0:0:
256,192,50420,1,0,0:0:0:0:
256,192,50495,1,8,0:0:0:0:
256,192,50571,1,8,0:0:0:0:
256,192,50722,1,8,0:0:0:0:
256,192,50798,1,8,0:0:0:0:
256,192,50873,1,0,0:0:0:0:
256,192,50948,1,8,0:0:0:0:
256,192,51024,1,0,0:0:0:0:
256,192,51099,1,8,0:0:0:0:
256,192,51174,1,8,0:0:0:0:
256,192,51250,1,0,0:0:0:0:
256,192,51326,1,8,0:0:0:0:
256,192,51401,1,0,0:0:0:0:
256,192,51477,1,8,0:0:0:0:
256,192,51552,1,8,0:0:0:0:
256,192,51627,1,8,0:0:0:0:
256,192,51703,1,0,0:0:0:0:
256,192,52005,1,8,0:0:0:0:
256,192,52080,1,0,0:0:0:0:
256,192,52231,1,0,0:0:0:0:
256,192,52306,1,8,0:0:0:0:
256,192,52458,1,8,0:0:0:0:
256,192,52533,1,0,0:0:0:0:
256,192,52609,1,0,0:0:0:0:
256,192,52684,1,8,0:0:0:0:
256,192,52759,1,0,0:0:0:0:
256,192,52910,1,8,0:0:0:0:
256,192,52986,1,0,0:0:0:0:
256,192,53137,1,0,0:0:0:0:
256,192,53212,1,8,0:0:0:0:
256,192,53363,1,8,0:0:0:0:
256,192,53438,1,0,0:0:0:0:
256,192,53514,1,0,0:0:0:0:
256,192,53590,1,8,0:0:0:0:
256,192,53665,1,8,0:0:0:0:
256,192,53741,1,0,0:0:0:0:
256,192,53816,1,8,0:0:0:0:
256,192,53891,1,8,0:0:0:0:
256,192,53967,1,8,0:0:0:0:
256,192,54042,1,8,0:0:0:0:
256,192,54118,1,8,0:0:0:0:
256,192,54269,1,0,0:0:0:0:
256,192,54420,1,12,0:0:0:0:
256,192,54571,1,8,0:0:0:0:
256,192,54646,1,0,0:0:0:0:
256,192,54722,1,8,0:0:0:0:
256,192,54798,1,8,0:0:0:0:
256,192,54873,1,0,0:0:0:0:
256,192,54948,1,0,0:0:0:0:
256,192,55024,1,8,0:0:0:0:
256,192,55099,1,8,0:0:0:0:
256,192,55250,1,8,0:0:0:0:
256,192,55477,1,0,0:0:0:0:
256,192,55552,1,0,0:0:0:0:
256,192,55627,1,8,0:0:0:0:
256,192,55703,1,0,0:0:0:0:
256,192,55778,1,8,0:0:0:0:
256,192,55854,1,0,0:0:0:0:
256,192,55930,1,8,0:0:0:0:
256,192,56005,1,8,0:0:0:0:
256,192,56080,1,0,0:0:0:0:
256,192,56156,1,8,0:0:0:0:
256,192,56231,1,8,0:0:0:0:
256,192,56306,1,0,0:0:0:0:
256,192,56458,1,8,0:0:0:0:
256,192,56684,1,8,0:0:0:0:
256,192,56759,1,0,0:0:0:0:
256,192,56910,1,8,0:0:0:0:
256,192,57137,1,8,0:0:0:0:
256,192,57212,1,0,0:0:0:0:
256,192,57363,1,0,0:0:0:0:
256,192,57590,1,8,0:0:0:0:
256,192,57665,1,0,0:0:0:0:
256,192,57741,1,0,0:0:0:0:
256,192,57816,1,8,0:0:0:0:
256,192,58042,1,8,0:0:0:0:
256,192,58194,1,0,0:0:0:0:
256,192,58269,1,0,0:0:0:0:
256,192,58345,1,8,0:0:0:0:
256,192,58420,1,0,0:0:0:0:
256,192,58495,1,8,0:0:0:0:
256,192,58571,1,0,0:0:0:0:
256,192,58646,1,8,0:0:0:0:
256,192,58722,1,0,0:0:0:0:
256,192,58798,1,8,0:0:0:0:
256,192,58948,1,8,0:0:0:0:
256,192,59250,1,0,0:0:0:0:
256,192,59401,1,0,0:0:0:0:
256,192,59477,1,0,0:0:0:0:
256,192,59552,1,8,0:0:0:0:
256,192,59703,1,0,0:0:0:0:
256,192,59778,1,8,0:0:0:0:
256,192,59854,1,0,0:0:0:0:
256,192,60005,1,0,0:0:0:0:
256,192,60080,1,8,0:0:0:0:
256,192,60156,1,8,0:0:0:0:
256,192,60306,1,8,0:0:0:0:
256,192,60382,1,0,0:0:0:0:
256,192,60458,1,0,0:0:0:0:
256,192,60609,1,8,0:0:0:0:
256,192,60684,1,0,0:0:0:0:
256,192,60759,1,8,0:0:0:0:
256,192,60910,1,8,0:0:0:0:
256,192,60986,1,8,0:0:0:0:
256,192,61062,1,0,0:0:0:0:
256,192,61137,1,8,0:0:0:0:
256,192,61212,1,0,0:0:0:0:
256,192,61363,1,8,0:0:0:0:
256,192,61514,1,8,0:0:0:0:
256,192,61665,1,0,0:0:0:0:
256,192,61967,1,8,0:0:0:0:
256,192,62118,1,0,0:0:0:0:
256,192,62194,1,8,0:0:0:0:
256,192,62345,1,8,0:0:0:0:
256,192,62420,1,0,0:0:0:0:
256,192,62571,1,8,0:0:0:0:
256,192,62722,1,0,0:0:0:0:
256,192,62873,1,12,0:0:0:0:
256,192,63024,1,0,0:0:0:0:
256,192,63174,1,12,0:0:0:0:
256,192,63326,1,0,0:0:0:0:
256,192,63401,1,0,0:0:0:0:
256,192,63477,1,8,0:0:0:0:
256,192,63552,1,8,0:0:0:0:
256,192,63627,1,0,0:0:0:0:
256,192,63703,1,0,0:0:0:0:
256,192,63778,1,8,0:0:0:0:
256,192,63854,1,8,0:0:0:0:
256,192,63930,1,8,0:0:0:0:
256,192,64080,1,4,0:0:0:0:
256,192,64231,1,0,0:0:0:0:
256,192,64306,1,0,0:0:0:0:
256,192,64382,1,8,0:0:0:0:
256,192,64458,1,8,0:0:0:0:
256,192,64533,1,0,0:0:0:0:
256,192,64609,1,8,0:0:0:0:
256,192,64684,1,0,0:0:0:0:
256,192,64759,1,0,0:0:0:0:
256,192,64835,1,8,0:0:0:0:
256,192,64910,1,8,0:0:0:0:
256,192,64986,1,0,0:0:0:0:
256,192,65137,1,8,0:0:0:0:
256,192,65288,1,0,0:0:0:0:
256,192,65363,1,0,0:0:0:0:
256,192,65438,1,8,0:0:0:0:
256,192,65514,1,0,0:0:0:0:
256,192,65590,1,8,0:0:0:0:
256,192,65665,1,8,0:0:0:0:
256,192,65741,1,0,0:0:0:0:
256,192,65816,1,8,0:0:0:0:
256,192,65891,1,0,0:0:0:0:
256,192,65967,1,0,0:0:0:0:
256,192,66042,1,8,0:0:0:0:
256,192,66118,1,8,0:0:0:0:
256,192,66194,1,0,0:0:0:0:
256,192,66345,1,8,0:0:0:0:
256,192,66495,1,0,0:0:0:0:
256,192,66571,1,0,0:0:0:0:
256,192,66646,1,8,0:0:0:0:
256,192,66722,1,0,0:0:0:0:
256,192,66798,1,8,0:0:0:0:
256,192,66873,1,0,0:0:0:0:
256,192,66948,1,0,0:0:0:0:
256,192,67024,1,8,0:0:0:0:
256,192,67099,1,0,0:0:0:0:
256,192,67174,1,0,0:0:0:0:
256,192,67250,1,8,0:0:0:0:
256,192,67326,1,8,0:0:0:0:
256,192,67401,1,0,0:0:0:0:
256,192,67552,1,8,0:0:0:0:
256,192,67703,1,0,0:0:0:0:
256,192,67778,1,0,0:0:0:0:
256,192,67854,1,8,0:0:0:0:
256,192,67930,1,0,0:0:0:0:
256,192,68005,1,8,0:0:0:0:
256,192,68080,1,8,0:0:0:0:
256,192,68156,1,0,0:0:0:0:
256,192,68231,1,0,0:0:0:0:
256,192,68306,1,8,0:0:0:0:
256,192,68382,1,8,0:0:0:0:
256,192,68458,1,0,0:0:0:0:
256,192,68533,1,8,0:0:0:0:
256,192,68609,1,0,0:0:0:0:
256,192,68684,1,0,0:0:0:0:
256,192,68759,1,8,0:0:0:0:
256,192,68910,1,4,0:0:0:0:
256,192,69062,1,8,0:0:0:0:
256,192,69137,1,0,0:0:0:0:
256,192,69212,1,8,0:0:0:0:
256,192,69288,1,8,0:0:0:0:
256,192,69363,1,0,0:0:0:0:
256,192,69438,1,8,0:0:0:0:
256,192,69514,1,0,0:0:0:0:
256,192,69590,1,0,0:0:0:0:
256,192,69665,1,8,0:0:0:0:
256,192,69741,1,8,0:0:0:0:
256,192,69816,1,0,0:0:0:0:
256,192,69967,1,8,0:0:0:0:
256,192,70118,1,0,0:0:0:0:
256,192,70194,1,0,0:0:0:0:
256,192,70269,1,8,0:0:0:0:
256,192,70345,1,8,0:0:0:0:
256,192,70420,1,0,0:0:0:0:
256,192,70495,1,0,0:0:0:0:
256,192,70571,1,0,0:0:0:0:
256,192,70646,1,8,0:0:0:0:
256,192,70722,1,0,0:0:0:0:
256,192,70798,1,0,0:0:0:0:
256,192,70873,1,8,0:0:0:0:
256,192,70948,1,8,0:0:0:0:
256,192,71024,1,0,0:0:0:0:
256,192,71174,1,8,0:0:0:0:
256,192,71326,1,0,0:0:0:0:
256,192,71401,1,0,0:0:0:0:
256,192,71477,1,8,0:0:0:0:
256,192,71552,1,8,0:0:0:0:
256,192,71627,1,0,0:0:0:0:
256,192,71703,1,8,0:0:0:0:
256,192,71778,1,0,0:0:0:0:
256,192,71854,1,8,0:0:0:0:
256,192,71930,1,0,0:0:0:0:
256,192,72005,1,0,0:0:0:0:
256,192,72080,1,8,0:0:0:0:
256,192,72156,1,8,0:0:0:0:
256,192,72231,1,0,0:0:0:0:
256,192,72382,1,8,0:0:0:0:
256,192,72533,1,8,0:0:0:0:
256,192,72684,1,0,0:0:0:0:
256,192,72759,1,0,0:0:0:0:
256,192,72835,1,8,0:0:0:0:
256,192,72986,1,0,0:0:0:0:
256,192,73062,1,0,0:0:0:0:
256,192,73137,1,8,0:0:0:0:
256,192,73288,1,0,0:0:0:0:
256,192,73363,1,0,0:0:0:0:
256,192,73438,1,8,0:0:0:0:
256,192,73590,1,0,0:0:0:0:
256,192,73741,1,0,0:0:0:0:
256,192,73816,1,0,0:0:0:0:
256,192,73891,1,0,0:0:0:0:
256,192,73967,1,0,0:0:0:0:
256,192,74042,1,8,0:0:0:0:
256,192,74118,1,8,0:0:0:0:
256,192,74194,1,0,0:0:0:0:
256,192,74269,1,8,0:0:0:0:
256,192,74345,1,0,0:0:0:0:
256,192,74420,1,0,0:0:0:0:
256,192,74495,1,8,0:0:0:0:
256,192,74571,1,8,0:0:0:0:
256,192,74646,1,0,0:0:0:0:
256,192,74722,1,8,0:0:0:0:
256,192,74798,1,0,0:0:0:0:
256,192,74873,1,8,0:0:0:0:
256,192,74948,1,0,0:0:0:0:
256,192,75024,1,8,0:0:0:0:
256,192,75099,1,8,0:0:0:0:
256,192,75174,1,0,0:0:0:0:
256,192,75250,1,8,0:0:0:0:
256,192,75326,1,8,0:0:0:0:
256,192,75401,1,0,0:0:0:0:
256,192,75477,1,8,0:0:0:0:
256,192,75552,1,0,0:0:0:0:
256,192,75627,1,0,0:0:0:0:
256,192,75703,1,8,0:0:0:0:
256,192,75778,1,0,0:0:0:0:
256,192,75854,1,8,0:0:0:0:
256,192,75930,1,8,0:0:0:0:
256,192,76005,1,8,0:0:0:0:
256,192,76080,1,8,0:0:0:0:
256,192,76156,1,0,0:0:0:0:
256,192,76231,1,0,0:0:0:0:
256,192,76306,1,8,0:0:0:0:
256,192,76382,1,8,0:0:0:0:
256,192,76458,1,8,0:0:0:0:
256,192,76533,1,0,0:0:0:0:
256,192,76609,1,8,0:0:0:0:
256,192,76684,1,8,0:0:0:0:
256,192,76759,1,0,0:0:0:0:
256,192,76910,1,8,0:0:0:0:
256,192,76986,1,8,0:0:0:0:
256,192,77062,1,0,0:0:0:0:
256,192,77137,1,8,0:0:0:0:
256,192,77212,1,8,0:0:0:0:
256,192,77363,1,4,0:0:0:0:
256,192,77665,1,4,0:0:0:0:
256,192,77967,1,4,0:0:0:0:
256,192,78269,1,4,0:0:0:0:
256,192,78571,1,4,0:0:0:0:
256,192,78722,1,0,0:0:0:0:
256,192,78798,1,0,0:0:0:0:
256,192,78873,1,8,0:0:0:0:
256,192,78948,1,8,0:0:0:0:
256,192,79024,1,0,0:0:0:0:
256,192,79099,1,8,0:0:0:0:
256,192,79174,1,0,0:0:0:0:
256,192,79326,1,8,0:0:0:0:
256,192,79477,1,0,0:0:0:0:
256,192,79778,1,0,0:0:0:0:
256,192,79854,1,0,0:0:0:0:
256,192,79930,1,0,0:0:0:0:
256,192,80005,1,0,0:0:0:0:
256,192,80080,1,8,0:0:0:0:
256,192,80156,1,8,0:0:0:0:
256,192,80231,1,0,0:0:0:0:
256,192,80306,1,8,0:0:0:0:
256,192,80382,1,0,0:0:0:0:
256,192,80458,1,0,0:0:0:0:
256,192,80533,1,8,0:0:0:0:
256,192,80684,1,0,0:0:0:0:
256,192,80986,1,0,0:0:0:0:
256,192,81137,1,0,0:0:0:0:
256,192,81212,1,0,0:0:0:0:
256,192,81288,1,8,0:0:0:0:
256,192,81363,1,0,0:0:0:0:
256,192,81438,1,8,0:0:0:0:
256,192,81514,1,8,0:0:0:0:
256,192,81590,1,0,0:0:0:0:
256,192,81741,1,8,0:0:0:0:
256,192,81891,1,0,0:0:0:0:
256,192,82194,1,0,0:0:0:0:
256,192,82269,1,0,0:0:0:0:
256,192,82345,1,8,0:0:0:0:
256,192,82420,1,0,0:0:0:0:
256,192,82495,1,8,0:0:0:0:
256,192,82571,1,8,0:0:0:0:
256,192,82646,1,0,0:0:0:0:
256,192,82722,1,8,0:0:0:0:
256,192,82798,1,0,0:0:0:0:
256,192,82873,1,0,0:0:0:0:
256,192,82948,1,8,0:0:0:0:
256,192,83099,1,8,0:0:0:0:
256,192,83401,1,4,0:0:0:0:
256,192,83552,1,8,0:0:0:0:
256,192,83627,1,0,0:0:0:0:
256,192,83703,1,8,0:0:0:0:
256,192,83778,1,8,0:0:0:0:
256,192,83854,1,0,0:0:0:0:
256,192,83930,1,8,0:0:0:0:
256,192,84005,1,0,0:0:0:0:
256,192,84080,1,0,0:0:0:0:
256,192,84156,1,8,0:0:0:0:
256,192,84231,1,0,0:0:0:0:
256,192,84306,1,8,0:0:0:0:
256,192,84382,1,8,0:0:0:0:
256,192,84458,1,0,0:0:0:0:
256,192,84533,1,8,0:0:0:0:
256,192,84609,1,0,0:0:0:0:
256,192,84684,1,0,0:0:0:0:
256,192,84759,1,0,0:0:0:0:
256,192,84835,1,8,0:0:0:0:
256,192,84910,1,8,0:0:0:0:
256,192,84986,1,8,0:0:0:0:
256,192,85062,1,0,0:0:0:0:
256,192,85137,1,8,0:0:0:0:
256,192,85212,1,0,0:0:0:0:
256,192,85288,1,8,0:0:0:0:
256,192,85363,1,8,0:0:0:0:
256,192,85438,1,0,0:0:0:0:
256,192,85514,1,8,0:0:0:0:
256,192,85590,1,0,0:0:0:0:
256,192,85665,1,8,0:0:0:0:
256,192,85741,1,8,0:0:0:0:
256,192,85816,1,0,0:0:0:0:
256,192,85891,1,0,0:0:0:0:
256,192,85967,1,8,0:0:0:0:
256,192,86042,1,0,0:0:0:0:
256,192,86118,1,8,0:0:0:0:
256,192,86194,1,8,0:0:0:0:
256,192,86269,1,0,0:0:0:0:
256,192,86345,1,8,0:0:0:0:
256,192,86420,1,0,0:0:0:0:
256,192,86495,1,0,0:0:0:0:
256,192,86571,1,8,0:0:0:0:
256,192,86646,1,0,0:0:0:0:
256,192,86722,1,8,0:0:0:0:
256,192,86798,1,8,0:0:0:0:
256,192,86873,1,0,0:0:0:0:
256,192,86948,1,8,0:0:0:0:
256,192,87024,1,0,0:0:0:0:
256,192,87099,1,0,0:0:0:0:
256,192,87174,1,8,0:0:0:0:
256,192,87250,1,8,0:0:0:0:
256,192,87326,1,0,0:0:0:0:
256,192,87401,1,8,0:0:0:0:
256,192,87477,1,8,0:0:0:0:
256,192,87552,1,0,0:0:0:0:
256,192,87627,1,8,0:0:0:0:
256,192,87703,1,8,0:0:0:0:
256,192,87778,1,0,0:0:0:0:
256,192,87854,1,0,0:0:0:0:
256,192,87930,1,8,0:0:0:0:
256,192,88005,1,8,0:0:0:0:
256,192,88080,1,8,0:0:0:0:
256,192,88231,1,8,0:0:0:0:
256,192,88306,1,8,0:0:0:0:
256,192,88382,1,0,0:0:0:0:
256,192,88458,1,0,0:0:0:0:
256,192,88533,1,8,0:0:0:0:
256,192,88609,1,0,0:0:0:0:
256,192,88684,1,8,0:0:0:0:
256,192,88759,1,0,0:0:0:0:
256,192,88835,1,8,0:0:0:0:
256,192,88910,1,8,0:0:0:0:
256,192,88986,1,0,0:0:0:0:
256,192,89062,1,8,0:0:0:0:
256,192,89137,1,8,0:0:0:0:
256,192,89212,1,8,0:0:0:0:
256,192,89288,1,0,0:0:0:0:
256,192,89438,1,0,0:0:0:0:
256,192,89590,1,8,0:0:0:0:
256,192,89665,1,8,0:0:0:0:
256,192,89741,1,0,0:0:0:0:
256,192,89816,1,8,0:0:0:0:
256,192,89891,1,8,0:0:0:0:
256,192,89967,1,0,0:0:0:0:
256,192,90042,1,8,0:0:0:0:
256,192,90118,1,8,0:0:0:0:
256,192,90194,1,0,0:0:0:0:
256,192,90345,1,8,0:0:0:0:
256,192,90495,1,8,0:0:0:0:
256,192,90646,1,8,0:0:0:0:
256,192,90722,1,0,0:0:0:0:
256,192,90798,1,0,0:0:0:0:
256,192,90873,1,8,0:0:0:0:
256,192,90948,1,0,0:0:0:0:
256,192,91024,1,8,0:0:0:0:
256,192,91099,1,0,0:0:0:0:
256,192,91174,1,0,0:0:0:0:
256,192,91250,1,0,0:0:0:0:
256,192,91326,1,8,0:0:0:0:
256,192,91401,1,0,0:0:0:0:
256,192,91477,1,8,0:0:0:0:
256,192,91552,1,8,0:0:0:0:
256,192,91627,1,0,0:0:0:0:
256,192,91703,1,8,0:0:0:0:
256,192,91778,1,8,0:0:0:0:
256,192,91854,1,0,0:0:0:0:
256,192,91930,1,8,0:0:0:0:
256,192,92005,1,8,0:0:0:0:
256,192,92080,1,0,0:0:0:0:
256,192,92156,1,8,0:0:0:0:
256,192,92231,1,0,0:0:0:0:
256,192,92306,1,8,0:0:0:0:
256,192,92382,1,8,0:0:0:0:
256,192,92458,1,0,0:0:0:0:
256,192,92533,1,8,0:0:0:0:
256,192,92609,1,8,0:0:0:0:
256,192,92684,1,0,0:0:0:0:
256,192,92759,1,8,0:0:0:0:
256,192,92835,1,8,0:0:0:0:
256,192,92910,1,0,0:0:0:0:
256,192,92986,1,8,0:0:0:0:
256,192,93062,1,0,0:0:0:0:
256,192,93137,1,0,0:0:0:0:
256,192,93212,1,8,0:0:0:0:
256,192,93288,1,8,0:0:0:0:
256,192,93363,1,0,0:0:0:0:
256,192,93438,1,8,0:0:0:0:
256,192,93514,1,8,0:0:0:0:
256,192,93590,1,0,0:0:0:0:
256,192,93665,1,8,0:0:0:0:
256,192,93741,1,0,0:0:0:0:
256,192,93816,1,8,0:0:0:0:
256,192,93891,1,0,0:0:0:0:
256,192,93967,1,8,0:0:0:0:
256,192,94042,1,8,0:0:0:0:
256,192,94118,1,0,0:0:0:0:
256,192,94269,1,0,0:0:0:0:
256,192,94420,1,12,0:0:0:0:
256,192,94646,1,12,0:0:0:0:
256,192,94873,1,4,0:0:0:0:
256,192,95099,1,4,0:0:0:0:
256,192,95326,1,12,0:0:0:0:
256,192,95477,1,8,0:0:0:0:
256,192,95552,1,0,0:0:0:0:
256,192,95627,1,0,0:0:0:0:
256,192,95703,1,8,0:0:0:0:
256,192,95778,1,0,0:0:0:0:
256,192,95854,1,8,0:0:0:0:
256,192,95930,1,0,0:0:0:0:
256,192,96005,1,0,0:0:0:0:
256,192,96080,1,8,0:0:0:0:
256,192,96156,1,0,0:0:0:0:
256,192,96306,1,8,0:0:0:0:
256,192,96458,1,0,0:0:0:0:
256,192,96533,1,8,0:0:0:0:
256,192,96684,1,8,0:0:0:0:
256,192,96759,1,8,0:0:0:0:
256,192,96835,1,0,0:0:0:0:
256,192,96910,1,0,0:0:0:0:
256,192,96986,1,8,0:0:0:0:
256,192,97137,1,0,0:0:0:0:
256,192,97212,1,0,0:0:0:0:
256,192,97288,1,8,0:0:0:0:
256,192,97363,1,8,0:0:0:0:
256,192,97438,1,0,0:0:0:0:
256,192,97514,1,8,0:0:0:0:
256,192,97590,1,8,0:0:0:0:
256,192,97665,1,0,0:0:0:0:
256,192,97741,1,8,0:0:0:0:
256,192,97891,1,0,0:0:0:0:
256,192,98194,1,12,0:0:0:0:
256,192,98345,1,0,0:0:0:0:
256,192,98420,1,8,0:0:0:0:
256,192,98571,1,8,0:0:0:0:
256,192,98646,1,0,0:0:0:0:
256,192,98722,1,0,0:0:0:0:
256,192,98798,1,8,0:0:0:0:
256,192,98873,1,0,0:0:0:0:
256,192,98948,1,8,0:0:0:0:
256,192,99099,1,8,0:0:0:0:
256,192,99174,1,0,0:0:0:0:
256,192,99250,1,0,0:0:0:0:
256,192,99326,1,0,0:0:0:0:
256,192,99401,1,8,0:0:0:0:
256,192,99477,1,0,0:0:0:0:
256,192,99552,1,8,0:0:0:0:
256,192,99627,1,8,0:0:0:0:
256,192,99703,1,8,0:0:0:0:
256,192,99854,1,0,0:0:0:0:
256,192,99930,1,8,0:0:0:0:
256,192,100005,1,0,0:0:0:0:
256,192,100080,1,0,0:0:0:0:
256,192,100156,1,8,0:0:0:0:
256,192,100306,1,0,0:0:0:0:
256,192,100533,1,0,0:0:0:0:
256,192,100609,1,8,0:0:0:0:
256,192,100759,1,0,0:0:0:0:
256,192,100835,1,8,0:0:0:0:
256,192,100986,1,8,0:0:0:0:
256,192,101062,1,0,0:0:0:0:
256,192,101137,1,0,0:0:0:0:
256,192,101212,1,8,0:0:0:0:
256,192,101363,1,0,0:0:0:0:
256,192,101514,1,8,0:0:0:0:
256,192,101590,1,0,0:0:0:0:
256,192,101741,1,0,0:0:0:0:
256,192,101816,1,8,0:0:0:0:
256,192,101967,1,0,0:0:0:0:
256,192,102042,1,8,0:0:0:0:
256,192,102118,1,0,0:0:0:0:
256,192,102194,1,8,0:0:0:0:
256,192,102269,1,0,0:0:0:0:
256,192,102420,1,8,0:0:0:0:
256,192,102722,1,8,0:0:0:0:
256,192,102873,1,0,0:0:0:0:
256,192,102948,1,0,0:0:0:0:
256,192,103024,1,8,0:0:0:0:
256,192,103174,1,8,0:0:0:0:
256,192,103250,1,8,0:0:0:0:
256,192,103326,1,0,0:0:0:0:
256,192,103477,1,0,0:0:0:0:
256,192,103552,1,0,0:0:0:0:
256,192,103627,1,8,0:0:0:0:
256,192,103703,1,8,0:0:0:0:
256,192,103854,1,8,0:0:0:0:
256,192,104080,1,8,0:0:0:0:
256,192,104156,1,8,0:0:0:0:
256,192,104231,1,0,0:0:0:0:
256,192,104382,1,8,0:0:0:0:
256,192,104458,1,8,0:0:0:0:
256,192,104533,1,0,0:0:0:0:
256,192,104609,1,8,0:0:0:0:
256,192,104684,1,0,0:0:0:0:
256,192,104835,1,8,0:0:0:0:
256,192,104986,1,8,0:0:0:0:
256,192,105137,1,0,0:0:0:0:
256,192,105438,1,8,0:0:0:0:
256,192,105665,1,8,0:0:0:0:
256,192,105741,1,0,0:0:0:0:
256,192,105816,1,8,0:0:0:0:
256,192,105891,1,0,0:0:0:0:
256,192,106042,1,8,0:0:0:0:
256,192,106118,1,0,0:0:0:0:
256,192,106194,1,0,0:0:0:0:
256,192,106345,1,8,0:0:0:0:
256,192,106571,1,0,0:0:0:0:
256,192,106646,1,8,0:0:0:0:
256,192,106798,1,0,0:0:0:0:
256,192,106873,1,8,0:0:0:0:
256,192,106948,1,8,0:0:0:0:
256,192,107024,1,0,0:0:0:0:
256,192,107174,1,0,0:0:0:0:
256,192,107250,1,8,0:0:0:0:
256,192,107552,1,12,0:0:0:0:
256,192,107703,1,0,0:0:0:0:
256,192,107778,1,0,0:0:0:0:
256,192,107854,1,8,0:0:0:0:
256,192,107930,1,0,0:0:0:0:
256,192,108005,1,8,0:0:0:0:
256,192,108080,1,0,0:0:0:0:
256,192,108156,1,8,0:0:0:0:
256,192,108231,1,0,0:0:0:0:
256,192,108306,1,0,0:0:0:0:
256,192,108382,1,0,0:0:0:0:
256,192,108458,1,8,0:0:0:0:
256,192,108609,1,8,0:0:0:0:
256,192,108684,1,0,0:0:0:0:
256,192,108759,1,8,0:0:0:0:
256,192,108910,1,8,0:0:0:0:
256,192,108986,1,0,0:0:0:0:
256,192,109062,1,8,0:0:0:0:
256,192,109212,1,8,0:0:0:0:
256,192,109288,1,0,0:0:0:0:
256,192,109363,1,8,0:0:0:0:
256,192,109438,1,8,0:0:0:0:
256,192,109514,1,0,0:0:0:0:
256,192,109590,1,0,0:0:0:0:
256,192,109665,1,8,0:0:0:0:
256,192,109741,1,0,0:0:0:0:
256,192,109816,1,8,0:0:0:0:
256,192,109967,1,8,0:0:0:0:
256,192,110118,1,0,0:0:0:0:
256,192,110194,1,0,0:0:0:0:
256,192,110269,1,8,0:0:0:0:
256,192,110345,1,8,0:0:0:0:
256,192,110420,1,0,0:0:0:0:
256,192,110495,1,8,0:0:0:0:
256,192,110571,1,8,0:0:0:0:
256,192,110722,1,0,0:0:0:0:
256,192,110798,1,0,0:0:0:0:
256,192,110873,1,8,0:0:0:0:
256,192,110948,1,0,0:0:0:0:
256,192,111024,1,0,0:0:0:0:
256,192,111099,1,8,0:0:0:0:
256,192,111174,1,8,0:0:0:0:
256,192,111326,1,0,0:0:0:0:
256,192,111401,1,0,0:0:0:0:
256,192,111477,1,8,0:0:0:0:
256,192,111552,1,0,0:0:0:0:
256,192,111703,1,8,0:0:0:0:
256,192,111778,1,0,0:0:0:0:
256,192,111854,1,0,0:0:0:0:
256,192,111930,1,8,0:0:0:0:
256,192,112080,1,0,0:0:0:0:
256,192,112382,1,8,0:0:0:0:
256,192,112458,1,8,0:0:0:0:
256,192,112533,1,0,0:0:0:0:
256,192,112609,1,0,0:0:0:0:
256,192,112684,1,8,0:0:0:0:
256,192,112759,1,8,0:0:0:0:
256,192,112835,1,0,0:0:0:0:
256,192,112910,1,0,0:0:0:0:
256,192,112986,1,8,0:0:0:0:
256,192,113062,1,8,0:0:0:0:
256,192,113137,1,0,0:0:0:0:
256,192,113212,1,8,0:0:0:0:
256,192,113288,1,8,0:0:0:0:
256,192,113363,1,0,0:0:0:0:
256,192,113514,1,8,0:0:0:0:
256,192,113590,1,8,0:0:0:0:
256,192,113665,1,8,0:0:0:0:
256,192,113741,1,0,0:0:0:0:
256,192,113816,1,0,0:0:0:0:
256,192,113891,1,8,0:0:0:0:
256,192,113967,1,0,0:0:0:0:
256,192,114042,1,8,0:0:0:0:
256,192,114118,1,0,0:0:0:0:
256,192,114194,1,8,0:0:0:0:
256,192,114269,1,8,0:0:0:0:
256,192,114345,1,8,0:0:0:0:
256,192,114495,1,0,0:0:0:0:
256,192,114798,1,8,0:0:0:0:
256,192,114873,1,0,0:0:0:0:
256,192,115024,1,8,0:0:0:0:
256,192,115099,1,0,0:0:0:0:
256,192,115250,1,8,0:0:0:0:
256,192,115326,1,0,0:0:0:0:
256,192,115477,1,8,0:0:0:0:
256,192,115552,1,0,0:0:0:0:
256,192,115703,1,8,0:0:0:0:
256,192,115778,1,0,0:0:0:0:
256,192,115930,1,8,0:0:0:0:
256,192,116005,1,0,0:0:0:0:
256,192,116156,1,8,0:0:0:0:
256,192,116231,1,0,0:0:0:0:
256,192,116306,1,8,0:0:0:0:
256,192,116382,1,8,0:0:0:0:
256,192,116458,1,0,0:0:0:0:
256,192,116533,1,0,0:0:0:0:
256,192,116609,1,8,0:0:0:0:
256,192,116684,1,8,0:0:0:0:
256,192,116759,1,8,0:0:0:0:
256,192,116835,1,8,0:0:0:0:
256,192,116910,1,0,0:0:0:0:
256,192,117062,1,8,0:0:0:0:
256,192,117212,1,12,0:0:0:0:
256,192,117363,1,8,0:0:0:0:
256,192,117438,1,0,0:0:0:0:
256,192,117514,1,8,0:0:0:0:
256,192,117590,1,8,0:0:0:0:
256,192,117665,1,0,0:0:0:0:
256,192,117741,1,8,0:0:0:0:
256,192,117816,1,8,0:0:0:0:
256,192,117891,1,0,0:0:0:0:
256,192,118042,1,8,0:0:0:0:
256,192,118269,1,0,0:0:0:0:
256,192,118345,1,0,0:0:0:0:
256,192,118420,1,8,0:0:0:0:
256,192,118571,1,8,0:0:0:0:
256,192,118646,1,0,0:0:0:0:
256,192,118722,1,8,0:0:0:0:
256,192,118798,1,8,0:0:0:0:
256,192,118873,1,0,0:0:0:0:
256,192,118948,1,8,0:0:0:0:
256,192,119024,1,8,0:0:0:0:
256,192,119099,1,0,0:0:0:0:
256,192,119250,1,8,0:0:0:0:
256,192,119477,1,8,0:0:0:0:
256,192,119552,1,0,0:0:0:0:
256,192,119703,1,8,0:0:0:0:
256,192,119930,1,8,0:0:0:0:
256,192,120005,1,0,0:0:0:0:
256,192,120156,1,0,0:0:0:0:
256,192,120382,1,8,0:0:0:0:
256,192,120458,1,0,0:0:0:0:
256,192,120609,1,8,0:0:0:0:
256,192,120835,1,8,0:0:0:0:
256,192,120986,1,0,0:0:0:0:
256,192,121062,1,0,0:0:0:0:
256,192,121137,1,8,0:0:0:0:
256,192,121212,1,0,0:0:0:0:
256,192,121288,1,8,0:0:0:0:
256,192,121363,1,0,0:0:0:0:
256,192,121438,1,0,0:0:0:0:
256,192,121514,1,8,0:0:0:0:
256,192,121590,1,8,0:0:0:0:
256,192,121741,1,8,0:0:0:0:
256,192,122042,1,0,0:0:0:0:
256,192,122194,1,0,0:0:0:0:
256,192,122269,1,0,0:0:0:0:
256,192,122345,1,8,0:0:0:0:
256,192,122495,1,0,0:0:0:0:
256,192,122571,1,8,0:0:0:0:
256,192,122646,1,0,0:0:0:0:
256,192,122798,1,8,0:0:0:0:
256,192,122873,1,0,0:0:0:0:
256,192,122948,1,8,0:0:0:0:
256,192,123099,1,8,0:0:0:0:
256,192,123174,1,8,0:0:0:0:
256,192,123250,1,0,0:0:0:0:
256,192,123401,1,8,0:0:0:0:
256,192,123477,1,0,0:0:0:0:
256,192,123552,1,8,0:0:0:0:
256,192,123703,1,8,0:0:0:0:
256,192,123778,1,8,0:0:0:0:
256,192,123854,1,0,0:0:0:0:
256,192,123930,1,8,0:0:0:0:
256,192,124005,1,0,0:0:0:0:
256,192,124156,1,8,0:0:0:0:
256,192,124306,1,8,0:0:0:0:
256,192,124458,1,0,0:0:0:0:
256,192,124759,1,8,0:0:0:0:
256,192,124986,1,8,0:0:0:0:
256,192,125062,1,0,0:0:0:0:
256,192,125212,1,0,0:0:0:0:
256,192,125363,1,8,0:0:0:0:
256,192,125665,1,12,0:0:0:0:
256,192,125967,1,12,0:0:0:0:
256,192,126269,1,12,0:0:0:0:
256,192,126571,1,12,0:0:0:0:
256,192,126873,1,8,0:0:0:0:
256,192,127023,1,8,0:0:0:0:
256,192,127174,1,4,0:0:0:0:
256,192,127325,1,0,0:0:0:0:
256,192,127401,1,0,0:0:0:0:
256,192,127476,1,8,0:0:0:0:
256,192,127551,1,8,0:0:0:0:
256,192,127627,1,0,0:0:0:0:
256,192,127702,1,8,0:0:0:0:
256,192,127778,1,0,0:0:0:0:
256,192,127854,1,0,0:0:0:0:
256,192,127929,1,8,0:0:0:0:
256,192,128004,1,0,0:0:0:0:
256,192,128080,1,8,0:0:0:0:
256,192,128230,1,0,0:0:0:0:
256,192,128382,1,0,0:0:0:0:
256,192,128457,1,0,0:0:0:0:
256,192,128533,1,0,0:0:0:0:
256,192,128608,1,0,0:0:0:0:
256,192,128683,1,8,0:0:0:0:
256,192,128759,1,8,0:0:0:0:
256,192,128834,1,0,0:0:0:0:
256,192,128910,1,8,0:0:0:0:
256,192,128986,1,0,0:0:0:0:
256,192,129061,1,0,0:0:0:0:
256,192,129136,1,8,0:0:0:0:
256,192,129212,1,0,0:0:0:0:
256,192,129287,1,8,0:0:0:0:
256,192,129438,1,0,0:0:0:0:
256,192,129589,1,0,0:0:0:0:
256,192,129665,1,0,0:0:0:0:
256,192,129740,1,8,0:0:0:0:
256,192,129815,1,0,0:0:0:0:
256,192,129891,1,8,0:0:0:0:
256,192,129966,1,8,0:0:0:0:
256,192,130042,1,0,0:0:0:0:
256,192,130118,1,8,0:0:0:0:
256,192,130193,1,0,0:0:0:0:
256,192,130268,1,8,0:0:0:0:
256,192,130344,1,8,0:0:0:0:
256,192,130419,1,0,0:0:0:0:
256,192,130494,1,8,0:0:0:0:
256,192,130646,1,0,0:0:0:0:
256,192,130797,1,0,0:0:0:0:
256,192,130872,1,0,0:0:0:0:
256,192,130947,1,8,0:0:0:0:
256,192,131023,1,0,0:0:0:0:
256,192,131098,1,8,0:0:0:0:
256,192,131174,1,0,0:0:0:0:
256,192,131250,1,0,0:0:0:0:
256,192,131325,1,0,0:0:0:0:
256,192,131401,1,8,0:0:0:0:
256,192,131476,1,8,0:0:0:0:
256,192,131551,1,0,0:0:0:0:
256,192,131627,1,0,0:0:0:0:
256,192,131702,1,8,0:0:0:0:
256,192,131778,1,0,0:0:0:0:
256,192,131854,1,8,0:0:0:0:
256,192,132004,1,4,0:0:0:0:
256,192,132155,1,8,0:0:0:0:
256,192,132230,1,0,0:0:0:0:
256,192,132306,1,8,0:0:0:0:
256,192,132382,1,8,0:0:0:0:
256,192,132457,1,0,0:0:0:0:
256,192,132533,1,8,0:0:0:0:
256,192,132608,1,0,0:0:0:0:
256,192,132683,1,0,0:0:0:0:
256,192,132759,1,8,0:0:0:0:
256,192,132834,1,0,0:0:0:0:
256,192,132910,1,8,0:0:0:0:
256,192,133061,1,0,0:0:0:0:
256,192,133212,1,0,0:0:0:0:
256,192,133287,1,0,0:0:0:0:
256,192,133362,1,8,0:0:0:0:
256,192,133438,1,0,0:0:0:0:
256,192,133514,1,8,0:0:0:0:
256,192,133589,1,8,0:0:0:0:
256,192,133665,1,0,0:0:0:0:
256,192,133740,1,8,0:0:0:0:
256,192,133815,1,0,0:0:0:0:
256,192,133891,1,0,0:0:0:0:
256,192,133966,1,8,0:0:0:0:
256,192,134042,1,0,0:0:0:0:
256,192,134118,1,8,0:0:0:0:
256,192,134268,1,0,0:0:0:0:
256,192,134419,1,0,0:0:0:0:
256,192,134494,1,0,0:0:0:0:
256,192,134570,1,8,0:0:0:0:
256,192,134646,1,0,0:0:0:0:
256,192,134721,1,8,0:0:0:0:
256,192,134797,1,0,0:0:0:0:
256,192,134872,1,8,0:0:0:0:
256,192,135023,1,0,0:0:0:0:
256,192,135098,1,0,0:0:0:0:
256,192,135174,1,8,0:0:0:0:
256,192,135250,1,0,0:0:0:0:
256,192,135325,1,8,0:0:0:0:
256,192,135476,1,0,0:0:0:0:
256,192,135627,1,12,0:0:0:0:
256,192,135778,1,0,0:0:0:0:
256,192,135929,1,12,0:0:0:0:
256,192,136080,1,0,0:0:0:0:
256,192,136230,1,12,0:0:0:0:
256,192,136382,1,0,0:0:0:0:
256,192,136533,1,12,0:0:0:0:
256,192,136834,1,4,0:0:0:0:
256,192,136986,1,8,0:0:0:0:
256,192,137061,1,0,0:0:0:0:
256,192,137136,1,8,0:0:0:0:
256,192,137212,1,8,0:0:0:0:
256,192,137287,1,0,0:0:0:0:
256,192,137362,1,8,0:0:0:0:
256,192,137438,1,0,0:0:0:0:
256,192,137514,1,0,0:0:0:0:
256,192,137589,1,8,0:0:0:0:
256,192,137665,1,0,0:0:0:0:
256,192,137740,1,8,0:0:0:0:
256,192,137815,1,8,0:0:0:0:
256,192,137891,1,8,0:0:0:0:
256,192,137966,1,8,0:0:0:0:
256,192,138042,1,0,0:0:0:0:
256,192,138118,1,0,0:0:0:0:
256,192,138193,1,8,0:0:0:0:
256,192,138268,1,0,0:0:0:0:
256,192,138344,1,8,0:0:0:0:
256,192,138419,1,8,0:0:0:0:
256,192,138494,1,0,0:0:0:0:
256,192,138570,1,8,0:0:0:0:
256,192,138646,1,0,0:0:0:0:
256,192,138721,1,0,0:0:0:0:
256,192,138797,1,8,0:0:0:0:
256,192,138872,1,0,0:0:0:0:
256,192,138947,1,8,0:0:0:0:
256,192,139023,1,8,0:0:0:0:
256,192,139098,1,8,0:0:0:0:
256,192,139174,1,8,0:0:0:0:
256,192,139250,1,0,0:0:0:0:
256,192,139325,1,0,0:0:0:0:
256,192,139401,1,0,0:0:0:0:
256,192,139476,1,0,0:0:0:0:
256,192,139551,1,8,0:0:0:0:
256,192,139627,1,0,0:0:0:0:
256,192,139702,1,8,0:0:0:0:
256,192,139778,1,8,0:0:0:0:
256,192,139854,1,0,0:0:0:0:
256,192,139929,1,0,0:0:0:0:
256,192,140004,1,8,0:0:0:0:
256,192,140080,1,0,0:0:0:0:
256,192,140155,1,8,0:0:0:0:
256,192,140230,1,8,0:0:0:0:
256,192,140306,1,8,0:0:0:0:
256,192,140382,1,8,0:0:0:0:
256,192,140457,1,0,0:0:0:0:
256,192,140533,1,0,0:0:0:0:
256,192,140608,1,8,0:0:0:0:
256,192,140683,1,0,0:0:0:0:
256,192,140759,1,8,0:0:0:0:
256,192,140834,1,8,0:0:0:0:
256,192,140910,1,0,0:0:0:0:
256,192,140986,1,0,0:0:0:0:
256,192,141061,1,8,0:0:0:0:
256,192,141136,1,8,0:0:0:0:
256,192,141212,1,0,0:0:0:0:
256,192,141287,1,0,0:0:0:0:
256,192,141362,1,8,0:0:0:0:
256,192,141438,1,0,0:0:0:0:
256,192,141514,1,8,0:0:0:0:
256,192,141665,1,4,0:0:0:0:
256,192,141815,1,8,0:0:0:0:
256,192,141891,1,0,0:0:0:0:
256,192,141966,1,0,0:0:0:0:
256,192,142042,1,8,0:0:0:0:
256,192,142118,1,0,0:0:0:0:
256,192,142193,1,8,0:0:0:0:
256,192,142268,1,0,0:0:0:0:
256,192,142344,1,0,0:0:0:0:
256,192,142419,1,8,0:0:0:0:
256,192,142494,1,0,0:0:0:0:
256,192,142570,1,8,0:0:0:0:
256,192,142646,1,8,0:0:0:0:
256,192,142721,1,8,0:0:0:0:
256,192,142797,1,8,0:0:0:0:
256,192,142872,1,0,0:0:0:0:
256,192,142947,1,8,0:0:0:0:
256,192,143023,1,8,0:0:0:0:
256,192,143098,1,0,0:0:0:0:
256,192,143174,1,8,0:0:0:0:
256,192,143250,1,0,0:0:0:0:
256,192,143325,1,8,0:0:0:0:
256,192,143401,1,8,0:0:0:0:
256,192,143476,1,0,0:0:0:0:
256,192,143551,1,0,0:0:0:0:
256,192,143627,1,8,0:0:0:0:
256,192,143702,1,0,0:0:0:0:
256,192,143778,1,8,0:0:0:0:
256,192,143854,1,8,0:0:0:0:
256,192,143929,1,8,0:0:0:0:
256,192,144004,1,8,0:0:0:0:
256,192,144080,1,0,0:0:0:0:
256,192,144155,1,0,0:0:0:0:
256,192,144230,1,8,0:0:0:0:
256,192,144306,1,0,0:0:0:0:
256,192,144382,1,8,0:0:0:0:
256,192,144457,1,0,0:0:0:0:
256,192,144533,1,8,0:0:0:0:
256,192,144608,1,8,0:0:0:0:
256,192,144683,1,0,0:0:0:0:
256,192,144759,1,0,0:0:0:0:
256,192,144834,1,8,0:0:0:0:
256,192,144910,1,8,0:0:0:0:
256,192,144986,1,0,0:0:0:0:
256,192,145061,1,0,0:0:0:0:
256,192,145136,1,8,0:0:0:0:
256,192,145212,1,0,0:0:0:0:
256,192,145287,1,8,0:0:0:0:
256,192,145362,1,0,0:0:0:0:
256,192,145438,1,0,0:0:0:0:
256,192,145514,1,0,0:0:0:0:
256,192,145589,1,8,0:0:0:0:
256,192,145665,1,0,0:0:0:0:
256,192,145740,1,0,0:0:0:0:
256,192,145815,1,0,0:0:0:0:
256,192,145891,1,8,0:0:0:0:
256,192,145966,1,0,0:0:0:0:
256,192,146042,1,0,0:0:0:0:
256,192,146118,1,0,0:0:0:0:
256,192,146193,1,8,0:0:0:0:
256,192,146268,1,0,0:0:0:0:
256,192,146344,1,0,0:0:0:0:
256,192,146419,1,0,0:0:0:0:
256,192,146494,1,8,0:0:0:0:
