osu file format v14

[General]
AudioFilename: audio.mp3
AudioLeadIn: 0
PreviewTime: 2825
Countdown: 0
SampleSet: Soft
StackLeniency: 0.2
Mode: 0
LetterboxInBreaks: 0
WidescreenStoryboard: 0

[Editor]
Bookmarks: 38863,56033,171127
DistanceSpacing: 0.2
BeatDivisor: 4
GridSize: 32
TimelineZoom: 1.8

[Metadata]
Title:Ura-Omote Lovers feat. Hatsune Miku
TitleUnicode:裏表ラバーズ feat. 初音ミク
Artist:wowaka
ArtistUnicode:wowaka
Creator:gazimal
Version:Limitless
Source:
Tags:Gorou Two-Faced Two-Sided Project Diva Extend Arcade Future Tone Megamix X F 2nd vocaloid japanese electronic Satellite muya- ponbot Wanpachi Stompy_
BeatmapID:3853099
BeatmapSetID:1872527

[Difficulty]
HPDrainRate:5
CircleSize:4
OverallDifficulty:9
ApproachRate:9.4
SliderMultiplier:1.8
SliderTickRate:1

[Events]
//Background and Video events
0,0,"92627815_p0 (1) (1).jpg",0,0
//Break Periods
//Storyboard Layer 0 (Background)
//Storyboard Layer 1 (Fail)
//Storyboard Layer 2 (Pass)
//Storyboard Layer 3 (Foreground)
//Storyboard Layer 4 (Overlay)
//Storyboard Sound Samples

[TimingPoints]
184,377.358490566038,4,2,0,60,1,0
3202,-100,4,2,0,50,0,0
6976,-100,4,2,4,50,0,0
7731,-100,4,2,1,70,0,0
8863,-76.9230769230769,4,2,1,70,0,0
9995,-100,4,2,1,70,0,0
10372,-76.9230769230769,4,2,1,70,0,0
11504,-100,4,2,1,70,0,0
11882,-76.9230769230769,4,2,1,70,0,0
13014,-100,4,2,1,70,0,0
13391,-76.9230769230769,4,2,1,70,0,0
14523,-100,4,2,1,70,0,0
14900,-76.9230769230769,4,2,1,70,0,0
16033,-100,4,2,1,70,0,0
16410,-76.9230769230769,4,2,1,70,0,0
17542,-100,4,2,1,70,0,0
17919,-76.9230769230769,4,2,1,70,0,0
19806,-100,4,2,1,60,0,0
25372,-125,4,2,1,60,0,0
25844,-100,4,2,1,60,0,0
27542,-76.9230769230769,4,2,1,60,0,0
28863,-100,4,2,1,60,0,0
34900,-66.6666666666667,4,2,1,60,0,0
35278,-100,4,2,1,60,0,0
36410,-66.6666666666667,4,2,1,60,0,0
36787,-100,4,2,1,60,0,0
37542,-303.030303030303,4,2,1,60,0,0
37919,-66.6666666666667,4,2,1,60,0,0
38674,-100,4,2,1,60,0,0
40938,-66.6666666666667,4,2,1,60,0,0
41316,-100,4,2,1,60,0,0
41504,-66.6666666666667,4,2,1,60,0,0
42448,-55.5555555555556,4,2,1,60,0,0
43580,-41.6666666666667,4,2,1,60,0,0
43957,-41.6666666666667,4,2,1,70,0,0
44712,-100,4,2,1,70,0,0
45089,-76.9230769230769,4,2,1,70,0,0
46221,-100,4,2,1,70,0,0
46599,-76.9230769230769,4,2,1,70,0,0
47731,-100,4,2,1,70,0,0
48108,-76.9230769230769,4,2,1,70,0,0
49240,-100,4,2,1,70,0,0
49617,-76.9230769230769,4,2,1,70,0,0
50750,-100,4,2,1,70,0,0
51127,-76.9230769230769,4,2,1,70,0,0
52259,-100,4,2,1,70,0,0
52636,-76.9230769230769,4,2,1,70,0,0
53768,-100,4,2,1,70,0,0
54146,-76.9230769230769,4,2,1,70,0,0
56033,-100,4,2,1,60,0,0
57165,-76.9230769230769,4,2,1,60,0,0
58674,-100,4,2,1,60,0,0
61693,-76.9230769230769,4,2,1,60,0,0
62448,-100,4,2,1,60,0,0
64712,-76.9230769230769,4,2,1,60,0,0
65089,-100,4,2,1,60,0,0
67353,-66.6666666666667,4,2,1,60,0,0
68108,-100,4,2,1,60,0,0
73768,-76.9230769230769,4,2,1,60,0,0
74146,-100,4,2,1,60,0,0
77165,-66.6666666666667,4,2,1,60,0,0
79806,-50,4,2,1,60,0,0
80184,-83.3333333333333,4,2,1,80,0,1
81316,-58.8235294117647,4,2,1,80,0,1
81693,-83.3333333333333,4,2,1,80,0,1
82825,-58.8235294117647,4,2,1,80,0,1
83202,-83.3333333333333,4,2,1,80,0,1
84334,-58.8235294117647,4,2,1,80,0,1
84712,-83.3333333333333,4,2,1,80,0,1
86221,-58.8235294117647,4,2,1,80,0,1
86976,-83.3333333333333,4,2,1,80,0,1
87353,-58.8235294117647,4,2,1,80,0,1
87731,-83.3333333333333,4,2,1,80,0,1
88863,-58.8235294117647,4,2,1,80,0,1
89240,-83.3333333333333,4,2,1,80,0,1
92259,-83.3333333333333,4,2,1,75,0,0
94900,-250,4,2,1,75,0,0
96033,-83.3333333333333,4,2,1,75,0,0
96787,-66.6666666666667,4,2,1,75,0,0
97919,-333.333333333333,4,2,1,75,0,0
98297,-333.333333333333,4,2,1,70,0,0
99051,-100,4,2,1,70,0,0
99429,-76.9230769230769,4,2,1,70,0,0
100561,-100,4,2,1,70,0,0
100938,-76.9230769230769,4,2,1,70,0,0
102070,-100,4,2,1,70,0,0
102448,-76.9230769230769,4,2,1,70,0,0
103580,-100,4,2,1,70,0,0
103957,-76.9230769230769,4,2,1,70,0,0
105089,-100,4,2,1,70,0,0
105467,-76.9230769230769,4,2,1,70,0,0
106599,-100,4,2,1,70,0,0
106976,-76.9230769230769,4,2,1,70,0,0
108108,-100,4,2,1,70,0,0
108485,-76.9230769230769,4,2,1,70,0,0
110372,-76.9230769230769,4,2,1,60,0,0
112448,-100,4,2,1,60,0,0
118108,-76.9230769230769,4,2,1,60,0,0
119429,-100,4,2,1,60,0,0
122448,-303.030303030303,4,2,1,60,0,0
122825,-100,4,2,1,60,0,0
125467,-66.6666666666667,4,2,1,60,0,0
125844,-100,4,2,1,60,0,0
126976,-66.6666666666667,4,2,1,60,0,0
127353,-100,4,2,1,60,0,0
128108,-303.030303030303,4,2,1,60,0,0
128485,-66.6666666666667,4,2,1,60,0,0
129240,-100,4,2,1,60,0,0
131504,-66.6666666666667,4,2,1,60,0,0
131882,-100,4,2,1,60,0,0
132070,-66.6666666666667,4,2,1,60,0,0
133014,-100,4,2,1,60,0,0
135655,-76.9230769230769,4,2,1,60,0,0
137165,-100,4,2,1,60,0,0
140184,-76.9230769230769,4,2,1,60,0,0
140938,-100,4,2,1,60,0,0
143202,-76.9230769230769,4,2,1,60,0,0
143580,-100,4,2,1,60,0,0
145844,-55.5555555555556,4,2,1,60,0,0
146410,-100,4,2,1,60,0,0
152259,-76.9230769230769,4,2,1,60,0,0
152636,-100,4,2,1,60,0,0
155655,-66.6666666666667,4,2,1,60,0,0
157165,-50,4,2,1,60,0,0
158674,-50,4,2,4,60,0,0
159051,377.358490566038,4,2,1,80,1,1
159051,-83.3333333333333,4,2,1,80,0,1
160184,-66.6666666666667,4,2,1,80,0,1
160561,-83.3333333333333,4,2,1,80,0,1
161693,-66.6666666666667,4,2,1,80,0,1
162070,-83.3333333333333,4,2,1,80,0,1
163202,-66.6666666666667,4,2,1,80,0,1
163580,-83.3333333333333,4,2,1,80,0,1
165089,-58.8235294117647,4,2,1,80,0,1
165844,-83.3333333333333,4,2,1,80,0,1
166221,-66.6666666666667,4,2,1,80,0,1
166599,-83.3333333333333,4,2,1,80,0,1
167731,-66.6666666666667,4,2,1,80,0,1
168108,-83.3333333333333,4,2,1,80,0,1
171126,-83.3333333333333,4,2,1,85,0,1
183201,-83.3333333333333,4,2,1,85,0,0

[Colours]
Combo1 : 192,192,192
Combo2 : 10,245,163

[HitObjects]
256,192,3202,5,2,0:0:0:0:
256,192,3957,1,2,0:0:0:0:
256,192,4712,1,2,0:0:0:0:
256,192,4806,12,0,6599,0:0:0:0:
219,255,6976,5,0,0:0:0:0:
328,192,7165,1,0,0:0:0:0:
219,129,7353,1,0,0:0:0:0:
207,126,7447,1,0,0:0:0:0:
196,124,7541,1,0,0:0:0:0:
185,121,7636,1,0,0:0:0:0:
156,135,7731,5,6,3:2:0:0:
174,119,7825,1,0,0:0:0:0:
179,76,7919,1,0,0:0:0:0:
139,44,8014,1,0,3:2:0:0:
82,60,8108,1,8,0:0:0:0:
70,123,8202,1,0,0:0:0:0:
115,177,8297,1,0,3:2:0:0:
161,241,8391,1,0,0:0:0:0:
134,317,8485,2,0,P|116:300|84:288,1,45,2|0,0:0|0:0,0:0:0:0:
33,384,8674,2,0,P|56:375|79:348,1,45,2|0,3:2|0:0,0:0:0:0:
250,234,8863,2,0,L|381:261,1,116.999994644165,10|0,0:0|0:0,0:0:0:0:
497,365,9240,5,2,3:2:0:0:
476,375,9334,1,0,0:0:0:0:
444,371,9429,1,0,0:0:0:0:
422,335,9523,1,0,3:2:0:0:
433,284,9617,1,8,0:0:0:0:
483,246,9712,1,0,0:0:0:0:
509,181,9806,1,0,3:2:0:0:
476,111,9900,1,0,0:0:0:0:
398,118,9995,2,0,P|382:146|376:175,1,45,2|0,0:0|0:0,0:0:0:0:
300,128,10184,2,0,P|307:106|319:87,1,45,2|0,3:2|0:0,0:0:0:0:
501,11,10372,2,0,L|375:37,1,116.999994644165,10|0,0:0|0:0,0:0:0:0:
130,87,10750,5,2,3:2:0:0:
127,63,10844,1,0,0:0:0:0:
144,33,10938,1,0,0:0:0:0:
192,24,11033,1,0,3:2:0:0:
238,56,11127,1,8,0:0:0:0:
238,121,11221,1,0,0:0:0:0:
195,176,11316,1,0,3:2:0:0:
144,235,11410,1,0,0:0:0:0:
169,305,11504,2,0,P|187:319|207:329,1,45,2|0,0:0|0:0,0:0:0:0:
274,229,11693,2,0,P|252:237|234:249,1,45,2|0,3:2|0:0,0:0:0:0:
48,358,11882,2,0,L|75:228,1,116.999994644165,10|0,0:0|0:0,0:0:0:0:
130,87,12259,5,2,3:2:0:0:
111,69,12353,1,0,0:0:0:0:
70,68,12448,1,0,0:0:0:0:
47,105,12542,1,0,3:2:0:0:
62,150,12636,1,8,0:0:0:0:
117,171,12731,1,0,0:0:0:0:
183,140,12825,1,0,3:2:0:0:
241,89,12919,1,0,0:0:0:0:
317,99,13014,2,0,P|339:121|354:149,1,45,2|0,0:0|0:0,0:0:0:0:
409,76,13202,2,0,P|396:57|379:42,1,45,2|0,3:2|0:0,0:0:0:0:
425,201,13391,2,0,P|466:148|521:132,1,116.999994644165,10|0,0:0|0:0,0:0:0:0:
414,336,13768,5,6,3:2:0:0:
418,313,13863,1,0,0:0:0:0:
442,300,13957,1,0,0:0:0:0:
471,325,14051,1,0,3:2:0:0:
458,367,14146,1,8,0:0:0:0:
406,381,14240,1,0,0:0:0:0:
351,356,14334,1,0,3:2:0:0:
293,312,14429,1,0,0:0:0:0:
217,330,14523,2,0,P|233:314|244:287,1,45,2|0,0:0|0:0,0:0:0:0:
153,232,14712,2,0,P|136:247|126:275,1,45,2|0,3:2|0:0,0:0:0:0:
0,124,14900,2,0,P|62:132|100:181,1,116.999994644165,10|0,0:0|0:0,0:0:0:0:
119,371,15278,5,2,3:2:0:0:
88,367,15372,1,0,0:0:0:0:
61,342,15467,1,0,0:0:0:0:
55,291,15561,1,0,3:2:0:0:
93,250,15655,1,8,0:0:0:0:
153,232,15750,1,0,0:0:0:0:
219,190,15844,1,0,3:2:0:0:
221,110,15938,1,0,0:0:0:0:
159,66,16033,2,0,P|134:79|116:102,1,45,2|0,0:0|0:0,0:0:0:0:
20,23,16221,2,0,P|44:34|63:56,1,45,2|0,3:2|0:0,0:0:0:0:
292,152,16410,2,0,L|416:124,1,116.999994644165,10|0,0:0|0:0,0:0:0:0:
506,25,16787,5,2,3:2:0:0:
488,36,16882,1,0,0:0:0:0:
457,40,16976,1,0,0:0:0:0:
413,34,17070,1,0,3:2:0:0:
368,10,17165,1,8,0:0:0:0:
312,0,17259,1,0,0:0:0:0:
248,11,17353,1,0,3:2:0:0:
205,66,17448,1,0,0:0:0:0:
208,139,17542,2,0,P|217:165|237:186,1,45,2|0,0:0|0:0,0:0:0:0:
204,279,17731,2,0,P|231:284|259:277,1,45,2|0,3:2|0:0,0:0:0:0:
434,244,17919,2,0,P|379:211|314:213,1,116.999994644165,10|0,0:0|0:0,0:0:0:0:
63,325,18297,5,2,3:2:0:0:
41,315,18391,1,0,0:0:0:0:
31,287,18485,1,0,0:0:0:0:
40,249,18580,1,0,3:2:0:0:
85,226,18674,1,8,0:0:0:0:
141,181,18768,1,0,0:0:0:0:
137,107,18863,1,0,3:2:0:0:
60,89,18957,1,0,0:0:0:0:
7,147,19051,5,2,1:2:0:0:
10,154,19146,1,2,1:2:0:0:
13,161,19240,1,2,1:2:0:0:
16,168,19334,1,2,1:2:0:0:
19,175,19429,1,10,0:0:0:0:
74,158,19523,1,10,0:0:0:0:
129,141,19617,1,10,0:0:0:0:
184,124,19712,1,10,0:0:0:0:
239,107,19806,6,0,L|227:158,1,45,4|0,3:2|0:0,0:0:0:0:
121,272,19995,1,0,0:0:0:0:
121,272,20089,1,0,0:0:0:0:
132,304,20183,5,8,0:0:0:0:
91,281,20278,1,0,0:0:0:0:
114,241,20372,1,0,3:2:0:0:
157,263,20466,1,0,1:2:0:0:
222,297,20561,5,0,0:0:0:0:
281,316,20655,1,0,0:0:0:0:
319,265,20749,1,0,3:2:0:0:
282,214,20844,1,0,0:0:0:0:
221,233,20938,1,8,0:0:0:0:
268,267,21033,1,0,0:0:0:0:
268,267,21127,1,0,0:0:0:0:
226,384,21316,5,2,3:2:0:0:
487,308,21504,1,0,0:0:0:0:
512,259,21599,1,0,0:0:0:0:
475,218,21693,1,8,0:0:0:0:
425,230,21787,1,0,0:0:0:0:
402,278,21882,6,0,P|383:261|357:257,1,45,0|0,3:2|1:0,0:0:0:0:
334,167,22070,2,0,P|309:174|293:195,1,45
227,261,22259,2,0,P|201:259|180:244,1,45,0|0,3:2|0:0,0:0:0:0:
21,195,22447,2,0,P|32:175|51:164,1,45,8|0,0:0|0:0,0:0:0:0:
106,287,22636,2,0,P|94:267|94:245,1,45
59,77,22825,5,2,3:2:0:0:
77,82,22919,1,0,0:0:0:0:
95,87,23014,1,0,0:0:0:0:
113,92,23108,1,0,0:0:0:0:
186,117,23202,1,8,0:0:0:0:
246,62,23297,5,0,0:0:0:0:
264,57,23391,1,0,3:2:0:0:
282,52,23486,1,0,1:0:0:0:
300,47,23580,1,0,0:0:0:0:
366,0,23674,5,0,0:0:0:0:
384,5,23768,1,0,3:2:0:0:
402,10,23863,1,0,0:0:0:0:
420,15,23957,1,8,0:0:0:0:
473,78,24051,5,0,0:0:0:0:
491,73,24145,1,0,3:2:0:0:
509,68,24240,1,0,0:0:0:0:
498,45,24334,5,2,3:2:0:0:
491,73,24429,1,0,0:0:0:0:
484,101,24523,1,0,0:0:0:0:
477,129,24617,1,0,0:0:0:0:
406,153,24712,1,8,0:0:0:0:
462,206,24806,5,0,0:0:0:0:
456,228,24901,1,0,3:2:0:0:
450,250,24995,1,0,1:0:0:0:
415,265,25089,5,0,0:0:0:0:
421,287,25184,1,0,0:0:0:0:
427,309,25278,1,0,3:2:0:0:
452,319,25372,6,0,L|442:363,1,36,0|8,0:0|0:0,0:0:0:0:
340,290,25561,2,0,L|330:245,2,36
302,384,25844,6,0,P|287:369|257:358,1,45,2|0,3:2|0:0,0:0:0:0:
129,326,26033,1,0,0:0:0:0:
144,335,26127,2,0,P|164:329|189:309,1,45,0|8,0:0|0:0,0:0:0:0:
255,195,26316,1,0,0:0:0:0:
239,169,26410,1,0,3:2:0:0:
203,175,26504,1,0,1:0:0:0:
194,205,26599,5,0,0:0:0:0:
176,199,26693,1,0,0:0:0:0:
100,170,26787,1,0,3:2:0:0:
82,164,26881,1,0,0:0:0:0:
6,135,26976,1,8,0:0:0:0:
10,152,27070,1,0,0:0:0:0:
14,169,27165,1,0,0:0:0:0:
65,8,27353,5,2,3:2:0:0:
290,106,27542,2,0,B|307:82|340:74|340:74|306:75|289:55,1,116.999994644165,0|8,0:0|0:0,0:0:0:0:
191,141,27825,2,0,B|202:168|193:200|193:200|209:170|235:165,1,116.999994644165,0|0,0:0|1:0,0:0:0:0:
210,38,28108,2,0,B|181:34|157:10|157:10|175:39|166:63,1,116.999994644165,0|0,0:0|3:2,0:0:0:0:
312,186,28391,1,0,0:0:0:0:
312,186,28485,2,0,P|365:224|399:273,1,116.999994644165,8|0,0:0|0:0,0:0:0:0:
490,173,28863,6,0,P|468:183|446:206,1,45,2|0,3:2|0:0,0:0:0:0:
354,333,29051,1,0,0:0:0:0:
358,343,29146,1,0,0:0:0:0:
362,353,29240,1,8,0:0:0:0:
401,347,29334,5,0,0:0:0:0:
440,341,29429,1,0,3:2:0:0:
479,335,29523,1,0,1:0:0:0:
460,366,29617,1,0,0:0:0:0:
427,349,29712,1,0,0:0:0:0:
393,327,29806,1,0,3:2:0:0:
362,353,29900,2,0,P|345:337|310:327,1,45,0|8,0:0|0:0,0:0:0:0:
207,303,30089,2,0,P|229:296|255:270,2,45,0|0|0,0:0|3:2|0:0,0:0:0:0:
40,375,30372,6,0,L|27:315,1,45,2|0,3:2|0:0,0:0:0:0:
108,259,30561,2,0,L|120:318,1,45
11,231,30750,5,8,0:0:0:0:
11,231,30844,1,0,0:0:0:0:
80,171,30938,5,0,3:2:0:0:
75,155,31033,1,0,1:0:0:0:
5,117,31127,5,0,0:0:0:0:
10,101,31222,1,0,0:0:0:0:
15,85,31316,1,0,3:2:0:0:
29,7,31410,6,0,P|53:13|74:33,1,45,0|8,0:0|0:0,0:0:0:0:
186,67,31599,1,0,0:0:0:0:
173,60,31693,2,0,P|149:66|128:86,1,45
218,247,31882,5,6,3:2:0:0:
237,219,31976,1,0,0:0:0:0:
288,196,32070,1,0,0:0:0:0:
321,198,32164,1,0,0:0:0:0:
256,193,32259,1,8,0:0:0:0:
321,198,32448,5,0,3:2:0:0:
288,196,32542,1,0,1:0:0:0:
242,163,32636,1,0,0:0:0:0:
227,134,32731,1,0,0:0:0:0:
256,193,32825,1,0,3:2:0:0:
227,134,33014,5,8,0:0:0:0:
242,163,33108,1,0,0:0:0:0:
237,219,33202,1,0,0:0:0:0:
218,247,33297,1,0,0:0:0:0:
263,200,33391,1,2,3:2:0:0:
263,200,33485,1,0,0:0:0:0:
263,200,33580,2,0,B|243:186|243:186|213:185,1,45
65,336,33768,2,0,B|87:325|87:325|102:300,1,45,8|0,0:0|0:0,0:0:0:0:
25,122,33957,1,0,3:2:0:0:
25,122,34051,1,0,1:0:0:0:
25,122,34145,2,0,B|22:146|22:146|37:172,1,45
218,247,34334,5,0,3:2:0:0:
237,219,34428,1,0,0:0:0:0:
242,163,34523,1,8,0:0:0:0:
227,134,34618,1,0,0:0:0:0:
256,193,34712,1,0,0:0:0:0:
72,63,34900,6,0,B|68:45|45:20|45:20|136:42|136:42|133:78|161:103,1,202.500007724762,2|0,3:2|0:0,0:0:0:0:
302,27,35278,2,0,L|191:50,1,90,8|0,0:0|3:2,0:0:0:0:
213,45,35561,1,0,1:0:0:0:
213,45,35655,1,0,0:0:0:0:
479,114,35844,2,0,L|468:65,1,45,0|0,3:2|0:0,0:0:0:0:
381,15,36033,2,0,L|403:122,1,90,8|0,0:0|0:0,0:0:0:0:
378,382,36410,6,0,B|500:356|500:356|519:329|503:283|462:285,1,202.500007724762,2|0,3:2|0:0,0:0:0:0:
409,293,36787,2,0,L|342:307,1,45,10|0,0:0|0:0,0:0:0:0:
190,344,36976,1,0,3:2:0:0:
190,344,37070,1,0,1:0:0:0:
190,344,37165,2,0,L|256:358,1,45,2|0,0:0|0:0,0:0:0:0:
378,382,37353,1,0,3:2:0:0:
81,361,37542,6,0,L|26:373,1,44.5499998640442,10|0,0:0|0:0,0:0:0:0:
37,370,37919,6,0,P|95:318|96:245,1,135.000005149842,2|0,3:2|0:0,0:0:0:0:
101,264,38202,1,0,0:0:0:0:
160,372,38297,2,0,P|98:347|36:369,1,135.000005149842,8|0,0:0|3:2,0:0:0:0:
36,369,38580,1,0,1:0:0:0:
101,264,38674,6,0,P|101:295|118:319,1,45
49,177,38863,2,0,P|22:161|-7:164,1,45,0|0,3:2|0:0,0:0:0:0:
150,175,39051,1,8,0:0:0:0:
150,175,39146,2,0,P|176:159|189:132,2,45
0,238,39429,5,2,3:2:0:0:
72,69,39617,1,0,0:0:0:0:
64,82,39712,1,0,0:0:0:0:
57,94,39806,2,0,L|113:81,1,45,8|0,0:0|0:0,0:0:0:0:
212,23,39995,1,0,3:2:0:0:
212,23,40089,1,0,1:0:0:0:
212,23,40184,2,0,L|156:10,1,45
278,68,40372,2,0,L|334:55,1,45,0|0,3:2|0:0,0:0:0:0:
438,92,40561,2,0,L|382:79,1,45,8|0,0:0|0:0,0:0:0:0:
278,68,40750,2,0,L|334:55,1,45
478,216,40938,6,0,B|399:189|335:244|335:244|335:287|316:303,1,202.500007724762,2|0,3:2|0:0,0:0:0:0:
246,280,41316,2,0,P|255:261|257:219,1,45,8|0,0:0|0:0,0:0:0:0:
333,136,41504,1,0,3:2:0:0:
333,136,41599,1,0,1:0:0:0:
333,136,41693,2,0,P|364:237|447:288,1,202.500007724762,2|0,0:0|0:0,0:0:0:0:
478,216,42070,2,0,B|399:189|335:244|335:244|335:287|316:303,1,202.500007724762,10|0,0:0|0:0,0:0:0:0:
272,363,42448,6,0,P|149:245|-31:245,2,323.999990112305,2|8|0,3:2|0:0|0:0,0:0:0:0:
216,358,43297,1,0,0:0:0:0:
238,345,43391,1,0,3:2:0:0:
262,350,43485,1,0,0:0:0:0:
272,363,43580,6,0,P|149:245|-31:245,1,323.999990112305,10|0,0:0|0:0,0:0:0:0:
90,123,43957,5,6,3:2:0:0:
96,107,44051,1,0,0:0:0:0:
80,86,44146,1,0,0:0:0:0:
48,81,44240,1,0,3:2:0:0:
14,110,44334,1,8,0:0:0:0:
18,162,44429,1,0,0:0:0:0:
68,196,44523,1,0,3:2:0:0:
142,179,44617,1,0,0:0:0:0:
178,111,44712,2,0,P|173:85|164:64,1,45,2|0,0:0|0:0,0:0:0:0:
233,9,44900,2,0,P|243:29|249:50,1,45,2|0,3:2|0:0,0:0:0:0:
330,149,45089,2,0,P|367:110|442:102,1,116.999994644165,10|0,0:0|0:0,0:0:0:0:
478,327,45467,5,2,3:2:0:0:
486,305,45561,1,0,0:0:0:0:
479,277,45655,1,0,0:0:0:0:
448,250,45750,1,0,3:2:0:0:
394,249,45844,1,8,0:0:0:0:
349,288,45938,1,0,0:0:0:0:
306,345,46033,1,0,3:2:0:0:
230,352,46127,1,0,0:0:0:0:
179,295,46221,2,0,P|193:273|216:253,1,45,2|0,0:0|0:0,0:0:0:0:
90,159,46410,2,0,P|105:175|117:194,1,45,2|0,3:2|0:0,0:0:0:0:
330,149,46599,2,0,P|264:128|206:155,1,116.999994644165,10|0,0:0|0:0,0:0:0:0:
22,67,46976,5,2,3:2:0:0:
26,45,47070,1,0,0:0:0:0:
49,20,47165,1,0,0:0:0:0:
92,19,47259,1,0,3:2:0:0:
134,45,47353,1,8,0:0:0:0:
158,99,47448,1,0,0:0:0:0:
220,142,47542,1,0,3:2:0:0:
293,110,47636,1,0,0:0:0:0:
302,32,47731,2,0,P|276:30|247:47,1,45,2|0,0:0|0:0,0:0:0:0:
354,160,47919,2,0,P|368:138|368:104,1,45,2|0,3:2|0:0,0:0:0:0:
220,142,48108,2,0,L|244:259,1,116.999994644165,10|0,0:0|0:0,0:0:0:0:
456,358,48485,5,2,3:2:0:0:
440,373,48580,1,0,0:0:0:0:
409,372,48674,1,0,0:0:0:0:
381,352,48768,1,0,3:2:0:0:
376,300,48863,1,8,0:0:0:0:
417,257,48957,1,0,0:0:0:0:
486,236,49051,1,0,3:2:0:0:
511,164,49146,1,0,0:0:0:0:
454,113,49240,2,0,P|426:115|403:131,1,45,2|0,0:0|0:0,0:0:0:0:
330,229,49429,2,0,P|342:203|339:175,1,45,2|0,3:2|0:0,0:0:0:0:
211,77,49617,2,0,L|347:106,1,116.999994644165,10|0,0:0|0:0,0:0:0:0:
47,111,49995,5,6,3:2:0:0:
76,100,50089,1,0,0:0:0:0:
111,110,50184,1,0,0:0:0:0:
136,148,50278,1,0,3:2:0:0:
123,200,50372,1,8,0:0:0:0:
73,235,50467,1,0,0:0:0:0:
30,295,50561,1,0,3:2:0:0:
62,368,50655,1,0,0:0:0:0:
144,371,50750,2,0,P|138:343|119:312,1,45,2|0,0:0|0:0,0:0:0:0:
198,269,50938,2,0,P|209:287|216:308,1,45,2|0,3:2|0:0,0:0:0:0:
333,384,51127,2,0,P|369:336|446:320,1,116.999994644165,10|0,0:0|0:0,0:0:0:0:
340,159,51504,5,2,3:2:0:0:
326,137,51599,1,0,0:0:0:0:
321,99,51693,1,0,0:0:0:0:
330,53,51787,1,0,3:2:0:0:
373,16,51882,1,8,0:0:0:0:
438,11,51976,1,0,0:0:0:0:
498,48,52070,1,0,3:2:0:0:
512,126,52165,1,0,0:0:0:0:
465,191,52259,2,0,P|444:179|421:175,1,45,2|0,0:0|0:0,0:0:0:0:
321,99,52448,2,0,P|300:111|285:129,1,45,2|0,3:2|0:0,0:0:0:0:
198,269,52636,2,0,P|150:230|81:219,1,116.999994644165,10|0,0:0|0:0,0:0:0:0:
8,80,53014,5,2,3:2:0:0:
21,94,53108,1,0,0:0:0:0:
47,104,53202,1,0,0:0:0:0:
89,99,53297,1,0,3:2:0:0:
129,68,53391,1,8,0:0:0:0:
167,21,53485,1,0,0:0:0:0:
236,1,53580,1,0,3:2:0:0:
310,21,53674,1,0,0:0:0:0:
321,99,53768,2,0,P|307:125|292:138,1,45,2|0,0:0|0:0,0:0:0:0:
198,269,53957,2,0,P|182:243|178:224,1,45,2|0,3:2|0:0,0:0:0:0:
401,121,54146,2,0,P|377:174|334:213,1,116.999994644165,10|0,0:0|0:0,0:0:0:0:
8,80,54523,5,2,3:2:0:0:
64,27,54617,1,2,0:0:0:0:
143,24,54712,1,2,0:0:0:0:
211,62,54806,1,2,3:2:0:0:
234,133,54900,1,10,0:0:0:0:
282,167,54995,1,2,0:0:0:0:
330,169,55089,1,2,3:2:0:0:
373,153,55184,1,2,0:0:0:0:
401,121,55278,5,2,1:2:0:0:
359,100,55372,1,2,1:2:0:0:
352,58,55467,1,2,1:2:0:0:
374,32,55561,1,2,1:2:0:0:
407,27,55655,1,10,0:0:0:0:
434,42,55750,1,10,0:0:0:0:
455,60,55844,1,10,0:0:0:0:
477,64,55938,1,10,0:0:0:0:
496,53,56033,6,0,P|480:76|471:105,1,45,2|0,3:2|0:0,0:0:0:0:
417,230,56221,1,0,0:0:0:0:
417,230,56316,1,0,0:0:0:0:
501,269,56410,5,8,0:0:0:0:
448,276,56504,1,0,0:0:0:0:
427,325,56599,1,0,3:2:0:0:
438,371,56693,1,0,1:2:0:0:
508,384,56787,5,0,0:0:0:0:
503,318,56882,1,0,0:0:0:0:
448,276,56976,1,0,3:2:0:0:
375,292,57070,1,0,0:0:0:0:
331,354,57165,6,0,P|284:320|206:313,1,116.999994644165,8|0,0:0|0:0,0:0:0:0:
153,338,57448,1,0,0:0:0:0:
162,255,57542,2,0,P|205:216|282:201,1,116.999994644165,2|0,3:2|0:0,0:0:0:0:
337,220,57825,1,0,0:0:0:0:
314,140,57919,2,0,P|270:101|193:86,1,116.999994644165,8|0,0:0|3:2,0:0:0:0:
139,105,58202,1,0,1:2:0:0:
78,42,58297,5,0,0:0:0:0:
57,49,58391,1,0,0:0:0:0:
37,57,58485,1,0,3:2:0:0:
17,66,58580,1,0,0:0:0:0:
1,76,58674,2,0,P|21:90|37:121,1,45,8|0,0:0|0:0,0:0:0:0:
100,186,58863,2,0,P|97:210|79:239,1,45
0,327,59051,6,0,L|61:313,1,45,2|0,3:2|0:0,0:0:0:0:
246,301,59240,1,0,0:0:0:0:
243,331,59334,1,0,0:0:0:0:
199,378,59429,5,8,0:0:0:0:
224,349,59523,1,0,0:0:0:0:
269,333,59617,1,0,3:2:0:0:
311,343,59712,1,0,1:2:0:0:
342,377,59806,6,0,L|331:328,1,45
426,228,59995,1,0,3:2:0:0:
421,249,60089,1,0,0:0:0:0:
401,274,60184,2,0,L|447:264,1,45,8|0,0:0|0:0,0:0:0:0:
508,177,60372,1,0,0:0:0:0:
508,177,60467,1,0,0:0:0:0:
430,135,60561,6,0,L|384:145,1,45,2|0,3:2|0:0,0:0:0:0:
291,206,60750,1,0,0:0:0:0:
291,206,60844,2,0,L|259:171,1,45,0|8,0:0|0:0,0:0:0:0:
148,107,61033,1,0,0:0:0:0:
150,73,61127,1,0,3:2:0:0:
176,48,61221,1,0,1:2:0:0:
228,107,61316,1,0,0:0:0:0:
228,107,61410,1,0,0:0:0:0:
181,178,61504,2,0,P|157:185|128:182,1,45,0|0,3:2|0:0,0:0:0:0:
4,209,61693,2,0,L|32:74,1,116.999994644165,8|0,0:0|1:2,0:0:0:0:
45,20,61976,1,0,1:2:0:0:
54,42,62070,5,2,3:2:0:0:
85,66,62165,1,0,0:0:0:0:
132,69,62259,1,0,0:0:0:0:
176,48,62353,1,0,0:0:0:0:
192,0,62448,2,0,P|169:10|145:38,1,45,8|0,0:0|0:0,0:0:0:0:
228,107,62636,5,0,3:2:0:0:
228,107,62730,1,0,1:2:0:0:
308,79,62825,2,0,P|310:54|298:19,1,45
228,107,63014,5,0,3:2:0:0:
289,161,63108,2,0,P|309:175|345:182,1,45,0|8,0:0|0:0,0:0:0:0:
408,245,63297,2,0,P|431:235|455:206,2,45
232,312,63580,5,2,3:2:0:0:
250,272,63674,1,0,0:0:0:0:
290,256,63768,1,0,0:0:0:0:
331,273,63863,1,0,0:0:0:0:
347,314,63957,1,8,0:0:0:0:
329,354,64051,1,0,0:0:0:0:
289,371,64146,1,0,3:2:0:0:
232,312,64240,2,0,P|209:295|181:288,1,45,0|0,1:2|0:0,0:0:0:0:
68,369,64429,2,0,P|94:357|114:336,2,45,0|0|0,0:0|3:2|0:0,0:0:0:0:
0,213,64712,2,0,P|65:220|112:259,1,116.999994644165,8|0,0:0|0:0,0:0:0:0:
347,314,65089,5,2,3:2:0:0:
290,256,65184,2,0,L|302:194,1,45,2|0,0:0|0:0,0:0:0:0:
416,242,65372,5,2,0:0:0:0:
473,184,65467,2,0,L|460:122,1,45,10|0,0:0|0:0,0:0:0:0:
347,314,65655,5,2,3:2:0:0:
290,256,65750,2,0,L|302:194,1,45,2|0,1:2|0:0,0:0:0:0:
312,40,65938,5,2,0:0:0:0:
255,98,66033,2,0,L|267:160,1,45,0|0,3:2|0:0,0:0:0:0:
416,242,66221,5,10,0:0:0:0:
473,184,66316,2,0,L|460:122,1,45,2|0,0:0|0:0,0:0:0:0:
312,40,66504,5,2,0:0:0:0:
255,98,66599,2,0,L|267:160,1,45,2|0,3:2|0:0,0:0:0:0:
178,267,66787,1,0,0:0:0:0:
143,241,66881,1,0,0:0:0:0:
148,198,66975,1,8,0:0:0:0:
188,182,67070,1,0,0:0:0:0:
222,208,67165,2,0,P|218:236|203:261,1,45,0|0,3:2|1:2,0:0:0:0:
6,381,67353,6,0,B|54:354|90:296|72:227|17:221|-16:262|-1:326|78:330,1,270.000010299683,0|8,0:0|0:0,0:0:0:0:
276,299,67919,5,0,1:2:0:0:
276,299,68014,1,0,1:2:0:0:
276,299,68108,2,0,P|285:279|288:257,1,45,6|0,3:2|0:0,0:0:0:0:
369,205,68297,2,0,P|356:187|338:173,1,45
179,107,68485,5,8,0:0:0:0:
218,128,68579,1,0,0:0:0:0:
262,129,68673,1,0,3:2:0:0:
302,109,68768,1,0,1:2:0:0:
329,74,68862,1,0,0:0:0:0:
337,30,68957,2,0,P|314:37|294:57,1,45,0|0,0:0|3:2,0:0:0:0:
471,120,69146,1,0,0:0:0:0:
471,120,69240,2,0,P|476:96|469:69,1,45,8|0,0:0|0:0,0:0:0:0:
377,212,69429,5,0,0:0:0:0:
377,212,69523,1,0,0:0:0:0:
377,212,69617,2,0,P|372:236|379:263,1,45,2|0,3:2|0:0,0:0:0:0:
483,354,69806,2,0,P|464:337|437:330,1,45
288,256,69995,1,8,0:0:0:0:
288,256,70089,2,0,P|264:263|244:283,1,45,0|0,0:0|3:2,0:0:0:0:
183,371,70278,1,0,1:2:0:0:
176,356,70372,5,0,0:0:0:0:
139,331,70467,1,0,0:0:0:0:
93,326,70561,1,0,3:2:0:0:
48,346,70655,1,0,0:0:0:0:
48,346,70938,5,0,0:0:0:0:
81,306,71033,1,0,0:0:0:0:
82,254,71127,1,2,3:2:0:0:
52,208,71221,1,0,0:0:0:0:
52,208,71504,5,8,0:0:0:0:
126,247,71599,2,0,P|147:250|173:243,1,45,0|0,0:0|3:2,0:0:0:0:
258,194,71787,1,0,1:2:0:0:
258,194,72070,5,0,3:2:0:0:
230,151,72165,1,0,0:0:0:0:
180,136,72259,1,8,0:0:0:0:
129,149,72353,1,0,0:0:0:0:
129,149,72636,6,0,P|145:131|156:98,1,45,2|0,3:2|0:0,0:0:0:0:
97,5,72825,1,0,0:0:0:0:
102,20,72919,1,0,0:0:0:0:
80,74,73014,5,8,0:0:0:0:
107,35,73108,1,0,0:0:0:0:
159,33,73202,1,0,3:2:0:0:
206,54,73297,1,0,1:2:0:0:
274,97,73391,5,0,0:0:0:0:
317,83,73485,1,0,0:0:0:0:
328,35,73580,2,0,P|300:42|283:59,1,45,0|0,3:2|0:0,0:0:0:0:
285,179,73768,2,0,P|367:150|413:55,1,175.499991966248,8|0,0:0|0:0,0:0:0:0:
410,76,74146,6,0,P|421:98|441:114,1,45,2|0,3:2|0:0,0:0:0:0:
511,161,74334,1,2,0:0:0:0:
511,161,74429,1,2,0:0:0:0:
435,198,74523,2,0,P|418:213|409:233,1,45,10|0,0:0|0:0,0:0:0:0:
342,293,74711,1,2,3:2:0:0:
342,293,74806,1,2,1:2:0:0:
417,330,74900,6,0,P|433:344|443:364,1,45,2|0,0:0|0:0,0:0:0:0:
342,293,75089,1,2,3:2:0:0:
342,293,75184,1,2,0:0:0:0:
283,350,75278,2,0,P|266:364|256:384,1,45,10|0,0:0|0:0,0:0:0:0:
342,293,75467,1,2,0:0:0:0:
342,293,75561,1,2,0:0:0:0:
290,226,75655,6,0,P|280:205|263:190,1,45,2|0,3:2|0:0,0:0:0:0:
185,161,75844,1,2,0:0:0:0:
185,161,75938,1,2,0:0:0:0:
258,108,76033,2,0,P|274:92|283:72,1,45,10|0,0:0|0:0,0:0:0:0:
185,161,76221,1,2,3:2:0:0:
185,161,76315,1,2,1:2:0:0:
112,108,76410,6,0,P|95:92|86:72,1,45,2|0,0:0|0:0,0:0:0:0:
264,190,76599,2,0,P|280:205|289:225,1,45,2|0,3:2|0:0,0:0:0:0:
80,225,76787,2,0,P|88:205|105:190,1,45,10|0,0:0|0:0,0:0:0:0:
258,108,76976,2,0,P|274:92|283:72,1,45,2|0,0:0|0:0,0:0:0:0:
478,28,77165,6,0,L|417:303,3,270.000010299683,2|10|2|10,3:2|0:0|0:0|0:0,0:0:0:0:
419,291,78674,5,2,3:2:0:0:
413,281,78768,1,0,1:2:0:0:
400,273,78863,1,2,1:2:0:0:
376,269,78957,1,0,1:2:0:0:
348,277,79051,1,2,3:2:0:0:
326,308,79146,1,0,1:2:0:0:
311,346,79240,1,2,3:2:0:0:
271,369,79334,1,0,1:2:0:0:
218,372,79429,1,2,1:2:0:0:
179,331,79523,1,0,1:2:0:0:
183,268,79617,1,2,3:2:0:0:
241,224,79712,1,0,1:2:0:0:
305,249,79806,6,0,B|256:290|178:265|178:265|134:186|65:211,1,270,2|0,3:2|1:2,0:0:0:0:
52,316,80184,6,0,P|78:304|101:266,1,53.9999983520508,6|0,3:2|0:0,0:0:0:0:
211,141,80372,1,0,0:0:0:0:
184,69,80466,1,0,0:0:0:0:
122,27,80560,1,8,0:0:0:0:
50,40,80655,1,0,0:0:0:0:
0,97,80750,2,0,P|19:117|33:145,1,53.9999983520508,0|0,3:2|0:0,0:0:0:0:
52,316,80938,2,0,P|78:304|101:266,1,53.9999983520508,2|0,0:0|0:0,0:0:0:0:
211,141,81127,2,0,P|237:153|260:191,1,53.9999983520508,2|0,3:2|0:0,0:0:0:0:
435,337,81316,2,0,B|359:257|433:176|507:201|503:263|472:286,1,229.500004377365,10|0,0:0|0:0,0:0:0:0:
361,372,81693,6,0,P|346:348|334:314,1,53.9999983520508,2|0,3:2|0:0,0:0:0:0:
335,142,81882,1,0,0:0:0:0:
359,67,81976,1,0,0:0:0:0:
430,43,82070,1,8,0:0:0:0:
498,73,82165,1,0,0:0:0:0:
511,144,82259,2,0,P|487:160|443:161,1,53.9999983520508,2|0,3:2|0:0,0:0:0:0:
264,0,82448,2,0,P|290:12|313:50,1,53.9999983520508,2|0,0:0|0:0,0:0:0:0:
278,275,82636,2,0,P|275:246|296:207,1,53.9999983520508,2|0,3:2|0:0,0:0:0:0:
482,274,82825,2,0,B|411:236|359:295|359:295|342:351|283:355,1,229.500004377365,10|0,0:0|0:0,0:0:0:0:
218,334,83202,6,0,P|196:318|162:312,1,53.9999983520508,2|0,3:2|0:0,0:0:0:0:
14,363,83391,1,0,0:0:0:0:
55,340,83485,1,0,0:0:0:0:
80,292,83580,1,8,0:0:0:0:
68,232,83674,1,0,0:0:0:0:
8,186,83768,1,0,3:2:0:0:
9,110,83863,1,0,0:0:0:0:
80,75,83957,2,0,P|108:88|131:109,1,53.9999983520508,2|0,0:0|0:0,0:0:0:0:
361,202,84146,2,0,P|389:189|412:168,1,53.9999983520508,2|0,3:2|0:0,0:0:0:0:
231,50,84334,2,0,L|280:287,1,229.500004377365,10|0,0:0|0:0,0:0:0:0:
294,353,84712,6,0,L|358:339,1,53.9999983520508,2|0,3:2|0:0,0:0:0:0:
460,254,84900,2,0,L|395:267,1,53.9999983520508
189,244,85089,2,0,L|124:230,1,53.9999983520508,8|0,0:0|0:0,0:0:0:0:
23,145,85277,2,0,L|87:158,1,53.9999983520508,0|0,3:2|0:0,0:0:0:0:
353,129,85466,5,2,0:0:0:0:
394,72,85561,1,0,0:0:0:0:
353,15,85655,1,2,3:2:0:0:
286,37,85750,1,0,0:0:0:0:
286,107,85844,5,10,0:0:0:0:
286,37,85938,1,0,0:0:0:0:
353,15,86033,1,2,0:0:0:0:
394,72,86127,1,0,0:0:0:0:
353,129,86221,6,0,P|322:106|276:112,1,76.5000014591217,6|0,3:2|0:0,0:0:0:0:
129,236,86410,1,0,0:0:0:0:
178,205,86504,1,0,0:0:0:0:
199,143,86599,1,8,0:0:0:0:
179,74,86693,1,0,0:0:0:0:
110,35,86787,1,0,3:2:0:0:
35,52,86882,1,0,0:0:0:0:
0,120,86976,2,0,L|14:186,1,53.9999983520508,2|0,0:0|0:0,0:0:0:0:
118,288,87165,2,0,L|132:221,1,53.9999983520508,2|0,3:2|0:0,0:0:0:0:
286,37,87353,2,0,B|309:6|348:9|369:45|369:45|340:177,1,229.500004377365,10|0,0:0|0:0,0:0:0:0:
258,166,87731,6,0,L|272:96,1,53.9999983520508,2|0,3:2|0:0,0:0:0:0:
447,70,87919,1,0,0:0:0:0:
447,70,88014,1,0,0:0:0:0:
447,70,88108,2,0,L|433:140,1,53.9999983520508,8|0,0:0|0:0,0:0:0:0:
308,294,88297,1,0,3:2:0:0:
308,294,88392,1,0,0:0:0:0:
308,294,88486,2,0,L|294:224,1,53.9999983520508,2|0,0:0|0:0,0:0:0:0:
428,223,88674,2,0,L|442:293,1,53.9999983520508,2|0,3:2|0:0,0:0:0:0:
255,384,88863,2,0,B|213:292|117:303|117:303|94:336|62:348,1,229.500004377365,10|0,0:0|0:0,0:0:0:0:
0,243,89240,6,0,P|27:253|49:281,1,53.9999983520508,2|0,3:2|0:0,0:0:0:0:
292,157,89429,1,0,0:0:0:0:
251,91,89523,1,0,0:0:0:0:
173,82,89617,1,8,0:0:0:0:
112,124,89712,1,0,0:0:0:0:
86,200,89806,2,0,P|67:180|41:171,1,53.9999983520508,0|0,3:2|0:0,0:0:0:0:
76,341,89995,6,0,P|106:319|121:289,1,53.9999983520508,2|0,0:0|0:0,0:0:0:0:
292,157,90184,2,0,L|308:230,1,53.9999983520508,2|0,3:2|0:0,0:0:0:0:
241,290,90372,2,0,L|229:237,1,53.9999983520508,10|0,0:0|0:0,0:0:0:0:
423,114,90561,2,0,P|400:129|384:150,1,53.9999983520508,2|0,0:0|0:0,0:0:0:0:
367,259,90750,6,0,P|386:278|411:290,1,53.9999983520508,2|0,3:2|1:2,0:0:0:0:
492,200,90938,1,0,1:2:0:0:
492,200,91033,1,0,1:2:0:0:
492,200,91127,2,0,L|416:216,1,53.9999983520508,2|0,3:2|1:0,0:0:0:0:
289,220,91316,1,0,3:2:0:0:
285,234,91410,1,0,1:2:0:0:
281,248,91504,2,0,L|205:232,1,53.9999983520508,2|0,1:2|1:2,0:0:0:0:
28,201,91693,1,0,3:2:0:0:
19,177,91787,1,0,1:2:0:0:
10,153,91882,5,10,3:2:0:0:
75,161,91976,1,8,0:0:0:0:
111,220,92070,1,8,0:0:0:0:
85,288,92165,1,8,0:0:0:0:
52,352,92259,6,0,P|79:335|116:328,1,53.9999983520508,6|2,3:2|0:0,0:0:0:0:
274,321,92448,1,2,0:0:0:0:
256,334,92542,1,2,0:0:0:0:
225,332,92636,1,10,0:0:0:0:
198,310,92731,1,2,0:0:0:0:
190,263,92825,1,2,0:0:0:0:
224,214,92919,1,2,0:0:0:0:
291,203,93014,1,2,3:2:0:0:
346,250,93108,1,2,0:0:0:0:
419,267,93202,1,2,0:0:0:0:
483,227,93297,1,2,0:0:0:0:
491,162,93391,1,10,0:0:0:0:
462,113,93485,1,2,0:0:0:0:
423,93,93580,1,2,0:0:0:0:
387,93,93674,1,2,0:0:0:0:
349,111,93768,5,2,3:2:0:0:
300,133,93863,1,2,0:0:0:0:
234,128,93957,1,2,0:0:0:0:
187,74,94051,1,2,0:0:0:0:
148,9,94146,1,10,0:0:0:0:
73,0,94240,1,2,0:0:0:0:
19,54,94334,1,2,0:0:0:0:
27,129,94429,1,2,0:0:0:0:
91,169,94523,1,2,3:2:0:0:
163,146,94617,1,2,0:0:0:0:
187,74,94712,2,0,P|156:71|126:83,1,53.9999983520508,10|2,0:0|0:0,0:0:0:0:
20,209,94900,6,0,L|32:265,1,54,10|0,0:0|0:0,0:0:0:0:
57,348,95278,5,2,3:2:0:0:
79,319,95372,1,2,0:0:0:0:
121,303,95467,1,2,0:0:0:0:
168,308,95561,1,2,0:0:0:0:
218,338,95655,1,10,0:0:0:0:
278,375,95750,1,2,0:0:0:0:
357,382,95844,1,2,0:0:0:0:
431,366,95938,1,2,0:0:0:0:
478,305,96033,2,0,P|461:284|429:269,1,53.9999983520508,2|0,3:2|0:0,0:0:0:0:
219,255,96222,5,10,0:0:0:0:
182,192,96316,1,8,0:0:0:0:
219,128,96410,1,10,3:2:0:0:
292,128,96505,1,8,0:0:0:0:
329,192,96599,1,10,0:0:0:0:
292,255,96693,1,8,0:0:0:0:
256,192,96787,6,0,B|204:117|117:121|117:121|99:140|71:155,1,202.500007724762,2|0,3:2|0:0,0:0:0:0:
256,192,97165,2,0,B|346:184|386:107|386:107|379:82|380:50,1,202.500007724762,2|0,3:2|0:0,0:0:0:0:
256,192,97542,2,0,B|217:274|264:347|264:347|289:353|316:370,1,202.500007724762,2|0,3:2|0:0,0:0:0:0:
256,192,97919,6,0,P|241:172|227:159,1,40.4999987640381,2|0,3:2|0:0,0:0:0:0:
163,126,98297,5,6,3:2:0:0:
185,138,98391,1,0,0:0:0:0:
218,137,98485,1,0,0:0:0:0:
254,112,98580,1,0,3:2:0:0:
281,66,98674,1,8,0:0:0:0:
331,22,98768,1,0,0:0:0:0:
406,18,98863,1,0,3:2:0:0:
463,65,98957,1,0,0:0:0:0:
460,139,99051,2,0,P|442:150|426:178,1,45,2|0,0:0|0:0,0:0:0:0:
327,217,99240,2,0,P|327:238|343:265,1,45,2|0,3:2|0:0,0:0:0:0:
493,363,99429,2,0,L|367:337,1,116.999994644165,10|0,0:0|0:0,0:0:0:0:
174,310,99806,5,2,3:2:0:0:
187,327,99900,1,0,0:0:0:0:
183,355,99995,1,0,0:0:0:0:
148,374,100089,1,0,3:2:0:0:
100,363,100184,1,8,0:0:0:0:
82,313,100278,1,0,0:0:0:0:
101,257,100372,1,0,3:2:0:0:
163,223,100467,1,0,0:0:0:0:
192,155,100561,2,0,P|174:131|153:117,1,45,2|0,0:0|0:0,0:0:0:0:
157,21,100750,2,0,P|127:24|104:35,1,45,2|0,3:2|0:0,0:0:0:0:
37,142,100938,2,0,L|7:1,1,116.999994644165,10|0,0:0|0:0,0:0:0:0:
16,291,101316,5,2,3:2:0:0:
31,268,101410,1,0,0:0:0:0:
60,254,101504,1,0,0:0:0:0:
101,257,101599,1,0,3:2:0:0:
139,289,101693,1,8,0:0:0:0:
182,338,101787,1,0,0:0:0:0:
254,352,101882,1,0,3:2:0:0:
321,311,101976,1,0,0:0:0:0:
321,234,102070,2,0,P|297:236|267:257,1,45,2|0,0:0|0:0,0:0:0:0:
389,351,102259,2,0,P|399:329|396:292,1,45,2|0,3:2|0:0,0:0:0:0:
374,141,102448,2,0,P|419:187|489:197,1,116.999994644165,10|0,0:0|0:0,0:0:0:0:
311,50,102825,5,2,3:2:0:0:
289,29,102919,1,0,0:0:0:0:
254,16,103014,1,0,0:0:0:0:
209,25,103108,1,0,3:2:0:0:
172,58,103202,1,8,0:0:0:0:
136,107,103297,1,0,0:0:0:0:
69,125,103391,1,0,3:2:0:0:
16,73,103485,1,0,0:0:0:0:
34,0,103580,2,0,P|56:7|79:29,1,45,2|0,0:0|0:0,0:0:0:0:
48,202,103768,2,0,P|26:194|3:172,1,45,2|0,3:2|0:0,0:0:0:0:
242,101,103957,2,0,L|213:234,1,116.999994644165,10|0,0:0|1:2,0:0:0:0:
66,383,104334,5,6,3:2:0:0:
53,361,104429,1,0,0:0:0:0:
59,324,104523,1,0,0:0:0:0:
95,296,104617,1,0,3:2:0:0:
143,296,104712,1,8,0:0:0:0:
199,275,104806,1,0,0:0:0:0:
217,215,104900,1,0,3:2:0:0:
171,157,104995,1,0,0:0:0:0:
97,176,105089,2,0,P|108:202|128:220,1,45,2|0,0:0|0:0,0:0:0:0:
255,329,105278,2,0,P|272:306|277:280,1,45,2|0,3:2|0:0,0:0:0:0:
242,101,105467,2,0,B|269:100|295:80|295:80|277:106|280:143,1,116.999994644165,10|0,0:0|0:0,0:0:0:0:
410,362,105844,5,2,3:2:0:0:
440,353,105938,1,0,0:0:0:0:
461,321,106033,1,0,0:0:0:0:
455,270,106127,1,0,3:2:0:0:
410,231,106221,1,8,0:0:0:0:
361,191,106316,1,0,0:0:0:0:
357,126,106410,1,0,3:2:0:0:
416,83,106504,1,0,0:0:0:0:
487,104,106599,2,0,P|479:126|459:148,1,45,2|0,0:0|0:0,0:0:0:0:
310,250,106787,2,0,P|294:232|285:203,1,45,2|0,3:2|0:0,0:0:0:0:
239,23,106976,2,0,P|175:-1|110:9,1,116.999994644165,10|0,0:0|0:0,0:0:0:0:
135,200,107353,5,2,3:2:0:0:
154,192,107448,1,0,0:0:0:0:
171,172,107542,1,0,0:0:0:0:
167,137,107636,1,0,3:2:0:0:
124,110,107731,1,8,0:0:0:0:
63,118,107825,1,0,0:0:0:0:
22,171,107919,1,0,3:2:0:0:
42,242,108014,1,0,0:0:0:0:
107,281,108108,2,0,P|134:281|158:274,1,45,2|0,0:0|0:0,0:0:0:0:
291,290,108297,2,0,P|304:266|310:242,1,45,2|0,3:2|0:0,0:0:0:0:
281,90,108485,2,0,P|317:135|374:154,1,116.999994644165,10|0,0:0|0:0,0:0:0:0:
511,51,108863,5,2,3:2:0:0:
495,32,108957,1,0,0:0:0:0:
459,27,109051,1,0,0:0:0:0:
423,51,109146,1,0,3:2:0:0:
420,102,109240,1,8,0:0:0:0:
461,142,109334,1,0,0:0:0:0:
510,193,109429,1,0,3:2:0:0:
506,270,109523,1,0,0:0:0:0:
437,305,109617,5,2,0:0:0:0:
424,305,109712,1,0,1:2:0:0:
414,299,109806,1,2,1:2:0:0:
405,290,109900,1,0,1:2:0:0:
401,277,109995,1,10,0:0:0:0:
370,321,110089,1,8,0:0:0:0:
320,342,110184,1,8,0:0:0:0:
267,335,110278,1,8,0:0:0:0:
233,294,110372,5,4,3:2:0:0:
239,279,110467,1,0,0:0:0:0:
273,247,110561,1,0,0:0:0:0:
267,232,110656,1,0,0:0:0:0:
233,200,110750,5,8,0:0:0:0:
261,217,110844,1,0,0:0:0:0:
289,234,110938,1,0,3:2:0:0:
317,251,111033,1,0,1:2:0:0:
338,201,111127,5,0,0:0:0:0:
299,209,111221,1,0,0:0:0:0:
261,217,111315,1,0,3:2:0:0:
223,225,111410,1,0,0:0:0:0:
163,271,111504,1,8,0:0:0:0:
185,233,111599,1,0,0:0:0:0:
163,194,111693,1,0,0:0:0:0:
15,254,111882,5,2,3:2:0:0:
197,84,112070,1,0,0:0:0:0:
197,24,112165,1,0,0:0:0:0:
144,2,112260,1,8,0:0:0:0:
88,24,112354,1,0,0:0:0:0:
74,80,112448,6,0,P|91:100|97:130,1,45,0|0,3:2|1:0,0:0:0:0:
15,254,112636,2,0,P|23:229|46:209,1,45
152,218,112825,2,0,P|174:222|196:218,1,45,0|0,3:2|0:0,0:0:0:0:
381,207,113013,2,0,P|373:185|358:169,1,45,8|0,0:0|0:0,0:0:0:0:
270,279,113202,2,0,P|284:261|291:240,1,45
312,99,113391,5,2,3:2:0:0:
324,85,113485,1,0,0:0:0:0:
342,79,113580,1,0,0:0:0:0:
360,81,113674,1,0,0:0:0:0:
428,126,113768,1,8,0:0:0:0:
483,64,113863,5,0,0:0:0:0:
471,50,113957,1,0,3:2:0:0:
453,44,114052,1,0,1:0:0:0:
435,46,114146,1,0,0:0:0:0:
360,81,114240,5,0,0:0:0:0:
342,83,114334,1,0,3:2:0:0:
324,77,114429,1,0,0:0:0:0:
312,63,114523,1,8,0:0:0:0:
245,16,114617,5,0,0:0:0:0:
227,14,114711,1,0,0:0:0:0:
209,20,114806,1,0,0:0:0:0:
206,64,114900,5,2,3:2:0:0:
197,34,114995,1,0,0:0:0:0:
161,21,115089,1,0,0:0:0:0:
124,35,115184,1,0,0:0:0:0:
50,76,115278,1,8,0:0:0:0:
118,117,115372,5,0,0:0:0:0:
122,140,115467,1,0,3:2:0:0:
111,158,115561,1,0,1:0:0:0:
40,196,115655,5,0,0:0:0:0:
36,219,115750,1,0,0:0:0:0:
47,237,115844,1,0,3:2:0:0:
123,265,115938,2,0,P|108:291|92:305,1,45,0|8,0:0|0:0,0:0:0:0:
0,368,116127,2,0,P|30:367|50:374,2,45
162,356,116410,6,0,P|177:339|187:319,1,45,2|0,3:2|0:0,0:0:0:0:
231,199,116599,1,0,0:0:0:0:
222,215,116693,2,0,P|228:236|240:255,1,45,0|8,0:0|0:0,0:0:0:0:
329,357,116882,1,0,0:0:0:0:
352,329,116976,1,0,3:2:0:0:
390,319,117070,1,0,1:0:0:0:
428,333,117165,5,0,0:0:0:0:
433,316,117259,1,0,0:0:0:0:
461,237,117353,1,0,3:2:0:0:
466,220,117447,1,0,0:0:0:0:
494,141,117542,1,8,0:0:0:0:
473,144,117636,1,0,0:0:0:0:
452,147,117731,1,0,0:0:0:0:
512,300,117919,5,2,3:2:0:0:
334,167,118108,2,0,B|335:122|382:111|382:111|372:134|375:151,1,116.999994644165,0|8,0:0|0:0,0:0:0:0:
240,255,118391,2,0,B|200:276|167:241|167:241|192:238|205:227,1,116.999994644165,0|0,0:0|1:0,0:0:0:0:
364,293,118674,2,0,B|402:316|388:362|388:362|373:342|357:336,1,116.999994644165,0|0,0:0|3:2,0:0:0:0:
169,163,118957,1,0,0:0:0:0:
169,163,119051,2,0,L|194:43,1,116.999994644165,8|0,0:0|0:0,0:0:0:0:
37,121,119429,6,0,L|83:111,1,45,2|0,3:2|0:0,0:0:0:0:
264,86,119617,1,0,0:0:0:0:
267,71,119711,1,0,0:0:0:0:
270,56,119805,1,8,0:0:0:0:
328,5,119900,5,0,0:0:0:0:
355,39,119995,1,0,3:2:0:0:
399,37,120089,1,0,1:0:0:0:
483,15,120184,1,0,0:0:0:0:
483,15,120278,2,0,L|472:63,1,45,0|0,0:0|3:2,0:0:0:0:
428,161,120467,2,0,L|417:112,1,45,0|8,0:0|0:0,0:0:0:0:
270,56,120655,5,0,0:0:0:0:
267,71,120749,1,0,0:0:0:0:
264,86,120843,1,0,0:0:0:0:
301,110,120938,5,2,3:2:0:0:
261,101,121032,1,0,0:0:0:0:
221,92,121127,1,0,0:0:0:0:
181,83,121221,1,0,0:0:0:0:
142,23,121316,5,8,0:0:0:0:
115,37,121410,1,0,0:0:0:0:
39,40,121504,1,0,3:2:0:0:
37,70,121598,1,0,1:0:0:0:
3,136,121693,1,0,0:0:0:0:
28,153,121787,1,0,0:0:0:0:
97,191,121882,5,0,3:2:0:0:
137,160,121976,1,0,0:0:0:0:
188,168,122070,1,8,0:0:0:0:
217,210,122165,1,0,0:0:0:0:
207,260,122259,1,0,0:0:0:0:
165,288,122353,1,0,0:0:0:0:
115,276,122448,6,0,P|93:264|71:260,1,44.5499998640442,6|0,3:2|0:0,0:0:0:0:
78,251,122825,6,0,P|99:255|119:266,1,45,8|0,0:0|0:0,0:0:0:0:
219,365,123014,1,0,3:2:0:0:
235,367,123108,2,0,P|256:363|276:352,1,45,0|0,1:0|0:0,0:0:0:0:
364,223,123297,1,0,0:0:0:0:
384,232,123391,1,0,3:2:0:0:
401,247,123485,1,0,0:0:0:0:
416,299,123580,5,8,0:0:0:0:
416,265,123674,1,0,0:0:0:0:
440,231,123768,1,0,0:0:0:0:
478,216,123863,1,0,0:0:0:0:
500,299,123957,5,2,3:2:0:0:
500,299,124051,1,0,0:0:0:0:
458,370,124146,2,0,P|428:381|391:374,1,45
308,384,124334,2,0,P|283:363|271:327,1,45,8|0,0:0|0:0,0:0:0:0:
220,261,124523,1,0,3:2:0:0:
220,261,124617,1,0,1:0:0:0:
220,261,124711,2,0,P|225:229|250:200,1,45
246,98,124900,1,0,3:2:0:0:
221,121,124994,1,0,0:0:0:0:
192,137,125088,1,8,0:0:0:0:
159,144,125183,1,0,0:0:0:0:
125,142,125277,1,0,0:0:0:0:
205,29,125467,6,0,B|268:-9|320:55|320:55|323:103|378:115,1,202.500007724762,2|0,3:2|0:0,0:0:0:0:
433,65,125844,2,0,B|427:46|432:19|432:19|411:40|391:44,1,90,8|0,0:0|3:2,0:0:0:0:
396,42,126127,1,0,1:0:0:0:
396,42,126221,1,0,0:0:0:0:
394,181,126410,2,0,P|418:168|432:146,1,45,2|0,3:2|0:0,0:0:0:0:
246,98,126599,2,0,L|268:203,1,90,10|2,0:0|0:0,0:0:0:0:
189,340,126976,6,0,B|180:324|160:314|160:314|152:278|190:223|259:243|263:293,1,202.500007724762,0|0,3:2|0:0,0:0:0:0:
124,384,127353,2,0,P|103:375|90:356,1,45,8|0,0:0|0:0,0:0:0:0:
35,267,127542,1,0,3:2:0:0:
35,267,127636,1,0,1:0:0:0:
35,267,127731,2,0,L|89:278,1,45,2|0,0:0|0:0,0:0:0:0:
270,370,127920,1,0,3:2:0:0:
264,186,128108,6,0,P|237:177|218:177,1,44.5499998640442,10|0,0:0|0:0,0:0:0:0:
143,194,128485,6,0,B|199:167|206:115|206:115|188:94|183:75,1,135.000005149842,2|0,3:2|0:0,0:0:0:0:
117,119,128768,1,0,0:0:0:0:
241,30,128863,2,0,B|189:-4|141:14|141:14|131:41|117:54,1,135.000005149842,8|0,0:0|3:2,0:0:0:0:
189,90,129146,1,0,1:0:0:0:
50,27,129240,2,0,P|49:47|58:81,1,45
143,194,129429,2,0,P|160:184|185:160,1,45,0|0,3:2|0:0,0:0:0:0:
245,35,129617,1,8,0:0:0:0:
245,35,129712,2,0,P|228:24|194:15,2,45
445,154,129995,5,2,3:2:0:0:
497,51,130184,1,0,0:0:0:0:
489,38,130278,1,0,0:0:0:0:
481,26,130372,2,0,L|427:37,1,45,8|0,0:0|0:0,0:0:0:0:
304,90,130561,1,0,3:2:0:0:
304,90,130655,1,0,1:0:0:0:
304,90,130750,2,0,L|358:101,1,45,2|0,0:0|0:0,0:0:0:0:
429,233,130938,2,0,P|407:228|382:197,1,45,2|0,3:2|0:0,0:0:0:0:
337,335,131127,2,0,P|351:318|391:312,1,45,10|0,0:0|0:0,0:0:0:0:
294,204,131316,2,0,P|300:224|286:262,1,45,2|0,0:0|0:0,0:0:0:0:
113,361,131504,6,0,B|131:277|227:278|227:278|237:307|269:320,1,202.500007724762,2|0,3:2|0:0,0:0:0:0:
230,382,131882,2,0,P|205:373|187:350,1,45,10|0,0:0|0:0,0:0:0:0:
111,228,132070,1,0,3:2:0:0:
111,228,132165,1,0,1:0:0:0:
111,228,132259,2,0,B|59:239|10:214|10:214|51:249|48:301,1,202.500007724762,2|0,0:0|0:0,0:0:0:0:
113,361,132636,6,0,B|131:277|227:278|227:278|237:307|269:320,1,202.500007724762,10|0,0:0|0:0,0:0:0:0:
294,204,133014,2,0,P|300:224|286:262,1,45,2|0,3:2|0:0,0:0:0:0:
230,382,133202,2,0,P|205:373|187:350,1,45
111,228,133391,1,8,0:0:0:0:
336,316,133580,2,0,P|359:300|366:283,1,45,0|0,3:2|1:0,0:0:0:0:
365,75,133768,5,2,0:0:0:0:
438,52,133863,1,2,0:0:0:0:
498,96,133957,1,2,3:2:0:0:
494,173,134051,1,2,0:0:0:0:
434,220,134146,1,10,0:0:0:0:
423,207,134240,1,2,0:0:0:0:
407,200,134334,1,0,1:2:0:0:
390,193,134429,1,0,1:2:0:0:
370,193,134523,6,0,L|357:135,1,45,6|0,3:2|0:0,0:0:0:0:
225,30,134712,1,0,0:0:0:0:
225,30,134806,1,0,0:0:0:0:
142,44,134900,5,8,0:0:0:0:
181,62,134995,1,0,0:0:0:0:
202,101,135089,1,0,3:2:0:0:
197,151,135184,1,0,1:0:0:0:
147,197,135278,5,0,0:0:0:0:
154,137,135372,1,0,0:0:0:0:
202,101,135467,1,0,3:2:0:0:
268,100,135561,1,0,0:0:0:0:
318,136,135655,6,0,P|308:194|269:239,1,116.999994644165,8|0,0:0|0:0,0:0:0:0:
212,293,135938,1,0,0:0:0:0:
289,319,136033,2,0,P|344:298|402:309,1,116.999994644165,2|0,3:2|0:0,0:0:0:0:
477,332,136316,1,0,0:0:0:0:
462,253,136410,2,0,P|416:215|397:159,1,116.999994644165,8|0,0:0|3:2,0:0:0:0:
379,82,136693,1,0,1:0:0:0:
260,95,136787,5,0,0:0:0:0:
220,97,136882,1,0,0:0:0:0:
188,76,136976,1,0,3:2:0:0:
182,42,137070,1,0,0:0:0:0:
192,0,137165,2,0,L|131:12,1,45,8|0,0:0|0:0,0:0:0:0:
56,131,137353,2,0,L|117:119,1,45
47,0,137542,6,0,L|55:44,1,45,2|0,3:2|0:0,0:0:0:0:
67,243,137731,1,0,0:0:0:0:
54,230,137825,1,0,0:0:0:0:
31,222,137919,5,8,0:0:0:0:
75,212,138013,1,0,0:0:0:0:
119,203,138107,1,0,3:2:0:0:
163,193,138202,1,0,1:0:0:0:
207,184,138297,2,0,L|195:238,1,45
77,335,138485,1,0,3:2:0:0:
64,348,138579,1,0,0:0:0:0:
41,356,138674,6,0,L|100:343,1,45,8|0,0:0|0:0,0:0:0:0:
240,309,138863,1,0,0:0:0:0:
240,309,138957,1,0,0:0:0:0:
168,351,139051,6,0,L|158:307,1,45,2|0,3:2|0:0,0:0:0:0:
288,194,139240,1,0,0:0:0:0:
288,194,139334,2,0,L|276:248,1,45,0|8,0:0|0:0,0:0:0:0:
357,377,139523,1,0,0:0:0:0:
401,356,139617,1,0,3:2:0:0:
419,308,139712,1,0,1:0:0:0:
343,300,139806,1,0,0:0:0:0:
343,300,139900,1,0,0:0:0:0:
424,263,139995,2,0,P|411:244|389:225,1,45,0|0,3:2|0:0,0:0:0:0:
296,108,140184,2,0,L|430:136,1,116.999994644165,8|0,0:0|1:2,0:0:0:0:
492,141,140467,1,0,1:2:0:0:
500,57,140561,5,2,3:2:0:0:
491,25,140655,1,0,0:0:0:0:
454,0,140750,1,0,0:0:0:0:
408,0,140844,1,0,0:0:0:0:
367,16,140938,2,0,P|349:34|313:49,1,45,8|0,0:0|0:0,0:0:0:0:
179,114,141127,5,0,3:2:0:0:
179,114,141221,1,0,1:0:0:0:
254,91,141316,2,0,P|278:97|309:121,1,45
90,143,141504,1,0,3:2:0:0:
107,66,141599,2,0,P|125:48|161:32,1,45,0|8,0:0|0:0,0:0:0:0:
11,180,141787,2,0,P|4:155|9:116,2,45
120,332,142070,5,2,3:2:0:0:
160,315,142165,1,0,0:0:0:0:
178,275,142259,1,0,0:0:0:0:
162,234,142353,1,0,0:0:0:0:
121,217,142448,1,8,0:0:0:0:
81,233,142542,1,0,0:0:0:0:
63,273,142636,1,0,3:2:0:0:
120,332,142731,2,0,P|138:355|178:369,1,45,0|0,1:0|0:0,0:0:0:0:
284,311,142919,2,0,P|255:315|222:342,2,45,0|0|0,0:0|3:2|0:0,0:0:0:0:
456,346,143202,2,0,P|432:278|384:244,1,116.999994644165,8|0,0:0|0:0,0:0:0:0:
316,102,143580,5,2,3:2:0:0:
387,145,143674,2,0,L|445:132,1,45,2|0,0:0|0:0,0:0:0:0:
314,15,143863,1,2,0:0:0:0:
243,58,143957,2,0,L|184:45,1,45,10|0,0:0|0:0,0:0:0:0:
316,102,144146,5,2,3:2:0:0:
387,145,144240,2,0,L|445:132,1,45,2|0,1:2|0:0,0:0:0:0:
313,189,144429,1,2,0:0:0:0:
242,146,144523,2,0,L|183:158,1,45,2|0,3:2|0:0,0:0:0:0:
314,15,144712,5,10,0:0:0:0:
385,58,144806,2,0,L|443:45,1,45,2|0,0:0|0:0,0:0:0:0:
316,102,144995,1,2,0:0:0:0:
243,58,145089,2,0,L|184:45,1,45,2|0,3:2|0:0,0:0:0:0:
313,189,145278,5,0,0:0:0:0:
387,145,145372,1,0,0:0:0:0:
385,58,145467,1,8,0:0:0:0:
314,15,145561,1,0,0:0:0:0:
243,58,145655,2,0,L|254:109,1,45,0|0,3:2|1:0,0:0:0:0:
281,318,145844,6,0,B|241:292|182:295|172:359|178:360|131:428|64:400|28:339|61:251|137:274|153:305|150:329,1,323.999990112305,2|8,0:0|0:0,0:0:0:0:
16,379,146410,1,0,1:2:0:0:
16,379,146504,1,0,1:2:0:0:
16,379,146599,2,0,P|8:362|6:332,1,45,2|0,3:2|0:0,0:0:0:0:
0,218,146787,2,0,P|10:202|35:185,1,45
181,99,146976,5,8,0:0:0:0:
142,120,147070,1,0,0:0:0:0:
98,121,147164,1,0,3:2:0:0:
58,101,147259,1,0,1:0:0:0:
31,66,147353,1,0,0:0:0:0:
23,22,147448,2,0,P|46:29|66:49,1,45,0|0,0:0|3:2,0:0:0:0:
201,184,147636,1,0,0:0:0:0:
201,184,147731,2,0,P|218:169|239:163,1,45,8|0,0:0|0:0,0:0:0:0:
391,168,147919,5,0,0:0:0:0:
391,168,148014,1,0,0:0:0:0:
391,168,148108,2,0,L|379:113,1,45,2|0,3:2|0:0,0:0:0:0:
483,29,148297,2,0,L|471:84,1,45
314,82,148485,1,8,0:0:0:0:
314,82,148580,2,0,P|330:62|356:50,1,45,0|0,0:0|3:2,0:0:0:0:
479,177,148768,1,0,1:0:0:0:
472,199,148863,5,0,0:0:0:0:
440,235,148957,1,0,0:0:0:0:
391,251,149051,1,0,3:2:0:0:
341,239,149146,1,0,0:0:0:0:
341,239,149429,5,0,0:0:0:0:
391,251,149523,1,0,0:0:0:0:
427,289,149617,1,2,3:2:0:0:
436,340,149712,1,0,0:0:0:0:
436,340,149995,5,8,0:0:0:0:
358,344,150089,2,0,P|347:325|313:312,1,45,0|0,0:0|3:2,0:0:0:0:
290,381,150278,1,0,1:0:0:0:
290,381,150561,5,0,3:2:0:0:
240,369,150655,1,0,0:0:0:0:
204,331,150749,1,8,0:0:0:0:
195,280,150844,1,0,0:0:0:0:
195,280,151127,6,0,P|184:299|150:312,1,45,2|0,3:2|0:0,0:0:0:0:
29,335,151316,1,0,0:0:0:0:
63,336,151410,1,0,0:0:0:0:
83,365,151504,5,8,0:0:0:0:
75,319,151599,1,0,0:0:0:0:
67,273,151693,1,0,3:2:0:0:
59,227,151787,1,0,1:0:0:0:
0,166,151882,5,0,0:0:0:0:
8,120,151976,1,0,0:0:0:0:
16,74,152070,2,0,P|34:92|70:103,1,45,0|0,3:2|0:0,0:0:0:0:
202,94,152259,2,0,B|220:68|214:16|146:2|117:51|117:51|130:69|131:91,1,175.499991966248,8|0,0:0|0:0,0:0:0:0:
138,150,152636,6,0,P|156:167|183:175,1,45,2|0,3:2|0:0,0:0:0:0:
263,163,152825,1,2,0:0:0:0:
263,163,152919,1,2,0:0:0:0:
227,243,153014,2,0,P|210:261|202:288,1,45,10|0,0:0|0:0,0:0:0:0:
214,368,153203,1,2,3:2:0:0:
214,368,153297,1,2,1:2:0:0:
134,332,153391,6,0,P|116:315|89:307,1,45,2|0,0:0|0:0,0:0:0:0:
9,319,153580,1,2,3:2:0:0:
9,319,153674,1,2,0:0:0:0:
45,239,153768,2,0,P|62:221|70:194,1,45,10|0,0:0|0:0,0:0:0:0:
58,114,153957,1,2,0:0:0:0:
58,114,154051,1,2,0:0:0:0:
69,202,154146,6,0,P|60:223|45:239,1,45,2|0,3:2|0:0,0:0:0:0:
9,319,154334,1,2,0:0:0:0:
9,319,154428,1,2,0:0:0:0:
97,307,154523,2,0,P|118:316|134:332,1,45,10|0,0:0|0:0,0:0:0:0:
214,368,154712,1,2,3:2:0:0:
214,368,154806,1,2,1:2:0:0:
202,279,154900,6,0,P|211:258|227:243,1,45,2|0,0:0|0:0,0:0:0:0:
69,201,155089,2,0,P|60:222|44:239,1,45,2|0,3:2|0:0,0:0:0:0:
133,331,155278,2,0,P|117:315|97:307,1,45,10|0,0:0|0:0,0:0:0:0:
137,149,155467,2,0,P|153:165|174:174,1,45,2|0,0:0|0:0,0:0:0:0:
397,144,155655,6,0,B|337:209|261:167|261:167|260:132|231:112,1,202.500007724762,2|0,3:2|0:0,0:0:0:0:
419,69,156033,2,0,B|452:64|478:35|478:35|459:74|468:114,1,135.000005149842,10|0,0:0|3:2,0:0:0:0:
320,53,156316,1,0,1:0:0:0:
320,53,156410,2,0,B|260:-12|184:30|184:30|183:65|154:85,1,202.500007724762,2|0,0:0|0:0,0:0:0:0:
58,92,156787,2,0,B|2:80|8:16|8:16|66:-11|102:28,1,202.500007724762,10|0,0:0|0:0,0:0:0:0:
397,144,157165,6,0,P|244:241|113:365,3,360,6|6|6|6,3:2|3:2|3:2|3:2,0:0:0:0:
253,191,158674,5,0,0:0:0:0:
253,191,158863,1,0,0:0:0:0:
253,191,159051,6,0,P|278:202|299:228,1,53.9999983520508,6|0,3:2|0:0,0:0:0:0:
400,370,159240,1,0,0:0:0:0:
460,326,159334,1,0,0:0:0:0:
471,253,159428,1,8,0:0:0:0:
429,193,159523,1,0,0:0:0:0:
356,180,159617,1,0,3:2:0:0:
295,221,159711,1,0,0:0:0:0:
284,295,159806,2,0,P|304:323|344:338,1,53.9999983520508,2|0,0:0|0:0,0:0:0:0:
501,159,159995,2,0,P|481:131|441:116,1,53.9999983520508,2|0,3:2|0:0,0:0:0:0:
300,58,160184,6,0,B|293:77|269:98|269:98|423:65,1,202.500007724762,10|0,0:0|0:0,0:0:0:0:
224,30,160561,2,0,L|162:16,1,53.9999983520508,2|0,3:2|0:0,0:0:0:0:
33,0,160750,1,0,0:0:0:0:
13,71,160844,1,0,0:0:0:0:
67,125,160938,1,8,0:0:0:0:
138,153,161033,1,0,0:0:0:0:
161,224,161127,1,2,3:2:0:0:
135,296,161221,1,2,0:0:0:0:
60,317,161316,2,0,P|59:287|74:249,1,53.9999983520508,2|0,0:0|0:0,0:0:0:0:
236,363,161504,2,0,P|210:378|170:384,1,53.9999983520508,2|0,3:2|0:0,0:0:0:0:
221,165,161693,6,0,B|287:104|361:157|361:157|367:192|403:214,1,202.500007724762,10|0,0:0|0:0,0:0:0:0:
489,121,162070,2,0,P|461:128|433:153,1,53.9999983520508,2|0,3:2|0:0,0:0:0:0:
357,339,162259,1,0,0:0:0:0:
432,345,162353,1,0,0:0:0:0:
470,278,162448,2,0,L|458:222,1,53.9999983520508,8|0,0:0|0:0,0:0:0:0:
425,26,162636,1,2,3:2:0:0:
406,12,162730,1,2,0:0:0:0:
339,0,162825,1,2,0:0:0:0:
268,23,162919,1,0,0:0:0:0:
225,81,163014,2,0,L|238:142,1,53.9999983520508,2|0,3:2|0:0,0:0:0:0:
236,363,163202,6,0,B|165:349|132:259|230:217|255:253|251:291,1,202.500007724762,10|0,0:0|0:0,0:0:0:0:
126,381,163580,2,0,P|110:360|103:331,1,53.9999983520508,2|0,3:2|0:0,0:0:0:0:
0,255,163768,2,0,P|10:230|31:210,1,53.9999983520508
225,81,163957,2,0,P|214:105|193:125,1,53.9999983520508,8|0,0:0|0:0,0:0:0:0:
178,253,164145,2,0,P|151:256|123:247,1,53.9999983520508,0|0,3:2|0:0,0:0:0:0:
50,116,164334,5,2,0:0:0:0:
0,66,164429,1,0,0:0:0:0:
32,3,164523,1,2,3:2:0:0:
101,14,164618,1,0,0:0:0:0:
112,83,164712,5,10,0:0:0:0:
101,14,164806,1,0,0:0:0:0:
32,3,164901,1,2,0:0:0:0:
0,66,164995,1,0,0:0:0:0:
50,116,165089,6,0,P|77:88|123:87,1,76.5000014591217,6|0,3:2|0:0,0:0:0:0:
287,132,165278,1,0,0:0:0:0:
365,123,165372,1,0,0:0:0:0:
393,50,165467,1,8,0:0:0:0:
315,58,165561,1,0,0:0:0:0:
287,132,165655,1,0,3:2:0:0:
333,200,165750,1,0,0:0:0:0:
411,188,165844,2,0,P|436:163|443:132,1,53.9999983520508,2|0,0:0|0:0,0:0:0:0:
207,143,166033,2,0,P|216:177|239:198,1,53.9999983520508,2|0,3:2|0:0,0:0:0:0:
346,361,166221,6,0,B|399:398|456:345|456:345|472:294|539:290,1,202.500007724762,10|0,0:0|0:0,0:0:0:0:
325,280,166599,2,0,P|298:290|272:314,1,53.9999983520508,2|0,3:2|0:0,0:0:0:0:
85,384,166787,2,0,L|99:313,1,53.9999983520508
132,161,166976,1,8,0:0:0:0:
64,195,167070,1,0,0:0:0:0:
0,153,167165,1,0,3:2:0:0:
4,78,167259,1,2,0:0:0:0:
72,44,167353,2,0,L|134:57,1,53.9999983520508,2|0,0:0|0:0,0:0:0:0:
304,18,167542,2,0,P|273:30|251:61,1,53.9999983520508,2|0,3:2|0:0,0:0:0:0:
441,145,167731,6,0,B|429:92|459:46|459:46|419:86|349:85,1,202.500007724762,10|0,0:0|0:0,0:0:0:0:
207,143,168108,2,0,L|220:204,1,53.9999983520508,2|0,3:2|0:0,0:0:0:0:
346,361,168297,1,0,0:0:0:0:
419,380,168391,1,0,0:0:0:0:
473,325,168484,1,8,0:0:0:0:
453,253,168580,1,0,0:0:0:0:
380,234,168674,2,0,L|316:247,1,53.9999983520508,0|0,3:2|0:0,0:0:0:0:
88,315,168863,6,0,P|116:325|136:360,1,53.9999983520508,2|0,0:0|0:0,0:0:0:0:
43,173,169051,2,0,P|24:193|17:218,1,53.9999983520508,2|0,3:2|0:0,0:0:0:0:
218,195,169240,2,0,P|210:170|192:151,1,53.9999983520508,10|0,0:0|0:0,0:0:0:0:
131,343,169429,2,0,P|142:319|165:305,1,53.9999983520508,2|0,0:0|0:0,0:0:0:0:
380,234,169617,5,2,3:2:0:0:
415,207,169712,1,0,1:2:0:0:
427,162,169806,1,0,1:2:0:0:
411,107,169900,1,0,1:2:0:0:
355,69,169995,1,2,3:2:0:0:
279,68,170089,1,0,1:0:0:0:
224,121,170184,1,0,3:2:0:0:
218,195,170278,1,0,1:2:0:0:
263,255,170372,1,2,1:2:0:0:
281,316,170467,1,0,1:2:0:0:
262,368,170561,1,0,3:2:0:0:
219,384,170655,1,0,1:2:0:0:
175,375,170749,1,10,3:2:0:0:
157,348,170843,1,8,0:0:0:0:
159,324,170937,1,8,0:0:0:0:
169,310,171032,1,8,0:0:0:0:
182,304,171126,6,0,P|160:322|122:332,1,53.9999983520508,6|0,3:2|0:0,0:0:0:0:
16,205,171315,1,0,0:0:0:0:
45,140,171409,1,0,0:0:0:0:
110,103,171503,1,8,0:0:0:0:
183,104,171598,1,0,0:0:0:0:
245,146,171692,1,0,3:2:0:0:
287,162,171786,1,0,0:0:0:0:
326,148,171881,1,2,0:0:0:0:
341,109,171975,1,0,0:0:0:0:
331,79,172069,1,2,3:2:0:0:
306,67,172164,1,0,0:0:0:0:
284,71,172258,5,10,0:0:0:0:
305,101,172352,1,0,0:0:0:0:
341,109,172447,1,0,0:0:0:0:
394,93,172541,1,0,0:0:0:0:
419,35,172635,6,0,L|431:93,1,53.9999983520508,2|0,3:2|0:0,0:0:0:0:
455,357,172824,1,0,0:0:0:0:
487,290,172918,1,0,0:0:0:0:
456,224,173013,1,8,0:0:0:0:
383,214,173107,1,0,0:0:0:0:
332,268,173201,5,2,3:2:0:0:
299,254,173296,1,0,0:0:0:0:
257,214,173389,1,2,0:0:0:0:
231,230,173484,1,0,0:0:0:0:
182,268,173578,1,2,3:2:0:0:
149,254,173673,1,0,0:0:0:0:
107,214,173767,5,10,0:0:0:0:
92,219,173862,1,0,0:0:0:0:
77,224,173956,1,0,0:0:0:0:
62,229,174051,1,0,0:0:0:0:
47,234,174145,6,0,L|58:179,1,53.9999983520508,2|0,3:2|0:0,0:0:0:0:
177,31,174334,1,0,0:0:0:0:
115,0,174428,1,0,0:0:0:0:
55,38,174522,1,8,0:0:0:0:
59,108,174617,1,0,0:0:0:0:
122,139,174711,1,2,3:2:0:0:
182,102,174805,1,0,0:0:0:0:
119,69,174900,5,2,0:0:0:0:
52,117,174994,1,0,0:0:0:0:
109,74,175088,1,2,3:2:0:0:
102,6,175183,1,0,0:0:0:0:
109,74,175277,5,10,0:0:0:0:
174,104,175371,1,0,0:0:0:0:
234,96,175466,1,0,0:0:0:0:
266,68,175560,1,0,0:0:0:0:
274,33,175654,5,2,3:2:0:0:
281,73,175749,1,0,0:0:0:0:
329,100,175843,1,0,0:0:0:0:
322,140,175937,1,0,0:0:0:0:
274,167,176032,5,8,0:0:0:0:
281,207,176126,1,0,0:0:0:0:
329,234,176221,1,0,3:2:0:0:
322,274,176315,1,0,0:0:0:0:
290,332,176409,5,2,0:0:0:0:
322,274,176503,1,0,0:0:0:0:
388,265,176598,1,2,3:2:0:0:
435,314,176692,1,0,0:0:0:0:
422,383,176786,5,10,0:0:0:0:
435,314,176881,1,0,0:0:0:0:
388,265,176975,1,2,0:0:0:0:
322,274,177070,1,0,0:0:0:0:
290,332,177164,6,0,P|269:356|231:371,1,53.9999983520508,6|0,3:2|0:0,0:0:0:0:
53,365,177352,1,0,0:0:0:0:
43,293,177447,1,0,0:0:0:0:
87,235,177541,1,8,0:0:0:0:
157,218,177635,1,0,0:0:0:0:
231,213,177730,1,0,3:2:0:0:
266,149,177824,1,0,0:0:0:0:
237,81,177918,5,2,0:0:0:0:
199,88,178013,1,0,0:0:0:0:
115,108,178107,1,2,3:2:0:0:
77,115,178202,1,0,0:0:0:0:
106,47,178296,5,10,0:0:0:0:
146,72,178390,1,0,0:0:0:0:
186,97,178484,1,0,0:0:0:0:
226,122,178579,1,0,0:0:0:0:
266,149,178673,6,0,P|298:141|324:116,1,53.9999983520508,2|0,3:2|0:0,0:0:0:0:
508,51,178862,1,0,0:0:0:0:
450,9,178956,1,0,0:0:0:0:
383,35,179051,1,8,0:0:0:0:
383,105,179145,1,0,0:0:0:0:
443,148,179239,1,0,3:2:0:0:
478,213,179334,1,0,0:0:0:0:
438,274,179428,5,2,0:0:0:0:
404,268,179522,1,0,0:0:0:0:
357,210,179617,1,2,3:2:0:0:
323,216,179711,1,0,0:0:0:0:
272,273,179805,5,10,0:0:0:0:
238,229,179900,1,0,0:0:0:0:
188,222,179994,1,0,0:0:0:0:
146,239,180088,1,0,0:0:0:0:
122,275,180183,6,0,P|118:308|135:338,1,53.9999983520508,2|0,3:2|0:0,0:0:0:0:
353,363,180371,1,0,0:0:0:0:
336,289,180466,1,0,0:0:0:0:
323,216,180560,1,8,0:0:0:0:
308,145,180654,1,0,0:0:0:0:
295,72,180749,6,0,L|283:17,1,53.9999983520508,0|0,3:2|0:0,0:0:0:0:
151,166,180937,6,0,L|94:154,1,53.9999983520508,2|0,0:0|0:0,0:0:0:0:
49,238,181126,2,0,L|105:249,1,53.9999983520508,2|0,3:2|0:0,0:0:0:0:
404,153,181315,6,0,L|461:141,1,53.9999983520508,10|0,0:0|0:0,0:0:0:0:
506,225,181504,2,0,L|450:236,1,53.9999983520508,2|0,0:0|0:0,0:0:0:0:
113,100,181692,5,2,3:2:0:0:
151,166,181786,1,0,1:2:0:0:
189,232,181881,1,0,1:2:0:0:
227,298,181975,1,0,1:2:0:0:
161,336,182069,5,2,3:2:0:0:
227,298,182163,1,0,1:0:0:0:
293,260,182258,1,0,3:2:0:0:
359,222,182352,1,0,1:2:0:0:
397,288,182447,5,2,1:2:0:0:
359,222,182541,1,0,1:2:0:0:
321,156,182636,1,0,3:2:0:0:
283,90,182730,1,0,1:2:0:0:
349,52,182824,5,10,3:2:0:0:
283,90,182918,1,8,0:0:0:0:
217,128,183013,1,8,0:0:0:0:
151,166,183107,1,8,0:0:0:0:
256,194,183201,5,6,3:2:0:0:
