osu file format v14

[General]
AudioFilename: audio.mp3
AudioLeadIn: 1000
PreviewTime: 2059
Countdown: 0
SampleSet: Soft
StackLeniency: 0.7
Mode: 0
LetterboxInBreaks: 0
WidescreenStoryboard: 1

[Editor]
Bookmarks: 18811
DistanceSpacing: 2.3
BeatDivisor: 6
GridSize: 4
TimelineZoom: 2.6

[Metadata]
Title:Unknown Mother-Goose feat. Hatsune Miku
TitleUnicode:アンノウン・マザーグース feat. 初音ミク
Artist:wowaka
ArtistUnicode:wowaka
Creator:tutuhaha
Version:Extra
Source:
Tags:vocaloid cut ver HabiHolic
BeatmapID:1393711
BeatmapSetID:658008

[Difficulty]
HPDrainRate:7
CircleSize:4
OverallDifficulty:9
ApproachRate:9.3
SliderMultiplier:1.9
SliderTickRate:1

[Events]
//Background and Video events
0,0,"bggg.jpg",0,0
//Break Periods
2,37394,38802
2,54691,62766
//Storyboard Layer 0 (Background)
//Storyboard Layer 1 (Fail)
//Storyboard Layer 2 (Pass)
//Storyboard Layer 3 (Foreground)
//Storyboard Sound Samples

[TimingPoints]
2600,270.27027027027,4,1,1,51,1,0
20302,-83.3333333333333,4,1,1,51,0,0
20708,-100,4,1,1,51,0,0
21113,-83.3333333333333,4,1,1,51,0,0
21518,-76.9230769230769,4,1,1,51,0,0
22059,-100,4,1,1,51,0,0
22464,-83.3333333333333,4,1,1,51,0,0
22870,-100,4,1,1,51,0,0
23275,-83.3333333333333,4,1,1,51,0,0
23681,-76.9230769230769,4,1,1,51,0,0
24221,-100,4,1,1,51,0,0
24627,-83.3333333333333,4,1,1,51,0,0
25032,-100,4,1,1,51,0,0
25437,-83.3333333333333,4,1,1,51,0,0
25843,-76.9230769230769,4,1,1,51,0,0
26383,-100,4,1,1,51,0,0
26789,-83.3333333333333,4,1,1,51,0,0
27194,-100,4,1,1,51,0,0
27599,-83.3333333333333,4,1,1,51,0,0
28005,-76.9230769230769,4,1,1,51,0,0
28545,-100,4,1,1,51,0,0
28951,-83.3333333333333,4,1,1,51,0,0
29356,-100,4,1,1,51,0,0
29762,-83.3333333333333,4,1,1,51,0,0
30167,-76.9230769230769,4,1,1,51,0,0
30708,-100,4,1,1,51,0,0
31113,-83.3333333333333,4,1,1,51,0,0
31518,-100,4,1,1,51,0,0
31924,-83.3333333333333,4,1,1,51,0,0
32329,-76.9230769230769,4,1,1,51,0,0
32870,-100,4,1,1,51,0,0
33275,-83.3333333333333,4,1,1,51,0,0
33681,-100,4,1,1,51,0,0
34086,-83.3333333333333,4,1,1,51,0,0
34491,-76.9230769230769,4,1,1,51,0,0
35032,-100,4,1,1,51,0,0
35437,-83.3333333333333,4,1,1,51,0,0
35843,-100,4,1,1,51,0,0
36248,-83.3333333333333,4,1,1,51,0,0
39356,-100,4,1,1,51,0,0
45032,-83.3333333333333,4,1,1,51,0,0
45572,-100,4,1,1,51,0,0
71248,-83.3333333333333,4,1,1,51,0,0
71699,-83.3333333333333,4,2,1,51,0,0
71826,540.540540540541,4,2,2,51,1,0
72366,-133.333333333333,4,2,2,51,0,0
72907,-100,4,2,2,51,0,0
73988,-133.333333333333,4,2,2,51,0,0
76150,-100,4,2,2,51,0,0
78853,-133.333333333333,4,2,2,51,0,0
79393,-153.846153846154,4,2,2,51,0,0
79934,-181.818181818182,4,2,2,51,0,0
80474,-100,4,2,2,51,0,0
82636,-133.333333333333,4,2,2,51,0,0
85339,-100,4,2,2,51,0,0
85609,-133.333333333333,4,2,2,51,0,0
86555,-100,4,2,2,51,0,0
86961,-133.333333333333,4,2,2,51,0,0
87501,-153.846153846154,4,2,2,51,0,0
89123,-100,4,2,2,51,0,0
104798,-133.333333333333,4,2,2,51,0,0
105339,-153.846153846154,4,2,2,51,0,0
105880,-181.818181818182,4,2,2,51,0,0
106420,-66.6666666666667,4,2,2,61,0,1
108582,-83.3333333333333,4,2,2,61,0,1
110474,-100,4,2,2,61,0,1
110744,-76.9230769230769,4,2,2,61,0,1
112907,-66.6666666666667,4,2,2,61,0,1
113447,-83.3333333333333,4,2,2,61,0,1
115069,-66.6666666666667,4,2,2,61,0,1
117231,-83.3333333333333,4,2,2,61,0,1
119123,-100,4,2,2,61,0,1
119393,-76.9230769230769,4,2,2,61,0,1
121555,-66.6666666666667,4,2,2,61,0,1
122096,-83.3333333333333,4,2,2,61,0,1
123717,-100,4,2,2,51,0,0
128042,-100,4,2,2,41,0,0

[Colours]
Combo1 : 128,0,0
Combo2 : 140,140,140
Combo3 : 74,74,74
Combo4 : 228,228,228

[HitObjects]
208,272,2194,5,0,0:0:0:0:
320,184,2329,1,0,0:0:0:0:
324,320,2464,1,0,0:0:0:0:
128,184,2600,6,0,B|128:124|128:124|96:76,1,95,4|0,0:0|0:0,0:0:0:0:
0,56,2870,1,8,0:0:0:0:
52,268,3005,2,0,B|124:292|124:292|152:328|152:328|256:336,1,190
312,149,3410,2,0,B|288:172|288:172|272:232,1,95,8|0,0:0|0:0,0:0:0:0:
372,308,3681,5,0,0:0:0:0:
464,220,3816,2,0,B|440:176|440:176|444:128,1,95,0|8,0:0|0:0,0:0:0:0:
372,308,4086,2,0,B|300:332|300:332|272:368|272:368|168:376,1,190
72,268,4491,22,0,B|144:264|144:264|168:236|168:236|276:196,2,190,8|0|8,0:0|0:0|0:0,0:0:0:0:
180,120,5167,2,0,B|268:88|268:88|292:52|292:52|368:20,1,190
416,204,5572,1,8,0:0:0:0:
480,64,5708,1,0,0:0:0:0:
324,200,5843,5,0,0:0:0:0:
508,208,5978,1,0,0:0:0:0:
392,92,6113,2,0,B|392:48|392:48|416:-4,1,95,8|0,0:0|0:0,0:0:0:0:
508,208,6383,1,0,0:0:0:0:
296,32,6518,1,0,0:0:0:0:
300,200,6654,2,0,B|300:244|300:244|276:296,1,95,8|0,0:0|0:0,0:0:0:0:
56,148,6924,6,0,B|168:148|168:148|200:124|200:124|268:124,1,190,0|8,0:0|0:0,0:0:0:0:
408,344,7329,2,0,B|296:344|296:344|264:320|264:320|196:320,1,190
320,204,7735,2,0,B|332:156|332:156|320:92,1,95,8|0,0:0|0:0,0:0:0:0:
236,32,8005,21,0,0:0:0:0:
392,20,8140,1,0,0:0:0:0:
216,152,8275,2,0,B|207:196|207:196|219:244,1,95,8|0,0:0|0:0,0:0:0:0:
368,44,8545,5,0,0:0:0:0:
212,56,8681,1,0,0:0:0:0:
312,216,8816,2,0,B|320:260|320:260|308:308,1,95,8|0,0:0|0:0,0:0:0:0:
428,200,9086,6,0,B|436:148|436:148|476:92,1,95
512,12,9356,1,8,0:0:0:0:
312,216,9491,2,0,B|316:160|316:160|288:108|288:108|292:24,1,190
192,192,9897,2,0,B|200:248|200:248|236:300,1,95,8|0,0:0|0:0,0:0:0:0:
88,172,10167,21,0,0:0:0:0:
221,279,10302,1,0,0:0:0:0:
164,88,10437,1,8,0:0:0:0:
108,276,10572,1,0,0:0:0:0:
36,68,10708,5,0,0:0:0:0:
196,212,10843,1,0,0:0:0:0:
80,132,10978,1,8,0:0:0:0:
236,28,11113,1,0,0:0:0:0:
352,168,11248,6,0,B|352:236|352:236|376:296,1,95,4|0,0:0|0:0,0:0:0:0:
428,88,11518,1,8,0:0:0:0:
312,248,11654,2,0,B|300:176|300:176|260:112|260:112|252:32,1,190
164,232,12059,2,0,B|204:284|204:284|212:332|216:332,1,95,8|0,0:0|0:0,0:0:0:0:
36,312,12329,21,0,0:0:0:0:
120,136,12464,1,0,0:0:0:0:
24,12,12599,1,8,0:0:0:0:
0,184,12735,2,0,B|68:184|68:184|132:140|132:140|192:140,1,190
336,72,13140,6,0,B|404:72|404:72|468:28|468:28|528:28,2,190,8|0|8,0:0|0:0|0:0,0:0:0:0:
204,228,13816,2,0,B|136:228|136:228|72:184|72:184|12:184,1,190
216,340,14221,2,0,B|280:340|280:340|320:364,1,95,8|0,0:0|0:0,0:0:0:0:
128,348,14491,5,0,0:0:0:0:
216,148,14627,1,0,0:0:0:0:
352,264,14762,2,0,B|424:264|424:264|476:232,1,95,8|0,0:0|0:0,0:0:0:0:
348,64,15032,21,0,0:0:0:0:
216,148,15167,1,0,0:0:0:0:
352,264,15302,1,8,0:0:0:0:
280,20,15437,1,0,0:0:0:0:
131,53,15572,6,0,B|100:40|100:40|40:48,1,95
280,20,15843,1,8,0:0:0:0:
202,155,15978,2,0,B|152:176|152:176|100:168|100:168|24:200,1,190
144,296,16383,2,0,B|204:288|204:288|256:316,1,95,8|0,0:0|0:0,0:0:0:0:
24,312,16654,5,0,0:0:0:0:
304,248,16789,1,0,0:0:0:0:
128,344,16924,2,0,B|68:352|68:352|16:324,1,95,8|0,0:0|0:0,0:0:0:0:
160,200,17194,1,0,1:0:0:0:
256,352,17329,1,0,1:0:0:0:
376,212,17464,2,0,B|316:204|316:204|264:232,1,95,8|0,0:0|1:0,1:0:0:0:
448,360,17735,22,0,B|480:300|480:300|516:264|516:264|524:152,1,190,0|8,0:0|0:0,0:0:0:0:
372,248,18140,2,0,B|396:172|396:172|428:136|428:136|452:44,1,190
288,108,18545,1,8,0:0:0:0:
372,248,18681,1,0,0:0:0:0:
92,232,18816,38,0,P|66:235|19:213,1,63.3333333333333
82,152,18996,2,0,P|57:141|28:99,1,63.3333333333333
103,67,19176,2,0,P|87:46|82:-5,1,63.3333333333333
208,76,19356,2,0,P|188:92|175:143,1,63.3333333333333
262,133,19536,2,0,P|253:157|267:207,1,63.3333333333333
340,172,19717,2,0,P|345:197|382:233,1,63.3333333333333
489,245,19897,6,0,B|426:278|426:278|394:326|394:326|325:354,1,190,4|8,0:0|0:0,0:0:0:0:
168,192,20302,2,0,P|256:128|344:192,1,227.999993041992
174,349,20708,2,0,B|118:326|118:326|86:278|86:278|23:245,1,190,8|0,0:0|0:0,0:0:0:0:
152,48,21113,2,0,B|256:88|256:88|368:48,1,227.999993041992,8|0,0:0|0:0,0:0:0:0:
160,192,21518,38,0,P|128:144|28:168,1,123.499994346619
352,192,21789,2,0,P|384:144|484:168,1,123.499994346619,8|0,0:0|0:0,0:0:0:0:
220,336,22059,22,0,B|168:288|168:288|96:280|96:280|32:248,1,190,0|8,0:0|0:0,0:0:0:0:
208,72,22464,2,0,B|256:96|288:112|256:152|256:152|224:112|256:96|304:72,1,227.999993041992
457,259,22870,2,0,B|416:280|416:280|344:288|344:288|292:336,1,190,8|0,0:0|0:0,0:0:0:0:
168,208,23275,2,0,P|256:144|344:208,1,227.999993041992,8|0,0:0|0:0,0:0:0:0:
168,96,23681,22,0,B|112:64|112:64|72:16,1,123.499994346619,0|0,0:0|0:0,0:0:0:0:
344,96,23951,2,0,B|400:64|400:64|440:16,1,123.499994346619,8|0,0:0|0:0,0:0:0:0:
72,192,24221,38,0,B|128:264|128:264|136:328|136:328|192:376,1,190,0|8,0:0|0:0,0:0:0:0:
336,128,24627,2,0,B|272:96|272:96|272:48|256:64|240:48|240:96|240:96|176:128,1,227.999993041992
349,350,25032,2,0,B|376:328|376:328|384:264|384:264|440:192,1,190,8|0,0:0|0:0,0:0:0:0:
304,224,25437,2,0,B|296:288|296:288|256:344|216:288|216:288|208:224,1,227.999993041992,8|0,0:0|0:0,0:0:0:0:
327,31,25843,6,0,P|381:61|412:113,1,123.499994346619
99,113,26113,2,0,P|130:61|184:32,1,123.499994346619,8|0,0:0|0:0,0:0:0:0:
208,296,26383,6,0,B|112:256|112:256|64:288|64:288|16:296,1,190,0|8,0:0|0:0,0:0:0:0:
208,128,26789,2,0,B|256:104|288:88|256:48|256:48|224:88|256:104|304:128,1,227.999993041992,0|0,0:0|0:0,0:0:0:0:
475,292,27194,2,0,B|448:288|448:288|400:256|400:256|304:296,1,190,8|0,0:0|0:0,0:0:0:0:
168,104,27599,2,0,P|256:168|344:104,1,227.999993041992,8|0,0:0|0:0,0:0:0:0:
104,48,28005,38,0,P|88:112|136:184,1,123.499994346619
401,162,28275,2,0,P|424:106|408:48,1,123.499994346619,8|0,0:0|0:0,0:0:0:0:
208,256,28545,22,0,B|112:256|112:256|72:232|72:232|-8:256,1,190,0|8,0:0|0:0,0:0:0:0:
288,312,28951,2,0,P|304:240|152:176,1,227.999993041992
288,312,29356,2,0,B|384:312|384:312|424:288|424:288|504:312,1,190,8|0,0:0|0:0,0:0:0:0:
208,368,29762,2,0,P|192:296|344:232,1,227.999993041992,8|0,0:0|0:0,0:0:0:0:
456,368,30167,22,0,P|392:368|344:320,1,123.499994346619
349,53,30437,2,0,P|395:14|456:16,1,123.499994346619,8|0,0:0|0:0,0:0:0:0:
303,215,30708,38,0,B|223:263|223:263|191:319|191:319|127:339,1,190,0|8,0:0|0:0,0:0:0:0:
0,128,31113,2,0,P|24:208|160:224,1,227.999993041992,0|0,0:0|0:0,0:0:0:0:
240,28,31518,2,0,B|209:37|209:37|177:93|177:93|92:152,1,190,8|0,0:0|0:0,0:0:0:0:
288,120,31924,2,0,P|396:122|441:220,1,227.999993041992,8|0,0:0|0:0,0:0:0:0:
160,352,32329,6,0,B|184:288|184:288|160:200,1,123.499994346619
352,32,32599,2,0,B|328:96|328:96|352:184,1,123.499994346619,8|0,0:0|0:0,0:0:0:0:
160,128,32870,6,0,B|104:80|104:80|40:64|40:64|-16:24,1,190,0|8,0:0|0:0,0:0:0:0:
240,64,33275,2,0,P|192:104|240:248,1,227.999993041992,0|0,0:0|0:0,0:0:0:0:
480,288,33681,2,0,B|439:317|439:317|375:333|375:333|319:381,1,190,8|0,0:0|0:0,0:0:0:0:
392,224,34086,2,0,P|446:131|384:43,1,227.999993041992,8|0,0:0|0:0,0:0:0:0:
144,256,34491,38,0,P|208:296|288:288,1,123.499994346619
192,8,34762,2,0,P|125:43|92:116,1,123.499994346619,8|0,0:0|0:0,0:0:0:0:
16,296,35032,6,0,B|80:264|80:264|160:256|160:256|208:192,1,190,0|8,0:0|0:0,0:0:0:0:
312,280,35437,2,0,P|232:240|224:96,1,227.999993041992,0|0,0:0|0:0,0:0:0:0:
496,88,35843,6,0,B|432:120|432:120|352:128|352:128|304:192,1,190,8|0,0:0|0:0,0:0:0:0:
249,327,36248,2,0,P|244:218|152:160,1,227.999993041992,8|0,0:0|0:0,0:0:0:0:
72,264,36654,21,0,0:0:0:0:
150,159,36789,1,0,0:0:0:0:
0,80,36924,1,8,0:0:0:0:
252,80,37059,1,0,0:0:0:0:
120,340,37194,5,4,0:0:0:0:
240,240,39356,6,0,B|128:240|128:240|48:196,1,190,0|8,0:0|0:0,0:0:0:0:
4,88,39762,1,0,0:0:0:0:
304,312,40032,1,0,0:0:0:0:
304,176,40167,2,0,B|304:104|304:104|336:56,1,95,8|0,0:0|0:0,0:0:0:0:
424,264,40437,5,0,0:0:0:0:
184,128,40572,1,0,0:0:0:0:
440,60,40708,1,8,0:0:0:0:
436,216,40843,2,0,B|356:216|356:216|308:184|308:184|236:184,1,190
160,96,41248,1,8,0:0:0:0:
216,288,41383,1,0,0:0:0:0:
272,88,41518,22,0,B|280:40|280:40|272:-8,1,95
160,96,41789,1,8,0:0:0:0:
336,192,41924,2,0,B|368:112|368:112|424:80|424:80|472:16,1,190
432,256,42329,2,0,B|496:216|496:216|512:168,1,95,8|0,0:0|0:0,0:0:0:0:
448,48,42599,5,0,0:0:0:0:
336,192,42735,1,0,0:0:0:0:
340,40,42870,1,8,0:0:0:0:
500,148,43005,2,0,B|468:204|468:204|452:268|452:268|396:324,1,190
300,336,43410,1,8,0:0:0:0:
492,380,43545,1,0,0:0:0:0:
320,232,43681,6,0,B|284:216|284:216|228:224,1,95
80,80,43951,1,8,0:0:0:0:
80,80,44086,2,0,B|136:72|136:72|176:96|176:96|224:80|288:88,1,190
292,224,44491,2,0,B|236:232|204:264|204:264|228:288|228:288|196:320|215:362,1,190,8|0,0:0|0:0,0:0:0:0:
288,368,44829,5,0,0:0:0:0:
288,368,44897,1,2,2:0:0:0:
408,104,45032,2,0,B|360:56|304:40|304:40|352:48|416:32,1,227.999993041992,2|0,0:0|0:0,0:0:0:0:
352,176,45437,5,0,0:0:0:0:
224,256,45572,2,0,B|225:307|225:307|242:365,1,95,8|0,0:0|0:0,0:0:0:0:
352,176,45843,6,0,B|368:112|368:112|360:88|360:88|416:48|424:0,1,190,4|8,0:0|0:0,0:0:0:0:
224,132,46248,2,0,B|216:76|216:76|152:60|152:60|80:-4,1,190
140,224,46654,2,0,B|108:192|108:192|52:176,1,95,8|0,0:0|0:0,0:0:0:0:
12,272,46924,5,0,0:0:0:0:
140,224,47059,1,0,0:0:0:0:
116,352,47194,1,8,0:0:0:0:
60,178,47329,1,0,0:0:0:0:
244,100,47464,2,0,P|188:72|128:64,1,95
4,64,47735,1,8,0:0:0:0:
164,252,47870,1,0,0:0:0:0:
288,216,48005,22,0,B|350:187|350:187|428:195|428:195|498:171,1,190,0|8,0:0|0:0,0:0:0:0:
496,56,48410,1,0,0:0:0:0:
244,344,48681,1,0,0:0:0:0:
184,224,48816,2,0,P|188:160|164:120,1,95,8|0,0:0|0:0,0:0:0:0:
68,276,49086,5,0,0:0:0:0:
244,344,49221,1,0,0:0:0:0:
68,184,49356,1,8,0:0:0:0:
208,56,49491,1,0,0:0:0:0:
320,224,49627,2,0,B|384:256|384:256|432:256,1,95
288,56,49897,2,0,B|224:24|224:24|176:24,1,95,8|0,0:0|0:0,0:0:0:0:
32,192,50167,6,0,B|88:160|88:160|168:160|168:160|224:144,1,190,0|8,0:0|0:0,0:0:0:0:
380,344,50572,2,0,B|324:312|324:312|244:312|244:312|188:296,1,190
88,80,50978,2,0,B|160:80|160:80|208:64,1,95,8|0,0:0|0:0,0:0:0:0:
320,28,51248,21,0,0:0:0:0:
248,176,51383,1,0,0:0:0:0:
181,72,51518,1,8,0:0:0:0:
420,44,51654,1,0,0:0:0:0:
420,176,51789,2,0,B|388:248|388:248|356:272,1,95
464,384,52059,2,0,B|496:312|496:312|508:302,1,95,8|0,0:0|0:0,0:0:0:0:
296,320,52329,6,0,B|216:336|216:336|168:376|168:376|104:384,1,190,0|8,0:0|0:0,0:0:0:0:
248,216,52735,1,0,0:0:0:0:
144,240,52870,2,0,B|88:256|88:256|40:248,1,95
148,112,53140,2,0,B|228:128|228:128|292:104|292:104|316:108,1,142.5,8|0,0:0|2:0,0:0:0:0:
359,92,53410,21,8,0:0:0:0:
508,248,53590,1,8,0:0:0:0:
359,92,53771,1,8,0:0:0:0:
248,272,53951,1,8,0:0:0:0:
68,112,54131,2,0,P|7:47|44:127,1,253.333333333333,12|4,0:0|0:0,0:0:0:0:
356,348,63320,5,0,0:0:0:0:
356,348,63410,2,0,P|389:325|429:317,2,63.3333333333333
369,225,63681,2,0,P|401:237|461:233,5,63.3333333333333,8|0|0|0|0|0,0:0|0:0|0:0|0:0|0:0|0:0,0:0:0:0:
429,157,64221,2,0,P|470:153|508:166,5,63.3333333333333,4|0|0|0|0|0,0:0|0:0|0:0|0:0|0:0|0:0,0:0:0:0:
381,73,64762,37,8,0:0:0:0:
381,73,64852,1,0,0:0:0:0:
381,73,64942,1,0,0:0:0:0:
381,73,65032,1,0,0:0:0:0:
381,73,65122,1,0,0:0:0:0:
80,48,65482,5,0,0:0:0:0:
80,48,65572,2,0,L|24:84,2,63.3333333333333
84,136,65843,2,0,L|28:172,5,63.3333333333333,8|0|0|0|0|0,0:0|0:0|0:0|0:0|0:0|0:0,0:0:0:0:
160,180,66383,2,0,L|104:216,5,63.3333333333333,4|0|0|0|0|0,0:0|0:0|0:0|0:0|0:0|0:0,0:0:0:0:
212,256,66924,37,8,0:0:0:0:
244,252,67014,1,0,0:0:0:0:
276,248,67104,1,0,0:0:0:0:
308,244,67194,1,0,0:0:0:0:
340,240,67284,1,0,0:0:0:0:
436,12,67645,5,0,0:0:0:0:
436,12,67735,2,0,L|444:92,2,63.3333333333333
360,96,68005,2,0,L|352:176,5,63.3333333333333,8|0|0|0|0|0,0:0|0:0|0:0|0:0|0:0|0:0,0:0:0:0:
440,192,68545,2,0,L|448:272,5,63.3333333333333,4|0|0|0|0|0,0:0|0:0|0:0|0:0|0:0|0:0,0:0:0:0:
344,244,69086,37,8,0:0:0:0:
278,267,69176,1,0,0:0:0:0:
220,305,69266,1,0,0:0:0:0:
177,360,69356,1,0,0:0:0:0:
114,329,69446,1,0,0:0:0:0:
70,274,69536,1,0,0:0:0:0:
54,205,69627,5,4,0:0:0:0:
458,205,69897,5,0,0:0:0:0:
96,24,70167,5,0,0:0:0:0:
256,372,70437,21,0,0:0:0:0:
456,48,70708,5,0,0:0:0:0:
96,24,70978,5,0,0:0:0:0:
264,360,71248,6,0,P|316:304|232:360,1,379.999988403321,8|0,0:2|0:0,0:0:0:0:
364,384,71826,5,2,0:0:0:0:
364,384,72231,1,0,0:0:0:0:
356,304,72366,2,0,P|352:268|368:216,1,71.2500027179719,8|0,0:0|0:0,0:0:0:0:
480,120,72907,5,0,0:0:0:0:
440,276,73177,1,0,0:0:0:0:
480,120,73447,1,8,0:0:0:0:
400,132,73582,2,0,L|352:120,1,47.5
272,104,73853,1,0,0:0:0:0:
199,157,73988,6,0,P|199:193|191:228,1,71.2500027179719,2|0,0:0|0:0,0:0:0:0:
100,220,74393,1,0,0:0:0:0:
100,220,74528,2,0,P|96:180|76:144,1,71.2500027179719,8|0,0:0|0:0,0:0:0:0:
32,280,75069,21,0,0:0:0:0:
232,218,75339,1,0,0:0:0:0:
432,156,75609,2,0,P|424:104|436:68,1,71.2500027179719,8|0,0:0|0:0,0:0:0:0:
412,184,76150,6,0,P|404:132|420:80,1,95,2|0,0:0|0:0,0:0:0:0:
380,292,76555,1,0,0:0:0:0:
328,216,76690,2,0,B|300:172|264:160|264:160|252:160|252:160,1,95,8|0,0:0|0:0,0:0:0:0:
140,260,77231,5,0,0:0:0:0:
188,88,77501,1,0,0:0:0:0:
48,164,77771,1,8,0:0:0:0:
56,244,77907,2,0,L|48:296,1,47.5
36,372,78177,1,0,0:0:0:0:
136,300,78312,22,0,P|144:232|180:184,1,95,2|0,0:0|0:0,0:0:0:0:
216,336,78717,1,0,0:0:0:0:
216,336,78853,2,0,P|240:296|272:276,1,71.2500027179719,8|0,0:0|0:0,0:0:0:0:
416,348,79393,6,0,P|384:340|352:344,1,61.7499971733095
456,264,79798,1,0,0:0:0:0:
456,264,79866,1,0,0:0:0:0:
456,264,79934,2,0,P|424:248|392:244,1,52.2500015945435,8|0,0:0|0:0,0:0:0:0:
216,264,80474,6,0,P|168:232|136:132,1,142.5,2|0,0:0|0:0,0:0:0:0:
164,80,81015,1,8,0:0:0:0:
276,180,81285,1,0,0:0:0:0:
76,100,81555,21,0,0:0:0:0:
252,24,81826,1,0,0:0:0:0:
216,264,82096,1,8,0:0:0:0:
224,184,82231,2,0,L|232:112,1,47.5
236,56,82501,1,0,0:0:0:0:
300,104,82636,6,0,P|344:88|384:88,1,71.2500027179719,2|0,0:0|0:0,0:0:0:0:
488,184,83042,1,0,0:0:0:0:
488,184,83177,2,0,P|436:180|400:156,1,71.2500027179719,8|0,0:0|0:0,0:0:0:0:
480,36,83717,1,0,0:0:0:0:
420,171,83988,1,0,0:0:0:0:
280,8,84258,1,8,0:0:0:0:
480,36,84528,1,0,0:0:0:0:
304,368,84798,6,0,P|320:328|352:304,1,71.2500027179719,2|0,0:0|0:0,0:0:0:0:
424,272,85204,1,0,0:0:0:0:
440,176,85339,2,0,P|476:152|472:100,1,95,8|0,0:0|0:0,0:0:0:0:
304,368,85880,21,0,0:0:0:0:
332,168,86150,1,0,0:0:0:0:
424,368,86420,1,8,0:0:0:0:
448,292,86555,2,0,L|460:232,1,47.5
476,168,86826,1,0,0:0:0:0:
400,200,86961,6,0,P|348:212|304:200,1,71.2500027179719,2|0,0:0|0:0,0:0:0:0:
192,224,87366,1,0,0:0:0:0:
192,224,87501,2,0,P|232:236|264:260,1,61.7499971733095,8|0,0:0|0:0,0:0:0:0:
72,292,88042,2,0,P|88:252|80:196,1,92.6249957599642
76,184,88515,1,0,0:0:0:0:
60,168,88582,1,8,0:0:0:0:
456,160,89123,6,0,B|496:128|496:128|496:84|508:76,1,95,4|0,0:1|0:0,0:0:0:0:
420,88,89528,1,0,0:0:0:0:
368,152,89663,2,0,B|356:192|368:216|368:216|344:248,1,95,4|0,0:0|0:0,0:0:0:0:
304,308,90069,1,0,0:0:0:0:
268,236,90204,22,0,L|252:180,1,47.5
228,336,90474,2,0,L|172:352,1,47.5
304,308,90744,1,4,0:0:0:0:
356,212,90880,1,0,0:0:0:0:
184,244,91015,1,0,0:0:0:0:
184,244,91285,1,0,0:0:0:0:
164,372,91555,6,0,L|148:316,1,47.5
268,252,91826,2,0,B|248:292|252:328|252:328|236:364,1,95,4|0,0:0|0:0,0:0:0:0:
136,232,92231,1,0,0:0:0:0:
172,160,92366,6,0,L|188:104,1,47.5
212,260,92636,2,0,L|268:276,1,47.5
136,232,92907,1,4,0:0:0:0:
84,136,93042,1,0,0:0:0:0:
256,168,93177,1,0,0:0:0:0:
256,168,93447,21,0,0:0:0:0:
256,168,93717,2,0,B|244:120|244:120|260:128|260:128|240:100|248:64,1,95,0|4,0:0|0:0,0:0:0:0:
228,24,94123,1,0,0:0:0:0:
304,48,94258,2,0,P|328:56|368:48,1,47.5
420,20,94528,5,0,0:0:0:0:
352,136,94663,2,0,P|304:156|248:152,1,95
112,128,95069,1,4,0:0:0:0:
112,128,95204,2,0,P|140:172|212:208,1,95
240,20,95609,6,0,B|232:64|192:80|192:80|192:108,1,95
192,94,96150,2,0,L|124:94,1,47.5,4|0,0:0|0:0,0:0:0:0:
84,40,96420,1,0,0:0:0:0:
120,168,96555,1,0,0:0:0:0:
216,20,96690,22,0,B|288:20|288:20|328:36,1,95
340,144,97096,1,0,0:0:0:0:
396,32,97231,37,4,0:0:0:0:
408,200,97366,2,0,B|480:200|480:200|520:216,1,95
364,264,97771,6,0,P|368:208|328:160,1,95,4|0,0:1|0:0,0:0:0:0:
272,276,98177,1,0,0:0:0:0:
272,276,98312,2,0,B|200:276|200:276|164:260,1,95,4|0,0:0|0:0,0:0:0:0:
304,356,98717,1,0,0:0:0:0:
224,356,98853,6,0,L|160:356,1,47.5
91,265,99123,2,0,L|112:308,1,47.5
8,240,99393,1,4,0:0:0:0:
160,208,99528,1,0,0:0:0:0:
8,120,99663,1,0,0:0:0:0:
8,120,99934,1,0,0:0:0:0:
88,240,100204,6,0,L|24:240,1,47.5
144,164,100474,2,0,B|96:160|96:160|76:144|48:136,1,95,4|0,0:0|0:0,0:0:0:0:
104,24,100880,1,0,0:0:0:0:
176,64,101015,22,0,L|207:119,1,47.5
320,131,101285,2,0,L|272:134,1,47.5
384,190,101555,1,4,0:0:0:0:
335,43,101690,1,0,0:0:0:0:
487,131,101826,1,0,0:0:0:0:
487,131,102096,5,0,0:0:0:0:
487,131,102366,2,0,B|500:172|500:172|488:168|488:168|480:192|484:216,1,95,0|4,0:0|0:0,0:0:0:0:
480,288,102771,1,0,0:0:0:0:
412,244,102907,2,0,P|396:200|368:176,1,47.5
344,296,103177,6,0,P|304:256|248:244,1,95
124,336,103582,1,0,0:0:0:0:
208,344,103717,2,0,L|280:344,1,47.5,4|0,0:0|0:0,0:0:0:0:
268,244,103988,1,0,0:0:0:0:
128,224,104123,1,0,0:0:0:0:
316,328,104258,22,0,B|384:328|384:328|408:340,1,95
336,240,104663,1,0,0:0:0:0:
416,244,104798,2,0,B|472:244|472:244|508:232,1,71.2500027179719,4|0,0:0|0:0,0:0:0:0:
336,144,105204,1,0,0:0:0:0:
416,140,105339,6,0,B|464:140|464:140|496:152,1,61.7499971733095
336,144,105744,1,0,0:0:0:0:
324,100,105812,1,0,0:0:0:0:
316,56,105880,22,0,B|352:56|352:56|384:48,1,52.2500015945435,4|0,0:0|0:0,0:0:0:0:
232,56,106285,1,0,0:0:0:0:
172,112,106420,6,0,P|120:144|32:92,1,142.500005435944,4|0,0:1|0:0,0:0:0:0:
108,60,106826,1,0,0:0:0:0:
172,112,106961,2,0,L|164:200,1,71.2500027179719,4|0,0:0|0:0,0:0:0:0:
272,104,107231,2,0,L|264:24,1,71.2500027179719
120,40,107501,5,0,0:0:0:0:
136,256,107771,1,0,0:0:0:0:
120,40,108042,1,4,0:0:0:0:
344,28,108312,1,4,0:0:0:0:
283,215,108582,6,0,P|317:247|432:200,1,170.999994781494
320,148,109123,1,4,0:0:0:0:
276,344,109393,1,0,0:0:0:0:
432,160,109663,21,0,0:0:0:0:
328,36,109934,1,0,0:0:0:0:
488,24,110204,1,4,0:0:0:0:
364,240,110474,2,0,L|304:256,1,47.5
180,140,110744,6,0,P|252:148|292:196,1,123.499994346619
212,220,111150,1,0,0:0:0:0:
180,140,111285,2,0,L|200:56,1,61.7499971733095,4|0,0:0|0:0,0:0:0:0:
336,24,111555,2,0,L|288:96,1,61.7499971733095
112,60,111826,5,0,0:0:0:0:
336,24,112096,1,0,0:0:0:0:
112,60,112366,1,4,0:0:0:0:
120,300,112636,1,4,0:0:0:0:
336,112,112907,22,0,B|368:84|380:28|380:28|400:56|424:64,1,142.500005435944
424,144,113312,1,0,0:0:0:0:
424,144,113447,2,0,P|388:180|324:208,1,113.999996520996,4|0,0:0|0:0,0:0:0:0:
168,52,113988,5,0,0:0:0:0:
331,206,114258,1,0,0:0:0:0:
224,352,114528,1,4,0:0:0:0:
404,28,114798,1,0,0:0:0:0:
132,220,115069,6,0,P|200:208|260:264,1,142.500005435944,4|0,0:1|0:0,0:0:0:0:
180,292,115474,1,0,0:0:0:0:
132,220,115609,2,0,L|160:144,1,71.2500027179719,4|0,0:0|0:0,0:0:0:0:
100,60,115880,2,0,L|64:140,1,71.2500027179719
224,64,116150,21,0,0:0:0:0:
257,244,116420,1,0,0:0:0:0:
224,64,116690,1,4,0:0:0:0:
16,120,116961,1,4,0:0:0:0:
72,344,117231,6,0,P|68:280|160:224,1,170.999994781494
152,356,117771,1,4,0:0:0:0:
328,344,118042,1,0,0:0:0:0:
152,356,118312,5,0,0:0:0:0:
24,172,118582,1,0,0:0:0:0:
240,304,118853,1,4,0:0:0:0:
296,164,119123,2,0,L|288:232,1,47.5
415,332,119393,22,0,P|352:340|280:284,1,123.499994346619
364,252,119798,1,0,0:0:0:0:
451,282,119934,2,0,L|415:332,1,61.7499971733095,4|0,0:0|0:0,0:0:0:0:
416,184,120204,2,0,L|452:124,1,61.7499971733095
484,48,120474,5,0,0:0:0:0:
451,282,120744,1,0,0:0:0:0:
484,48,121015,1,4,0:0:0:0:
304,112,121285,1,4,0:0:0:0:
96,336,121555,6,0,P|136:304|152:192,1,142.500005435944
56,248,121961,1,0,0:0:0:0:
56,248,122096,2,0,P|68:192|44:120,1,113.999996520996,4|0,0:0|0:0,0:0:0:0:
232,28,122636,21,0,0:0:0:0:
192,356,122907,1,0,0:0:0:0:
432,100,123177,1,4,0:0:0:0:
96,172,123447,1,0,0:0:0:0:
412,312,123717,37,4,0:0:0:0:
256,192,123853,12,2,127501,0:0:0:0:
464,260,128042,5,8,0:0:0:0:
397,343,128177,1,8,0:0:0:0:
397,343,128244,1,8,0:0:0:0:
397,343,128312,1,8,0:0:0:0:
361,240,128447,1,8,0:0:0:0:
361,240,128717,5,8,0:0:0:0:
333,136,128853,1,8,0:0:0:0:
261,219,128988,1,8,0:0:0:0:
261,219,129055,1,8,0:0:0:0:
261,219,129123,1,8,0:0:0:0:
224,115,129258,1,8,0:0:0:0:
224,115,129528,5,8,0:0:0:0:
116,92,129663,2,0,L|60:76,1,47.5,10|0,0:0|0:0,0:0:0:0:
296,64,129934,2,0,L|336:36,1,47.5,10|0,0:0|0:0,0:0:0:0:
168,200,130204,21,8,0:0:0:0:
100,284,130339,1,8,0:0:0:0:
100,284,130407,1,8,0:0:0:0:
100,284,130474,1,8,0:0:0:0:
208,300,130609,1,8,0:0:0:0:
208,300,130880,5,8,0:0:0:0:
280,216,131015,1,8,0:0:0:0:
280,216,131082,1,8,0:0:0:0:
280,216,131150,1,8,0:0:0:0:
312,320,131285,1,8,0:0:0:0:
388,240,131420,1,8,0:0:0:0:
388,240,131690,5,8,0:0:0:0:
480,180,131826,2,0,L|476:132,1,47.5,10|8,0:0|0:0,0:0:0:0:
464,24,132096,5,2,0:0:0:0:
