osu file format v14

[General]
AudioFilename: audio.mp3
AudioLeadIn: 1000
PreviewTime: 2059
Countdown: 0
SampleSet: Normal
StackLeniency: 0.7
Mode: 0
LetterboxInBreaks: 0
WidescreenStoryboard: 1

[Editor]
Bookmarks: 18811
DistanceSpacing: 1.6
BeatDivisor: 6
GridSize: 4
TimelineZoom: 2.6

[Metadata]
Title:Unknown Mother-Goose feat. Hatsune Miku
TitleUnicode:アンノウン・マザーグース feat. 初音ミク
Artist:wowaka
ArtistUnicode:wowaka
Creator:tutuhaha
Version:Advanced
Source:
Tags:vocaloid cut ver HabiHolic
BeatmapID:1397855
BeatmapSetID:658008

[Difficulty]
HPDrainRate:4
CircleSize:3
OverallDifficulty:4
ApproachRate:6
SliderMultiplier:1.1
SliderTickRate:1

[Events]
//Background and Video events
0,0,"bggg.jpg",0,0
//Break Periods
2,20097,27495
2,37394,38306
//Storyboard Layer 0 (Background)
//Storyboard Layer 1 (Fail)
//Storyboard Layer 2 (Pass)
//Storyboard Layer 3 (Foreground)
//Storyboard Sound Samples

[TimingPoints]
2600,270.27027027027,4,1,1,51,1,0
71826,540.540540540541,4,2,2,51,1,0
71826,-66.6666666666667,4,2,2,51,0,0
106420,-66.6666666666667,4,2,2,61,0,1
123717,-66.6666666666667,4,2,2,51,0,0
128042,-66.6666666666667,4,2,2,41,0,0

[Colours]
Combo1 : 128,0,0
Combo2 : 140,140,140
Combo3 : 74,74,74
Combo4 : 228,228,228

[HitObjects]
360,320,2194,6,0,B|412:328|412:328|436:344,2,55
312,344,2600,6,0,P|256:348|192:328,1,110,4|8,0:0|0:0,0:0:0:0:
152,340,3005,2,0,P|132:296|68:248,1,110,0|0,0:0|0:0,0:0:0:0:
36,232,3410,1,8,0:0:0:0:
132,124,3681,1,0,0:0:0:0:
272,160,3951,2,0,L|258:218,1,55,8|0,0:0|0:0,0:0:0:0:
396,180,4356,2,0,L|409:121,1,55,0|8,0:0|0:0,0:0:0:0:
304,28,4762,6,0,B|212:44|212:44|172:36,1,110,0|8,0:0|0:0,0:0:0:0:
164,88,5167,2,0,B|137:82|137:82|45:98,1,110,0|0,0:0|0:0,0:0:0:0:
12,132,5572,1,8,0:0:0:0:
60,268,5843,2,0,P|16:268|-12:276,2,55,0|0|8,0:0|0:0|0:0,0:0:0:0:
112,280,6248,2,0,P|156:320|220:336,1,110,0|0,0:0|0:0,0:0:0:0:
260,344,6654,1,8,0:0:0:0:
392,292,6924,21,0,0:0:0:0:
292,188,7194,1,8,0:0:0:0:
292,188,7329,2,0,B|312:116|312:116|340:76,1,110,0|0,0:0|0:0,0:0:0:0:
372,48,7735,1,8,0:0:0:0:
476,144,8005,1,0,0:0:0:0:
448,284,8275,2,0,L|388:274,1,55,8|0,0:0|0:0,0:0:0:0:
268,340,8681,2,0,L|208:330,1,55,0|8,0:0|0:0,0:0:0:0:
76,368,9086,6,0,P|84:324|132:252,1,110,0|8,0:0|0:0,0:0:0:0:
136,216,9491,2,0,P|76:224|20:208,1,110,0|0,0:0|0:0,0:0:0:0:
12,160,9897,1,8,0:0:0:0:
104,52,10167,2,0,P|80:40|36:36,2,55,0|0|8,0:0|0:0|0:0,0:0:0:0:
128,100,10572,2,0,P|180:108|256:88,1,110,0|0,0:0|0:0,0:0:0:0:
284,68,10978,6,0,P|312:48|332:24,2,55,8|0|4,0:0|0:0|0:0,0:0:0:0:
252,208,11518,1,8,0:0:0:0:
252,208,11654,2,0,P|316:192|372:192,1,110,0|0,0:0|0:0,0:0:0:0:
416,192,12059,1,8,0:0:0:0:
340,312,12329,1,0,0:0:0:0:
204,356,12599,2,0,L|180:284,1,55,8|0,0:0|0:0,0:0:0:0:
48,264,13005,2,0,L|66:320,1,55,0|8,0:0|0:0,0:0:0:0:
132,192,13410,22,0,P|116:144|72:92,1,110,0|8,0:0|0:0,0:0:0:0:
76,44,13816,2,0,P|124:28|204:20,1,110,0|0,0:0|0:0,0:0:0:0:
236,32,14221,1,8,0:0:0:0:
376,68,14491,2,0,P|392:24|412:4,2,55,0|0|8,0:0|0:0|0:0,0:0:0:0:
412,108,14897,2,0,P|436:136|456:216,1,110,0|0,0:0|0:0,0:0:0:0:
456,260,15302,1,8,0:0:0:0:
348,352,15572,6,0,P|324:292|272:252,1,110,0|8,0:0|0:0,0:0:0:0:
236,248,15978,2,0,P|240:192|224:136,1,110,0|0,0:0|0:0,0:0:0:0:
208,88,16383,1,8,0:0:0:0:
68,52,16654,2,0,P|44:32|12:20,2,55,0|0|8,0:0|0:0|0:0,0:0:0:0:
92,100,17059,2,0,P|48:156|32:212,1,110,0|0,0:0|1:0,0:0:0:0:
44,248,17464,1,8,0:0:0:0:
128,364,17735,5,0,0:0:0:0:
200,240,18005,2,0,L|276:248,1,55,8|0,0:0|0:0,0:0:0:0:
332,128,18410,2,0,L|408:136,2,55,0|8|0,0:0|0:0|0:0,0:0:0:0:
276,124,18816,5,0,0:0:0:0:
256,192,18883,12,4,19897,0:0:0:0:
372,344,28545,6,0,P|420:292|440:248,1,110,0|8,0:0|0:0,0:0:0:0:
404,212,28951,2,0,P|360:168|368:60,1,165,0|8,0:0|0:0,0:0:0:0:
228,20,29627,1,0,0:0:0:0:
228,20,29762,2,0,P|184:56|64:56,1,165,8|0,0:0|0:0,0:0:0:0:
20,192,30437,1,8,0:0:0:0:
164,180,30708,5,0,0:0:0:0:
104,308,30978,1,8,0:0:0:0:
104,308,31113,2,0,B|184:328|184:328|220:364|220:364|272:376,1,165,0|8,0:0|0:0,0:0:0:0:
352,272,31789,1,0,0:0:0:0:
352,272,31924,2,0,B|309:201|309:201|309:150|309:150|281:105,1,165,8|0,0:0|0:0,0:0:0:0:
180,40,32599,1,8,0:0:0:0:
324,24,32870,5,0,0:0:0:0:
432,120,33140,1,8,0:0:0:0:
432,120,33275,2,0,P|432:184|496:272,1,165,0|8,0:0|0:0,0:0:0:0:
348,300,33951,1,0,0:0:0:0:
348,300,34086,2,0,P|276:328|180:300,1,165,8|0,0:0|0:0,0:0:0:0:
104,196,34762,1,8,0:0:0:0:
244,164,35032,21,0,0:0:0:0:
156,52,35302,1,8,0:0:0:0:
156,52,35437,2,0,B|248:44|248:44|292:56|328:44,1,165,0|8,0:0|0:0,0:0:0:0:
360,184,36113,1,0,0:0:0:0:
360,184,36248,2,0,B|268:192|268:192|224:180|188:192,1,165,8|0,0:0|0:0,0:0:0:0:
148,216,36789,38,0,L|160:280,2,55,0|8|0,0:0|0:0|0:0,0:0:0:0:
132,164,37194,1,4,0:0:0:0:
120,32,39356,22,0,B|128:96|128:96|120:144,1,110,4|8,0:0|0:0,0:0:0:0:
108,196,39762,2,0,B|82:255|82:255|51:292,1,110,0|0,0:0|0:0,0:0:0:0:
24,336,40167,1,8,0:0:0:0:
164,316,40437,2,0,P|208:344|288:360,1,110,0|8,0:0|0:0,0:0:0:0:
312,328,40843,2,0,P|364:332|428:312,1,110,0|0,0:0|0:0,0:0:0:0:
460,280,41248,1,8,0:0:0:0:
348,192,41518,5,0,0:0:0:0:
380,52,41789,2,0,L|440:36,1,55,8|0,0:0|0:0,0:0:0:0:
496,168,42194,2,0,L|442:182,1,55,0|8,0:0|0:0,0:0:0:0:
320,112,42599,2,0,B|256:100|256:100|188:108,1,110,0|8,0:0|0:0,0:0:0:0:
156,116,43005,2,0,B|92:104|92:104|24:112,1,110,0|0,0:0|0:0,0:0:0:0:
20,156,43410,22,0,P|56:208|64:260,1,110,8|0,0:0|0:0,0:0:0:0:
144,372,43951,1,8,0:0:0:0:
144,372,44086,2,0,P|184:344|264:336,1,110,0|0,0:0|0:0,0:0:0:0:
276,288,44491,2,0,P|312:344|368:376,1,110,8|0,0:0|0:0,0:0:0:0:
400,356,44897,38,0,L|440:308,1,55,2|2,2:0|0:0,0:0:0:0:
396,176,45302,2,0,P|364:136|304:100,1,110,0|8,0:0|0:0,0:0:0:0:
272,68,45708,1,0,0:0:0:0:
296,20,45843,6,0,L|428:20,1,110,4|8,0:0|0:0,0:0:0:0:
460,20,46248,2,0,P|464:72|496:132,1,110,0|0,0:0|0:0,0:0:0:0:
500,176,46654,1,8,0:0:0:0:
448,308,46924,1,0,0:0:0:0:
348,204,47194,2,0,L|276:188,1,55,8|0,0:0|0:0,0:0:0:0:
184,284,47599,2,0,L|112:268,1,55,0|8,0:0|0:0,0:0:0:0:
16,360,48005,6,0,P|36:296|24:232,1,110,0|8,0:0|0:0,0:0:0:0:
28,200,48410,2,0,P|52:164|124:124,1,110,0|0,0:0|0:0,0:0:0:0:
160,112,48816,1,8,0:0:0:0:
276,28,49086,2,0,P|320:20|344:12,2,55,0|0|8,0:0|0:0|0:0,0:0:0:0:
256,80,49491,2,0,P|276:116|344:164,1,110,0|0,0:0|0:0,0:0:0:0:
380,176,49897,1,8,0:0:0:0:
464,292,50167,6,0,B|408:320|340:312,1,110,0|8,0:0|0:0,0:0:0:0:
304,320,50572,1,0,0:0:0:0:
200,220,50843,2,0,B|232:192|256:184,2,55,0|8|0,0:0|0:0|0:0,0:0:0:0:
184,272,51248,2,0,B|140:240|112:232|112:232|80:240|72:248,1,110,0|8,0:0|0:0,0:0:0:0:
32,252,51654,2,0,B|45:304|61:328|61:328|91:343|102:342,1,110,0|0,0:0|0:0,0:0:0:0:
136,368,52059,1,8,0:0:0:0:
264,304,52329,22,0,P|279:245|279:181,1,110,0|8,0:0|0:0,0:0:0:0:
320,156,52735,1,0,0:0:0:0:
364,124,52870,2,0,L|428:136,2,55,0|0|8,0:0|0:0|0:0,0:0:0:0:
224,92,53410,38,0,P|208:28|140:108,1,220,8|8,0:0|0:0,0:0:0:0:
136,196,54131,2,0,P|132:232|56:204,1,146.666666666667,12|4,0:0|0:0,0:0:0:0:
320,56,55572,5,0,0:0:0:0:
252,352,56654,1,0,0:0:0:0:
56,112,57735,1,0,0:0:0:0:
276,328,58816,5,0,0:0:0:0:
444,72,59897,1,0,0:0:0:0:
136,56,60978,1,0,0:0:0:0:
376,248,62059,1,0,0:0:0:0:
96,344,63140,5,4,0:0:0:0:
52,128,63681,1,8,0:0:0:0:
264,68,64221,1,4,0:0:0:0:
308,284,64762,1,8,0:0:0:0:
100,208,65302,21,4,0:0:0:0:
320,192,65843,1,8,0:0:0:0:
452,368,66383,1,4,0:0:0:0:
512,152,66924,1,8,0:0:0:0:
324,40,67464,5,4,0:0:0:0:
368,256,68005,1,8,0:0:0:0:
156,316,68545,1,4,0:0:0:0:
112,100,69086,1,8,0:0:0:0:
320,200,69627,6,0,L|436:216,1,110,4|0,0:0|0:0,0:0:0:0:
392,76,70167,2,0,L|283:60,1,110,0|0,0:0|0:0,0:0:0:0:
208,184,70708,1,0,0:0:0:0:
80,124,70978,1,0,0:0:0:0:
196,40,71248,1,8,0:2:0:0:
196,40,71826,22,0,P|244:56|320:24,1,123.750004720688,2|0,0:0|0:0,0:0:0:0:
352,60,72366,2,0,L|444:40,1,82.5000031471254,8|0,0:0|0:0,0:0:0:0:
480,168,72907,1,0,0:0:0:0:
356,212,73177,1,0,0:0:0:0:
448,304,73447,1,8,0:0:0:0:
448,304,73988,6,0,P|392:296|320:336,1,123.750004720688,2|0,0:0|0:0,0:0:0:0:
300,360,74528,2,0,P|196:360|200:360,1,82.5000031471254,8|0,0:0|0:0,0:0:0:0:
120,272,75069,1,0,0:0:0:0:
244,224,75339,1,0,0:0:0:0:
136,148,75609,1,8,0:0:0:0:
136,148,76150,6,0,P|188:112|208:40,1,123.750004720688,2|0,0:0|0:0,0:0:0:0:
164,40,76690,2,0,P|116:28|72:36,1,82.5000031471254,8|0,0:0|0:0,0:0:0:0:
4,140,77231,1,0,0:0:0:0:
136,148,77501,1,0,0:0:0:0:
56,252,77771,1,8,0:0:0:0:
56,252,78312,22,0,B|120:304|120:304|144:360,1,123.750004720688,2|0,0:0|0:0,0:0:0:0:
176,312,78853,2,0,P|200:264|248:240,1,82.5000031471254,8|0,0:0|0:0,0:0:0:0:
296,140,79393,2,0,P|328:180|448:188,1,165.000006294251,0|8,0:0|0:0,0:0:0:0:
435,194,80474,6,0,P|424:140|460:68,1,123.750004720688,2|0,0:0|0:0,0:0:0:0:
416,40,81015,2,0,P|372:20|312:16,1,82.5000031471254,8|0,0:0|0:0,0:0:0:0:
276,132,81555,1,0,0:0:0:0:
172,48,81826,1,0,0:0:0:0:
140,176,82096,1,8,0:0:0:0:
140,176,82636,6,0,P|76:192|8:176,1,123.750004720688,2|0,0:0|0:0,0:0:0:0:
36,136,83177,2,0,P|48:88|44:48,1,82.5000031471254,8|0,0:0|0:0,0:0:0:0:
172,20,83717,1,0,0:0:0:0:
236,136,83988,1,0,0:0:0:0:
344,64,84258,1,8,0:0:0:0:
344,64,84798,22,0,P|352:136|408:192,1,123.750004720688,2|0,0:0|0:0,0:0:0:0:
432,176,85339,2,0,P|468:128|472:92,1,82.5000031471254,8|0,0:0|0:0,0:0:0:0:
344,64,85880,1,0,0:0:0:0:
248,152,86150,1,0,0:0:0:0:
268,284,86420,1,8,0:0:0:0:
268,284,86961,6,0,L|140:296,1,123.750004720688,2|0,0:0|0:0,0:0:0:0:
104,320,87501,2,0,P|64:304|20:304,1,82.5000031471254,8|0,0:0|0:0,0:0:0:0:
32,172,88042,1,0,0:0:0:0:
32,172,88582,1,8,0:0:0:0:
32,172,89123,6,0,P|88:156|132:120,1,82.5000031471254,4|0,0:1|0:0,0:0:0:0:
204,52,89663,2,0,L|312:44,1,82.5000031471254,4|0,0:0|0:0,0:0:0:0:
416,32,90204,1,0,0:0:0:0:
336,136,90474,1,0,0:0:0:0:
464,168,90744,2,0,P|464:232|440:276,1,82.5000031471254,4|0,0:0|0:0,0:0:0:0:
356,332,91285,22,0,L|256:320,1,82.5000031471254,0|0,0:0|0:0,0:0:0:0:
144,352,91826,2,0,P|144:288|168:244,1,82.5000031471254,4|0,0:0|0:0,0:0:0:0:
200,148,92366,1,0,0:0:0:0:
68,164,92636,1,0,0:0:0:0:
150,271,92907,2,0,L|231:280,1,82.5000031471254,4|0,0:0|0:0,0:0:0:0:
364,300,93447,5,0,0:0:0:0:
320,176,93717,1,0,0:0:0:0:
448,204,93988,2,0,P|444:152|472:100,1,82.5000031471254,4|0,0:0|0:0,0:0:0:0:
464,76,94393,1,0,0:0:0:0:
440,32,94528,2,0,L|332:40,1,82.5000031471254,0|0,0:0|0:0,0:0:0:0:
248,112,95069,1,4,0:0:0:0:
132,48,95339,1,0,0:0:0:0:
108,176,95609,6,0,L|88:276,1,82.5000031471254,0|0,0:0|0:0,0:0:0:0:
224,276,96150,2,0,L|212:344,2,41.2500015735627,4|0|0,0:0|0:0|0:0,0:0:0:0:
268,152,96690,1,0,0:0:0:0:
356,248,96961,1,0,0:0:0:0:
268,152,97231,1,4,0:0:0:0:
380,80,97501,1,0,0:0:0:0:
444,196,97771,22,0,P|480:164|504:120,1,82.5000031471254,4|0,0:1|0:0,0:0:0:0:
380,80,98312,2,0,L|276:76,1,82.5000031471254,4|0,0:0|0:0,0:0:0:0:
204,172,98853,1,0,0:0:0:0:
112,80,99123,1,0,0:0:0:0:
76,208,99393,1,4,0:0:0:0:
204,172,99663,1,0,0:0:0:0:
264,56,99934,6,0,P|304:88|328:132,1,82.5000031471254
308,244,100474,2,0,P|296:292|300:336,1,82.5000031471254,4|0,0:0|0:0,0:0:0:0:
428,340,101015,1,0,0:0:0:0:
436,208,101285,1,0,0:0:0:0:
308,244,101555,1,4,0:0:0:0:
184,204,101826,1,0,0:0:0:0:
164,332,102096,6,0,L|56:316,1,82.5000031471254,0|0,0:0|0:0,0:0:0:0:
24,200,102636,2,0,L|105:212,1,82.5000031471254,4|0,0:0|0:0,0:0:0:0:
140,176,103042,1,0,0:0:0:0:
156,128,103177,2,0,P|136:76|148:24,1,82.5000031471254,0|0,0:0|0:0,0:0:0:0:
268,76,103717,2,0,P|267:116|249:153,1,82.5000031471254,4|0,0:0|0:0,0:0:0:0:
180,264,104258,21,0,0:0:0:0:
120,148,104528,1,0,0:0:0:0:
249,153,104798,1,4,0:0:0:0:
272,24,105069,1,0,0:0:0:0:
368,116,105339,2,0,P|364:192|384:224,1,82.5000031471254
492,160,105880,1,4,0:0:0:0:
368,116,106150,1,0,0:0:0:0:
252,176,106420,6,0,P|208:192|172:248,1,82.5000031471254,4|0,0:1|0:0,0:0:0:0:
108,324,106961,2,0,L|0:328,1,82.5000031471254,4|0,0:0|0:0,0:0:0:0:
48,204,107501,1,0,0:0:0:0:
108,324,107771,1,0,0:0:0:0:
240,328,108042,2,0,P|244:276|276:236,1,82.5000031471254,4|4,0:0|0:0,0:0:0:0:
392,244,108582,6,0,P|348:212|324:128,1,123.750004720688,0|0,0:0|0:0,0:0:0:0:
316,100,109123,2,0,P|372:92|416:60,1,82.5000031471254,4|0,0:0|0:0,0:0:0:0:
500,156,109663,1,0,0:0:0:0:
512,24,109934,1,0,0:0:0:0:
394,79,110204,1,4,0:0:0:0:
380,212,110474,1,0,0:0:0:0:
468,308,110744,22,0,P|412:320|376:344,1,82.5000031471254,0|0,0:0|0:0,0:0:0:0:
260,352,111285,2,0,L|272:256,1,82.5000031471254,4|0,0:0|0:0,0:0:0:0:
152,208,111826,2,0,L|141:289,2,82.5000031471254,0|0|4,0:0|0:0|0:0,0:0:0:0:
172,76,112636,1,4,0:0:0:0:
288,16,112907,6,0,P|300:76|276:144,1,123.750004720688,0|0,0:0|0:0,0:0:0:0:
236,148,113447,2,0,L|140:140,1,82.5000031471254,4|0,0:0|0:0,0:0:0:0:
64,44,113988,1,0,0:0:0:0:
153,141,114258,1,0,0:0:0:0:
60,228,114528,1,4,0:0:0:0:
152,324,114798,1,0,0:0:0:0:
228,216,115069,6,0,P|200:172|200:132,1,82.5000031471254,4|0,0:1|0:0,0:0:0:0:
264,28,115609,2,0,L|168:16,2,82.5000031471254,4|0|0,0:0|0:0|0:0,0:0:0:0:
340,136,116420,1,0,0:0:0:0:
428,36,116690,2,0,L|509:46,1,82.5000031471254,4|4,0:0|0:0,0:0:0:0:
464,172,117231,22,0,P|432:228|432:304,1,123.750004720688,0|0,0:0|0:0,0:0:0:0:
408,332,117771,2,0,P|348:336|312:352,1,82.5000031471254,4|0,0:0|0:0,0:0:0:0:
196,368,118312,1,0,0:0:0:0:
248,248,118582,1,0,0:0:0:0:
116,260,118853,1,4,0:0:0:0:
52,376,119123,1,0,0:0:0:0:
116,260,119393,6,0,L|96:168,1,82.5000031471254,0|0,0:0|0:0,0:0:0:0:
72,52,119934,2,0,P|120:48|164:24,1,82.5000031471254,4|0,0:0|0:0,0:0:0:0:
264,100,120474,2,0,P|288:56|320:24,2,82.5000031471254,0|0|4,0:0|0:0|0:0,0:0:0:0:
236,228,121285,1,4,0:0:0:0:
368,228,121555,6,0,P|440:204|488:148,1,123.750004720688,0|0,0:0|0:0,0:0:0:0:
472,120,122096,2,0,P|432:104|400:64,1,82.5000031471254,4|0,0:0|0:0,0:0:0:0:
280,40,122636,1,0,0:0:0:0:
212,152,122907,1,0,0:0:0:0:
80,136,123177,1,4,0:0:0:0:
128,260,123447,1,0,0:0:0:0:
212,152,123717,5,4,0:0:0:0:
256,192,123853,12,0,127501,0:0:0:0:
256,192,128042,12,2,131826,0:0:0:0:
