osu file format v14

[General]
AudioFilename: audio.mp3
AudioLeadIn: 1000
PreviewTime: 2059
Countdown: 0
SampleSet: Normal
StackLeniency: 0.7
Mode: 0
LetterboxInBreaks: 0
WidescreenStoryboard: 1

[Editor]
Bookmarks: 18811
DistanceSpacing: 1.1
BeatDivisor: 4
GridSize: 4
TimelineZoom: 2.6

[Metadata]
Title:Unknown Mother-Goose feat. Hatsune Miku
TitleUnicode:アンノウン・マザーグース feat. 初音ミク
Artist:wowaka
ArtistUnicode:wowaka
Creator:tutuhaha
Version:Normal
Source:
Tags:vocaloid cut ver HabiHolic
BeatmapID:1397403
BeatmapSetID:658008

[Difficulty]
HPDrainRate:3
CircleSize:2.3
OverallDifficulty:3
ApproachRate:3.5
SliderMultiplier:0.899999999999999
SliderTickRate:1

[Events]
//Background and Video events
0,0,"bggg.jpg",0,0
//Break Periods
2,20097,27165
//Storyboard Layer 0 (Background)
//Storyboard Layer 1 (Fail)
//Storyboard Layer 2 (Pass)
//Storyboard Layer 3 (Foreground)
//Storyboard Sound Samples

[TimingPoints]
2600,270.27027027027,4,1,1,51,1,0
71826,540.540540540541,4,2,2,51,1,0
71826,-66.6666666666667,4,2,2,51,0,0
106420,-66.6666666666667,4,2,2,61,0,1
123717,-66.6666666666667,4,2,2,51,0,0
128042,-66.6666666666667,4,2,2,41,0,0

[Colours]
Combo1 : 128,0,0
Combo2 : 140,140,140
Combo3 : 74,74,74
Combo4 : 228,228,228

[HitObjects]
412,340,2600,6,0,B|420:276|420:276|464:216,2,135,4|0|8,0:0|0:0|0:0,0:0:0:0:
312,348,3681,2,0,P|308:264|304:248,1,89.9999999999999,0|8,0:0|0:0,0:0:0:0:
316,208,4086,2,0,P|228:200|188:168,1,135,0|8,0:0|0:0,0:0:0:0:
156,80,4762,6,0,B|232:64|232:64|296:28,2,135,0|0|8,0:0|0:0|0:0,0:0:0:0:
96,156,5843,2,0,B|39:207|39:207|1:271,2,135,0|0|8,0:0|0:0|0:0,0:0:0:0:
196,156,6924,6,0,B|272:144|272:144|340:164|340:164|400:140|460:156,1,270,0|8,0:0|0:0,0:0:0:0:
452,256,8005,2,0,B|448:348|448:348|484:392,2,135,0|0|8,0:0|0:0|0:0,0:0:0:0:
460,156,9086,22,0,P|404:128|376:104,1,89.9999999999999,0|8,0:0|0:0,0:0:0:0:
376,60,9491,2,0,P|336:92|240:96,1,135,0|8,0:0|0:0,0:0:0:0:
176,40,10167,2,0,P|152:116|188:228,1,180,0|0,0:0|0:0,0:0:0:0:
268,244,10978,1,8,0:0:0:0:
364,232,11248,6,0,P|412:180|424:108,2,135,4|0|8,0:0|0:0|0:0,0:0:0:0:
344,328,12329,2,0,L|160:328,1,180,0|0,0:0|0:0,0:0:0:0:
64,320,13140,1,8,0:0:0:0:
120,240,13410,6,0,B|88:156|88:156|48:116,2,135,0|0|8,0:0|0:0|0:0,0:0:0:0:
220,228,14491,2,0,P|212:164|220:128,1,89.9999999999999,0|8,0:0|0:0,0:0:0:0:
216,88,14897,2,0,P|248:64|340:56,1,135,0|8,0:0|0:0,0:0:0:0:
420,116,15572,22,0,P|452:192|332:332,1,270,0|8,0:0|0:0,0:0:0:0:
252,328,16654,2,0,P|156:241|182:114,1,270,0|8,0:0|0:0,0:0:0:0:
128,32,17735,2,0,P|84:56|-8:40,2,135,0|0|8,0:0|0:0|0:0,0:0:0:0:
228,24,18816,1,0,0:0:0:0:
256,192,18883,12,4,19897,0:0:0:0:
312,336,28545,6,0,B|208:336|208:336|168:344,2,135,0|0|8,0:0|0:0|0:0,0:0:0:0:
300,236,29627,2,0,P|268:216|232:76,1,180,0|0,0:0|0:0,0:0:0:0:
312,36,30437,1,8,0:0:0:0:
408,64,30708,6,0,B|408:168|408:168|388:208,2,135,0|0|8,0:0|0:0|0:0,0:0:0:0:
312,36,31789,2,0,B|196:36|196:36|120:20,1,180
36,40,32599,1,8,0:0:0:0:
104,112,32870,22,0,P|96:168|32:228,2,135,0|0|8,0:0|0:0|0:0,0:0:0:0:
196,148,33951,2,0,L|396:148,1,180,0|0,0:0|0:0,0:0:0:0:
436,68,34762,1,8,0:0:0:0:
476,160,35032,6,0,B|476:268|476:268|492:312,2,135,0|0|8,0:0|0:0|0:0,0:0:0:0:
436,68,36113,2,0,B|304:68|304:68|248:40,1,180,0|0,0:0|0:0,0:0:0:0:
188,116,36924,1,8,0:0:0:0:
120,44,37194,21,4,0:0:0:0:
120,44,39356,6,0,P|92:88|112:180,2,135,4|0|8,0:0|0:0|0:0,0:0:0:0:
188,116,40437,2,0,P|224:136|256:180,1,89.9999999999999,0|8,0:0|0:0,0:0:0:0:
268,220,40843,2,0,P|232:268|240:352,1,135,0|8,0:0|0:0,0:0:0:0:
328,304,41518,6,0,B|432:304|432:304|476:324,2,135,0|0|8,0:0|0:0|0:0,0:0:0:0:
234,340,42599,2,0,L|134:340,1,89.9999999999999,0|8,0:0|0:0,0:0:0:0:
94,344,43005,2,0,P|62:320|34:224,1,135,0|8,0:0|0:0,0:0:0:0:
132,244,43681,6,0,P|180:196|184:112,1,135,0|0,0:0|0:0,0:0:0:0:
72,40,44491,1,8,0:0:0:0:
172,36,44762,2,0,L|368:36,1,180
452,32,45572,1,8,0:0:0:0:
408,120,45843,22,0,B|408:172|408:172|444:248,2,135,4|0|8,0:0|0:0|0:0,0:0:0:0:
312,140,46924,2,0,B|272:236|272:236|204:292,1,180,0|0,0:0|0:0,0:0:0:0:
128,336,47735,1,8,0:0:0:0:
120,236,48005,6,0,B|100:156|100:156|56:108,2,135,0|0|8,0:0|0:0|0:0,0:0:0:0:
128,336,49086,2,0,B|196:336|196:336|228:356,1,89.9999999999999,0|8,0:0|0:0,0:0:0:0:
264,360,49491,2,0,L|416:360,1,135,0|8,0:0|0:0,0:0:0:0:
372,264,50167,6,0,B|393:199|393:199|391:142|391:142|459:94|465:11,1,270,0|8,0:0|0:0,0:0:0:0:
364,20,51248,2,0,B|297:34|297:34|249:63|249:63|172:28|96:48,1,270,0|8,0:0|0:0,0:0:0:0:
40,116,52329,22,0,L|32:220,2,89.9999999999999,0|8|0,0:0|0:0|0:0,0:0:0:0:
136,140,53140,1,8,0:0:0:0:
132,240,53410,2,0,B|128:312|128:312|184:284|248:292,2,180,8|8|4,0:0|0:0|0:0,0:0:0:0:
96,44,55032,5,8,0:0:0:0:
280,116,55572,2,0,L|476:116,1,180,0|0,0:0|0:0,0:0:0:0:
448,316,56654,2,0,B|312:316|312:316|264:336,1,180,0|0,0:0|0:0,0:0:0:0:
196,148,57735,2,0,B|155:164|155:164|19:164,1,180,0|0,0:0|0:0,0:0:0:0:
172,40,58816,5,0,0:0:0:0:
304,188,59356,1,8,0:0:0:0:
436,40,59897,2,0,B|448:120|448:120|476:168|476:168|484:224,1,180,0|0,0:0|0:0,0:0:0:0:
348,356,60978,2,0,P|320:320|180:320,1,180,0|0,0:0|0:0,0:0:0:0:
20,212,62059,2,0,P|65:205|135:84,1,180
252,260,63140,21,4,0:0:0:0:
384,112,63681,1,8,0:0:0:0:
192,68,64221,2,0,B|64:68|64:68|24:16,1,180,4|8,0:0|0:0,0:0:0:0:
120,204,65302,6,0,P|88:268|132:380,2,180,4|8|4,0:0|0:0|0:0,0:0:0:0:
244,48,66924,1,8,0:0:0:0:
304,236,67464,6,0,L|496:236,1,180,4|8,0:0|0:0,0:0:0:0:
332,108,68545,2,0,L|512:108,1,180,4|8,0:0|0:0,0:0:0:0:
460,300,69627,22,0,L|264:300,1,180,4|8,0:0|0:0,0:0:0:0:
208,232,70437,1,0,0:0:0:0:
116,196,70708,2,0,P|92:160|40:132,2,89.9999999999999,0|0|8,0:0|0:0|0:2,0:0:0:0:
116,196,71826,5,2,0:0:0:0:
216,88,72366,1,8,0:0:0:0:
360,116,72907,2,0,P|392:68|484:52,1,135.000005149841,0|8,0:0|0:0,0:0:0:0:
484,196,73988,5,2,0:0:0:0:
360,280,74528,1,8,0:0:0:0:
228,216,75069,2,0,L|152:216,1,67.5000025749207,0|0,0:0|0:0,0:0:0:0:
88,216,75609,1,8,0:0:0:0:
64,68,76150,22,0,L|208:68,2,135.000005149841,2|8|0,0:0|0:0|0:0,0:0:0:0:
72,140,77501,1,0,0:0:0:0:
88,216,77771,1,8,0:0:0:0:
208,312,78312,6,0,P|232:264|328:228,1,135.000005149841,2|8,0:0|0:0,0:0:0:0:
440,172,79393,1,0,0:0:0:0:
324,80,79934,1,8,0:0:0:0:
302,227,80474,6,0,B|354:299|354:299|374:355,2,135.000005149841,2|8|0,0:0|0:0|0:0,0:0:0:0:
248,176,81826,1,0,0:0:0:0:
200,120,82096,1,8,0:0:0:0:
76,200,82636,22,0,P|48:136|72:52,1,135.000005149841,2|8,0:0|0:0,0:0:0:0:
200,28,83717,2,0,L|288:28,2,67.5000025749207,0|0|8,0:0|0:0|0:0,0:0:0:0:
172,172,84798,5,2,0:0:0:0:
58,73,85339,1,8,0:0:0:0:
44,144,85609,1,0,0:0:0:0:
32,216,85880,2,0,L|16:304,2,67.5000025749207,0|0|8,0:0|0:0|0:0,0:0:0:0:
144,316,86961,5,2,0:0:0:0:
288,284,87501,1,8,0:0:0:0:
432,312,88042,1,0,0:0:0:0:
384,172,88582,1,8,0:0:0:0:
288,284,89123,22,0,P|236:236|208:164,1,135.000005149841,4|4,0:1|0:0,0:0:0:0:
184,108,89934,1,0,0:0:0:0:
160,40,90204,2,0,L|12:40,1,135.000005149841,0|4,0:0|0:0,0:0:0:0:
48,188,91285,6,0,P|100:196|164:280,1,135.000005149841,0|4,0:0|0:0,0:0:0:0:
216,300,92096,1,0,0:0:0:0:
272,348,92366,2,0,L|416:352,1,135.000005149841,0|4,0:0|0:0,0:0:0:0:
456,212,93447,5,0,0:0:0:0:
308,188,93988,1,4,0:0:0:0:
312,112,94258,1,0,0:0:0:0:
320,40,94528,2,0,P|400:44|468:12,1,135.000005149841,0|4,0:0|0:0,0:0:0:0:
492,168,95609,21,0,0:0:0:0:
344,164,96150,2,0,P|300:160|260:172,2,67.5000025749207,4|0|0,0:0|0:0|0:0,0:0:0:0:
416,296,97231,1,4,0:0:0:0:
268,308,97771,6,0,L|120:316,1,135.000005149841,4|4,0:1|0:0,0:0:0:0:
64,288,98582,1,0,0:0:0:0:
24,224,98853,2,0,P|56:148|48:80,1,135.000005149841,0|4,0:0|0:0,0:0:0:0:
196,52,99934,6,0,L|336:80,1,135.000005149841,0|4,0:0|0:0,0:0:0:0:
400,56,100744,1,0,0:0:0:0:
472,44,101015,2,0,P|444:100|460:196,1,135.000005149841,0|4,0:0|0:0,0:0:0:0:
492,312,102096,21,0,0:0:0:0:
352,260,102636,1,4,0:0:0:0:
236,352,103177,2,0,P|216:312|216:220,1,135.000005149841,0|4,0:0|0:0,0:0:0:0:
160,172,103988,1,0,0:0:0:0:
104,120,104258,6,0,B|88:64|88:64|28:12,1,135.000005149841,0|4,0:0|0:0,0:0:0:0:
8,160,105339,1,0,0:0:0:0:
16,308,105880,1,4,0:0:0:0:
164,324,106420,6,0,P|228:276|248:200,1,135.000005149841,4|4,0:1|0:0,0:0:0:0:
208,164,107231,2,0,P|144:148|96:80,1,135.000005149841,0|0,0:0|0:0,0:0:0:0:
68,32,108042,1,4,0:0:0:0:
216,36,108582,22,0,L|368:36,1,135.000005149841,0|4,0:0|0:0,0:0:0:0:
424,36,109393,1,0,0:0:0:0:
464,96,109663,2,0,B|480:140|480:176,2,67.5000025749207,0|0|4,0:0|0:0|0:0,0:0:0:0:
360,200,110744,6,0,P|344:272|280:336,1,135.000005149841,0|4,0:0|0:0,0:0:0:0:
232,304,111555,2,0,P|212:244|224:160,1,135.000005149841
232,100,112366,1,4,0:0:0:0:
92,40,112907,6,0,P|52:104|-12:136,1,135.000005149841,0|4,0:0|0:0,0:0:0:0:
16,204,113717,1,0,0:0:0:0:
36,276,113988,2,0,L|116:288,2,67.5000025749207,0|0|4,0:0|0:0|0:0,0:0:0:0:
136,164,115069,22,0,L|272:176,1,135.000005149841,4|4,0:1|0:0,0:0:0:0:
344,192,115880,2,0,P|336:264|372:328,1,135.000005149841,0|0,0:0|0:0,0:0:0:0:
432,348,116690,1,4,0:0:0:0:
456,200,117231,6,0,P|460:136|416:56,1,135.000005149841,0|4,0:0|0:0,0:0:0:0:
360,48,118042,1,0,0:0:0:0:
288,40,118312,2,0,L|208:32,2,67.5000025749207,0|0|4,0:0|0:0|0:0,0:0:0:0:
248,184,119393,6,0,L|104:176,1,135.000005149841,0|4,0:0|0:0,0:0:0:0:
40,156,120204,2,0,P|28:108|56:16,1,135.000005149841,0|0,0:0|0:0,0:0:0:0:
124,20,121015,1,4,0:0:0:0:
260,76,121555,22,0,P|252:140|208:200,1,135.000005149841,0|4,0:0|0:0,0:0:0:0:
140,216,122366,1,0,0:0:0:0:
68,232,122636,2,0,P|56:276|64:320,2,67.5000025749207,0|0|4,0:0|0:0|0:0,0:0:0:0:
56,84,123717,37,4,0:0:0:0:
256,192,123853,12,0,127501,0:0:0:0:
256,192,128042,12,2,131826,0:0:0:0:
