osu file format v14

[General]
AudioFilename: audio.mp3
AudioLeadIn: 1000
PreviewTime: 2059
Countdown: 0
SampleSet: Soft
StackLeniency: 0.7
Mode: 0
LetterboxInBreaks: 0
WidescreenStoryboard: 1

[Editor]
Bookmarks: 18811
DistanceSpacing: 1.8
BeatDivisor: 4
GridSize: 4
TimelineZoom: 2.6

[Metadata]
Title:Unknown Mother-Goose feat. Hatsune Miku
TitleUnicode:アンノウン・マザーグース feat. 初音ミク
Artist:wowaka
ArtistUnicode:wowaka
Creator:tutuhaha
Version:Insane
Source:
Tags:vocaloid cut ver HabiHolic
BeatmapID:1396330
BeatmapSetID:658008

[Difficulty]
HPDrainRate:6
CircleSize:4
OverallDifficulty:8
ApproachRate:9
SliderMultiplier:1.7
SliderTickRate:1

[Events]
//Background and Video events
0,0,"bggg.jpg",0,0
//Break Periods
2,37394,38756
2,54691,62720
//Storyboard Layer 0 (Background)
//Storyboard Layer 1 (Fail)
//Storyboard Layer 2 (Pass)
//Storyboard Layer 3 (Foreground)
//Storyboard Sound Samples

[TimingPoints]
2600,270.27027027027,4,1,1,51,1,0
20302,-83.3333333333333,4,1,1,51,0,0
20708,-100,4,1,1,51,0,0
21113,-83.3333333333333,4,1,1,51,0,0
21518,-76.9230769230769,4,1,1,51,0,0
22059,-100,4,1,1,51,0,0
22464,-83.3333333333333,4,1,1,51,0,0
22870,-100,4,1,1,51,0,0
23275,-83.3333333333333,4,1,1,51,0,0
23681,-76.9230769230769,4,1,1,51,0,0
24221,-100,4,1,1,51,0,0
24627,-83.3333333333333,4,1,1,51,0,0
25032,-100,4,1,1,51,0,0
25437,-83.3333333333333,4,1,1,51,0,0
25843,-76.9230769230769,4,1,1,51,0,0
26383,-100,4,1,1,51,0,0
26789,-83.3333333333333,4,1,1,51,0,0
27194,-100,4,1,1,51,0,0
27599,-83.3333333333333,4,1,1,51,0,0
28005,-76.9230769230769,4,1,1,51,0,0
28545,-100,4,1,1,51,0,0
28951,-83.3333333333333,4,1,1,51,0,0
29356,-100,4,1,1,51,0,0
29762,-83.3333333333333,4,1,1,51,0,0
30167,-76.9230769230769,4,1,1,51,0,0
30708,-100,4,1,1,51,0,0
31113,-83.3333333333333,4,1,1,51,0,0
31518,-100,4,1,1,51,0,0
31924,-83.3333333333333,4,1,1,51,0,0
32329,-76.9230769230769,4,1,1,51,0,0
32870,-100,4,1,1,51,0,0
33275,-83.3333333333333,4,1,1,51,0,0
33681,-100,4,1,1,51,0,0
34086,-83.3333333333333,4,1,1,51,0,0
34491,-76.9230769230769,4,1,1,51,0,0
35032,-100,4,1,1,51,0,0
35437,-83.3333333333333,4,1,1,51,0,0
35843,-100,4,1,1,51,0,0
36248,-83.3333333333333,4,1,1,51,0,0
39356,-100,4,1,1,51,0,0
45032,-83.3333333333333,4,1,1,51,0,0
45572,-100,4,1,1,51,0,0
71826,540.540540540541,4,2,2,51,1,0
72366,-133.333333333333,4,2,2,51,0,0
76150,-100,4,2,2,51,0,0
79393,-153.846153846154,4,2,2,51,0,0
81015,-133.333333333333,4,2,2,51,0,0
82636,-133.333333333333,4,2,2,51,0,0
86961,-133.333333333333,4,2,2,51,0,0
87501,-153.846153846154,4,2,2,51,0,0
89123,-100,4,2,2,51,0,0
104798,-133.333333333333,4,2,2,51,0,0
105339,-153.846153846154,4,2,2,51,0,0
105880,-181.818181818182,4,2,2,51,0,0
106420,-100,4,2,2,61,0,1
123717,-100,4,2,2,51,0,0
128042,-100,4,2,2,41,0,0

[Colours]
Combo1 : 128,0,0
Combo2 : 140,140,140
Combo3 : 74,74,74
Combo4 : 228,228,228

[HitObjects]
360,76,2194,5,0,0:0:0:0:
220,104,2329,1,0,0:0:0:0:
316,212,2464,1,0,0:0:0:0:
360,76,2600,6,0,B|256:60|256:60|172:12,1,170,4|8,0:0|0:0,0:0:0:0:
16,76,3005,2,0,P|80:64|148:156,1,170,0|0,0:0|0:0,0:0:0:0:
124,304,3410,2,0,B|196:216,1,85,8|0,0:0|0:0,0:0:0:0:
316,248,3681,5,0,0:0:0:0:
236,160,3816,1,0,0:0:0:0:
236,300,3951,1,8,0:0:0:0:
352,168,4086,2,0,B|420:156|420:156|468:172|468:172|512:124,1,170,0|0,0:0|0:0,0:0:0:0:
356,72,4491,22,0,B|248:60|248:60|192:20,2,170,8|0|8,0:0|0:0|0:0,0:0:0:0:
476,252,5167,2,0,B|368:264|368:264|312:304,1,170
232,368,5572,2,0,L|140:348,1,85,8|0,0:0|0:0,0:0:0:0:
72,220,5843,5,0,0:0:0:0:
120,100,5978,1,0,0:0:0:0:
8,160,6113,1,8,0:0:0:0:
152,264,6248,2,0,P|196:228|336:256,1,170,0|0,0:0|0:0,0:0:0:0:
380,324,6654,1,8,0:0:0:0:
428,148,6789,1,0,0:0:0:0:
304,231,6924,6,0,B|232:231|232:231|176:223|176:223|104:223,1,170,0|8,0:0|0:0,0:0:0:0:
308,124,7329,2,0,B|380:124|380:124|436:116|436:116|508:116,1,170,0|0,0:0|0:0,0:0:0:0:
276,28,7735,2,0,L|184:28,1,85,8|0,0:0|0:0,0:0:0:0:
112,116,8005,1,0,0:0:0:0:
68,4,8140,1,0,0:0:0:0:
276,28,8275,1,8,0:0:0:0:
220,132,8410,2,0,P|192:192|216:236,1,85
292,276,8681,1,0,0:0:0:0:
364,188,8816,22,0,P|409:120|382:42,2,170,8|0|8,0:0|0:0|0:0,0:0:0:0:
292,276,9491,2,0,B|252:296|232:336|232:336|124:336,1,170,0|0,0:0|0:0,0:0:0:0:
140,216,9897,2,0,L|56:200,1,85,8|0,0:0|0:0,0:0:0:0:
28,316,10167,5,0,0:0:0:0:
148,336,10302,1,0,0:0:0:0:
156,216,10437,2,0,L|72:200,1,85,8|0,0:0|0:0,0:0:0:0:
132,96,10708,2,0,L|216:112,2,85,0|0|8,0:0|0:0|0:0,0:0:0:0:
40,24,11113,1,0,0:0:0:0:
72,200,11248,6,0,P|116:240|84:368,1,170,4|8,0:0|0:0,0:0:0:0:
200,176,11654,2,0,P|188:120|280:28,1,170,0|0,0:0|0:0,0:0:0:0:
312,136,12059,1,8,0:0:0:0:
432,144,12194,1,0,0:0:0:0:
448,28,12329,22,0,L|348:24,1,85,0|0,0:0|0:0,0:0:0:0:
312,136,12599,1,8,0:0:0:0:
432,144,12735,1,0,0:0:0:0:
348,316,12870,2,0,L|432:319,1,85
412,180,13140,2,0,L|327:176,1,85,8|0,0:0|0:0,0:0:0:0:
200,348,13410,6,0,B|100:344|100:344|20:316,1,170,0|8,0:0|0:0,0:0:0:0:
136,188,13816,2,0,B|201:164|201:164|301:160,1,170,0|0,0:0|0:0,0:0:0:0:
412,208,14221,1,8,0:0:0:0:
388,92,14356,1,0,0:0:0:0:
320,252,14491,6,0,P|324:300|356:344,2,85,0|0|8,0:0|0:0|0:0,0:0:0:0:
280,140,14897,1,0,0:0:0:0:
168,100,15032,2,0,P|152:48|160:8,1,85,0|0,0:0|0:0,0:0:0:0:
355,18,15302,2,0,P|358:60|344:100,1,85,8|0,0:0|0:0,0:0:0:0:
132,120,15572,22,0,P|108:180|144:288,1,170,0|8,0:0|0:0,0:0:0:0:
376,278,15978,2,0,P|405:199|380:120,1,170,0|0,0:0|0:0,0:0:0:0:
276,60,16383,1,8,0:0:0:0:
168,108,16518,1,0,0:0:0:0:
188,228,16654,6,0,P|248:232|284:212,1,85,0|0,0:0|0:0,0:0:0:0:
392,152,16924,2,0,L|488:152,1,85,8|0,0:0|0:0,0:0:0:0:
380,36,17194,1,0,1:0:0:0:
280,100,17329,1,0,1:0:0:0:
188,24,17464,2,0,L|103:24,1,85,8|0,0:0|1:0,0:0:0:0:
64,212,17735,6,0,P|60:144|-16:80,1,170,0|8,0:0|0:0,0:0:0:0:
148,140,18140,2,0,B|256:144|256:144|320:116,1,170,0|0,0:0|0:0,0:0:0:0:
240,28,18545,1,8,0:0:0:0:
356,56,18681,1,0,0:0:0:0:
468,16,18816,6,0,L|428:92,1,56.6666666666667
468,160,18996,2,0,L|428:236,1,56.6666666666667
356,216,19176,2,0,L|316:292,1,56.6666666666667
260,340,19356,1,0,0:0:0:0:
260,340,19446,1,0,0:0:0:0:
260,340,19536,1,0,0:0:0:0:
260,340,19627,1,0,0:0:0:0:
260,340,19717,1,0,0:0:0:0:
260,340,19795,1,0,0:0:0:0:
208,336,19897,6,0,P|160:300|44:348,1,170,4|8,0:0|0:0,0:0:0:0:
168,216,20302,2,0,P|236:168|200:40,1,203.999993774414,0|0,0:0|0:0,0:0:0:0:
72,28,20708,2,0,B|72:120|72:120|20:208,1,170,8|0,0:0|0:0,0:0:0:0:
196,144,21113,2,0,B|196:244|196:244|256:340,1,203.999993774414,8|0,0:0|0:0,0:0:0:0:
288,136,21518,38,0,P|296:68|268:24,1,110.499994941712,0|0,0:0|0:0,0:0:0:0:
120,36,21789,2,0,P|98:85|108:139,1,110.499994941712,8|0,0:0|0:0,0:0:0:0:
304,336,22059,22,0,P|352:300|468:348,1,170,0|8,0:0|0:0,0:0:0:0:
344,216,22464,2,0,P|276:168|312:40,1,203.999993774414,0|0,0:0|0:0,0:0:0:0:
440,28,22870,2,0,B|440:120|440:120|492:208,1,170,8|0,0:0|0:0,0:0:0:0:
316,144,23275,2,0,B|316:244|316:244|256:340,1,203.999993774414,8|0,0:0|0:0,0:0:0:0:
224,136,23681,22,0,P|216:68|244:24,1,110.499994941712,0|0,0:0|0:0,0:0:0:0:
392,36,23951,2,0,P|414:85|404:139,1,110.499994941712,8|0,0:0|0:0,0:0:0:0:
164,160,24221,38,0,B|60:160|60:160|-8:112,1,170,0|8,0:0|0:0,0:0:0:0:
2,290,24627,2,0,B|55:251|55:251|211:251,1,203.999993774414,0|0,0:0|0:0,0:0:0:0:
296,84,25032,2,0,P|252:52|136:72,1,170,8|0,0:0|0:0,0:0:0:0:
268,188,25437,2,0,P|280:288|192:344,1,203.999993774414,8|0,0:0|0:0,0:0:0:0:
41,188,25843,6,0,B|41:112|41:112|5:64,1,110.499994941712,0|0,0:0|0:0,0:0:0:0:
173,148,26113,2,0,B|173:224|173:224|209:272,1,110.499994941712,8|0,0:0|0:0,0:0:0:0:
348,160,26383,38,0,B|452:160|452:160|520:112,1,170,0|8,0:0|0:0,0:0:0:0:
510,290,26789,2,0,B|456:251|456:251|300:251,1,203.999993774414,0|0,0:0|0:0,0:0:0:0:
216,84,27194,2,0,P|260:52|376:72,1,170,8|0,0:0|0:0,0:0:0:0:
244,188,27599,2,0,P|232:288|320:344,1,203.999993774414,8|0,0:0|0:0,0:0:0:0:
471,188,28005,6,0,B|471:112|471:112|507:64,1,110.499994941712,0|0,0:0|0:0,0:0:0:0:
339,148,28275,2,0,B|339:224|339:224|303:272,1,110.499994941712,8|0,0:0|0:0,0:0:0:0:
88,384,28545,6,0,B|88:288|88:288|116:212,1,170,0|8,0:0|0:0,0:0:0:0:
196,88,28951,2,0,P|116:116|52:28,1,203.999993774414,0|0,0:0|0:0,0:0:0:0:
292,56,29356,2,0,P|276:128|200:192,1,170,8|0,0:0|0:0,0:0:0:0:
28,288,29762,2,0,B|128:288|128:288|168:308|168:308|236:308,1,203.999993774414,8|0,0:0|0:0,0:0:0:0:
208,96,30167,38,0,B|140:96|140:96|80:72,1,110.499994941712,0|0,0:0|0:0,0:0:0:0:
204,204,30437,2,0,B|272:204|272:204|311:219,1,110.499994941712,8|0,0:0|0:0,0:0:0:0:
424,384,30708,22,0,B|424:288|424:288|396:212,1,170,0|8,0:0|0:0,0:0:0:0:
316,88,31113,2,0,P|396:116|460:28,1,203.999993774414,0|0,0:0|0:0,0:0:0:0:
220,56,31518,2,0,P|236:128|312:192,1,170,8|0,0:0|0:0,0:0:0:0:
484,288,31924,2,0,B|384:288|384:288|344:308|344:308|276:308,1,203.999993774414,8|0,0:0|0:0,0:0:0:0:
312,128,32329,22,0,B|380:128|380:128|440:104,1,110.499994941712,0|0,0:0|0:0,0:0:0:0:
260,216,32599,2,0,B|192:216|192:216|152:231,1,110.499994941712,8|0,0:0|0:0,0:0:0:0:
360,384,32870,6,0,P|408:324|372:220,1,170,0|8,0:0|0:0,0:0:0:0:
456,60,33275,2,0,P|420:124|292:128,1,203.999993774414,0|0,0:0|0:0,0:0:0:0:
120,28,33681,2,0,B|236:28|236:28|320:52,1,170,8|0,0:0|0:0,0:0:0:0:
196,216,34086,2,0,B|56:216|56:216|-12:172,1,203.999993774414,8|0,0:0|0:0,0:0:0:0:
216,128,34491,38,0,L|344:128,1,110.499994941712,0|0,0:0|0:0,0:0:0:0:
340,288,34762,2,0,L|468:288,1,110.499994941712,8|0,0:0|0:0,0:0:0:0:
152,384,35032,6,0,P|104:324|140:220,1,170,0|8,0:0|0:0,0:0:0:0:
56,60,35437,2,0,P|92:124|220:128,1,203.999993774414,0|0,0:0|0:0,0:0:0:0:
392,28,35843,2,0,B|276:28|276:28|192:52,1,170,8|0,0:0|0:0,0:0:0:0:
316,216,36248,2,0,B|456:216|456:216|524:172,1,203.999993774414,8|0,0:0|0:0,0:0:0:0:
296,128,36654,37,0,0:0:0:0:
208,276,36789,1,0,0:0:0:0:
152,112,36924,1,8,0:0:0:0:
316,216,37059,1,0,0:0:0:0:
268,28,37194,5,4,0:0:0:0:
268,28,39356,5,4,0:0:0:0:
176,376,39627,1,8,0:0:0:0:
260,288,39762,2,0,B|376:288|376:288|432:320,1,170,0|0,0:0|0:0,0:0:0:0:
404,208,40167,2,0,P|388:168|404:96,1,85,8|0,0:0|0:0,0:0:0:0:
476,60,40437,5,0,0:0:0:0:
348,12,40572,1,0,0:0:0:0:
476,60,40708,1,8,0:0:0:0:
304,92,40843,2,0,B|220:76|220:76|140:24,1,170,0|0,0:0|0:0,0:0:0:0:
32,20,41248,1,8,0:0:0:0:
92,112,41383,1,0,0:0:0:0:
28,212,41518,22,0,L|12:312,1,85,0|0,0:0|0:0,0:0:0:0:
92,112,41789,1,8,0:0:0:0:
156,208,41924,2,0,B|144:308|144:308|160:376,1,170
256,204,42329,1,8,0:0:0:0:
92,112,42464,1,0,0:0:0:0:
248,100,42599,6,0,P|264:56|256:16,1,85,0|0,0:0|0:0,0:0:0:0:
112,32,42870,1,8,0:0:0:0:
172,200,43005,2,0,P|200:268|308:276,1,170,0|0,0:0|0:0,0:0:0:0:
388,236,43410,1,8,0:0:0:0:
300,168,43545,1,0,0:0:0:0:
376,332,43681,6,0,L|288:372,2,85,0|0|8,0:0|0:0|0:0,0:0:0:0:
456,204,44086,1,0,0:0:0:0:
456,204,44356,1,0,0:0:0:0:
372,132,44491,2,0,B|400:104|424:96|424:96|360:84|336:32,1,170,8|0,0:0|0:0,0:0:0:0:
492,28,44897,5,2,2:0:0:0:
456,204,45032,2,0,B|428:232|404:240|404:240|488:280|464:368,1,203.999993774414,2|0,0:0|0:0,0:0:0:0:
320,240,45437,1,0,0:0:0:0:
372,132,45572,1,8,0:0:0:0:
384,328,45708,1,0,0:0:0:0:
232,248,45843,6,0,P|236:200|280:160,1,85,4|0,0:0|0:0,0:0:0:0:
372,132,46113,1,8,0:0:0:0:
240,72,46248,2,0,B|136:64|136:64|44:32,1,170,0|0,0:0|0:0,0:0:0:0:
16,204,46654,2,0,B|76:192|76:192|120:160,1,85,8|0,0:0|0:0,0:0:0:0:
268,24,46924,6,0,B|208:36|208:36|164:68,1,85,0|0,0:0|0:0,0:0:0:0:
280,176,47194,1,8,0:0:0:0:
380,20,47329,1,0,0:0:0:0:
412,152,47464,2,0,B|472:140|472:140|516:108,2,85,0|0|8,0:0|0:0|0:0,0:0:0:0:
280,176,47870,1,0,0:0:0:0:
444,316,48005,6,0,B|344:296|344:296|260:304,1,170,0|8,0:0|0:0,0:0:0:0:
148,384,48410,1,0,0:0:0:0:
148,384,48681,1,0,0:0:0:0:
120,276,48816,2,0,L|100:184,1,85,8|0,0:0|0:0,0:0:0:0:
64,56,49086,21,0,0:0:0:0:
184,100,49221,1,0,0:0:0:0:
8,156,49356,1,8,0:0:0:0:
200,208,49491,1,0,0:0:0:0:
200,208,49762,1,0,0:0:0:0:
280,128,49897,2,0,P|276:64|244:28,1,85,8|0,0:0|0:0,0:0:0:0:
448,120,50167,6,0,P|412:184|304:212,1,170,0|8,0:0|0:0,0:0:0:0:
144,280,50572,2,0,P|212:288|288:360,1,170,0|0,0:0|0:0,0:0:0:0:
232,200,50978,2,0,L|224:112,1,85,8|0,0:0|0:0,0:0:0:0:
120,84,51248,5,0,0:0:0:0:
96,192,51383,1,0,0:0:0:0:
224,116,51518,1,8,0:0:0:0:
40,40,51654,1,0,0:0:0:0:
20,144,51789,2,0,P|8:204|16:244,1,85,0|0,0:0|0:0,0:0:0:0:
64,376,52059,2,0,P|84:332|144:304,1,85,8|0,0:0|0:0,0:0:0:0:
280,240,52329,22,0,P|176:244|116:168,1,170,0|8,0:0|0:0,0:0:0:0:
120,92,52735,1,0,0:0:0:0:
224,124,52870,2,0,L|336:124,1,85,0|0,0:0|0:0,0:0:0:0:
480,64,53140,2,0,P|424:116|424:172,1,127.5,8|0,0:0|2:0,0:0:0:0:
432,236,53410,37,8,0:0:0:0:
448,360,53590,1,8,0:0:0:0:
336,304,53771,1,8,0:0:0:0:
248,160,53951,1,8,0:0:0:0:
180,380,54131,1,12,0:0:0:0:
180,380,54491,5,4,0:0:0:0:
168,72,63320,6,0,L|76:48,3,56.6666666666667
96,136,63681,2,0,L|4:112,5,56.6666666666667,8|0|0|0|0|0,0:0|0:0|0:0|0:0|0:0|0:0,0:0:0:0:
104,224,64221,2,0,L|12:200,5,56.6666666666667,4|0|0|0|0|0,0:0|0:0|0:0|0:0|0:0|0:0,0:0:0:0:
112,316,64762,2,0,L|20:292,4,56.6666666666667,8|0|0|0|0,0:0|0:0|0:0|0:0|0:0,0:0:0:0:
344,72,65482,6,0,L|436:48,3,56.6666666666667
416,136,65843,2,0,L|508:112,5,56.6666666666667,8|0|0|0|0|0,0:0|0:0|0:0|0:0|0:0|0:0,0:0:0:0:
408,224,66383,2,0,L|500:200,5,56.6666666666667,4|0|0|0|0|0,0:0|0:0|0:0|0:0|0:0|0:0,0:0:0:0:
400,316,66924,2,0,L|492:292,4,56.6666666666667,8|0|0|0|0,0:0|0:0|0:0|0:0|0:0,0:0:0:0:
116,64,67645,22,0,L|76:124,3,56.6666666666667
208,96,68005,2,0,L|197:167,5,56.6666666666667,8|0|0|0|0|0,0:0|0:0|0:0|0:0|0:0|0:0,0:0:0:0:
312,152,68545,2,0,L|304:96,5,56.6666666666667,4|0|0|0|0|0,0:0|0:0|0:0|0:0|0:0|0:0,0:0:0:0:
427,111,69086,2,0,L|396:64,5,56.6666666666667,8|0|0|0|0|0,0:0|0:0|0:0|0:0|0:0|0:0,0:0:0:0:
472,176,69627,37,4,0:0:0:0:
256,24,69897,1,0,0:0:0:0:
432,296,70167,1,0,0:0:0:0:
40,176,70437,1,0,0:0:0:0:
395,63,70708,1,0,0:0:0:0:
80,296,70978,1,0,0:0:0:0:
117,63,71248,1,8,0:2:0:0:
117,63,71826,5,2,0:0:0:0:
117,63,72231,1,0,0:0:0:0:
112,140,72366,2,0,P|104:184|92:200,1,63.7500024318696,8|0,0:0|0:0,0:0:0:0:
93,198,72907,1,0,0:0:0:0:
292,156,73177,1,0,0:0:0:0:
136,24,73447,1,8,0:0:0:0:
136,24,73988,6,0,P|184:40|248:24,1,95.6250036478044,2|0,0:0|0:0,0:0:0:0:
304,20,74528,1,8,0:0:0:0:
212,144,74798,1,0,0:0:0:0:
304,20,75069,1,0,0:0:0:0:
376,236,75339,1,0,0:0:0:0:
128,120,75609,2,0,P|140:64|136:36,1,63.7500024318696,8|0,0:0|0:0,0:0:0:0:
32,160,76150,6,0,L|40:260,1,85,2|0,0:0|0:0,0:0:0:0:
96,300,76555,1,0,0:0:0:0:
96,300,76690,1,8,0:0:0:0:
232,148,76961,1,0,0:0:0:0:
216,352,77231,1,0,0:0:0:0:
144,204,77501,1,0,0:0:0:0:
328,240,77771,1,8,0:0:0:0:
328,240,78312,22,0,P|368:220|452:232,1,127.5,2|0,0:0|0:0,0:0:0:0:
416,300,78853,1,8,0:0:0:0:
460,140,79123,1,0,0:0:0:0:
484,328,79393,2,0,P|444:348|384:340,1,82.8749962062838,0|0,0:0|0:0,0:0:0:0:
384,344,79866,1,0,0:0:0:0:
360,332,79934,1,8,0:0:0:0:
360,332,80474,5,2,0:0:0:0:
360,332,80880,1,0,0:0:0:0:
376,256,81015,2,0,P|384:220|376:188,1,63.7500024318696,8|0,0:0|0:0,0:0:0:0:
378,194,81555,1,0,0:0:0:0:
260,96,81826,1,0,0:0:0:0:
492,44,82096,1,8,0:0:0:0:
492,44,82636,6,0,P|452:40|388:24,1,95.6250036478044,2|0,0:0|0:0,0:0:0:0:
320,16,83177,1,8,0:0:0:0:
296,168,83447,1,0,0:0:0:0:
320,16,83717,1,0,0:0:0:0:
412,232,83988,1,0,0:0:0:0:
152,124,84258,1,8,0:0:0:0:
152,124,84798,22,0,P|124:72|116:64,1,63.7500024318696,2|0,0:0|0:0,0:0:0:0:
48,56,85204,1,0,0:0:0:0:
48,56,85339,1,8,0:0:0:0:
252,28,85609,1,0,0:0:0:0:
60,168,85880,1,0,0:0:0:0:
36,12,86150,1,0,0:0:0:0:
232,152,86420,1,8,0:0:0:0:
232,152,86961,6,0,P|224:188|236:248,1,95.6250036478044,2|0,0:0|0:0,0:0:0:0:
308,200,87501,1,8,0:0:0:0:
156,296,87771,1,0,0:0:0:0:
232,152,88042,2,0,P|240:116|232:68,1,82.8749962062838,0|0,0:0|0:0,0:0:0:0:
224,44,88515,1,0,0:0:0:0:
208,24,88582,1,8,0:0:0:0:
208,24,89123,6,0,P|256:36|304:24,1,85,4|0,0:1|0:0,0:0:0:0:
368,24,89528,1,0,0:0:0:0:
424,76,89663,2,0,P|404:116|352:152,1,85,4|0,0:0|0:0,0:0:0:0:
296,144,90069,1,0,0:0:0:0:
220,128,90204,22,0,L|172:128,1,42.5,0|0,0:0|0:0,0:0:0:0:
109,200,90474,2,0,L|152:200,1,42.5,0|0,0:0|0:0,0:0:0:0:
104,124,90744,1,4,0:0:0:0:
28,216,90880,1,0,0:0:0:0:
20,72,91015,1,0,0:0:0:0:
20,72,91285,6,0,P|52:40|108:24,1,85,0|0,0:0|0:0,0:0:0:0:
152,68,91690,1,0,0:0:0:0:
216,112,91826,2,0,P|259:100|316:114,1,85,4|0,0:0|0:0,0:0:0:0:
352,160,92231,1,0,0:0:0:0:
408,108,92366,6,0,L|408:65,1,42.5,0|0,0:0|0:0,0:0:0:0:
476,144,92636,2,0,L|476:186,1,42.5,0|0,0:0|0:0,0:0:0:0:
352,160,92907,1,4,0:0:0:0:
484,60,93042,1,0,0:0:0:0:
344,24,93177,1,0,0:0:0:0:
344,24,93447,22,0,P|320:72|280:96,1,85,0|0,0:0|0:0,0:0:0:0:
228,128,93853,1,0,0:0:0:0:
172,180,93988,2,0,P|152:224|136:236,1,42.5,4|0,0:0|0:0,0:0:0:0:
256,204,94258,2,0,P|280:220|316:228,1,42.5,0|0,0:0|0:0,0:0:0:0:
360,192,94528,5,0,0:0:0:0:
380,120,94663,2,0,P|344:88|276:76,1,85,0|0,0:0|0:0,0:0:0:0:
236,100,95069,1,4,0:0:0:0:
172,56,95204,2,0,L|72:56,1,85,0|0,0:0|0:0,0:0:0:0:
0,184,95609,6,0,B|60:184|60:184|88:208,1,85,0|0,0:0|0:0,0:0:0:0:
78,200,96150,1,4,0:0:0:0:
132,308,96285,1,0,0:0:0:0:
176,152,96420,1,0,0:0:0:0:
78,200,96555,1,0,0:0:0:0:
212,256,96690,22,0,P|252:284|280:340,1,85,0|0,0:0|0:0,0:0:0:0:
328,372,97096,1,0,0:0:0:0:
344,260,97231,1,4,0:0:0:0:
216,372,97366,2,0,P|176:356|112:352,1,85,0|0,0:0|0:0,0:0:0:0:
40,256,97771,22,0,P|32:312|48:360,1,85,4|0,0:1|0:0,0:0:0:0:
116,236,98177,1,0,0:0:0:0:
88,164,98312,2,0,P|64:124|56:72,1,85,4|0,0:0|0:0,0:0:0:0:
112,32,98717,1,0,0:0:0:0:
156,96,98853,22,0,P|184:116|208:128,1,42.5,0|0,0:0|0:0,0:0:0:0:
256,80,99123,1,0,0:0:0:0:
320,120,99258,1,0,0:0:0:0:
384,80,99393,2,0,P|404:48|428:36,1,42.5,4|0,0:0|0:0,0:0:0:0:
480,28,99663,1,0,0:0:0:0:
480,28,99934,5,0,0:0:0:0:
448,176,100204,2,0,L|448:240,1,42.5,0|0,0:0|0:0,0:0:0:0:
368,160,100474,2,0,L|368:48,1,85,4|0,0:0|0:0,0:0:0:0:
292,60,100880,1,0,0:0:0:0:
220,80,101015,6,0,P|196:108|184:136,1,42.5,0|0,0:0|0:0,0:0:0:0:
192,188,101285,1,0,0:0:0:0:
132,236,101420,1,0,0:0:0:0:
176,300,101555,2,0,P|180:328|180:356,1,42.5,4|0,0:0|0:0,0:0:0:0:
256,360,101826,1,0,0:0:0:0:
256,360,102096,22,0,P|260:304|296:252,1,85,0|0,0:0|0:0,0:0:0:0:
312,212,102501,1,0,0:0:0:0:
344,336,102636,2,0,P|392:360|444:360,1,85,4|0,0:0|0:0,0:0:0:0:
484,316,103042,1,0,0:0:0:0:
392,216,103177,22,0,P|396:164|420:120,1,85,0|0,0:0|0:0,0:0:0:0:
456,76,103582,1,0,0:0:0:0:
312,168,103717,2,0,P|248:164|220:148,1,85,4|0,0:0|0:0,0:0:0:0:
164,112,104123,1,0,0:0:0:0:
148,36,104258,6,0,P|96:24|48:24,1,85,0|0,0:0|0:0,0:0:0:0:
12,112,104663,1,0,0:0:0:0:
12,112,104798,2,0,L|80:112,1,63.7500024318696,4|0,0:0|0:0,0:0:0:0:
136,232,105204,1,0,0:0:0:0:
136,232,105339,2,0,L|56:232,1,55.2499974708558,0|0,0:0|0:0,0:0:0:0:
244,180,105744,1,0,0:0:0:0:
244,180,105812,1,0,0:0:0:0:
244,180,105880,2,0,L|296:180,1,46.7500014266968,4|0,0:0|0:0,0:0:0:0:
388,220,106420,6,0,P|380:184|400:124,1,85,4|0,0:1|0:0,0:0:0:0:
376,60,106826,1,0,0:0:0:0:
304,28,106961,2,0,L|252:28,1,42.5,4|0,0:0|0:0,0:0:0:0:
212,88,107231,2,0,P|184:68|168:48,1,42.5,0|0,0:0|0:0,0:0:0:0:
160,152,107501,5,0,0:0:0:0:
392,144,107771,1,0,0:0:0:0:
172,24,108042,1,4,0:0:0:0:
184,248,108312,1,4,0:0:0:0:
400,128,108582,6,0,B|396:48|396:48|412:-4,1,127.5,0|0,0:0|0:0,0:0:0:0:
488,120,109123,2,0,P|480:164|452:200,1,85,4|0,0:0|0:0,0:0:0:0:
300,60,109663,21,0,0:0:0:0:
488,120,109934,1,0,0:0:0:0:
409,2,110204,1,4,0:0:0:0:
348,200,110474,2,0,L|352:256,1,42.5,0|0,0:0|0:0,0:0:0:0:
288,360,110744,6,0,P|288:304|264:272,1,85,0|0,0:0|0:0,0:0:0:0:
220,224,111150,1,0,0:0:0:0:
152,260,111285,2,0,P|160:304|176:336,1,42.5,4|0,0:0|0:0,0:0:0:0:
104,356,111555,2,0,L|44:352,1,42.5,0|0,0:0|0:0,0:0:0:0:
180,376,111826,5,0,0:0:0:0:
84,224,112096,1,0,0:0:0:0:
264,288,112366,1,4,0:0:0:0:
61,353,112636,1,4,0:0:0:0:
160,128,112907,22,0,B|140:52|140:52|96:4,1,127.5,0|0,0:0|0:0,0:0:0:0:
88,176,113447,2,0,P|128:208|188:212,1,85,4|0,0:0|0:0,0:0:0:0:
260,56,113988,5,0,0:0:0:0:
24,88,114258,1,0,0:0:0:0:
160,216,114528,1,4,0:0:0:0:
332,8,114798,1,0,0:0:0:0:
308,208,115069,6,0,L|328:312,1,85,4|0,0:1|0:0,0:0:0:0:
344,372,115474,1,0,0:0:0:0:
400,320,115609,2,0,P|420:296|456:280,1,42.5,4|0,0:0|0:0,0:0:0:0:
472,356,115880,2,0,P|496:364|520:368,1,42.5,0|0,0:0|0:0,0:0:0:0:
492,244,116150,21,0,0:0:0:0:
344,372,116420,1,0,0:0:0:0:
372,152,116690,1,4,0:0:0:0:
472,356,116961,1,4,0:0:0:0:
256,272,117231,6,0,P|196:280|148:368,1,127.5,0|0,0:0|0:0,0:0:0:0:
28,272,117771,2,0,P|68:272|116:240,1,85,4|0,0:0|0:0,0:0:0:0:
192,112,118312,5,0,0:0:0:0:
106,250,118582,1,0,0:0:0:0:
292,280,118853,1,4,0:0:0:0:
28,272,119123,2,0,L|36:324,1,42.5,0|0,0:0|0:0,0:0:0:0:
96,216,119393,22,0,P|84:168|88:120,1,85
116,64,119798,1,0,0:0:0:0:
180,108,119934,2,0,P|208:116|232:120,1,42.5,4|0,0:0|0:0,0:0:0:0:
293,39,120204,2,0,P|272:42|252:48,1,42.5,0|0,0:0|0:0,0:0:0:0:
304,116,120474,5,0,0:0:0:0:
120,64,120744,1,0,0:0:0:0:
212,236,121015,1,4,0:0:0:0:
352,20,121285,1,4,0:0:0:0:
288,208,121555,6,0,P|356:208|416:152,1,127.5
500,256,122096,2,0,P|460:256|412:288,1,85,4|0,0:0|0:0,0:0:0:0:
256,352,122636,21,0,0:0:0:0:
421,277,122907,1,0,0:0:0:0:
224,208,123177,1,4,0:0:0:0:
140,372,123447,1,0,0:0:0:0:
140,372,123582,1,0,0:0:0:0:
140,372,123717,37,4,0:0:0:0:
256,192,123853,12,2,127501,0:0:0:0:
256,192,128042,12,2,131826,0:0:0:0:
