osu file format v14

[General]
AudioFilename: audio.mp3
AudioLeadIn: 0
PreviewTime: 210190
Countdown: 0
SampleSet: Soft
StackLeniency: 0.2
Mode: 0
LetterboxInBreaks: 0
WidescreenStoryboard: 1

[Editor]
DistanceSpacing: 2.4
BeatDivisor: 4
GridSize: 32
TimelineZoom: 3.899997

[Metadata]
Title:Unknown Mother-Goose feat. Hatsune Miku
TitleUnicode:アンノウン・マザーグース feat. 初音ミク
Artist:wowaka
ArtistUnicode:wowaka
Creator:KogumaX
Version:Extra
Source:
Tags:vocaloid kogumano-putaro wring japanese rock jrock j-rock pop jpop j-pop hitorie ヒトリエ シノダ Shinoda イガラシ ygarshy ゆーまお Yumao Re:Start ヲワカ genjitsutouhi-p 現実逃避P
BeatmapID:2159153
BeatmapSetID:1032661

[Difficulty]
HPDrainRate:5
CircleSize:4
OverallDifficulty:8.5
ApproachRate:9.5
SliderMultiplier:1.92
SliderTickRate:1

[Events]
//Background and Video events
0,0,"maxresdefault.jpg",0,0
//Break Periods
2,123883,125320
//Storyboard Layer 0 (Background)
//Storyboard Layer 1 (Fail)
//Storyboard Layer 2 (Pass)
//Storyboard Layer 3 (Foreground)
//Storyboard Layer 4 (Overlay)
//Storyboard Sound Samples

[TimingPoints]
1486,270.27027027027,4,2,1,90,1,0
4188,-79.9999999999999,4,2,1,90,0,0
4458,-399.999999999997,4,2,1,90,0,0
4729,-100,4,2,1,90,0,0
8242,-66.6666666666667,4,2,1,90,0,0
8512,-100,4,2,1,90,0,0
8783,-133.333333333333,4,2,1,90,0,0
9053,-100,4,2,1,90,0,0
15675,-100,4,2,1,70,0,0
16350,-100,4,2,1,90,0,0
16485,-100,4,2,1,70,0,0
16621,-100,4,2,1,90,0,0
16756,-100,4,2,1,70,0,0
16891,-100,4,2,1,70,0,0
17026,-100,4,2,1,70,0,0
17161,-50,4,2,1,90,0,0
17431,-100,4,2,1,90,0,0
17972,-66.6666666666667,4,2,1,90,0,0
18873,-66.6666666666667,4,2,1,80,0,0
18963,-66.6666666666667,4,2,1,70,0,0
19143,-66.6666666666667,4,2,1,80,0,0
19233,-66.6666666666667,4,2,1,90,0,0
19323,-66.6666666666667,4,2,1,80,0,0
19413,-66.6666666666667,4,2,1,70,0,0
19503,-66.6666666666667,4,2,1,60,0,0
19594,-66.6666666666667,4,2,1,70,0,0
19684,-66.6666666666667,4,2,1,80,0,0
19774,-66.6666666666667,4,2,1,90,0,0
19864,-133.333333333333,4,2,1,90,0,0
20066,-133.333333333333,4,2,1,5,0,0
20134,-66.6666666666667,4,2,1,90,0,0
20539,-66.6666666666667,4,2,1,60,0,0
20675,-133.333333333333,4,2,1,90,0,0
20877,-133.333333333333,4,2,1,5,0,0
20945,-66.6666666666667,4,2,1,90,0,0
21756,-133.333333333333,4,2,1,90,0,0
22026,-133.333333333333,4,2,1,90,0,0
22296,-66.6666666666667,4,2,1,90,0,0
23648,-100,4,2,1,90,0,0
24188,-133.333333333333,4,2,1,90,0,0
24458,-66.6666666666667,4,2,1,90,0,0
26350,-133.333333333333,4,2,1,90,0,0
26621,-66.6666666666667,4,2,1,90,0,0
27972,-133.333333333333,4,2,1,90,0,0
28783,-66.6666666666667,4,2,1,90,0,0
30134,-100,4,2,1,90,0,0
30675,-133.333333333333,4,2,1,90,0,0
30945,-66.6666666666667,4,2,1,90,0,0
32837,-133.333333333333,4,2,1,90,0,0
33107,-66.6666666666667,4,2,1,90,0,0
33715,-66.6666666666667,4,2,1,5,0,0
33918,-66.6666666666667,4,2,1,90,0,0
34729,-100,4,2,1,90,0,0
34999,-133.333333333333,4,2,1,90,0,0
35269,-66.6666666666667,4,2,1,90,0,0
35810,-133.333333333333,4,2,1,90,0,0
36080,-66.6666666666667,4,2,1,90,0,0
39323,-100,4,2,1,90,0,0
39526,-100,4,2,1,5,0,0
39594,-100,4,2,1,90,0,0
43648,-100,4,2,1,70,0,0
43918,-100,4,2,1,90,0,0
44458,-57.1428571428571,4,2,1,90,0,0
44729,-100,4,2,1,90,0,0
45269,-200,4,2,1,80,0,0
45472,-200,4,2,1,5,0,0
45539,-200,4,2,1,70,0,0
45810,-79.9999999999999,4,2,1,90,0,0
46418,-79.9999999999999,4,2,1,5,0,0
46485,-79.9999999999999,4,2,1,90,0,0
47702,-133.333333333333,4,2,1,90,0,0
47972,-79.9999999999999,4,2,1,90,0,0
48175,-79.9999999999999,4,2,1,5,0,0
48242,-79.9999999999999,4,2,1,90,0,0
48580,-79.9999999999999,4,2,1,5,0,0
48648,-79.9999999999999,4,2,1,90,0,0
49661,-79.9999999999999,4,2,1,5,0,0
49729,-79.9999999999999,4,2,1,90,0,0
52026,-57.1428571428571,4,2,1,90,0,0
53918,-57.1428571428571,4,2,1,70,0,0
54098,-50,4,2,1,70,0,0
54458,-175.438596491228,4,2,1,90,0,0
55472,-175.438596491228,4,2,1,5,0,0
55539,-100,4,2,1,90,0,0
56260,-399.999999999997,4,2,1,90,0,0
56440,-399.999999999997,4,2,1,5,0,0
56530,-399.999999999997,4,2,1,90,0,0
56621,-100,4,2,1,90,0,0
57161,-175.438596491228,4,2,1,90,0,0
57634,-175.438596491228,4,2,1,5,0,0
57702,-175.438596491228,4,2,1,90,0,0
58422,-399.999999999997,4,2,1,90,0,0
58693,-399.999999999997,4,2,1,5,0,0
58783,-399.999999999997,4,2,1,90,0,0
59323,-175.438596491228,4,2,1,90,0,0
59796,-175.438596491228,4,2,1,5,0,0
59864,-100,4,2,1,90,0,0
60585,-322.58064516129,4,2,1,90,0,0
60945,-399.999999999997,4,2,1,90,0,0
62026,-322.58064516129,4,2,1,90,0,0
62837,-66.6666666666667,4,2,1,90,0,0
63107,-399.999999999997,4,2,1,90,0,0
63377,-66.6666666666667,4,2,1,90,0,0
64774,-66.6666666666667,4,2,1,5,0,0
64819,-66.6666666666667,4,2,1,90,0,0
64954,-66.6666666666667,4,2,1,5,0,0
64999,-66.6666666666667,4,2,1,90,0,0
65134,-66.6666666666667,4,2,1,5,0,0
65179,-66.6666666666667,4,2,1,90,0,0
69864,-59.8802395209581,4,2,1,90,0,0
70404,-128.205128205128,4,2,1,90,0,0
70945,-59.8802395209581,4,2,1,90,0,0
71418,-59.8802395209581,4,2,1,5,0,0
71787,540.540540540541,4,2,1,90,1,0
72192,-100,4,2,1,5,0,0
72327,-100,4,2,1,90,0,0
73957,540.540540540541,4,2,1,70,1,0
75218,-100,4,2,1,5,0,0
75308,-100,4,2,1,70,0,0
75488,-100,4,2,1,5,0,0
75578,-100,4,2,1,70,0,0
76524,-100,4,2,1,5,0,0
76659,-40,4,1,0,40,0,0
76828,-40,4,2,1,5,0,0
77200,-100,4,2,1,70,0,0
80353,-100,4,2,1,5,0,0
80443,-100,4,2,1,50,0,0
81434,-100,4,2,1,5,0,0
81524,-100,4,2,1,70,0,0
85173,-100,4,2,1,5,0,0
85308,-40,4,1,0,40,0,0
85578,-40,4,2,1,40,0,0
85848,-100,4,2,1,70,0,0
88348,-100,4,2,1,5,0,0
88416,-100,4,2,1,70,0,0
88957,-100,4,2,1,5,0,0
89092,-66.6666666666667,4,2,1,90,0,0
89632,-50,4,2,1,90,0,0
95578,-50,4,2,1,70,0,0
97065,-50,4,2,1,90,0,0
97605,-50,4,2,1,5,0,0
97740,-50,4,2,1,90,0,0
106389,-66.6666666666667,4,2,1,90,0,0
108821,-66.6666666666667,4,2,1,5,0,0
108957,-66.6666666666667,4,2,1,90,0,0
109227,-66.6666666666667,4,2,1,5,0,0
109362,-66.6666666666667,4,2,1,90,0,0
110984,-66.6666666666667,4,2,1,5,0,0
111119,-66.6666666666667,4,2,1,90,0,0
112875,-50,4,2,1,90,0,0
115038,-66.6666666666667,4,2,1,90,0,0
115308,-66.6666666666667,4,2,1,5,0,0
115443,-66.6666666666667,4,2,1,90,0,0
115713,-66.6666666666667,4,2,1,5,0,0
115848,-66.6666666666667,4,2,1,90,0,0
119632,-66.6666666666667,4,2,1,5,0,0
119767,-66.6666666666667,4,2,1,90,0,0
121524,-50,4,2,1,90,0,0
122335,-133.333333333333,4,2,1,90,0,0
123551,-133.333333333333,4,2,1,5,0,0
123683,270.27027027027,4,2,1,90,1,0
125845,-200,4,2,1,90,0,0
127466,-399.999999999997,4,2,1,90,0,0
127667,-399.999999999997,4,2,1,5,0,0
127737,-399.999999999997,4,2,1,90,0,0
128007,-100,4,2,1,90,0,0
132061,-79.9999999999999,4,1,0,50,0,0
132264,-79.9999999999999,4,2,1,5,0,0
132331,-79.9999999999999,4,2,1,90,0,0
132939,-79.9999999999999,4,2,1,5,0,0
133007,-79.9999999999999,4,2,1,90,0,0
134020,-79.9999999999999,4,2,1,5,0,0
134088,-79.9999999999999,4,2,1,90,0,0
140574,-133.333333333333,4,2,1,90,0,0
140777,-79.9999999999999,4,2,1,90,0,0
142399,-79.9999999999999,4,2,1,5,0,0
142466,-79.9999999999999,4,2,1,90,0,0
142669,-79.9999999999999,4,2,1,5,0,0
142737,-79.9999999999999,4,2,1,90,0,0
143818,-54.054054054054,4,2,1,90,0,0
143953,-79.9999999999999,4,2,1,90,0,0
149358,-79.9999999999999,4,2,1,60,0,0
149561,-79.9999999999999,4,2,1,5,0,0
149628,-66.6666666666667,4,2,1,90,0,0
152872,-50,4,2,1,90,0,0
153142,-100,4,2,1,90,0,0
153277,-50,4,2,1,90,0,0
153547,-66.6666666666667,4,2,1,90,0,0
157196,-50,4,2,1,90,0,0
157466,-66.6666666666667,4,2,1,90,0,0
157601,-50,4,2,1,90,0,0
158277,-50,4,2,1,50,0,0
158345,-50,4,2,1,90,0,0
159628,-50,4,2,1,50,0,0
159764,-50,4,2,1,90,0,0
162534,-50,4,2,1,5,0,0
162601,-50,4,2,1,50,0,0
162669,-50,4,2,1,90,0,0
163682,-50,4,2,1,50,0,0
163750,-50,4,2,1,90,0,0
164764,-50,4,2,1,50,0,0
164831,-50,4,2,1,90,0,0
165304,-100,4,2,1,90,0,0
165439,-79.9999999999999,4,2,1,90,0,0
165574,-66.6666666666667,4,2,1,90,0,0
165710,-57.1428571428571,4,2,1,90,0,0
165845,-66.6666666666667,4,2,1,90,0,0
166385,-100,4,2,1,90,0,0
166520,-100,4,2,1,90,0,0
166926,-149.253731343284,4,2,1,90,0,0
167872,-100,4,2,1,90,0,0
168885,-100,4,2,1,5,0,0
168953,-399.999999999997,4,2,1,90,0,0
171250,-175.438596491228,4,2,1,90,0,0
172331,-100,4,2,1,90,0,0
173007,-399.999999999997,4,2,1,90,0,0
173412,-200,4,2,1,90,0,0
175574,-66.6666666666667,4,2,1,90,0,0
183142,-66.6666666666667,4,2,1,90,0,0
183885,-66.6666666666667,4,2,1,5,0,0
184245,540.540540540541,4,2,1,70,1,0
184650,-100,4,2,1,5,0,0
184785,-100,4,2,1,70,0,0
187668,-100,4,2,1,5,0,0
187758,-100,4,2,1,70,0,0
187938,-100,4,2,1,5,0,0
188028,-100,4,2,1,70,0,0
189109,-40,4,1,0,40,0,0
189278,-100,4,2,1,5,0,0
189650,-100,4,2,1,70,0,0
192150,-100,4,2,1,5,0,0
192217,-100,4,2,1,70,0,0
192758,-100,4,2,1,5,0,0
192893,-100,4,2,1,70,0,0
193884,-100,4,2,1,5,0,0
193974,-100,4,2,1,70,0,0
195956,-100,4,2,1,5,0,0
196046,-100,4,2,1,70,0,0
196317,-100,4,2,1,5,0,0
196407,-100,4,2,1,70,0,0
196587,-100,4,2,1,5,0,0
196677,-100,4,2,1,70,0,0
197758,-40,4,1,0,40,0,0
198028,-40,4,2,1,40,0,0
198299,-100,4,2,1,70,0,0
200799,-100,4,2,1,5,0,0
200866,-100,4,2,1,70,0,0
201407,-100,4,2,1,5,0,0
201542,-66.6666666666667,4,2,1,90,0,0
201812,-50,4,2,1,90,0,0
206136,-66.6666666666667,4,2,1,90,0,0
206407,-50,4,2,1,90,0,0
207353,-50,4,2,1,60,0,0
207488,-50,4,2,1,90,0,0
218839,-66.6666666666667,4,2,1,90,0,0
225326,-50,4,2,1,90,0,0
227488,-66.6666666666667,4,2,1,90,0,0
233974,-50,4,2,1,90,0,0
234785,-133.333333333333,4,2,1,90,0,0
236136,-1000,4,2,1,90,0,1
236542,-85.4700854700855,4,2,1,70,0,1
236947,-45.045045045045,4,2,1,70,0,1
237488,-48.0769230769231,4,2,1,90,0,1
237758,-48.0769230769231,4,1,0,90,0,1
237927,-48.0769230769231,4,2,0,90,0,1
238028,-48.0769230769231,4,2,1,90,0,1
238299,-43.1034482758621,4,2,0,90,0,1
238738,-48.0769230769231,4,1,0,70,0,1
239109,-48.0769230769231,4,2,1,90,0,1
239380,-55.5555555555556,4,2,1,90,0,1
239650,-55.5555555555556,4,2,1,70,0,1
239920,-42.7350427350427,4,1,0,50,0,1
240123,-42.7350427350427,4,2,0,90,0,1
240461,-1000,4,2,1,90,0,1
240866,-79.9999999999999,4,2,1,70,0,1
241272,-40,4,2,1,70,0,1
241542,-29.8507462686567,4,2,1,90,0,1
241812,-29.8507462686567,4,2,1,50,0,1
241947,-29.8507462686567,4,2,1,90,0,1
242082,-29.8507462686567,4,1,0,70,0,1
242251,-29.8507462686567,4,2,0,70,0,1
242623,-48.5436893203883,4,2,0,90,0,1
243062,-48.5436893203883,4,1,0,70,0,1
243704,-142.857142857143,4,2,1,90,0,1
244785,-1000,4,2,1,90,0,1
245190,-100,4,2,1,70,0,1
245596,-40,4,2,1,70,0,1
246136,-50,4,2,1,50,0,1
246272,-50,4,2,1,90,0,1
246407,-50,4,2,1,50,0,1
246677,-50,4,2,1,50,0,1
246947,-40,4,2,1,90,0,1
247758,-40,4,2,1,90,0,1
248299,-40,4,1,0,70,0,1
248501,-40,4,2,1,90,0,1
249109,-1000,4,2,1,90,0,1
249515,-79.9999999999999,4,2,1,70,0,1
249920,-40,4,2,1,70,0,1
250190,-66.6666666666667,4,2,1,90,0,1
250461,-66.6666666666667,4,2,1,70,0,1
250596,-66.6666666666667,4,2,1,90,0,1
250731,-66.6666666666667,4,1,0,70,0,1
250900,-66.6666666666667,4,2,1,90,0,1
251272,-25,4,2,0,90,0,1
251711,-42.7350427350427,4,1,0,70,0,1
252082,-66.6666666666667,4,2,1,90,0,1
252353,-38.4615384615385,4,2,1,70,0,1
252623,-38.4615384615385,4,2,1,90,0,1
252893,-38.4615384615385,4,1,0,70,0,1
253163,-38.4615384615385,4,2,1,90,0,1
253444,270.27027027027,4,2,1,90,1,0
253444,-200,4,2,1,70,0,0
255673,-200,4,2,1,5,0,0
255741,-200,4,2,1,70,0,0
255944,-200,4,2,1,5,0,0
256011,-200,4,2,1,70,0,0
256214,-200,4,2,1,5,0,0
256281,-200,4,2,1,70,0,0
261214,-200,4,2,1,5,0,0
261281,-200,4,2,1,70,0,0
265335,-133.333333333333,4,2,1,70,0,0

[Colours]
Combo1 : 233,233,233
Combo2 : 128,128,128
Combo3 : 192,192,192

[HitObjects]
12,78,2162,5,0,0:0:0:0:
78,44,2297,2,0,B|125:37|125:37|82:58,1,96
121,39,2568,6,0,P|190:46|184:174,1,192,4|8,1:2|0:0,0:0:0:0:
157,261,2973,2,0,B|141:296|141:296|216:279|216:279|217:284|217:284|216:279|216:279|289:259,1,192
157,261,3378,6,0,B|205:247|198:298|285:257,1,96,8|0,1:2|0:0,0:0:0:0:
306,90,3649,5,2,1:2:0:0:
373,70,3784,1,0,0:0:0:0:
427,121,3919,1,2,0:2:0:0:
509,99,4054,1,0,0:0:0:0:
384,266,4189,6,0,P|413:257|441:246,1,60,2|0,1:3|0:0,0:0:0:0:
379,251,4324,2,0,P|408:242|436:231,1,60,2|0,0:1|0:0,0:0:0:0:
510,222,4459,6,2,B|519:213|519:213|507:217,1,24,8|2,0:0|0:0,0:1:0:0:
473,234,4662,1,2,0:0:0:0:
473,234,4730,6,0,B|413:258|409:207|357:181|310:207|291:251,1,192,0|8,1:0|1:2,0:0:0:0:
198,280,5135,2,0,P|176:194|87:191,1,192
71,217,5540,1,8,1:2:0:0:
67,265,5676,1,0,0:0:0:0:
90,301,5811,1,2,1:2:0:0:
118,304,5946,1,0,0:0:0:0:
131,294,6081,1,2,1:2:0:0:
129,283,6216,1,0,0:0:0:0:
7,320,6351,5,0,0:0:0:0:
0,225,6486,1,0,0:0:0:0:
7,129,6621,2,0,B|26:71|-5:86|12:35,1,96,8|0,1:2|0:0,0:0:0:0:
193,98,6892,6,0,P|282:107|301:195,1,192,0|8,1:0|1:2,0:0:0:0:
126,118,7297,2,0,B|87:149|87:149|154:121,1,96
155,93,7567,1,0,0:0:0:0:
269,56,7703,5,0,1:0:0:0:
337,99,7838,1,0,0:0:0:0:
399,61,7973,1,0,0:0:0:0:
455,96,8108,1,2,0:0:0:0:
507,67,8243,2,0,B|514:102|514:102|522:152|508:180|456:199,1,144,8|0,1:2|0:0,0:0:0:0:
383,162,8513,6,0,L|388:209,1,48,2|0,0:0|0:0,0:0:0:0:
402,162,8649,2,0,L|397:209,1,48,2|0,0:0|0:0,0:0:0:0:
357,282,8784,2,0,B|354:313|354:313|396:335|396:335|426:313,1,108.000004119873,0|0,1:2|0:0,0:0:0:0:
308,222,9054,6,0,P|213:227|129:271,1,192,0|8,1:0|1:2,0:0:0:0:
315,322,9459,2,0,P|410:327|494:371,1,192,0|0,1:0|0:0,0:0:0:0:
280,133,9865,1,8,1:2:0:0:
235,359,10000,1,0,0:0:0:0:
74,195,10135,2,0,B|57:147|57:147|42:100|52:68|91:39,1,144,0|0,1:0|0:0,0:0:0:0:
116,4,10405,5,8,1:2:0:0:
149,167,10540,1,0,0:0:0:0:
108,267,10676,1,0,0:0:0:0:
206,62,10811,5,2,0:0:0:0:
262,114,10946,1,2,0:0:0:0:
264,191,11081,1,2,0:0:0:0:
371,53,11216,6,0,B|472:36|498:88|477:143|414:158,1,192,4|8,1:2|1:2,0:0:0:0:
347,241,11622,2,0,B|360:290|360:290|353:292|353:292|361:294|361:294|372:333|372:333|405:299,1,144,0|0,1:0|0:0,0:0:0:0:
444,248,11892,1,0,0:0:0:0:
265,234,12027,2,0,P|217:235|182:266,1,96,8|0,1:2|0:0,0:0:0:0:
221,383,12297,2,0,P|239:340|281:319,1,96,0|0,1:0|0:0,1:0:0:0:
149,340,12567,1,8,1:2:0:0:
74,308,12703,1,0,0:0:0:0:
38,144,12838,6,0,L|38:96,1,48,2|0,0:0|0:0,0:0:0:0:
203,76,12973,2,0,L|215:121,1,48,2|0,0:0|0:0,0:0:0:0:
134,206,13108,2,0,L|116:63,1,144,8|0,1:2|0:0,0:0:0:0:
127,63,13378,6,0,L|109:206,1,144,0|0,1:0|0:0,0:0:0:0:
33,222,13649,1,8,1:2:0:0:
358,151,13784,6,0,B|400:140|400:140|389:96|389:96|416:78|435:85|433:90|452:93|490:77,1,192,0|0,1:0|0:0,0:0:0:0:
397,222,14189,2,0,B|316:250|321:183|241:225,1,144,8|0,1:2|0:0,0:0:0:0:
229,230,14459,5,0,1:0:0:0:
175,287,14595,1,0,0:0:0:0:
162,333,14730,1,10,1:2:0:0:
168,360,14865,1,2,0:0:0:0:
182,144,15000,6,0,B|167:102|195:84|160:38,1,96,0|0,1:0|0:0,0:0:0:0:
78,0,15270,2,0,P|32:12|13:79,1,96,8|0,1:2|0:0,0:0:0:0:
43,236,15540,2,0,L|89:224,1,48,0|0,1:0|0:0,0:0:0:0:
42,214,15676,2,0,L|88:224,1,48,2|0,0:1|0:0,0:0:0:0:
52,194,15811,2,0,L|89:223,1,48,10|2,0:1|0:1,0:0:0:0:
105,199,15946,2,2,B|139:203|154:246|154:246|119:271|77:252,1,144,0|0,0:0|0:0,0:1:0:0:
224,267,16216,5,2,0:1:0:0:
242,132,16351,1,8,1:2:0:0:
279,1,16486,5,2,0:1:0:0:
332,65,16622,5,0,1:0:0:0:
347,142,16757,5,2,0:1:0:0:
317,209,16892,5,8,1:2:0:0:
263,334,17027,1,2,0:1:0:0:
334,298,17162,6,2,B|400:265|402:267|416:294,1,96,2|0,0:2|0:0,0:1:0:0:
469,249,17297,2,2,B|402:281|400:279|387:253,1,96,2|0,0:2|0:0,0:1:0:0:
199,229,17432,6,2,P|201:162|267:144,1,144,2|0,1:2|0:0,0:1:0:0:
290,228,17703,2,0,P|285:161|220:147,1,144,0|0,1:0|0:0,0:0:0:0:
82,88,17973,6,2,B|105:108|105:108|141:90,1,72.0000027465821,8|0,1:2|0:0,0:1:0:0:
142,91,18108,2,2,B|178:65|178:65|183:68|183:68|178:65|178:65|186:37|186:37|181:34|181:34|186:37|186:37|236:-15|291:22|285:70|258:99,1,216.000008239746,0|0,1:0|0:0,0:1:0:0:
372,28,18378,2,0,B|408:16|408:16|468:39,1,72.0000027465821,4|0,1:2|0:0,0:1:0:0:
348,139,18513,2,2,B|377:142|408:129|408:129|408:123|408:123|408:129|408:129|439:134|473:120|473:120|483:149|483:149|489:147|489:147|483:149|483:149|495:196,1,216.000008239746,8|0,1:2|0:0,0:1:0:0:
421,221,18784,5,2,1:2:0:0:
417,296,18874,1,0,1:0:0:0:
486,263,18964,1,0,1:0:0:0:
377,232,19054,5,0,1:2:0:0:
396,289,19144,1,2,1:2:0:0:
438,245,19234,1,0,1:0:0:0:
353,246,19324,5,2,1:2:0:0:
383,284,19414,1,0,1:0:0:0:
402,238,19504,1,2,1:2:0:0:
346,255,19595,5,2,1:2:0:0:
380,274,19685,1,2,1:2:0:0:
381,235,19775,1,2,1:2:0:0:
317,322,19865,6,0,B|258:332|270:270|195:319,1,108.000004119873,4|0,1:2|0:0,0:0:0:0:
53,334,20135,2,0,B|22:355|22:355|58:352,1,72.0000027465821,8|0,1:2|0:0,0:0:0:0:
156,375,20270,2,2,B|107:311|122:222|195:259|209:189|151:84,1,288.000010986329,0|2,0:0|0:1,0:1:0:0:
191,100,20676,2,0,L|224:217,1,108.000004119873,8|0,1:2|0:0,0:1:0:0:
248,299,20946,6,0,B|231:332|231:332|261:313,1,72.0000027465821,0|0,1:0|0:0,0:0:0:0:
307,261,21081,6,2,P|405:218|518:238,1,216.000008239746,2|0,0:0|0:0,0:1:0:0:
510,234,21351,1,0,0:0:0:0:
486,148,21486,2,0,P|403:216|373:318,1,216.000008239746,2|0,1:0|0:0,0:0:0:0:
401,292,21757,2,0,P|424:247|482:261,1,108.000004119873,2|0,1:0|0:0,0:0:0:0:
331,176,22027,6,0,B|281:199|278:152|227:175,1,108.000004119873,0|0,1:0|0:0,0:0:0:0:
160,130,22297,2,0,P|127:115|92:122,1,72.0000027465821,8|0,1:2|0:0,0:0:0:0:
152,152,22432,2,2,P|57:155|17:321,1,288.000010986329,0|0,0:0|0:0,0:1:0:0:
177,114,22838,2,0,P|211:107|244:122,2,72.0000027465821,8|0|0,1:2|0:0|0:0,0:0:0:0:
53,25,23108,6,0,P|101:10|145:30,1,72.0000027465821,0|0,1:0|0:0,0:0:0:0:
205,31,23243,6,2,B|312:1|290:92|461:53,1,216.000008239746,2|0,0:0|0:0,0:1:0:0:
493,47,23513,1,0,0:0:0:0:
254,101,23649,2,2,B|315:87|315:87|317:96|317:96|315:87|315:87|410:65,1,144,0|0,1:0|0:0,0:1:0:0:
453,55,23919,1,8,1:2:0:0:
461,218,24189,6,0,B|439:168|439:168|403:208,1,108.000004119873,0|0,1:0|0:0,0:0:0:0:
382,347,24459,2,0,B|408:372|408:372|441:358,1,72.0000027465821,8|0,1:2|0:0,0:0:0:0:
343,272,24595,2,2,B|291:264|291:264|239:254|212:221|139:223|139:288|60:259,1,288.000010986329,0|0,0:0|0:0,0:1:0:0:
9,156,25000,2,0,B|69:133|64:175|108:165|147:128,1,144.000005493164,8|0,1:2|0:0,0:0:0:0:
252,51,25270,6,0,P|280:29|316:29,1,72.0000027465821,0|0,1:0|0:0,0:0:0:0:
310,125,25405,6,2,B|397:151|469:102|469:102|413:171|428:226,1,288.000010986329,2|0,0:0|0:0,1:0:0:0:
336,292,25811,2,2,P|390:338|455:368,1,144.000005493164,0|0,1:0|0:0,0:1:0:0:
352,263,26081,2,2,P|417:292|471:339,1,144.000005493164,0|0,1:0|0:0,0:1:0:0:
135,241,26351,6,0,P|143:216|216:194,1,108.000004119873,0|0,1:0|0:0,0:0:0:0:
206,327,26622,2,0,B|174:340|174:340|139:327,1,72.0000027465821,8|0,1:2|0:0,0:0:0:0:
64,287,26757,2,2,B|41:184|41:184|79:120|79:120|53:28|53:28|113:109,1,360.000013732911,0|0,0:0|0:0,0:1:0:0:
205,141,27162,2,0,B|143:173|143:173|238:183,1,144.000005493164,8|0,1:2|0:0,0:0:0:0:
264,42,27432,5,0,1:0:0:0:
201,129,27567,6,2,B|138:163|138:163|272:173|272:173|309:147|309:147|428:161,1,360.000013732911,2|0,0:0|0:0,0:1:0:0:
489,156,27973,2,2,B|505:167|522:168|522:168|505:162|484:176,1,72.0000027465821,0|0,1:0|0:0,1:0:0:0:
449,91,28243,2,0,P|432:41|383:21,1,108.000004119873,8|0,1:2|0:0,0:0:0:0:
294,41,28513,6,0,L|311:148,1,108.000004119873,4|0,1:2|0:0,0:0:0:0:
333,321,28784,2,0,B|273:307|273:307|299:283,1,72.0000027465821,8|0,1:2|0:0,0:0:0:0:
323,243,28919,2,2,B|361:185|453:198|453:198|465:285|391:343,1,288.000010986329,0|0,0:0|0:0,0:1:0:0:
214,222,29324,2,0,B|140:211|172:157|97:144,1,144.000005493164,8|0,1:2|0:0,0:0:0:0:
64,234,29595,6,0,P|94:230|75:249,1,72.0000027465821,0|0,1:0|0:0,0:0:0:0:
6,154,29730,6,2,B|169:229|176:69|350:146,1,360.000013732911,2|0,0:0|0:1,0:1:0:0:
424,122,30135,2,2,P|489:110|513:172,1,144.000005493164,0|0,1:0|0:0,0:1:0:0:
465,272,30405,2,2,P|400:284|376:222,1,144.000005493164,8|0,1:2|0:0,0:1:0:0:
444,370,30676,6,0,B|394:393|391:346|340:369,1,108.000004119873,0|0,1:0|0:0,0:0:0:0:
174,287,30946,2,0,B|140:300|140:300|64:265,1,72.0000027465821,8|0,1:2|0:0,0:0:0:0:
124,204,31081,2,2,P|256:220|200:369,1,288.000010986329,0|0,0:0|0:0,0:1:0:0:
45,230,31486,2,0,B|13:173|13:173|-2:144|-36:65|50:10,1,216.000008239746,8|0,1:2|0:0,0:0:0:0:
88,107,31757,6,0,P|123:103|158:95,1,72.0000027465821,0|0,1:0|0:0,0:0:0:0:
327,57,31892,6,2,B|351:180|411:94|452:302,1,216.000008239746,2|0,0:0|0:0,0:1:0:0:
450,312,32162,1,0,0:0:0:0:
469,29,32297,2,2,B|493:152|404:95|444:303,1,216.000008239746,0|0,1:0|0:0,0:1:0:0:
402,61,32567,1,8,1:2:0:0:
246,227,32838,6,0,B|263:200|260:176|260:176|276:161|279:124,1,108.000004119873,0|0,1:0|0:0,0:0:0:0:
207,121,33108,2,0,P|188:152|187:210,1,72.0000027465821,8|0,1:2|0:0,0:0:0:0:
211,291,33243,2,2,B|282:169|222:102|169:91|106:124,1,288.000010986329,0|0,0:0|0:0,0:1:0:0:
48,165,33649,2,0,B|67:194|67:194|59:230,2,72.0000027465821,8|0|0,1:2|0:0|0:0,0:0:0:0:
42,90,33919,6,0,L|80:29,1,72.0000027465821,0|0,1:0|0:0,0:0:0:0:
39,47,34054,6,2,B|7:106|7:106|32:199|32:199|19:204|19:204|32:199|32:199|69:331,1,288.000010986329,2|0,0:0|0:0,0:1:0:0:
151,349,34459,2,2,B|196:334|196:334|198:343|198:343|196:334|196:334|243:321|243:321|243:253|243:253|212:237,1,216.000008239746,0|0,1:0|0:0,1:0:0:0:
117,191,34730,2,2,P|183:178|214:238,1,144.000005493164,8|0,1:2|0:0,1:0:0:0:
285,186,35000,6,0,B|335:163|338:210|389:187,1,108.000004119873,0|0,1:0|0:0,0:0:0:0:
498,93,35270,2,0,P|472:118|456:150,1,72.0000027465821,0|0,1:0|0:0,0:0:0:0:
342,278,35405,2,2,B|361:344|453:360|453:360|493:281|455:226,1,288.000010986329,0|0,0:0|0:0,0:1:0:0:
393,109,35811,2,0,B|367:90|366:65|366:65|385:83|381:116,1,108.000004119873,8|0,1:2|0:0,0:0:0:0:
215,65,36081,6,0,B|221:42|208:30|208:30|209:47|235:69,1,72.0000027465821,0|0,1:0|0:0,0:0:0:0:
251,128,36216,2,2,P|276:220|204:322,1,216.000008239746,2|0,0:0|0:0,0:1:0:0:
145,335,36486,1,0,0:0:0:0:
79,307,36622,1,8,1:2:0:0:
9,236,36757,5,0,0:0:0:0:
29,121,36892,5,0,1:2:0:0:
109,23,37027,5,0,0:0:0:0:
20,375,37162,1,4,1:2:0:0:
122,144,38919,5,0,0:0:0:0:
82,135,39054,5,2,0:0:0:0:
44,83,39189,5,0,0:0:0:0:
0,64,39324,6,0,B|67:95|70:32|140:63,1,144.000005493164,4|0,1:2|0:0,0:0:0:0:
198,114,39595,1,8,1:2:0:0:
268,143,39730,2,0,P|295:62|213:38,1,192,0|0,3:0|0:0,0:0:0:0:
171,243,40135,1,2,1:2:0:0:
201,212,40270,1,0,0:0:0:0:
366,168,40405,2,0,B|390:225|390:225|377:256,1,96
437,120,40676,1,8,1:2:0:0:
471,137,40811,5,0,0:0:0:0:
403,102,40946,2,0,B|390:133|390:133|414:190,2,96,8|0|8,3:0|0:0|1:2,0:0:0:0:
471,47,41351,1,0,0:0:0:0:
504,303,41486,6,0,L|314:278,1,192,0|8,1:0|1:2,0:0:0:0:
232,242,41892,1,0,3:0:0:0:
158,321,42027,1,0,0:0:0:0:
76,285,42162,1,0,0:0:0:0:
25,184,42297,6,0,B|7:134|41:139|14:71,1,96,0|0,1:0|0:0,0:0:0:0:
40,75,42567,5,0,0:0:0:0:
47,170,42702,1,0,0:0:0:0:
40,266,42838,2,0,B|58:316|24:311|51:379,1,96,8|0,1:2|0:0,0:0:0:0:
99,256,43108,5,0,3:0:0:0:
68,251,43243,5,0,0:0:0:0:
75,346,43378,1,8,0:2:0:0:
323,289,43649,6,2,L|510:329,1,192,0|8,1:0|1:2,0:1:0:0:
363,127,44054,2,0,P|425:154|420:245,1,144,0|0,3:0|0:0,0:0:0:0:
428,266,44324,1,0,0:0:0:0:
263,184,44459,6,0,B|244:170|235:144|235:144|251:167|228:240|228:240|241:268|241:268|219:356,1,252.000002403259,8|0,1:2|0:0,0:1:0:0:
210,342,44730,6,0,B|221:366|221:366|241:316,1,48,2|0,2:0|0:0,0:0:0:0:
195,271,44865,2,2,B|184:247|184:247|164:297,1,48,0|0,0:0|0:0,0:1:0:0:
111,314,45000,6,0,B|169:336|188:288|253:331,1,144,2|0,1:0|0:0,0:0:0:0:
323,316,45270,2,2,P|359:319|377:368,1,72,0|0,0:1|0:0,0:1:0:0:
347,291,45540,2,2,P|375:312|378:347,1,72,0|0,0:1|0:1,0:1:0:0:
269,228,45811,6,0,B|246:150|246:150|263:114,1,120,4|2,1:2|0:0,0:0:0:0:
156,164,46081,1,8,1:2:0:0:
203,61,46216,2,0,L|254:233,1,180,2|0,0:0|0:0,0:0:0:0:
310,169,46486,2,0,P|328:112|262:102,1,120,0|8,0:0|1:2,0:0:0:0:
237,341,46757,1,2,0:0:0:0:
354,245,46892,6,0,P|412:246|462:69,1,240,2|8,1:2|1:2,0:0:0:0:
310,169,47297,2,0,P|200:138|180:26,1,240,2|2,0:0|0:0,0:0:0:0:
355,9,47703,2,10,L|371:79,1,72.0000027465821,10|0,1:2|0:0,0:0:0:0:
77,2,47973,6,0,B|64:33|64:33|104:196,1,180,0|0,1:0|0:0,0:0:0:0:
118,253,48243,1,8,1:2:0:0:
220,226,48378,2,0,B|291:207|291:207|369:187|396:275,1,180,0|0,3:0|0:0,0:0:0:0:
413,310,48648,1,0,0:0:0:0:
327,105,48784,1,8,1:2:0:0:
311,288,48919,5,2,0:0:0:0:
224,345,49054,5,0,1:0:0:0:
151,302,49189,1,0,0:0:0:0:
76,316,49324,1,10,1:2:0:0:
28,286,49459,2,0,P|46:202|75:111,1,180
89,41,49730,6,2,B|101:32|105:14|105:14|97:30|101:65,1,60,0|0,0:0|0:0,1:0:0:0:
84,79,49865,6,2,P|166:85|171:168,1,180,8|0,1:2|0:0,1:0:0:0:
145,251,50135,6,0,B|214:278|219:219|279:189|334:219|356:270,1,240,0|8,1:0|1:2,0:0:0:0:
471,245,50540,2,0,B|438:384|438:384|412:358,1,180,2|0,1:2|0:0,0:0:0:0:
384,312,50811,1,2,0:0:0:0:
425,166,50946,2,0,L|457:26,1,120,12|0,1:2|0:0,0:0:0:0:
422,49,51216,6,0,L|448:165,1,120,0|0,1:0|0:0,0:0:0:0:
471,245,51486,2,0,L|444:361,1,120,8|0,1:2|0:0,0:0:0:0:
234,343,51757,6,0,B|228:312|228:312|222:367,1,60,2|0,0:0|0:0,0:0:0:0:
191,357,51892,2,0,B|196:387|196:387|202:332,1,60,2|0,0:0|0:0,0:0:0:0:
105,343,52027,2,0,B|195:388|271:257|294:320|388:343,1,252.000002403259,2|0,1:3|0:0,0:0:0:0:
173,171,52297,6,0,P|100:165|49:325,1,252.000002403259,0|0,1:0|0:0,0:0:0:0:
110,267,52567,2,0,B|147:244|147:244|217:273,1,84.0000008010864,8|0,1:2|0:0,0:0:0:0:
239,211,52703,2,0,P|355:191|374:74,1,252.000002403259,2|0,3:2|0:0,0:0:0:0:
343,7,52973,1,0,0:0:0:0:
348,105,53108,1,6,1:2:0:0:
308,206,53243,1,0,0:0:0:0:
220,304,53378,5,0,1:3:0:0:
308,206,53559,5,0,1:3:0:0:
348,105,53739,5,0,1:3:0:0:
343,7,53919,5,2,1:0:0:0:
343,7,54099,6,2,B|289:108|336:209|427:307|488:318,1,384,6|0,1:1|0:0,0:1:0:0:
512,325,54459,5,4,1:0:0:0:
208,131,54999,6,0,B|157:128|131:85|131:85|77:102|36:62,1,192
14,36,55540,2,0,P|139:82|251:131,1,256,4|0,3:0|0:0,0:0:0:0:
99,167,56081,1,2,0:3:0:0:
162,10,56261,6,0,L|148:45,1,32
131,89,56531,1,0,0:0:0:0:
220,126,56622,6,0,L|375:99,2,128,2|0|0,3:2|0:0|0:0,0:0:0:0:
195,152,57161,2,0,B|239:123|289:149|289:149|322:111|373:118,1,192,2|0,0:3|0:0,0:0:0:0:
512,128,57703,1,4,3:0:0:0:
463,86,57883,5,0,0:0:0:0:
448,121,58063,5,0,0:0:0:0:
454,171,58243,5,2,3:0:0:0:
488,264,58423,6,0,P|500:300|502:320,1,48
470,384,58784,5,4,3:0:0:0:
202,320,59279,1,0,0:0:0:0:
202,320,59323,6,0,B|158:291|108:317|108:317|75:279|24:286,1,192,2|0,0:3|0:0,0:0:0:0:
88,299,59865,2,0,B|151:48|141:329,1,256,4|0,3:0|0:0,0:0:0:0:
132,183,60405,5,2,0:3:0:0:
156,39,60585,2,0,L|163:-7,1,40
144,107,60946,5,4,3:0:0:0:
179,122,61126,5,0,0:0:0:0:
229,116,61306,5,0,0:0:0:0:
315,89,61486,5,2,0:3:0:0:
426,79,61667,6,0,P|446:78|467:82,1,40
373,178,62027,6,0,P|352:177|331:181,2,39.6799984257813,4|0|0,3:0|0:0|0:0,0:0:0:0:
417,239,62567,2,0,P|437:238|458:242,1,39.6799984257813,2|0,0:3|0:0,0:0:0:0:
396,303,62838,2,2,B|440:179|360:224|398:90,1,192.000007324219,0|0,0:0|0:0,0:1:0:0:
413,43,63108,1,4,1:0:0:0:
299,231,63242,5,2,0:0:0:0:
293,253,63378,5,0,0:0:0:0:
235,251,63468,1,0,0:0:0:0:
181,223,63558,1,0,0:0:0:0:
123,226,63649,1,2,0:3:0:0:
83,269,63739,1,0,0:0:0:0:
97,301,63829,2,0,B|148:278|136:310|200:311,1,96.0000036621095,2|0,0:0|0:0,0:0:0:0:
91,321,64009,2,0,B|40:298|52:330|-12:331,1,96.0000036621095,2|0,0:0|0:0,0:0:0:0:
50,200,64189,5,4,1:0:0:0:
32,181,64279,1,0,0:0:0:0:
34,150,64369,1,0,0:0:0:0:
66,117,64459,1,2,0:0:0:0:
118,105,64549,1,0,0:0:0:0:
181,102,64640,1,0,0:0:0:0:
272,54,64730,6,0,B|288:32|307:60|334:4,2,48.0000018310548,2|0|2,0:3|0:0|0:0,0:0:0:0:
418,76,64910,6,0,B|444:81|426:111|488:111,2,48.0000018310548,2|2|2,0:0|0:0|0:0,0:0:0:0:
459,218,65090,6,0,B|464:244|430:240|456:297,2,48.0000018310548,2|0|0,0:0|0:0|0:0,0:0:0:0:
345,312,65270,5,4,1:0:0:0:
165,295,65450,5,2,0:0:0:0:
102,291,65541,1,0,0:0:0:0:
57,266,65631,1,2,0:0:0:0:
37,237,65721,1,2,0:0:0:0:
35,214,65811,1,2,0:3:0:0:
44,198,65901,1,0,0:0:0:0:
56,193,65991,1,0,0:0:0:0:
64,196,66081,2,0,B|103:172|113:218|172:189,2,96.0000036621095,2|0|0,0:0|0:0|0:0,0:0:0:0:
36,13,66351,5,4,1:0:0:0:
24,18,66441,1,0,0:0:0:0:
15,34,66531,1,0,0:0:0:0:
17,57,66621,1,2,0:0:0:0:
37,86,66711,1,0,0:0:0:0:
82,111,66801,1,2,0:0:0:0:
145,115,66892,1,2,0:3:0:0:
219,89,66982,1,2,0:0:0:0:
294,44,67072,1,0,0:0:0:0:
388,25,67162,2,0,P|483:95|481:123,2,96.0000036621095,2|0|0,0:0|0:0|0:0,0:0:0:0:
347,172,67432,6,0,L|550:153,1,192.000007324219,4|0,1:0|0:0,0:0:0:0:
512,95,67703,5,2,0:0:0:0:
493,129,67793,1,0,0:0:0:0:
474,161,67883,1,2,0:0:0:0:
456,195,67973,1,2,0:3:0:0:
429,241,68063,1,2,0:0:0:0:
403,292,68153,1,0,0:0:0:0:
367,356,68243,2,0,B|316:377|326:317|256:329,2,96.0000036621095,2|0|0,0:0|0:0|0:0,0:0:0:0:
302,255,68513,5,4,1:0:0:0:
246,258,68604,1,0,0:0:0:0:
203,308,68694,1,2,0:0:0:0:
204,331,68784,1,0,2:0:0:0:
149,345,68873,1,2,2:0:0:0:
93,311,68963,1,0,2:0:0:0:
117,228,69054,2,0,P|100:184|57:167,2,96.0000036621095,2|2|0,0:3|0:0|0:0,0:0:0:0:
137,96,69324,6,0,P|158:105|170:126,5,48.0000018310548,2|0|2|0|2|0,0:0|0:0|0:0|0:0|0:0|0:0,0:0:0:0:
35,95,69595,6,0,B|126:40|122:146|250:93,1,216.000008239746,4|0,1:0|0:0,0:0:0:0:
385,150,69865,6,0,B|391:143|396:133|396:133|439:53|547:93|521:206|442:249,1,240,0|0,1:2|0:0,0:0:0:0:
385,150,70135,2,0,B|376:148|366:143|366:143|283:104|220:199|308:275|396:263,1,240,0|0,1:0|0:0,0:0:0:0:
485,210,70405,2,0,P|446:249|434:304,1,112.320003770508,0|0,1:2|0:0,0:0:0:0:
338,257,70676,2,0,P|391:266|434:305,1,111.600003490906,0|0,1:0|0:0,0:0:0:0:
247,160,70946,6,0,P|353:213|432:303,1,240.479992477661,4|0,0:0|0:0,0:0:0:0:
504,79,71216,2,0,P|447:184|432:303,1,240.479992477661,8|0,0:0|0:0,0:0:0:0:
20,45,71787,6,0,L|51:231,1,144,0|0,3:0|0:0,0:0:0:0:
16,264,72327,1,0,3:0:0:0:
88,291,72868,1,0,3:0:0:0:
160,318,73138,1,0,3:0:0:0:
203,334,73408,1,8,0:0:0:0:
315,239,73588,5,2,0:0:0:0:
300,248,73708,5,2,0:0:0:0:
286,237,73829,5,0,0:0:0:0:
292,220,73957,5,0,3:0:0:0:
350,177,74362,5,0,0:0:0:0:
409,121,74497,2,0,B|438:69|399:28|341:25|330:90,1,160,8|0,0:0|0:0,0:0:0:0:
365,273,75038,6,0,L|450:259,1,64,0|0,3:0|0:0,0:0:0:0:
413,277,75308,2,0,L|350:288,1,64,0|0,3:0|0:0,0:0:0:0:
321,270,75578,1,8,3:2:0:0:
258,321,75848,1,0,0:0:0:0:
52,275,76119,6,0,L|31:121,1,144,0|0,3:0|0:0,0:0:0:0:
109,16,76659,6,2,B|103:49|75:69|75:69|103:90|107:123|107:123|193:90|193:90|192:78|187:75|187:75|185:80|193:90|193:90|260:64,1,320,0|0,2:0|0:0,0:0:0:0:
338,35,77200,1,0,3:0:0:0:
300,135,77470,1,0,0:0:0:0:
328,201,77740,1,10,3:2:0:0:
367,141,77920,5,2,0:0:0:0:
382,132,78041,5,0,0:0:0:0:
396,143,78161,5,0,0:0:0:0:
390,160,78281,5,2,3:0:0:0:
447,56,78686,1,2,3:2:0:0:
470,218,79092,1,0,3:0:0:0:
480,300,79362,1,2,0:0:0:0:
401,275,79767,2,0,L|424:262,2,16,0|0|0,3:0|0:0|0:0,0:0:0:0:
389,249,79902,2,0,P|345:271|301:171,1,160,2|0,3:2|0:0,0:0:0:0:
236,284,80443,6,0,P|153:299|68:310,1,160,0|0,3:0|0:0,0:0:0:0:
11,270,80984,2,0,P|30:193|115:213,1,160,0|0,3:0|0:0,0:0:0:0:
176,218,81524,1,0,3:0:0:0:
30,102,81794,1,0,3:0:0:0:
83,86,82065,1,8,0:0:0:0:
181,8,82245,5,2,0:0:0:0:
190,23,82365,5,0,0:0:0:0:
179,37,82485,5,0,0:0:0:0:
162,31,82605,6,0,L|336:63,1,160,0|0,3:0|0:0,0:0:0:0:
387,28,83146,1,8,0:0:0:0:
470,74,83596,1,0,0:0:0:0:
493,93,83686,2,0,P|516:119|498:189,1,96,2|0,3:2|3:0,0:0:0:0:
397,103,84227,1,8,0:0:0:0:
299,268,84767,6,0,B|351:291|404:296|404:296|401:306|370:316,1,144,0|0,3:0|0:0,0:0:0:0:
246,328,85308,6,2,B|349:365|360:280|480:303,2,240,0|0|0,2:0|0:0|3:0,0:0:0:0:
171,279,86119,1,0,0:0:0:0:
101,261,86389,1,10,3:2:0:0:
52,330,86569,5,2,0:0:0:0:
37,339,86689,5,0,0:0:0:0:
23,328,86809,5,0,0:0:0:0:
29,311,86929,5,0,3:0:0:0:
15,167,87335,1,2,3:2:0:0:
71,75,87740,1,0,3:0:0:0:
93,152,88011,2,0,L|231:132,1,120,2|0,0:0|0:0,0:0:0:0:
292,131,88416,1,0,3:0:0:0:
292,131,88484,1,0,0:0:0:0:
292,131,88551,2,0,P|328:135|361:229,1,144,2|0,3:2|0:0,0:0:0:0:
309,328,89092,6,0,B|300:355|300:355|464:311,1,144.000005493164,4|2,3:1|0:0,0:0:0:0:
450,315,89497,1,0,0:0:0:0:
512,345,89632,2,0,L|480:246,1,96,10|0,0:0|0:0,0:0:0:0:
331,94,89903,2,0,L|301:185,1,96,2|2,0:0|0:0,0:0:0:0:
322,254,90173,1,0,3:0:0:0:
249,300,90308,1,0,0:0:0:0:
314,372,90443,1,2,0:0:0:0:
278,384,90578,1,0,0:0:0:0:
251,380,90713,2,0,P|191:369|151:339,1,96,2|2,3:2|0:0,0:0:0:0:
87,275,90984,2,0,P|70:231|72:183,1,96
1,113,91254,6,0,P|31:25|128:14,1,192,0|2,3:0|0:0,0:0:0:0:
192,31,91659,1,0,0:0:0:0:
253,89,91795,1,10,0:0:0:0:
293,75,91930,1,0,0:0:0:0:
381,41,92065,2,0,L|471:73,1,96,2|2,0:0|0:0,0:0:0:0:
194,155,92335,6,0,L|285:188,1,96,0|0,3:0|0:0,0:0:0:0:
354,165,92605,1,2,0:0:0:0:
399,238,92740,1,0,0:0:0:0:
471,173,92875,1,2,0:0:0:0:
483,209,93010,1,2,0:0:0:0:
479,236,93145,2,0,P|468:296|438:336,2,96,2|0|0,3:2|0:0|3:0,0:0:0:0:
386,97,93686,6,0,P|359:57|320:30,1,96,2|0,0:0|0:0,0:0:0:0:
278,203,93957,2,0,P|283:155|306:113,1,96,10|0,0:0|0:0,0:0:0:0:
373,181,94227,5,2,0:0:0:0:
347,259,94362,1,0,0:0:0:0:
370,298,94497,1,2,0:0:0:0:
358,318,94632,2,0,B|289:304|289:304|251:331|251:331|114:302,1,192
104,317,95038,5,0,3:2:0:0:
87,305,95173,1,2,0:0:0:0:
85,286,95308,1,0,0:0:0:0:
100,273,95443,1,2,0:0:0:0:
118,276,95578,6,0,P|21:274|20:173,1,192,0|2,3:0|0:3,0:0:0:0:
18,165,95984,1,0,0:0:0:0:
47,181,96119,1,10,0:0:0:0:
112,152,96254,1,0,3:0:0:0:
181,197,96389,1,2,0:3:0:0:
181,197,96524,1,0,3:0:0:0:
285,71,96659,1,0,3:0:0:0:
347,275,97065,5,0,0:0:0:0:
341,123,97200,1,8,0:0:0:0:
268,146,97335,2,0,L|84:203,1,192
4,146,97740,5,4,3:1:0:0:
381,37,98011,1,2,0:0:0:0:
434,145,98146,1,0,0:0:0:0:
408,242,98281,2,0,P|405:297|430:342,1,96,10|0,0:0|0:0,0:0:0:0:
509,164,98551,2,0,P|507:117|477:81,1,96
408,242,98822,5,2,3:2:0:0:
343,199,98957,1,0,0:0:0:0:
270,268,99092,1,0,0:0:0:0:
185,179,99227,1,0,0:0:0:0:
117,296,99362,2,0,B|71:315|71:315|28:299,1,96,2|2,3:2|0:0,0:0:0:0:
29,298,99632,2,0,B|78:268|124:287|117:300|159:328|231:297,1,192,2|0,3:2|3:0,0:0:0:0:
497,169,100173,5,2,0:0:0:0:
392,103,100308,1,0,0:0:0:0:
254,121,100443,5,8,0:0:0:0:
309,147,100578,1,0,0:0:0:0:
213,144,100713,5,2,0:2:0:0:
191,134,100848,1,0,0:0:0:0:
191,134,100984,6,0,B|160:144|136:168|158:234,1,96,2|0,3:2|0:0,0:0:0:0:
138,359,101254,2,0,B|166:349|190:325|175:283,1,96,2|0,0:0|0:0,0:0:0:0:
109,93,101524,5,2,3:2:0:0:
61,163,101659,5,2,0:0:0:0:
66,282,101795,5,2,3:2:0:0:
302,197,102065,6,0,B|356:157|443:206|372:357,2,192,0|2|8,3:0|0:0|0:0,0:0:0:0:
227,224,102740,2,0,B|192:258|192:258|255:229,1,96,2|2,0:0|0:0,0:0:0:0:
299,147,103011,1,0,0:0:0:0:
268,79,103146,2,0,P|298:38|442:121,1,192,2|0,3:2|0:0,0:0:0:0:
469,121,103551,2,0,P|471:212|392:258,1,192,2|0,0:0|0:0,0:0:0:0:
308,238,103957,1,2,0:0:0:0:
241,270,104092,1,0,0:0:0:0:
200,247,104227,6,0,B|174:264|174:264|100:220|100:220|105:194|105:194|100:220|100:220|27:175|-22:258|50:303|50:303|81:321,3,384,6|2|4|2,3:2|3:2|3:0|3:2,0:1:0:0:
274,183,106389,6,0,B|326:129|336:56|252:24|204:126,1,216.000008239746,6|2,3:2|0:0,0:0:0:0:
195,193,107200,1,2,0:0:0:0:
242,251,107470,2,0,B|282:282|311:246|373:267|365:327,1,144.000005493164,0|2,3:0|0:0,0:0:0:0:
400,207,108011,2,0,P|447:255|507:176,1,144.000005493164,2|0,0:0|0:0,0:0:0:0:
444,105,108551,6,0,B|364:64|379:141|287:93,1,144.000005493164,0|0,3:0|0:0,0:0:0:0:
239,68,108957,2,0,P|174:92|153:159,1,144.000005493164,2|0,0:0|0:0,0:0:0:0:
169,230,109362,1,0,0:0:0:0:
151,339,109632,5,2,3:2:0:0:
144,295,109902,1,0,3:0:0:0:
161,320,110173,1,0,3:1:0:0:
62,256,110713,6,0,B|16:212|59:178|64:59,1,144.000005493164,0|0,3:0|0:0,0:0:0:0:
81,24,111119,2,0,B|137:-30|190:0|221:63|158:166,1,216.000008239746,2|2,0:0|0:0,0:0:0:0:
143,278,111794,1,0,3:0:0:0:
261,333,112065,1,2,0:0:0:0:
356,310,112335,1,0,0:0:0:0:
432,291,112605,1,0,3:0:0:0:
233,339,112875,6,0,B|204:319|188:324|162:251|151:200|215:157|284:202|252:256|172:297|88:275,2,288,2|2|0,3:2|3:2|0:0,0:0:0:0:
261,333,113957,1,2,3:2:0:0:
356,310,114227,1,0,3:0:0:0:
432,291,114497,1,0,3:0:0:0:
309,321,115038,6,0,P|247:298|259:232,1,144,4|0,3:1|0:0,0:0:0:0:
282,158,115443,2,0,B|252:89|315:86|284:19,1,144.000005493164,2|0,0:0|0:0,0:0:0:0:
367,68,115848,1,2,0:0:0:0:
212,52,116119,2,0,L|112:40,1,72.0000027465821,0|0,3:0|0:0,0:0:0:0:
66,32,116389,1,2,3:2:0:0:
83,268,116659,1,2,0:0:0:0:
123,177,116930,1,0,3:0:0:0:
45,105,117200,6,0,B|70:204|70:204|90:212|90:212|112:302,2,216.000008239746,0|2|0,3:2|0:0|0:0,0:0:0:0:
28,21,118281,1,2,3:2:0:0:
0,196,118551,1,0,0:0:0:0:
3,166,118822,1,0,3:0:0:0:
48,363,119092,1,0,3:0:0:0:
45,333,119362,6,0,P|118:326|230:320,1,144.000005493164,2|0,3:2|0:0,0:0:0:0:
269,275,119767,2,0,P|357:278|446:378,2,216.000008239746,2|2|2,3:2|0:0|0:0,0:1:0:0:
227,294,120713,1,0,0:0:0:0:
306,227,120984,1,2,3:2:0:0:
321,179,121254,1,0,0:0:0:0:
306,154,121524,2,0,B|288:123|272:120|280:43|293:-6|369:-17|411:53|359:87|269:89|203:32,2,288,6|2|2,3:2|0:0|0:0,0:0:0:0:
321,179,122605,1,0,3:0:0:0:
365,213,122875,1,2,0:0:0:0:
440,238,123146,2,0,B|479:251|496:277|481:293|525:328,1,108.000004119873,4|0,3:1|0:0,0:0:0:0:
512,192,123683,5,0,3:0:0:0:
413,144,125845,5,2,0:0:0:0:
433,245,125980,1,0,0:0:0:0:
433,245,126047,1,0,0:0:0:0:
433,245,126115,2,0,L|490:240,2,48,2|2|0,0:0|0:0|0:0,0:0:0:0:
357,199,126520,1,0,0:0:0:0:
239,208,126655,5,2,0:0:0:0:
259,309,126790,1,0,0:0:0:0:
259,309,126857,1,0,0:0:0:0:
259,309,126925,2,0,L|316:304,2,48,2|2|0,0:0|0:0|0:0,0:0:0:0:
183,263,127330,1,0,0:0:0:0:
56,312,127466,6,0,L|46:268,1,36,2|0,0:0|0:0,0:0:0:0:
40,249,127737,1,0,0:0:0:0:
7,32,128007,5,0,3:0:0:0:
93,145,128142,1,0,3:0:0:0:
117,129,128210,1,0,0:0:0:0:
137,116,128277,1,0,0:0:0:0:
21,114,128412,2,0,L|240:151,1,192,2|0,0:0|0:0,0:0:0:0:
311,163,128818,5,0,3:0:0:0:
284,64,128953,1,0,3:0:0:0:
322,71,129020,1,0,0:0:0:0:
366,79,129088,1,0,0:0:0:0:
209,45,129223,2,0,L|398:13,1,192,2|0,0:0|0:0,0:0:0:0:
253,222,129628,6,0,B|263:190|263:190|387:168|387:168|420:204,1,192,2|2,0:0|0:0,0:0:0:0:
469,33,130170,5,0,3:0:0:0:
510,98,130305,1,0,3:0:0:0:
481,110,130373,1,0,0:0:0:0:
450,107,130440,1,0,0:0:0:0:
376,88,130575,1,2,0:0:0:0:
251,167,130846,5,0,0:0:0:0:
301,109,130980,1,0,3:0:0:0:
279,294,131116,1,0,3:0:0:0:
293,345,131183,1,0,0:0:0:0:
287,330,131250,2,0,L|191:308,1,96,2|0,0:0|0:0,0:0:0:0:
15,113,131520,5,0,0:0:0:0:
141,84,131656,1,0,0:0:0:0:
199,144,131791,1,2,0:0:0:0:
160,243,131926,1,0,0:0:0:0:
193,308,132061,2,2,B|225:315|225:315|226:310|226:310|225:315|225:315|262:323|262:323|262:327|262:327|262:323|262:323|300:332|322:324|334:312|342:262,1,180,0|0,2:0|0:0,0:0:0:0:
360,224,132331,6,0,P|279:211|262:290,1,180,4|0,1:2|0:0,0:0:0:0:
207,384,132601,1,8,1:2:0:0:
106,273,132737,6,0,P|112:184|35:178,1,180,0|0,3:0|0:0,0:0:0:0:
38,174,133007,1,0,3:0:0:0:
208,57,133142,1,10,1:2:0:0:
134,102,133277,1,0,0:0:0:0:
139,24,133412,5,2,1:2:0:0:
188,194,133547,1,0,0:0:0:0:
300,57,133683,1,2,1:2:0:0:
313,143,133818,2,0,B|342:215|268:215|268:262|268:317,1,180,2|0,0:0|0:0,0:0:0:0:
271,337,134088,5,0,3:0:0:0:
241,132,134223,1,8,1:2:0:0:
436,203,134358,1,0,0:0:0:0:
417,267,134493,5,2,1:2:0:0:
389,60,134628,1,2,0:0:0:0:
403,146,134764,1,8,1:2:0:0:
512,78,134899,1,0,3:0:0:0:
447,93,135034,1,0,0:0:0:0:
395,105,135169,1,0,0:0:0:0:
353,114,135304,5,8,1:2:0:0:
268,87,135439,1,0,0:0:0:0:
155,49,135574,2,0,P|123:47|81:125,1,120,0|0,1:2|0:0,0:0:0:0:
54,346,135845,1,8,1:2:0:0:
124,222,135980,1,2,0:0:0:0:
177,365,136115,6,0,L|250:341,1,60,0|0,3:0|0:0,0:0:0:0:
174,353,136250,2,0,L|231:335,1,60,0|0,3:0|0:0,0:0:0:0:
300,320,136385,2,0,P|390:308|475:347,1,180,10|0,0:2|0:0,0:0:0:0:
501,277,136655,5,2,1:3:0:0:
450,228,136791,5,0,0:0:0:0:
465,214,136858,6,0,L|440:211,1,20,0|0,3:0|0:0,0:0:0:0:
479,188,136926,5,8,1:2:0:0:
349,30,137061,6,0,P|430:24|437:105,1,180,2|0,3:2|0:0,0:0:0:0:
389,163,137331,1,0,3:0:0:0:
301,85,137466,2,0,P|238:79|125:80,1,120,8|0,1:2|0:0,0:0:0:0:
135,246,137737,2,0,P|129:187|127:127,1,120,0|0,3:0|0:0,0:0:0:0:
101,61,138007,2,0,B|74:8|74:8|122:44,1,120,8|0,1:2|0:0,0:0:0:0:
11,299,138412,5,0,1:0:0:0:
54,118,138547,1,8,1:2:0:0:
227,187,138682,1,0,0:0:0:0:
178,276,138818,6,0,L|297:261,1,120,0|0,1:0|0:0,0:0:0:0:
347,230,139020,6,0,L|378:228,1,20,0|0,3:0|0:0,0:0:0:0:
329,214,139088,5,8,1:2:0:0:
500,117,139223,6,0,P|526:196|457:245,1,180,0|0,3:0|0:0,0:0:0:0:
443,168,139493,2,0,B|406:154|411:110|411:110|417:55,1,120,0|8,3:0|1:2,0:0:0:0:
419,34,139764,1,0,0:0:0:0:
210,52,139899,5,2,3:2:0:0:
315,87,140034,1,0,0:0:0:0:
239,123,140169,1,2,0:0:0:0:
251,126,140304,1,0,0:0:0:0:
136,131,140574,6,0,L|146:191,1,36.0000013732911
67,151,140710,2,0,B|34:167|34:167|85:164,1,72.0000027465821,2|0,0:0|0:0,0:0:0:0:
208,138,140980,6,0,L|380:115,1,120,4|0,1:2|0:0,0:0:0:0:
392,91,141182,1,0,0:0:0:0:
462,114,141250,1,10,1:2:0:0:
512,52,141385,6,0,P|439:105|454:269,1,240,2|0,0:0|0:0,0:0:0:0:
470,311,141791,1,8,1:2:0:0:
512,250,141926,1,2,0:0:0:0:
470,311,142061,5,0,3:2:0:0:
362,337,142196,2,0,P|248:353|185:344,1,180,2|0,0:0|0:0,0:0:0:0:
182,324,142466,2,0,P|270:308|359:319,1,180,2|0,3:2|0:0,0:0:0:0:
391,324,142737,1,0,0:0:0:0:
152,336,142872,1,8,1:2:0:0:
264,186,143007,1,0,0:0:0:0:
258,114,143142,6,0,L|247:8,1,60,2|0,1:2|0:0,0:0:0:0:
243,60,143277,2,0,L|248:119,1,60
327,143,143412,1,10,1:2:0:0:
196,166,143547,2,0,L|19:201,1,180,2|0,0:0|0:0,0:0:0:0:
19,166,143818,6,0,L|196:201,1,180,0|8,0:0|1:2,0:0:0:0:
327,143,144088,1,0,0:0:0:0:
394,225,144223,1,0,3:0:0:0:
399,119,144358,2,0,P|510:152|476:262,1,240,2|2,0:0|0:0,0:0:0:0:
355,375,144764,1,0,3:0:0:0:
428,294,144899,2,0,B|392:343|392:343|452:298,2,120,0|10|0,0:0|1:2|0:0,0:0:0:0:
309,235,145304,5,0,1:2:0:0:
219,267,145439,1,0,0:0:0:0:
55,274,145574,1,2,3:2:0:0:
91,262,145641,1,0,3:0:0:0:
127,249,145710,2,0,B|98:149|98:149|22:176,1,180,2|0,0:0|0:0,0:0:0:0:
19,194,145980,2,0,L|166:147,1,120,0|8,0:0|1:2,0:0:0:0:
298,101,146250,1,0,0:0:0:0:
263,64,146385,5,2,3:2:0:0:
295,151,146520,1,0,0:0:0:0:
206,184,146655,1,0,1:2:0:0:
171,94,146791,2,0,P|289:112|402:151,1,240
507,195,147196,1,10,1:2:0:0:
58,96,147466,1,0,1:0:0:0:
101,248,147601,5,2,3:2:0:0:
113,291,147670,1,0,3:0:0:0:
90,328,147737,2,0,P|66:364|71:396,1,60,8|0,1:2|0:0,0:0:0:0:
90,328,147872,6,0,B|147:286|183:404|285:320,1,180,2|0,0:0|0:0,0:0:0:0:
342,332,148142,1,2,0:0:0:0:
260,318,148277,6,0,B|203:276|167:394|65:310,1,180,2|0,3:0|0:0,0:0:0:0:
135,261,148547,5,2,0:0:0:0:
239,206,148682,5,0,0:0:0:0:
383,220,148818,5,2,3:2:0:0:
512,279,148953,5,2,0:0:0:0:
498,259,149020,1,0,0:0:0:0:
479,241,149088,2,0,P|466:149|369:138,1,180,0|0,3:2|0:0,0:0:0:0:
306,96,149358,6,2,B|242:133|219:50|166:55|108:131,1,180,0|0,1:2|0:0,0:1:0:0:
36,162,149628,6,0,B|45:198|45:198|29:257,1,72.0000027465821,4|0,1:2|0:0,0:0:0:0:
22,231,149764,2,0,B|13:195|13:195|22:161,1,72.0000027465821,2|2,0:0|0:0,0:0:0:0:
32,87,149899,1,0,1:0:0:0:
32,87,150034,6,0,B|-8:185|62:207|23:335,1,216.000008239746,2|0,3:2|0:0,0:0:0:0:
27,329,150304,1,0,0:0:0:0:
174,268,150439,1,0,1:0:0:0:
116,335,150574,1,0,0:0:0:0:
374,294,150710,6,0,L|444:309,1,72.0000027465821,0|0,1:2|0:0,0:0:0:0:
352,161,150845,2,0,L|409:118,1,72.0000027465821,2|0,0:0|0:0,0:0:0:0:
402,221,150980,2,0,L|472:206,1,72.0000027465821,0|0,1:0|0:0,0:0:0:0:
320,241,151115,6,0,B|390:225|390:225|426:218|485:203|492:111,1,216.000008239746,2|0,3:2|0:0,0:0:0:0:
498,107,151385,1,0,0:0:0:0:
473,35,151520,1,0,1:0:0:0:
403,4,151655,1,0,0:0:0:0:
309,65,151791,5,2,1:2:0:0:
281,57,151858,1,0,0:0:0:0:
248,62,151926,1,2,0:0:0:0:
219,54,151993,1,2,0:0:0:0:
219,54,152061,2,0,B|230:89|230:89|218:141,1,72.0000027465821,0|0,1:0|0:0,0:0:0:0:
136,49,152196,6,0,P|129:165|45:210,1,216.000008239746,2|0,3:2|0:0,0:0:0:0:
20,216,152466,1,2,3:2:0:0:
136,49,152602,2,0,P|106:161|172:230,1,216.000008239746,4|0,1:2|0:0,0:0:0:0:
188,237,152872,6,2,B|217:217|233:222|259:149|270:98|206:55|137:100|169:154|249:195|333:173,1,288,2|0,1:2|0:0,1:0:0:0:
293,176,153142,2,2,P|320:165|302:199,1,48,0|0,1:0|0:0,0:1:0:0:
299,382,153277,6,2,B|281:349|281:349|248:290|293:265|293:265|290:258|290:258|293:265|293:265|343:238|375:297|375:297|393:329,1,288,2|0,3:2|0:0,0:1:0:0:
405,210,153547,2,2,B|448:176|430:152|435:152|426:120|445:98|468:89,2,144.000005493164,0|0|0,0:0|1:0|0:0,1:0:0:0:
322,88,153953,5,2,1:2:0:0:
314,66,154021,1,0,0:0:0:0:
316,43,154088,1,2,0:0:0:0:
328,23,154156,1,2,0:0:0:0:
349,10,154223,1,0,1:0:0:0:
373,9,154291,1,0,0:0:0:0:
395,19,154358,6,0,P|461:23|467:89,1,144.000005493164,2|0,3:2|0:0,0:0:0:0:
437,274,154628,1,2,3:2:0:0:
311,219,154764,2,0,B|425:260|390:126|435:255|508:159,1,216.000008239746,0|0,1:0|0:0,0:0:0:0:
326,143,155034,5,2,1:2:0:0:
303,138,155102,1,0,0:0:0:0:
280,144,155169,1,2,0:0:0:0:
262,159,155237,1,2,0:0:0:0:
249,178,155304,1,2,1:2:0:0:
230,150,155371,1,0,0:0:0:0:
227,117,155439,2,0,P|297:228|180:315,1,288.000010986329,2|0,3:2|0:0,0:0:0:0:
83,124,155845,1,0,1:0:0:0:
18,377,155980,1,0,0:0:0:0:
7,276,156115,6,0,B|41:291|41:291|103:286,1,72.0000027465821,2|0,1:2|0:0,0:0:0:0:
129,57,156250,2,0,B|94:41|94:41|32:46,1,72.0000027465821,2|2,0:0|0:0,0:0:0:0:
6,116,156385,1,2,1:2:0:0:
12,153,156453,1,0,0:0:0:0:
3,188,156520,2,0,B|147:245|126:163|215:215,1,216.000008239746,2|0,3:2|0:0,0:0:0:0:
279,253,156791,2,0,P|310:269|334:317,1,72.0000027465821,2|0,3:2|0:0,0:0:0:0:
291,366,156926,2,0,B|304:388|304:388|462:349,1,144.000005493164,6|0,1:2|0:0,0:0:0:0:
509,252,157196,6,2,P|520:206|311:143,1,288,2|0,1:2|0:0,0:1:0:0:
327,113,157466,2,2,B|300:136|300:136|333:121,1,72.0000027465821,2|0,1:2|0:0,0:1:0:0:
512,34,157601,6,2,B|432:-5|306:-6|203:119,1,288,2|0,3:2|0:0,0:1:0:0:
218,81,157872,2,0,B|78:214|78:214|235:94,1,384,2|0,3:1|0:0,0:0:0:0:
62,39,158277,5,6,1:0:0:0:
35,26,158345,1,0,0:0:0:0:
9,38,158412,1,0,0:0:0:0:
4,67,158480,1,0,0:0:0:0:
21,88,158547,1,8,1:2:0:0:
51,89,158615,1,0,0:0:0:0:
121,80,158682,6,2,P|186:111|183:328,1,288,0|0,0:0|0:0,0:1:0:0:
148,359,158953,1,0,0:0:0:0:
91,206,159088,2,2,B|242:260|196:84|255:253|352:126,1,288,8|0,1:2|0:0,0:1:0:0:
425,119,159358,6,2,P|406:75|363:55,1,96,0|0,1:0|0:0,0:1:0:0:
280,137,159493,2,0,P|298:180|341:200,1,96
285,59,159628,1,2,1:0:0:0:
145,323,159764,6,2,B|351:290|351:290|432:276|479:317|494:378,1,384,0|0,0:0|0:0,0:1:0:0:
207,283,160169,2,0,L|301:268,1,96,0|0,1:0|0:0,0:0:0:0:
436,265,160304,1,0,0:0:0:0:
451,43,160439,6,0,P|481:79|492:126,1,96,0|0,1:0|0:0,0:0:0:0:
385,204,160574,2,0,P|407:161|412:114,1,96
334,141,160710,2,2,P|301:175|257:193,1,96,0|0,1:0|0:0,0:1:0:0:
162,111,160845,6,2,B|223:126|266:129|303:65|257:51|214:59|190:120|170:145|147:160|167:239,1,288,0|0,0:0|0:0,0:1:0:0:
162,111,161116,2,0,B|109:113|71:129|58:179,1,96
30,200,161250,1,0,1:0:0:0:
182,273,161385,1,0,0:0:0:0:
0,383,161520,6,0,B|-46:357|-20:267|82:289|55:367|84:360|84:360|79:357|79:357|84:360|84:360|112:354|112:354|117:358|117:358|112:355|112:355|190:337,1,288,2|0,1:2|0:0,0:0:0:0:
232,329,161791,1,0,1:0:0:0:
491,203,161926,6,0,B|537:228|510:318|408:296|435:218|406:225|406:225|412:229|412:229|406:225|406:225|378:231|378:231|374:228|374:228|378:230|378:230|300:248,1,288,2|0,0:0|0:0,0:0:0:0:
259,257,162197,1,2,0:0:0:0:
168,41,162331,6,0,B|193:-5|283:22|261:123|183:96|190:125|190:125|194:120|194:120|190:125|190:125|196:153|196:153|193:158|193:158|195:153|195:153|213:231,1,288,4|0,1:0|0:0,0:0:0:0:
275,149,162601,5,6,1:0:0:0:
306,137,162668,1,0,0:0:0:0:
339,140,162736,1,0,0:0:0:0:
371,149,162804,1,0,0:0:0:0:
404,152,162872,1,0,1:0:0:0:
435,140,162939,1,0,0:0:0:0:
484,88,163007,6,2,B|372:92|299:183|384:300,1,288,0|0,0:0|0:0,0:1:0:0:
418,346,163277,1,0,0:0:0:0:
448,278,163412,6,2,B|503:238|503:238|485:264,1,96,0|0,1:0|0:0,0:1:0:0:
343,354,163547,1,0,0:0:0:0:
228,242,163682,5,2,1:0:0:0:
221,223,163750,1,0,0:0:0:0:
235,207,163818,1,0,0:0:0:0:
254,210,163885,1,0,0:0:0:0:
261,229,163953,2,2,B|244:301|244:301|183:341,1,96,0|0,1:0|0:0,0:1:0:0:
192,141,164088,2,2,P|158:274|27:316,1,288,0|0,0:0|0:0,0:1:0:0:
0,310,164358,1,0,0:0:0:0:
45,34,164493,2,0,B|88:104|20:104|62:168|62:168|115:157,1,192,0|0,1:0|0:0,0:0:0:0:
269,138,164764,5,2,1:0:0:0:
295,120,164831,1,0,0:0:0:0:
317,93,164899,1,0,0:0:0:0:
324,48,164966,1,0,0:0:0:0:
367,145,165034,2,2,B|336:218|384:274|449:255|467:187,1,192,0|0,1:0|0:0,0:1:0:0:
512,359,165304,6,0,P|503:336|489:317,1,48,4|0,3:0|0:0,0:0:0:0:
398,384,165439,2,0,P|399:354|389:325,1,60,2|0,3:2|0:0,0:0:0:0:
241,360,165575,2,0,P|257:328|268:293,1,72.0000027465821,2|0,3:2|0:0,0:0:0:0:
97,257,165710,2,0,P|129:229|156:197,1,84.0000008010864,2|0,3:2|0:0,0:0:0:0:
249,103,165845,38,0,B|284:103|284:103|316:117,1,72.0000027465821,0|0,3:0|0:0,0:0:0:0:
501,130,165980,2,0,B|474:151|474:151|437:162,1,72.0000027465821,4|0,0:3|0:0,0:0:0:0:
280,262,166115,2,0,B|293:225|293:225|313:198,1,72.0000027465821,0|0,3:0|0:0,0:0:0:0:
383,29,166250,2,0,B|396:63|396:63|394:98,1,72.0000027465821,4|0,0:3|0:0,0:0:0:0:
435,272,166385,2,0,B|405:251|405:251|387:220,1,72.0000027465821,4|0,0:3|0:0,0:0:0:0:
375,193,166520,6,2,B|337:181|337:181|340:142|340:142|377:131|377:131|399:164|399:164|367:202,1,192.960000736084,0|0,0:0|0:0,0:1:0:0:
213,147,166926,6,0,P|126:108|35:75,1,192.959990872559,4|0,3:1|0:0,0:0:0:0:
158,25,167466,2,0,B|155:76|112:102|112:102|129:156|89:197,1,192.959990872559,0|0,3:0|0:0,0:0:0:0:
30,292,168007,2,0,P|61:370|135:328,1,192,4|0,3:0|0:0,0:0:0:0:
21,218,168412,1,0,0:0:0:0:
98,266,168547,1,0,0:0:0:0:
172,264,168682,6,0,P|248:259|278:353,1,144,2|0,3:2|0:0,0:0:0:0:
305,379,168953,1,0,0:0:0:0:
135,181,169088,5,4,3:0:0:0:
170,166,169268,5,0,0:0:0:0:
220,172,169448,5,0,0:0:0:0:
306,199,169628,5,2,0:3:0:0:
417,209,169809,6,0,P|437:210|458:206,1,40
484,196,170079,1,0,0:0:0:0:
408,66,170169,5,4,3:0:0:0:
435,103,170349,5,0,0:0:0:0:
392,89,170529,5,0,0:0:0:0:
435,75,170709,5,0,0:0:0:0:
408,111,170890,5,0,0:0:0:0:
302,43,171250,6,0,B|258:72|208:46|208:46|175:84|124:77,1,192,4|0,0:3|0:0,0:0:0:0:
297,21,171791,2,0,B|246:14|213:52|213:52|163:26|119:55,1,192,2|0,0:3|0:0,0:0:0:0:
14,54,172331,6,0,P|101:67|100:155,1,192,4|0,3:0|0:0,0:0:0:0:
27,130,172737,1,0,0:0:0:0:
42,205,172872,1,0,0:0:0:0:
62,311,173007,2,0,L|8:326,1,48,2|0,0:0|0:0,0:0:0:0:
157,255,173412,5,4,3:0:0:0:
212,303,173592,5,2,0:0:0:0:
250,313,173773,5,2,0:0:0:0:
274,310,173953,5,0,0:0:0:0:
284,301,174133,6,0,P|319:300|355:328,1,80
474,301,174493,5,4,3:0:0:0:
490,273,174673,5,2,0:0:0:0:
465,231,174854,5,2,0:0:0:0:
503,168,175034,5,2,0:0:0:0:
446,73,175214,6,0,L|365:91,1,80
479,68,175574,1,4,1:0:0:0:
291,40,175777,5,2,0:0:0:0:
276,72,175844,5,0,0:0:0:0:
278,130,175934,1,2,0:0:0:0:
306,184,176024,1,0,0:0:0:0:
303,242,176115,1,2,0:3:0:0:
260,282,176205,1,0,0:0:0:0:
228,268,176295,1,0,0:0:0:0:
192,267,176385,1,0,0:0:0:0:
176,277,176475,1,0,0:0:0:0:
172,289,176565,1,0,3:0:0:0:
109,321,176655,6,0,B|62:313|62:313|-8:334,2,96.0000036621095,4|0|0,1:0|0:0|0:0,0:0:0:0:
109,235,176926,2,0,B|62:227|62:227|-8:248,2,96.0000036621095,2|0|0,0:0|0:0|0:0,0:0:0:0:
99,129,177196,6,0,P|121:117|167:147,2,48.0000018310548,2|0|2,0:0|0:0|0:0,0:0:0:0:
236,50,177376,2,0,P|234:74|185:99,2,48.0000018310548,2|2|2,0:0|0:0|0:0,0:0:0:0:
236,207,177556,2,0,P|214:192|217:137,2,48.0000018310548,2|0|0,0:0|0:0|0:0,0:0:0:0:
188,127,177736,5,4,1:0:0:0:
309,145,177916,5,0,0:0:0:0:
313,82,178007,1,0,0:0:0:0:
338,37,178097,1,2,0:0:0:0:
367,17,178187,1,2,0:0:0:0:
390,15,178277,1,2,0:3:0:0:
406,24,178367,1,0,0:0:0:0:
411,36,178457,1,0,0:0:0:0:
408,44,178547,2,0,B|432:83|386:93|415:152,2,96.0000036621095,2|0|0,0:0|0:0|0:0,0:0:0:0:
489,107,178817,5,4,1:0:0:0:
501,102,178907,1,0,0:0:0:0:
510,86,178997,1,0,0:0:0:0:
508,63,179087,1,2,0:0:0:0:
488,34,179177,1,0,0:0:0:0:
443,9,179267,1,2,0:0:0:0:
380,5,179358,1,2,0:3:0:0:
306,31,179448,1,2,0:0:0:0:
231,76,179538,1,0,0:0:0:0:
137,95,179628,2,0,P|42:25|44:-3,2,96.0000036621095,2|0|0,0:0|0:0|0:0,0:0:0:0:
2,145,179898,6,0,L|21:348,1,192.000007324219,4|0,1:0|0:0,0:0:0:0:
118,227,180169,5,2,0:0:0:0:
140,205,180259,1,0,0:0:0:0:
179,213,180349,1,2,0:0:0:0:
196,251,180439,1,2,0:3:0:0:
181,296,180529,1,2,0:0:0:0:
137,334,180619,1,0,0:0:0:0:
229,295,180710,6,0,B|293:318|294:345|272:384,2,96.0000036621095,2|0|0,0:0|0:0|0:0,0:0:0:0:
243,146,180979,5,4,1:0:0:0:
299,149,181070,1,0,0:0:0:0:
342,199,181160,1,2,0:0:0:0:
399,247,181250,5,0,2:0:0:0:
454,261,181341,1,2,2:0:0:0:
510,227,181431,1,0,2:0:0:0:
411,173,181520,6,0,P|428:129|471:112,2,96.0000036621095,2|2|0,0:3|0:0|0:0,0:0:0:0:
329,270,181791,2,0,P|313:309|275:324,5,48.0000018310548,2|2|2|0|2|0,0:0|0:0|0:0|0:0|0:0|0:0,0:0:0:0:
249,254,182061,6,0,B|218:226|147:238|116:288|171:379,1,216.000008239746,4|0,1:0|0:0,0:0:0:0:
242,272,182331,6,0,B|204:314|149:213|69:263|35:274|23:357,1,216.000008239746,0|0,1:0|0:0,0:0:0:0:
241,291,182601,6,0,B|123:318|165:232|169:183|133:154|51:188,1,216.000008239746,0|0,1:0|0:0,0:0:0:0:
245,310,182872,6,0,B|211:203|286:178|214:69,1,216.000008239746,0|0,1:0|0:0,0:0:0:0:
241,291,183142,6,0,B|359:318|317:232|313:183|349:154|431:188,1,216.000008239746,0|0,1:0|0:0,0:0:0:0:
242,272,183412,6,0,B|280:314|335:213|415:263|449:274|461:357,1,216.000008239746,4|0,0:0|0:0,0:0:0:0:
249,254,183682,6,0,B|280:226|351:238|382:288|327:379,1,216.000008239746,8|0,0:0|0:0,0:0:0:0:
36,338,184245,6,0,L|59:195,1,144,0|0,3:0|0:0,0:0:0:0:
32,119,184785,1,0,3:0:0:0:
104,92,185326,1,0,3:0:0:0:
176,65,185596,1,0,3:0:0:0:
219,49,185866,1,8,0:0:0:0:
176,179,186046,5,2,0:0:0:0:
191,170,186166,5,2,0:0:0:0:
205,181,186287,5,0,0:0:0:0:
199,198,186407,5,0,3:0:0:0:
139,243,186827,5,0,0:0:0:0:
146,328,186947,2,0,B|203:323|246:301|246:301|216:274,1,144,8|0,0:0|0:0,0:0:0:0:
304,353,187488,6,0,P|334:339|389:339,1,64,0|0,3:0|0:0,0:0:0:0:
427,372,187758,2,0,L|490:361,1,64,0|0,3:0|0:0,0:0:0:0:
428,298,188028,1,8,3:2:0:0:
499,183,188569,6,0,L|511:87,1,96,0|0,3:0|0:0,0:0:0:0:
399,159,189109,2,2,B|430:127|403:71|403:71|305:109|305:109|306:122|312:126|312:126|314:120|305:109|305:109|228:138,1,320,0|0,2:0|0:0,0:0:0:0:
159,169,189650,1,0,3:0:0:0:
87,158,189920,1,0,0:0:0:0:
112,225,190190,1,10,3:2:0:0:
46,219,190370,5,2,0:0:0:0:
31,227,190491,5,0,0:0:0:0:
17,216,190611,5,0,0:0:0:0:
24,199,190731,5,2,3:0:0:0:
120,0,191136,2,0,P|102:71|79:145,1,144,2|0,3:2|3:0,0:0:0:0:
53,314,191812,2,0,P|112:303|171:293,1,120,2|0,0:0|0:0,0:0:0:0:
201,288,192217,5,0,3:0:0:0:
231,283,192285,5,0,0:0:0:0:
261,278,192353,6,0,P|316:289|348:376,1,144,2|0,3:2|0:0,0:0:0:0:
276,384,192893,6,0,P|359:369|444:358,1,160,0|0,3:0|0:0,0:0:0:0:
418,288,193434,2,0,P|492:290|505:363,1,160,0|0,3:0|0:0,0:0:0:0:
433,359,193974,1,0,3:0:0:0:
402,216,194245,1,0,3:0:0:0:
370,72,194515,1,8,0:0:0:0:
469,123,194695,5,2,0:0:0:0:
484,132,194815,5,0,0:0:0:0:
498,121,194935,5,0,0:0:0:0:
492,104,195055,6,0,B|515:235|515:235|472:226,1,160,0|0,3:0|0:0,0:0:0:0:
402,216,195596,2,0,P|340:224|291:292,1,128,8|0,0:0|0:0,0:0:0:0:
270,297,196046,1,0,0:0:0:0:
245,326,196136,2,0,P|218:348|190:354,1,64,2|0,3:2|0:0,0:0:0:0:
113,354,196407,2,0,P|82:346|57:326,1,64,0|0,0:2|0:0,0:0:0:0:
24,258,196677,1,8,0:0:0:0:
200,156,197217,6,0,B|252:179|305:184|305:184|302:194|271:204,1,144,0|0,3:0|0:0,0:0:0:0:
147,216,197758,6,2,B|250:253|261:168|381:191,2,240,0|0|0,2:0|0:0|3:0,0:0:0:0:
3,174,198569,1,0,0:0:0:0:
73,192,198839,1,10,3:2:0:0:
209,78,199019,5,2,0:0:0:0:
224,69,199139,5,0,0:0:0:0:
238,80,199260,5,0,0:0:0:0:
232,97,199380,5,0,3:0:0:0:
424,126,199785,2,0,P|400:62|333:66,1,144,2|2,3:2|0:2,0:0:0:0:
181,253,200461,2,0,L|300:236,1,120,2|0,0:0|0:0,0:0:0:0:
380,233,200866,1,0,3:0:0:0:
380,233,200934,1,0,0:0:0:0:
380,233,201001,2,0,P|416:237|449:331,1,144,2|0,3:2|0:0,0:0:0:0:
287,346,201542,6,0,B|222:356|222:356|221:351|221:351|149:363,1,144.000005493164,4|2,3:1|0:0,0:0:0:0:
77,378,201947,1,0,0:0:0:0:
3,378,202082,2,0,L|32:286,1,96,10|0,0:0|0:0,0:0:0:0:
5,123,202353,2,0,L|35:214,1,96,2|2,0:0|0:0,0:0:0:0:
101,251,202623,1,0,3:0:0:0:
174,205,202758,1,0,0:0:0:0:
109,133,202893,1,2,0:0:0:0:
145,121,203028,1,0,0:0:0:0:
172,125,203163,2,0,P|232:136|272:166,1,96,2|2,3:2|0:0,0:0:0:0:
92,296,203434,2,0,P|84:248|97:203,1,96
4,122,203704,6,0,P|33:36|123:20,1,192,0|2,3:0|0:0,0:0:0:0:
196,41,204109,1,0,0:0:0:0:
281,4,204245,1,10,0:0:0:0:
385,51,204380,1,0,0:0:0:0:
405,176,204515,2,0,L|495:144,1,96,2|2,0:0|0:0,0:0:0:0:
340,333,204785,2,0,L|358:240,1,96,0|2,3:0|0:0,0:0:0:0:
434,247,205055,6,0,P|470:279|482:324,1,96,2|2,0:0|0:0,0:0:0:0:
327,171,205325,1,2,0:0:0:0:
264,229,205460,1,2,0:0:0:0:
192,197,205596,2,0,P|146:210|116:247,1,96,2|0,0:0|0:0,0:0:0:0:
196,285,205866,1,0,3:0:0:0:
6,73,206136,6,0,B|43:89|45:57|97:93,1,72.0000027465821,2|0,0:0|0:0,0:0:0:0:
136,123,206407,2,0,P|184:118|202:75,1,96,10|0,0:0|0:0,0:0:0:0:
198,7,206677,1,2,0:0:0:0:
137,44,206812,1,0,0:0:0:0:
275,38,206947,1,2,0:0:0:0:
262,41,207082,2,0,B|298:33|298:33|317:46|317:46|352:39,2,96,2|0|2,0:0|0:0|0:0,0:0:0:0:
259,170,207488,5,0,3:2:0:0:
278,165,207623,1,2,0:0:0:0:
306,157,207758,1,0,0:0:0:0:
348,145,207893,1,2,0:0:0:0:
411,127,208028,6,0,B|425:173|425:173|443:233|488:252|537:251,1,192,0|0,3:0|0:0,0:0:0:0:
501,160,208434,1,0,0:0:0:0:
383,134,208569,2,0,B|400:178|400:178|425:235|403:279|368:307,1,192,2|0,3:2|0:0,0:0:0:0:
333,215,208974,1,0,0:0:0:0:
355,19,209109,5,0,3:0:0:0:
362,40,209245,2,0,L|398:129,1,96
462,317,209515,5,0,0:0:0:0:
436,117,209650,1,2,0:0:0:0:
364,145,209785,2,0,L|184:214,1,192
87,254,210190,5,4,3:1:0:0:
62,59,210461,1,2,0:0:0:0:
42,92,210596,1,0,0:0:0:0:
60,127,210731,2,0,P|129:61|82:27,1,96,10|0,0:0|0:0,0:0:0:0:
204,78,211001,2,0,P|230:40|276:37,1,96,2|0,0:0|0:0,0:0:0:0:
294,71,211272,1,2,3:2:0:0:
274,104,211407,1,0,0:0:0:0:
391,90,211542,5,0,0:0:0:0:
446,153,211677,1,0,0:0:0:0:
408,177,211812,1,10,3:2:0:0:
364,168,211947,1,2,0:0:0:0:
427,254,212082,2,0,B|378:284|332:265|339:252|297:224|225:255,1,192,2|0,3:2|3:0,0:0:0:0:
84,333,212488,1,0,0:0:0:0:
150,282,212623,5,2,0:0:0:0:
59,220,212758,1,0,0:0:0:0:
19,234,212893,1,8,0:0:0:0:
4,270,213028,1,0,0:0:0:0:
7,294,213163,1,2,0:2:0:0:
13,304,213298,1,0,0:0:0:0:
142,201,213434,6,0,P|133:154|105:115,1,96,2|0,3:2|0:0,0:0:0:0:
167,191,213704,2,0,P|139:152|130:105,1,96
109,84,213974,5,2,3:2:0:0:
96,32,214109,1,2,0:0:0:0:
104,58,214245,1,2,3:2:0:0:
5,156,214515,5,0,3:0:0:0:
30,240,214650,1,0,0:0:0:0:
56,323,214785,2,0,P|84:361|137:362,1,96,2|0,0:0|0:0,0:0:0:0:
40,282,215055,1,8,3:2:0:0:
110,263,215190,1,2,0:0:0:0:
162,201,215326,1,2,0:0:0:0:
137,117,215461,1,2,0:0:0:0:
204,143,215596,6,0,P|233:101|378:181,1,192,2|0,3:2|0:0,0:0:0:0:
330,319,216001,2,0,P|409:272|406:181,1,192,2|0,0:0|0:0,0:0:0:0:
329,188,216407,1,0,0:0:0:0:
438,110,216542,1,2,0:0:0:0:
301,167,216677,6,0,B|327:184|327:184|401:140|401:140|396:114|396:114|401:140|401:140|474:95|523:178|451:223|451:223|420:241,3,384,6|2|4|2,3:2|3:2|3:0|3:2,0:1:0:0:
244,78,218839,6,0,B|179:25|143:37|93:83|112:112|36:92,2,216.000008239746,6|2|2,3:2|0:0|0:0,0:0:0:0:
43,329,219920,2,0,B|74:289|38:260|59:198|119:206,1,144.000005493164,0|2,3:0|0:0,0:0:0:0:
26,206,220461,2,0,B|57:246|21:275|42:337|102:329,1,144.000005493164,2|0,0:0|0:0,0:0:0:0:
157,275,221001,6,0,B|237:316|222:239|314:287,1,144.000005493164,0|0,3:0|0:0,0:0:0:0:
362,312,221407,2,0,P|427:288|448:221,1,144.000005493164,2|0,0:0|0:0,0:0:0:0:
432,150,221812,1,0,0:0:0:0:
406,73,222082,5,2,3:2:0:0:
387,30,222352,1,0,3:0:0:0:
395,52,222623,1,0,3:1:0:0:
470,0,223163,6,0,B|485:50|485:50|498:93|465:122|437:130,1,144.000005493164,0|0,3:0|0:0,0:0:0:0:
368,145,223569,2,0,B|307:141|263:176|257:263|346:307,1,216.000008239746,2|2,0:0|0:0,0:0:0:0:
426,200,224244,1,0,3:0:0:0:
321,292,224515,1,2,0:0:0:0:
224,296,224785,1,0,0:0:0:0:
146,299,225055,1,0,3:0:0:0:
351,287,225326,6,0,B|372:259|389:259|393:182|388:130|315:107|262:170|308:213|397:229|470:183,2,288,2|2|0,3:2|3:2|0:0,0:0:0:0:
321,292,226407,5,2,3:2:0:0:
223,297,226677,1,0,3:0:0:0:
145,300,226947,1,0,3:0:0:0:
3,180,227488,6,0,B|24:201|24:201|105:175|105:175|106:134,1,144.000005493164,4|0,3:1|0:0,0:0:0:0:
178,166,227893,1,2,0:0:0:0:
251,187,228299,1,2,0:0:0:0:
163,69,228569,2,0,P|130:51|64:74,1,72.0000027465821,0|0,3:0|0:0,0:0:0:0:
40,109,228839,1,2,3:2:0:0:
83,268,229109,1,2,0:0:0:0:
123,177,229380,1,0,3:0:0:0:
166,336,229650,6,0,B|265:311|265:311|273:291|273:291|363:269,2,216.000008239746,0|2|0,3:2|0:0|0:0,0:0:0:0:
82,353,230731,1,2,3:2:0:0:
269,161,231001,1,0,0:0:0:0:
239,164,231272,1,0,3:0:0:0:
436,209,231542,1,0,3:0:0:0:
406,206,231812,6,0,P|334:223|224:244,1,144.000005493164,2|0,3:2|0:0,0:0:0:0:
189,210,232217,2,0,P|118:224|48:240,1,144.000005493164,2|0,3:2|0:0,0:0:0:0:
255,132,232623,2,0,P|226:215|335:355,1,216.000008239746,2|2,0:0|0:0,0:1:0:0:
364,372,233163,1,0,0:0:0:0:
373,302,233434,1,2,3:2:0:0:
351,249,233704,1,0,0:0:0:0:
329,228,233974,2,0,B|351:200|367:199|372:122|366:72|293:49|241:111|287:153|375:169|449:123,2,288,6|2|2,3:2|0:0|0:0,0:0:0:0:
185,188,235055,5,0,3:0:0:0:
97,24,235326,2,0,P|115:27|127:41,1,36.0000013732911,2|0,0:0|0:0,0:0:0:0:
52,196,235596,2,0,B|56:164|82:147|98:162|128:125,1,108.000004119873,4|0,3:1|0:0,0:0:0:0:
203,79,236136,6,0,L|190:82,1,9.6,4|0,1:0|0:0,0:0:0:0:
260,24,236542,6,2,B|251:-2|229:-20|229:-20|255:-8|266:22,1,112.500004291535,0|0,0:0|0:0,0:1:0:0:
276,102,236947,6,2,B|283:150|226:190|217:164|259:152,1,106.560002601563,2|0,3:0|0:0,0:1:0:0:
413,102,237217,6,0,P|450:66|500:76,1,106.560002601563,0|0,1:0|0:0,0:0:0:0:
479,165,237488,2,2,P|509:202|488:259,1,99.839999390625,0|0,0:0|0:0,0:1:0:0:
248,321,237758,2,2,B|305:308|318:258|318:258|329:205|385:193,1,200,2|0,3:0|0:0,0:0:0:0:
388,358,238163,1,0,0:0:0:0:
404,276,238299,2,2,B|343:307|277:277|313:234|227:201|160:244|159:293|197:348|249:321,2,334.080010195313,0|0|0,1:0|0:0|0:1,0:0:0:0:
256,116,239380,6,2,P|264:73|287:36,1,86.3999973632813,0|0,1:0|0:0,0:0:0:0:
362,65,239650,2,2,P|339:101|331:143,1,86.3999973632813,2|0,3:0|0:0,0:1:0:0:
400,175,239920,6,2,B|453:162|466:67|392:101|474:13|535:40|535:40|503:39|478:58|482:82|430:84,1,337.500012874604,2|0,3:0|0:0,0:0:0:0:
338,214,240461,6,0,L|332:223,1,9.6,4|0,1:0|0:0,0:0:0:0:
279,315,240866,6,2,B|247:332|252:352|216:395|245:347|266:343|273:307,1,120,0|0,0:0|0:0,0:1:0:0:
223,239,241272,6,2,B|188:208|209:210|194:188|194:188|219:203|223:180|257:219,1,120,2|0,3:0|0:0,0:1:0:0:
163,70,241542,6,0,B|171:41|206:-28|297:-61|337:-17|309:66|239:116|208:117,1,321.600001226807,0|2,1:0|0:1,0:0:0:0:
144,137,241947,1,0,0:0:0:0:
76,159,242082,2,2,B|48:158|-19:208|-49:294|-9:337|81:304|116:233|125:205,1,322.99999137497,2|0,3:0|0:0,0:0:0:0:
349,292,242623,6,2,B|357:267|357:267|326:282|326:282|354:263|314:203|262:202|262:202|210:252|243:300|266:321,2,296.639997510498,0|0|0,1:0|3:0|2:0,0:0:0:0:
430,218,243704,2,0,B|473:221|494:204,1,67.1999979492188,4|2,0:1|0:0,0:0:0:0:
333,361,244245,2,0,B|376:364|397:347,1,67.1999979492188,2|0,3:2|0:0,0:0:0:0:
328,100,244785,6,0,L|318:102,1,9.6,4|0,1:0|0:0,0:0:0:0:
277,23,245190,6,2,B|322:12|322:12|367:30,1,96,0|0,0:0|0:0,0:1:0:0:
446,46,245596,6,2,B|425:40|443:15|471:23|468:56|446:87|456:64|420:53|403:92|404:126|404:126,1,120,2|0,3:0|0:0,0:1:0:0:
357,180,245866,2,0,B|282:192|318:130|208:156,1,120,0|0,1:0|0:0,0:0:0:0:
141,59,246136,6,0,P|86:64|45:118,1,96,2|0,0:1|0:0,0:0:0:0:
167,134,246407,1,2,3:1:0:0:
167,134,246542,2,2,P|130:163|83:164,1,96,2|2,0:1|3:0,0:0:0:0:
45,319,246812,1,0,0:0:0:0:
18,280,246947,6,0,P|132:257|260:235,1,240,0|0,1:0|0:0,0:0:0:0:
32,301,247353,2,2,B|141:306|111:147|141:306|255:255,1,240,0|0,1:0|0:0,0:1:0:0:
423,209,247758,2,0,P|481:221|512:271,1,120,2|0,3:0|0:0,0:0:0:0:
452,360,248028,2,2,P|394:348|363:298,1,120,0|0,0:0|0:0,0:1:0:0:
312,162,248299,2,2,B|317:143|334:131|264:90|284:50|284:50|282:46|282:46|285:50|285:50|329:76|284:110|323:145,1,240,2|2,3:0|3:0,0:0:0:0:
274,377,248839,1,0,0:0:0:0:
35,85,249109,6,0,L|25:89,1,9.6,4|0,1:0|0:0,0:0:0:0:
0,103,249515,6,2,L|112:147,1,120,0|0,0:0|0:0,0:1:0:0:
131,225,249920,6,2,B|115:239|98:251|62:239|62:239|19:221,1,120,2|0,3:0|0:0,0:1:0:0:
224,203,250190,6,0,B|245:178|221:175|259:140|259:140|216:162|217:205,1,144.000005493164,0|2,1:0|0:1,0:0:0:0:
190,292,250596,1,0,0:0:0:0:
196,289,250731,2,2,B|220:311|223:287|258:325|258:325|236:282|193:283,1,144.000005493164,2|0,3:0|0:0,0:1:0:0:
245,140,251272,6,2,B|231:118|265:93|279:118|299:90|329:104|337:149|323:166|321:202|255:177|252:208|252:208|250:204|250:204|249:201|249:201|245:200|245:200|245:197|245:197|243:196|243:196|240:196|240:196|238:193|238:193|235:193|235:193|233:192|233:192|230:192|230:192|228:191|228:191|227:191|227:191|224:191|224:191|222:191|222:191|221:188|221:188|219:189|219:189|214:185|214:185|214:188|214:188|210:187|210:187|208:184|208:184|206:181|206:181|204:184|204:184|201:180|201:180|202:182|202:182|199:179|199:179|197:177|197:177|198:175|198:175|195:173|195:173|194:169|194:169|192:170|192:170|191:166|191:166|192:163|192:163|189:163|189:163|190:159|190:159|187:158|187:158|189:155|189:155|187:155|187:155|189:151|189:151|186:151|186:151|187:149|187:149|187:147|187:147|184:145|184:145|187:143|187:143|185:140|185:140|186:139|186:139|188:137|188:137|186:135|186:135|190:133|190:133|187:132|187:132|191:130|191:130|189:128|189:128|191:128|191:128|190:126|190:126|193:124|193:124|193:122|193:122|195:121|195:121|195:119|195:119|198:118|198:118|199:116|199:116|199:115|199:115|201:112|201:112|203:114|203:114|205:111|205:111|205:114|205:114|208:109|208:109|209:110|209:110|210:108|210:108|212:110|212:110|214:108|214:108|215:110|215:110|218:108|218:108|221:109|221:109|221:106|221:106|223:108|223:108|226:109|226:109|227:106|227:106|228:108|228:108|230:109|230:109|232:106|232:106|233:109|233:109|234:107|234:107|236:109|236:109|239:108|239:108|238:109|238:109|240:109|240:109|241:111|241:111|243:109|243:109|243:112|243:112|245:110|245:110|246:111|246:111|247:113|247:113|249:111|249:111|251:114|251:114|252:111|252:111|254:114|254:114|252:115|252:115|255:114|255:114|254:116|254:116|257:116|257:116|256:118|256:118|257:117|257:117|257:119|257:119|259:119|259:119|258:121|258:121|260:121|260:121|259:123|259:123|260:122|260:122|259:124|259:124|261:124|261:124|259:126|259:126|260:126|260:126|259:128|259:128|261:127|261:127|259:130|259:130|261:130|261:130|258:132|258:132|261:132|261:132|258:134|258:134|260:134|260:134|258:136|258:136|260:135|260:135|258:138|258:138|260:136|260:136|258:139|258:139|259:138|259:138|258:140|258:140|257:140|257:140,2,576,0|0|2,1:0|0:0|0:0,0:0:0:0:
0,209,252353,6,2,B|1:235|37:252|61:246|61:246|98:234|187:240|170:359,1,249.599988574219,4|2,1:0|0:0,0:1:0:0:
512,209,252893,2,2,B|511:235|475:252|451:246|451:246|414:234|325:240|342:359,1,249.599988574219,4|2,3:0|0:0,0:0:0:0:
256,204,253444,5,0,3:0:0:0:
332,179,253849,1,0,3:0:0:0:
408,154,254254,1,0,3:0:0:0:
457,257,254795,1,4,3:0:0:0:
479,97,255065,1,4,3:0:0:0:
378,290,255606,6,0,L|384:266,1,24,2|0,3:2|0:0,0:0:0:0:
384,267,255741,2,0,L|311:282,1,72,2|0,0:0|0:0,0:0:0:0:
244,307,256011,2,0,L|173:321,1,72,2|0,3:2|0:0,0:0:0:0:
117,272,256281,2,0,L|69:262,2,48,2|0|0,0:0|3:0|0:0,0:0:0:0:
5,198,256687,1,0,0:0:0:0:
39,120,256822,1,2,0:0:0:0:
73,42,256957,1,4,3:0:0:0:
73,42,257227,1,4,3:0:0:0:
39,347,257498,6,0,L|56:339,1,12,8|0,0:0|0:0,0:0:0:0:
157,197,257768,6,0,B|229:187|229:187|232:183|232:183|298:174,1,144,4|0,3:1|3:0,0:0:0:0:
400,31,258444,5,2,0:0:0:0:
421,104,258579,1,2,3:2:0:0:
373,162,258714,1,0,0:0:0:0:
298,174,258849,2,0,P|281:145|281:110,1,48,2|0,0:0|0:0,0:0:0:0:
331,0,259119,2,0,P|302:16|283:45,1,48,4|0,3:0|0:0,0:0:0:0:
342,87,259389,1,4,3:0:0:0:
342,87,259660,1,2,0:0:0:0:
169,57,259930,5,2,3:2:0:0:
93,40,260065,2,0,B|81:64|81:64|52:62,1,48
17,23,260335,2,0,L|42:131,1,96,0|0,3:0|0:0,0:0:0:0:
119,129,260741,1,2,3:2:0:0:
58,227,261011,2,0,B|94:211|94:243|138:227,1,72,2|0,0:0|0:0,0:0:0:0:
197,206,261281,6,0,P|232:221|242:271,1,72,4|0,3:0|0:0,0:0:0:0:
216,319,261552,1,4,3:0:0:0:
121,327,261822,6,0,L|132:314,1,12,8|0,0:0|0:0,0:0:0:0:
268,155,262092,6,0,L|339:73,1,96,0|2,3:0|0:0,0:0:0:0:
380,23,262498,1,0,3:0:0:0:
439,209,262768,1,2,0:0:0:0:
381,163,262903,1,0,3:0:0:0:
404,93,263038,1,0,0:0:0:0:
468,134,263173,6,0,P|501:100|500:54,1,96,2|4,0:0|3:0,0:0:0:0:
489,25,263714,1,4,3:0:0:0:
489,25,263984,1,2,0:0:0:0:
313,89,264254,5,2,3:2:0:0:
239,71,264389,2,0,L|141:50,1,96,0|2,0:0|3:2,0:0:0:0:
71,30,264795,1,2,0:0:0:0:
88,104,264929,1,0,0:0:0:0:
46,209,265064,1,2,3:2:0:0:
64,279,265199,1,0,0:0:0:0:
118,226,265335,2,0,P|142:197|135:152,1,72.0000027465821,2|0,0:0|0:0,0:0:0:0:
85,352,265606,1,4,3:0:0:0:
136,296,265741,2,0,P|159:322|159:357,1,72.0000027465821,0|4,0:0|3:0,0:0:0:0:
17,80,266146,6,0,L|1:64,1,18.0000006866455,8|0,0:0|0:0,0:0:0:0:
285,216,266416,6,0,B|383:196|383:196|336:175,1,144.000005493164,2|0,3:2|0:0,0:0:0:0:
207,234,266822,1,0,3:0:0:0:
444,152,267092,1,2,0:0:0:0:
459,209,267227,1,0,3:0:0:0:
439,245,267362,1,0,0:0:0:0:
281,143,267498,2,0,P|295:94|333:82,1,72.0000027465821,0|2,0:0|0:0,0:0:0:0:
429,16,267768,2,0,P|426:51|400:75,1,72.0000027465821,4|0,3:0|0:0,0:0:0:0:
355,80,268038,1,4,3:0:0:0:
222,56,268173,5,2,0:0:0:0:
155,76,268308,1,0,0:0:0:0:
101,25,268443,1,0,0:2:0:0:
19,47,268579,6,0,L|48:187,1,144.000005493164,0|0,3:0|0:0,0:0:0:0:
172,302,268984,2,0,L|201:161,1,144.000005493164,0|0,3:0|0:0,0:0:0:0:
325,47,269389,2,0,L|354:187,1,144.000005493164,0|0,3:0|0:0,0:0:0:0:
339,294,269795,5,2,0:0:0:0:
417,334,269930,1,4,3:0:0:0:
369,332,270065,1,2,0:0:0:0:
408,255,270200,2,0,P|459:252|492:321,1,108.000004119873,4|0,3:0|0:0,0:0:0:0:
286,233,270471,6,0,L|245:246,1,36.0000013732911,8|0,0:0|0:0,0:0:0:0:
