osu file format v14

[General]
AudioFilename: Out of Step.mp3
AudioLeadIn: 0
PreviewTime: 110048
Countdown: 1
SampleSet: Normal
StackLeniency: 0.7
Mode: 0
LetterboxInBreaks: 0
WidescreenStoryboard: 0

[Editor]
Bookmarks: 4430,12636
DistanceSpacing: 0.4
BeatDivisor: 4
GridSize: 4
TimelineZoom: 2.100006

[Metadata]
Title:Out of Step
TitleUnicode:Out of Step
Artist:wowaka
ArtistUnicode:wowaka
Creator:Sakshi
Version:Insane
Source:
Tags:
BeatmapID:872018
BeatmapSetID:400807

[Difficulty]
HPDrainRate:7
CircleSize:4
OverallDifficulty:8
ApproachRate:9.3
SliderMultiplier:2
SliderTickRate:1

[Events]
//Background and Video events
0,0,"black.jpg",0,0
//Break Periods
//Storyboard Layer 0 (Background)
//Storyboard Layer 1 (Fail)
//Storyboard Layer 2 (Pass)
//Storyboard Layer 3 (Foreground)
//Storyboard Sound Samples

[TimingPoints]
2754,352.941176470588,4,1,0,100,1,0
8401,-86.9565217391304,4,1,0,100,0,0

[HitObjects]
160,96,2754,5,0,0:0:0:0:
260,252,2931,1,0,0:0:0:0:
148,312,3106,1,0,0:3:0:0:
80,284,3195,1,0,0:3:0:0:
44,220,3283,1,0,0:3:0:0:
56,144,3371,1,0,0:3:0:0:
116,96,3460,1,0,0:3:0:0:
148,312,3636,2,0,P|201:326|244:317,2,100
304,92,4165,5,0,0:0:0:0:
260,252,4342,1,0,0:0:0:0:
364,312,4518,1,0,0:3:0:0:
432,284,4607,1,0,0:3:0:0:
468,220,4695,1,0,0:3:0:0:
456,144,4783,1,0,0:3:0:0:
396,96,4872,1,0,0:3:0:0:
364,311,5048,2,0,P|316:325|267:317,2,100
256,32,5577,5,0,0:0:0:0:
256,192,5753,1,0,0:0:0:0:
172,100,5930,1,0,0:0:0:0:
102,128,6018,1,0,0:0:0:0:
69,195,6106,1,0,0:0:0:0:
88,266,6195,1,0,0:0:0:0:
148,310,6283,1,0,0:0:0:0:
248,96,6459,2,0,P|224:44|188:16,2,100
256,352,6989,5,0,0:0:0:0:
256,192,7165,1,0,0:0:0:0:
340,284,7342,1,0,0:0:0:0:
410,256,7430,1,0,0:0:0:0:
443,189,7518,1,0,0:0:0:0:
424,118,7607,1,0,0:0:0:0:
364,74,7695,1,0,0:0:0:0:
264,288,7871,2,0,P|288:340|324:368,2,100
48,200,8401,6,0,L|48:316,1,115.000002193451
120,320,8753,1,0,0:0:0:0:
164,264,8842,1,0,0:0:0:0:
232,264,8930,1,0,0:0:0:0:
300,264,9018,1,0,0:0:0:0:
340,320,9106,2,0,P|368:267|344:212,1,115.000002193451
350,218,9371,1,0,0:0:0:0:
350,218,9459,1,0,0:0:0:0:
192,88,9636,5,0,0:0:0:0:
92,164,9812,1,0,0:0:0:0:
204,224,9989,1,0,0:0:0:0:
192,88,10165,1,0,0:0:0:0:
148,32,10253,1,0,0:0:0:0:
80,24,10342,1,0,0:0:0:0:
32,72,10430,1,0,0:0:0:0:
32,140,10518,1,0,0:0:0:0:
16,276,10695,1,0,0:0:0:0:
120,248,10871,2,0,B|108:220|132:188|132:188|108:120|120:80,1,172.500003290176
196,96,11224,6,0,P|201:151|248:184,1,115.000002193451,0|0,2:0|0:0,0:0:0:0:
360,168,11577,1,0,0:0:0:0:
380,100,11665,1,0,0:0:0:0:
332,48,11753,1,0,0:0:0:0:
264,56,11842,1,0,0:0:0:0:
228,116,11930,2,0,L|290:223,2,115.000002193451
80,108,12459,5,0,0:0:0:0:
60,244,12636,2,0,P|65:299|112:332,1,115.000002193451,0|0,2:0|0:0,0:0:0:0:
224,316,12989,1,0,0:0:0:0:
244,248,13077,1,0,0:0:0:0:
196,196,13165,1,0,0:0:0:0:
128,204,13254,1,0,0:0:0:0:
92,264,13342,2,0,L|154:371,2,115.000002193451
152,128,13871,5,0,0:0:0:0:
152,128,13959,1,0,0:0:0:0:
156,132,14048,1,0,0:0:0:0:
256,252,14224,5,0,0:0:0:0:
368,88,14401,1,0,0:0:0:0:
368,112,14489,1,0,0:0:0:0:
368,136,14577,1,0,0:0:0:0:
368,160,14665,1,0,0:0:0:0:
368,184,14753,1,0,0:0:0:0:
256,152,14930,1,0,0:0:0:0:
452,240,15106,2,0,L|452:8,1,230.000004386902
