osu file format v14

[General]
AudioFilename: audio.mp3
AudioLeadIn: 0
PreviewTime: -1
Countdown: 1
SampleSet: Normal
StackLeniency: 0.7
Mode: 0
LetterboxInBreaks: 0
WidescreenStoryboard: 0

[Editor]
DistanceSpacing: 1.6
BeatDivisor: 4
GridSize: 4
TimelineZoom: 1.7

[Metadata]
Title:hebrew
TitleUnicode:hebrew
Artist:wow wow wubzzy
ArtistUnicode:wow wow wubzzy
Creator:Retnuh
Version:yoink
Source:
Tags:
BeatmapID:1743396
BeatmapSetID:832137

[Difficulty]
HPDrainRate:0
CircleSize:4
OverallDifficulty:7
ApproachRate:9.3
SliderMultiplier:1.4
SliderTickRate:1

[Events]
//Background and Video events
0,0,"wow.png",0,0
//Break Periods
//Storyboard Layer 0 (Background)
//Storyboard Layer 1 (Fail)
//Storyboard Layer 2 (Pass)
//Storyboard Layer 3 (Foreground)
//Storyboard Sound Samples

[TimingPoints]
2111.89665603806,319.148936170213,4,1,0,100,1,0
5223,-66.6666666666667,4,1,0,100,0,0
5622,-80,4,1,0,100,0,0
5941,-66.6666666666667,4,1,0,100,0,0
6420,-80,4,1,0,100,0,0

[HitObjects]
256,192,37,12,0,1074,0:0:0:0:
56,120,1393,6,0,P|44:228|76:296,1,175
456,120,2111,6,0,P|468:228|436:296,1,175
256,36,2750,6,0,L|256:80,2,35
396,140,3069,2,0,L|348:196,1,70
144,256,3388,2,0,L|200:332,1,70
408,336,3707,5,0,0:0:0:0:
504,240,3867,2,0,L|448:164,1,70
292,168,4186,1,0,0:0:0:0:
364,44,4345,1,0,0:0:0:0:
208,176,4505,2,0,L|148:240,1,70
16,244,4824,1,0,0:0:0:0:
160,284,4984,1,0,0:0:0:0:
0,352,5143,1,0,0:0:0:0:
192,364,5303,2,0,P|244:328|252:264,1,131.25
200,24,5702,2,0,P|148:60|145:115,1,87.5
472,32,6021,2,0,P|448:91|334:118,1,175
416,248,6420,5,0,0:0:0:0:
404,352,6579,1,0,0:0:0:0:
320,176,6739,2,0,P|256:168|228:188,1,87.5
124,364,7058,1,0,0:0:0:0:
176,148,7218,1,0,0:0:0:0:
8,348,7377,1,0,0:0:0:0:
108,112,7537,2,0,P|168:72|204:80,1,87.5
264,312,7856,2,0,P|336:284|340:272,1,87.5
464,24,8175,2,0,P|489:58|482:100,1,87.5
176,212,8494,6,0,P|196:304|292:336,1,175
56,300,9133,5,0,0:0:0:0:
216,68,9452,1,0,0:0:0:0:
204,360,9771,2,0,P|288:352|332:272,1,175
448,24,10409,2,0,P|376:72|360:60,1,87.5
184,208,10728,2,0,P|156:168|164:124,1,87.5
264,32,11048,1,0,0:0:0:0:
364,256,11367,1,0,0:0:0:0:
436,48,11686,5,0,0:0:0:0:
416,40,11845,1,0,0:0:0:0:
396,32,12005,1,0,0:0:0:0:
484,236,12165,2,0,P|440:252|396:228,1,87.5
248,24,12484,2,0,P|204:76|212:112,1,87.5
368,336,12962,5,0,0:0:0:0:
268,252,13122,1,0,0:0:0:0:
280,368,13282,1,0,0:0:0:0:
156,296,13441,2,0,L|168:180,1,87.5
64,48,13920,2,0,L|160:32,1,87.5
240,120,14239,1,0,0:0:0:0:
240,120,14399,1,0,0:0:0:0:
424,200,14558,2,0,L|324:228,1,87.5
104,244,14877,2,0,P|116:328|160:352,1,131.25
356,375,15276,2,0,P|386:360|403:341,2,43.75
464,196,15595,2,0,P|468:144|436:104,1,87.5
284,128,15915,2,0,P|252:28|196:188,1,437.5
396,336,16872,5,0,0:0:0:0:
192,236,17191,1,0,0:0:0:0:
480,300,17431,1,0,0:0:0:0:
212,140,17750,1,0,0:0:0:0:
480,88,18069,2,0,P|456:36|412:32,1,87.5
392,132,18468,2,0,P|396:188|436:204,1,87.5
496,340,18787,2,0,P|424:356|376:344,2,87.5
348,197,19345,5,0,0:0:0:0:
434,119,19505,1,0,0:0:0:0:
255,185,19665,2,0,P|304:115|310:89,1,87.5
161,0,19984,2,0,P|92:26|80:44,1,87.5
22,185,20303,1,0,0:0:0:0:
22,185,20462,1,0,0:0:0:0:
122,369,20622,2,0,L|214:346,1,87.5
257,195,20941,5,0,0:0:0:0:
257,195,21101,1,0,0:0:0:0:
475,29,21260,2,0,L|385:67,1,87.5
143,4,21579,2,0,P|121:49|114:95,1,87.5
199,255,21899,1,0,0:0:0:0:
308,81,22058,1,0,0:0:0:0:
466,228,22218,6,0,P|474:277|441:308,1,87.5
236,101,22537,2,0,P|228:52|261:21,1,87.5
451,303,22856,2,0,P|416:338|372:331,1,87.5
250,25,23175,2,0,P|291:-2|333:15,1,87.5
381,336,23494,2,0,P|340:364|298:348,1,87.5
324,7,23814,2,0,P|356:44|291:192,1,218.75
91,49,24532,5,0,0:0:0:0:
215,275,24851,1,0,0:0:0:0:
346,28,25090,1,0,0:0:0:0:
93,217,25409,1,0,0:0:0:0:
462,169,25728,1,0,0:0:0:0:
129,59,26047,1,0,0:0:0:0:
245,350,26367,1,0,0:0:0:0:
366,21,26686,1,0,0:0:0:0:
486,266,27005,2,0,P|450:312|416:330,1,87.5
305,81,27324,2,0,P|341:35|375:17,1,87.5
467,172,27643,1,0,0:0:0:0:
467,172,27803,1,0,0:0:0:0:
389,347,27962,2,0,L|297:343,1,87.5
10,221,28282,2,0,P|43:139|65:121,1,87.5
362,51,28601,1,0,0:0:0:0:
318,241,28760,1,0,0:0:0:0:
211,97,28920,2,0,P|135:113|211:116,1,218.75
471,246,29558,5,0,0:0:0:0:
238,355,29877,1,0,0:0:0:0:
428,69,30197,1,0,0:0:0:0:
127,307,30516,1,0,0:0:0:0:
495,154,30835,1,0,0:0:0:0:
117,123,31154,1,0,0:0:0:0:
396,323,31473,1,0,0:0:0:0:
198,8,31792,1,0,0:0:0:0:
29,178,32111,6,0,P|60:224|92:233,1,87.5
134,58,32431,1,0,0:0:0:0:
134,58,32590,1,0,0:0:0:0:
202,225,32750,2,0,P|256:232|285:214,1,87.5
322,17,33069,2,0,P|407:25|412:49,1,87.5
472,164,33388,1,0,0:0:0:0:
472,164,33548,1,0,0:0:0:0:
472,164,33707,2,0,P|462:206|401:297,1,131.25
56,355,34106,2,0,P|66:313|127:222,1,131.25
368,15,34665,5,0,0:0:0:0:
110,237,34984,1,0,0:0:0:0:
408,152,35303,1,0,0:0:0:0:
96,26,35622,1,0,0:0:0:0:
273,253,35941,1,0,0:0:0:0:
206,0,36260,1,0,0:0:0:0:
179,331,36579,1,0,0:0:0:0:
383,28,36899,1,0,0:0:0:0:
433,346,37218,2,0,L|381:355,1,43.75
320,20,37537,2,0,L|295:67,1,43.75
13,257,37856,6,0,P|76:311|90:303,1,87.5
63,313,38175,6,0,P|142:288|142:272,1,87.5
254,10,38494,2,0,L|291:45,1,43.75
493,276,38814,2,0,L|448:294,1,43.75
143,304,39133,6,0,P|68:267|70:251,1,87.5
71,279,39452,2,0,P|62:196|77:189,1,87.5
256,192,39771,12,0,41526,0:0:0:0:
