osu file format v14

[General]
AudioFilename: audio.mp3
AudioLeadIn: 0
PreviewTime: 49583
Countdown: 0
SampleSet: Normal
StackLeniency: 0.7
Mode: 1
LetterboxInBreaks: 0
WidescreenStoryboard: 1

[Editor]
Bookmarks: 11224,42698,50567,87944,111550,127288,150895,158764,182370
DistanceSpacing: 1
BeatDivisor: 6
GridSize: 32
TimelineZoom: 1.699999

[Metadata]
Title:jelly girl
TitleUnicode:jelly girl
Artist:wotoha
ArtistUnicode:をとは
Creator:tasuke912
Version:Futsuu
Source:
Tags:osu! electronic japanese featured artist mappers' guild mg Mitsuki Neu ଳ 海月ねう fa masaichiro law of lily jpop j-pop
BeatmapID:3152672
BeatmapSetID:1542359

[Difficulty]
HPDrainRate:6
CircleSize:2
OverallDifficulty:3
ApproachRate:5
SliderMultiplier:1.4
SliderTickRate:1

[Events]
//Background and Video events
0,0,"bg_jellygirl.png",0,75
//Break Periods
2,164619,173301
//Storyboard Layer 0 (Background)
//Storyboard Layer 1 (Fail)
//Storyboard Layer 2 (Pass)
//Storyboard Layer 3 (Foreground)
//Storyboard Layer 4 (Overlay)
//Storyboard Sound Samples

[TimingPoints]
1387,491.803278688525,4,1,0,40,1,0
3231,-100,4,1,0,60,0,0
15075,-100,4,1,0,80,0,0
17126,-100,4,1,0,40,0,0
19032,-100,4,1,0,80,0,0
32985,-100,4,1,0,30,0,0
34706,-100,4,1,0,80,0,0
48600,-100,4,1,0,40,0,0
49522,-100,4,1,0,80,0,0
50567,-62.5,4,1,0,80,0,1
64829,-68.9655172413793,4,1,0,80,0,1
65813,-71.4285714285714,4,1,0,80,0,1
66059,-74.0740740740741,4,1,0,80,0,1
66305,-76.9230769230769,4,1,0,80,0,1
66427,-76.9230769230769,4,1,0,80,0,1
78108,-76.9230769230769,4,1,0,80,0,0
78600,-81.9672131147541,4,1,0,80,0,0
78846,-84.7457627118644,4,1,0,80,0,0
79337,-90.0900900900901,4,1,0,80,0,0
79829,-96.1538461538461,4,1,0,80,0,0
80075,-100,4,1,0,80,0,0
111489,-117.647058823529,4,1,0,80,0,0
119419,-100,4,1,0,80,0,0
127288,-100,4,1,0,80,0,0
141059,-100,4,1,0,60,0,0
142903,-100,4,1,0,80,0,0
148927,-100,4,1,0,70,0,0
150731,-100,4,1,0,80,0,0
162759,-100,4,1,0,60,0,0
163682,-100,4,1,0,30,0,0
164665,-100,4,1,0,50,0,0
166632,-100,4,1,0,60,0,0
180403,-100,4,1,0,80,0,0
181632,-76.9230769230769,4,1,0,80,0,0
181878,-71.4285714285714,4,1,0,80,0,0
182124,-66.6666666666667,4,1,0,80,0,0
182370,-62.5,4,1,0,80,0,1
197370,-68.9655172413793,4,1,0,80,0,1
197616,-71.4285714285714,4,1,0,80,0,1
197862,-74.0740740740741,4,1,0,80,0,1
198108,-76.9230769230769,4,1,0,80,0,1
209911,-76.9230769230769,4,1,0,80,0,0
210403,-81.9672131147541,4,1,0,80,0,0
210649,-84.7457627118644,4,1,0,80,0,0
211141,-90.9090909090909,4,1,0,80,0,0
211632,-97.0873786407767,4,1,0,80,0,0
211878,-100,4,1,0,80,0,0
217534,-66.6666666666667,4,1,0,80,0,0

[HitObjects]
256,192,1387,12,0,3108,0:0:0:0:
256,192,3354,5,2,0:0:0:0:
256,192,4337,1,2,0:0:0:0:
256,192,4731,1,2,0:0:0:0:
256,192,5321,1,2,0:0:0:0:
256,192,6305,1,2,0:0:0:0:
256,192,6698,1,2,0:0:0:0:
256,192,7288,1,2,0:0:0:0:
256,192,8272,1,2,0:0:0:0:
256,192,8665,1,2,0:0:0:0:
256,192,9255,1,2,0:0:0:0:
256,192,10239,1,2,0:0:0:0:
256,192,10632,1,2,0:0:0:0:
256,192,11223,5,0,0:0:0:0:
256,192,12206,1,0,0:0:0:0:
256,192,12616,1,0,0:0:0:0:
256,192,13190,1,2,0:0:0:0:
256,192,14173,1,2,0:0:0:0:
256,192,14583,1,2,0:0:0:0:
256,192,15157,1,4,0:0:0:0:
256,192,15649,1,4,0:0:0:0:
256,192,15895,1,4,0:0:0:0:
256,192,16632,1,4,0:0:0:0:
256,192,16878,1,6,0:0:0:0:
256,192,17124,12,0,18600,0:0:0:0:
256,192,19091,5,4,0:0:0:0:
256,192,19583,1,2,0:0:0:0:
256,192,20075,1,0,0:0:0:0:
256,192,20321,1,0,0:0:0:0:
256,192,20567,1,2,0:0:0:0:
256,192,21059,1,0,0:0:0:0:
256,192,21550,1,2,0:0:0:0:
256,192,22042,1,2,0:0:0:0:
256,192,22288,1,2,0:0:0:0:
256,192,22534,1,0,0:0:0:0:
256,192,23026,1,0,0:0:0:0:
256,192,23518,1,2,0:0:0:0:
256,192,24009,1,0,0:0:0:0:
256,192,24255,1,0,0:0:0:0:
256,192,24501,1,2,0:0:0:0:
256,192,24747,1,2,0:0:0:0:
256,192,24993,1,0,0:0:0:0:
256,192,25485,1,2,0:0:0:0:
256,192,25977,1,0,0:0:0:0:
256,192,26960,1,4,0:0:0:0:
256,192,27452,1,2,0:0:0:0:
256,192,27944,1,0,0:0:0:0:
256,192,28190,1,0,0:0:0:0:
256,192,28436,1,2,0:0:0:0:
256,192,28927,1,0,0:0:0:0:
256,192,29419,1,2,0:0:0:0:
256,192,29911,1,2,0:0:0:0:
256,192,30157,1,2,0:0:0:0:
256,192,30403,1,0,0:0:0:0:
256,192,30895,1,2,0:0:0:0:
256,192,31387,1,0,0:0:0:0:
256,192,31632,1,0,0:0:0:0:
256,192,32370,1,0,0:0:0:0:
256,192,32616,1,6,0:0:0:0:
256,192,34829,5,2,0:0:0:0:
256,192,35813,1,2,0:0:0:0:
256,192,36796,1,2,0:0:0:0:
256,192,37288,1,2,0:0:0:0:
256,192,37780,1,2,0:0:0:0:
256,192,38764,1,2,0:0:0:0:
256,192,39747,1,2,0:0:0:0:
256,192,40731,1,2,0:0:0:0:
256,192,41223,1,2,0:0:0:0:
256,192,41714,1,2,0:0:0:0:
256,192,42944,1,0,0:0:0:0:
256,192,43436,1,0,0:0:0:0:
256,192,43927,1,2,0:0:0:0:
256,192,44419,1,2,0:0:0:0:
256,192,44911,1,0,0:0:0:0:
256,192,45403,1,0,0:0:0:0:
256,192,45895,1,2,0:0:0:0:
256,192,46387,1,2,0:0:0:0:
256,192,46632,1,0,0:0:0:0:
256,192,47124,1,0,0:0:0:0:
256,192,47370,1,0,0:0:0:0:
256,192,48108,1,0,0:0:0:0:
256,192,48354,1,2,0:0:0:0:
256,192,49583,1,0,0:0:0:0:
256,192,49829,1,2,0:0:0:0:
256,192,50075,1,2,0:0:0:0:
256,192,50567,1,4,0:0:0:0:
256,192,51059,1,0,0:0:0:0:
256,192,51305,1,2,0:0:0:0:
256,192,51550,1,0,0:0:0:0:
256,192,52042,1,2,0:0:0:0:
256,192,52534,1,0,0:0:0:0:
256,192,53026,1,0,0:0:0:0:
256,192,53272,1,0,0:0:0:0:
256,192,53518,1,2,0:0:0:0:
256,192,54009,1,2,0:0:0:0:
256,192,54501,1,0,0:0:0:0:
256,192,54993,1,2,0:0:0:0:
256,192,55485,1,0,0:0:0:0:
256,192,55731,1,2,0:0:0:0:
256,192,55977,1,2,0:0:0:0:
256,192,56468,1,0,0:0:0:0:
256,192,56714,1,0,0:0:0:0:
256,192,56960,1,2,0:0:0:0:
256,192,57206,1,0,0:0:0:0:
256,192,57452,1,2,0:0:0:0:
256,192,58436,1,4,0:0:0:0:
256,192,58927,1,0,0:0:0:0:
256,192,59173,1,2,0:0:0:0:
256,192,59419,1,0,0:0:0:0:
256,192,59911,1,2,0:0:0:0:
256,192,60403,1,0,0:0:0:0:
256,192,60649,1,0,0:0:0:0:
256,192,60895,1,2,0:0:0:0:
256,192,61141,1,2,0:0:0:0:
256,192,61387,1,0,0:0:0:0:
256,192,62124,1,2,0:0:0:0:
256,192,62370,1,0,0:0:0:0:
256,192,62616,1,0,0:0:0:0:
256,192,62862,1,0,0:0:0:0:
256,192,63108,1,2,0:0:0:0:
256,192,63600,1,2,0:0:0:0:
256,192,64091,1,4,0:0:0:0:
256,192,65567,1,2,0:0:0:0:
256,192,65813,1,2,0:0:0:0:
256,192,66059,1,2,0:0:0:0:
256,192,66305,1,4,0:0:0:0:
256,192,66796,1,0,0:0:0:0:
256,192,67042,1,2,0:0:0:0:
256,192,67288,1,0,0:0:0:0:
256,192,67780,1,2,0:0:0:0:
256,192,68272,1,0,0:0:0:0:
256,192,68764,1,2,0:0:0:0:
256,192,69009,1,0,0:0:0:0:
256,192,69255,1,2,0:0:0:0:
256,192,69747,1,2,0:0:0:0:
256,192,70239,1,0,0:0:0:0:
256,192,70731,1,2,0:0:0:0:
256,192,71223,1,0,0:0:0:0:
256,192,71468,1,0,0:0:0:0:
256,192,71714,1,2,0:0:0:0:
256,192,72206,1,0,0:0:0:0:
256,192,72452,1,0,0:0:0:0:
256,192,72698,1,2,0:0:0:0:
256,192,72944,1,0,0:0:0:0:
256,192,73190,1,2,0:0:0:0:
256,192,74173,1,0,0:0:0:0:
256,192,74665,1,2,0:0:0:0:
256,192,74911,1,2,0:0:0:0:
256,192,75157,1,0,0:0:0:0:
256,192,75649,1,0,0:0:0:0:
256,192,75895,1,6,0:0:0:0:
256,192,76387,1,2,0:0:0:0:
256,192,76632,1,2,0:0:0:0:
256,192,76878,1,4,0:0:0:0:
256,192,77862,1,2,0:0:0:0:
256,192,78108,1,0,0:0:0:0:
256,192,78600,1,0,0:0:0:0:
256,192,78846,1,2,0:0:0:0:
256,192,79337,1,2,0:0:0:0:
256,192,79829,1,2,0:0:0:0:
256,192,80075,1,0,0:0:0:0:
256,192,80567,5,0,0:0:0:0:
256,192,81550,1,0,0:0:0:0:
256,192,82534,1,0,0:0:0:0:
256,192,83518,1,0,0:0:0:0:
256,192,84009,1,2,0:0:0:0:
256,192,84501,1,0,0:0:0:0:
256,192,85485,1,0,0:0:0:0:
256,192,86468,1,0,0:0:0:0:
256,192,87452,1,2,0:0:0:0:
256,192,87944,1,0,0:0:0:0:
256,192,88190,1,2,0:0:0:0:
256,192,88682,1,2,0:0:0:0:
256,192,89173,1,0,0:0:0:0:
256,192,89419,1,2,0:0:0:0:
256,192,89911,1,0,0:0:0:0:
256,192,90157,1,2,0:0:0:0:
256,192,90649,1,2,0:0:0:0:
256,192,91141,1,0,0:0:0:0:
256,192,91387,1,2,0:0:0:0:
256,192,91878,1,0,0:0:0:0:
256,192,92370,1,0,0:0:0:0:
256,192,92616,1,0,0:0:0:0:
256,192,93354,1,0,0:0:0:0:
256,192,93600,1,2,0:0:0:0:
256,192,95075,1,2,0:0:0:0:
256,192,95321,1,2,0:0:0:0:
256,192,95813,5,4,0:0:0:0:
256,192,96305,1,2,0:0:0:0:
256,192,96797,1,0,0:0:0:0:
256,192,97043,1,0,0:0:0:0:
256,192,97289,1,2,0:0:0:0:
256,192,97781,1,0,0:0:0:0:
256,192,98272,1,2,0:0:0:0:
256,192,98764,1,0,0:0:0:0:
256,192,99010,1,0,0:0:0:0:
256,192,99256,1,2,0:0:0:0:
256,192,99501,1,2,0:0:0:0:
256,192,99748,1,0,0:0:0:0:
256,192,100240,1,2,0:0:0:0:
256,192,100731,1,2,0:0:0:0:
256,192,100977,1,2,0:0:0:0:
256,192,101223,1,0,0:0:0:0:
256,192,101714,1,2,0:0:0:0:
256,192,102206,1,0,0:0:0:0:
256,192,102699,1,2,0:0:0:0:
256,192,103682,1,4,0:0:0:0:
256,192,104174,1,2,0:0:0:0:
256,192,104666,1,0,0:0:0:0:
256,192,104912,1,0,0:0:0:0:
256,192,105158,1,2,0:0:0:0:
256,192,105649,1,0,0:0:0:0:
256,192,106141,1,2,0:0:0:0:
256,192,106633,1,2,0:0:0:0:
256,192,106879,1,2,0:0:0:0:
256,192,107125,1,0,0:0:0:0:
256,192,107617,1,2,0:0:0:0:
256,192,108109,1,0,0:0:0:0:
256,192,108354,1,0,0:0:0:0:
256,192,109092,1,0,0:0:0:0:
256,192,109338,1,6,0:0:0:0:
256,192,111550,5,4,0:0:0:0:
256,192,112534,1,2,0:0:0:0:
256,192,113518,1,0,0:0:0:0:
256,192,114501,1,2,0:0:0:0:
256,192,114870,1,2,0:0:0:0:
256,192,115485,1,0,0:0:0:0:
256,192,116468,1,2,0:0:0:0:
256,192,117452,1,0,0:0:0:0:
256,192,118436,1,2,0:0:0:0:
256,192,118829,1,2,0:0:0:0:
256,192,119419,1,4,0:0:0:0:
256,192,119911,1,0,0:0:0:0:
256,192,120403,1,0,0:0:0:0:
256,192,121387,1,2,0:0:0:0:
256,192,121878,1,2,0:0:0:0:
256,192,122370,1,2,0:0:0:0:
256,192,123354,1,2,0:0:0:0:
256,192,123846,1,0,0:0:0:0:
256,192,124091,1,0,0:0:0:0:
256,192,124829,1,0,0:0:0:0:
256,192,125075,1,2,0:0:0:0:
256,192,127288,5,4,0:0:0:0:
256,192,127780,1,2,0:0:0:0:
256,192,128272,1,0,0:0:0:0:
256,192,128518,1,0,0:0:0:0:
256,192,128764,1,2,0:0:0:0:
256,192,129255,1,0,0:0:0:0:
256,192,129747,1,2,0:0:0:0:
256,192,130239,1,2,0:0:0:0:
256,192,130485,1,0,0:0:0:0:
256,192,130731,1,2,0:0:0:0:
256,192,131223,1,0,0:0:0:0:
256,192,131714,1,2,0:0:0:0:
256,192,132206,1,0,0:0:0:0:
256,192,132452,1,0,0:0:0:0:
256,192,132698,1,2,0:0:0:0:
256,192,133190,1,0,0:0:0:0:
256,192,133682,1,2,0:0:0:0:
256,192,134075,1,2,0:0:0:0:
256,192,135157,1,4,0:0:0:0:
256,192,135649,1,2,0:0:0:0:
256,192,136141,1,0,0:0:0:0:
256,192,136387,1,0,0:0:0:0:
256,192,136632,1,2,0:0:0:0:
256,192,137124,1,0,0:0:0:0:
256,192,137616,1,2,0:0:0:0:
256,192,138108,1,2,0:0:0:0:
256,192,138354,1,0,0:0:0:0:
256,192,138600,1,2,0:0:0:0:
256,192,138846,1,2,0:0:0:0:
256,192,139091,1,0,0:0:0:0:
256,192,139583,1,2,0:0:0:0:
256,192,140075,1,0,0:0:0:0:
256,192,140321,1,2,0:0:0:0:
256,192,140567,1,2,0:0:0:0:
256,192,141305,12,2,142534,0:0:0:0:
256,192,143026,5,4,0:0:0:0:
256,192,143518,1,2,0:0:0:0:
256,192,144009,1,0,0:0:0:0:
256,192,144255,1,0,0:0:0:0:
256,192,144501,1,2,0:0:0:0:
256,192,144747,1,2,0:0:0:0:
256,192,144993,1,0,0:0:0:0:
256,192,145485,1,2,0:0:0:0:
256,192,145977,1,2,0:0:0:0:
256,192,146223,1,0,0:0:0:0:
256,192,146468,1,2,0:0:0:0:
256,192,146714,1,2,0:0:0:0:
256,192,146960,1,0,0:0:0:0:
256,192,147452,1,2,0:0:0:0:
256,192,147944,1,0,0:0:0:0:
256,192,148190,1,2,0:0:0:0:
256,192,148436,1,2,0:0:0:0:
256,192,149091,12,0,150403,0:0:0:0:
256,192,150895,5,4,0:0:0:0:
256,192,151878,1,2,0:0:0:0:
256,192,152862,1,0,0:0:0:0:
256,192,153846,1,2,0:0:0:0:
256,192,154829,1,0,0:0:0:0:
256,192,155813,1,2,0:0:0:0:
256,192,156796,1,0,0:0:0:0:
256,192,157780,1,2,0:0:0:0:
256,192,158764,5,0,0:0:0:0:
256,192,159747,1,0,0:0:0:0:
256,192,160731,1,0,0:0:0:0:
256,192,161714,1,0,0:0:0:0:
256,192,162698,1,2,0:0:0:0:
256,192,163190,1,0,0:0:0:0:
256,192,163436,1,0,0:0:0:0:
256,192,164173,1,0,0:0:0:0:
256,192,164419,1,2,0:0:0:0:
256,192,174501,5,0,0:0:0:0:
256,192,174993,1,0,0:0:0:0:
256,192,175485,1,2,0:0:0:0:
256,192,176468,1,2,0:0:0:0:
256,192,176960,1,2,0:0:0:0:
256,192,177452,1,0,0:0:0:0:
256,192,178436,1,0,0:0:0:0:
256,192,178682,1,2,0:0:0:0:
256,192,179173,1,2,0:0:0:0:
256,192,179665,1,2,0:0:0:0:
256,192,180157,1,0,0:0:0:0:
256,192,181632,1,2,0:0:0:0:
256,192,181878,1,2,0:0:0:0:
256,192,182124,1,2,0:0:0:0:
256,192,182370,5,4,0:0:0:0:
256,192,182862,1,0,0:0:0:0:
256,192,183108,1,2,0:0:0:0:
256,192,183353,1,0,0:0:0:0:
256,192,183845,1,2,0:0:0:0:
256,192,184337,1,0,0:0:0:0:
256,192,184829,1,0,0:0:0:0:
256,192,185075,1,0,0:0:0:0:
256,192,185321,1,2,0:0:0:0:
256,192,185812,1,2,0:0:0:0:
256,192,186304,1,0,0:0:0:0:
256,192,186796,1,2,0:0:0:0:
256,192,187288,1,0,0:0:0:0:
256,192,187534,1,2,0:0:0:0:
256,192,187780,1,2,0:0:0:0:
256,192,188271,1,0,0:0:0:0:
256,192,188517,1,0,0:0:0:0:
256,192,188763,1,2,0:0:0:0:
256,192,189009,1,0,0:0:0:0:
256,192,189255,1,2,0:0:0:0:
256,192,190239,1,4,0:0:0:0:
256,192,190730,1,0,0:0:0:0:
256,192,190976,1,2,0:0:0:0:
256,192,191222,1,0,0:0:0:0:
256,192,191714,1,2,0:0:0:0:
256,192,192206,1,0,0:0:0:0:
256,192,192452,1,0,0:0:0:0:
256,192,192698,1,2,0:0:0:0:
256,192,192944,1,2,0:0:0:0:
256,192,193190,1,0,0:0:0:0:
256,192,193927,1,2,0:0:0:0:
256,192,194173,1,0,0:0:0:0:
256,192,194419,1,0,0:0:0:0:
256,192,194665,1,0,0:0:0:0:
256,192,194911,1,2,0:0:0:0:
256,192,195403,1,2,0:0:0:0:
256,192,195894,1,4,0:0:0:0:
256,192,197370,1,2,0:0:0:0:
256,192,197616,1,2,0:0:0:0:
256,192,197862,1,2,0:0:0:0:
256,192,198108,5,4,0:0:0:0:
256,192,198600,1,0,0:0:0:0:
256,192,198846,1,2,0:0:0:0:
256,192,199092,1,0,0:0:0:0:
256,192,199584,1,2,0:0:0:0:
256,192,200076,1,0,0:0:0:0:
256,192,200568,1,2,0:0:0:0:
256,192,200813,1,0,0:0:0:0:
256,192,201059,1,2,0:0:0:0:
256,192,201551,1,2,0:0:0:0:
256,192,202043,1,0,0:0:0:0:
256,192,202534,1,2,0:0:0:0:
256,192,203027,1,0,0:0:0:0:
256,192,203272,1,0,0:0:0:0:
256,192,203518,1,2,0:0:0:0:
256,192,204010,1,0,0:0:0:0:
256,192,204256,1,0,0:0:0:0:
256,192,204502,1,2,0:0:0:0:
256,192,204748,1,0,0:0:0:0:
256,192,204994,1,2,0:0:0:0:
256,192,205485,1,2,0:0:0:0:
256,192,205977,1,0,0:0:0:0:
256,192,206469,1,2,0:0:0:0:
256,192,206715,1,2,0:0:0:0:
256,192,206961,1,0,0:0:0:0:
256,192,207453,1,0,0:0:0:0:
256,192,207699,1,6,0:0:0:0:
256,192,208191,1,2,0:0:0:0:
256,192,208436,1,2,0:0:0:0:
256,192,208682,1,4,0:0:0:0:
256,192,209666,1,2,0:0:0:0:
256,192,209912,1,0,0:0:0:0:
256,192,210404,1,0,0:0:0:0:
256,192,210650,1,2,0:0:0:0:
256,192,211141,1,2,0:0:0:0:
256,192,211633,1,2,0:0:0:0:
256,192,211879,5,0,0:0:0:0:
256,192,212370,1,0,0:0:0:0:
256,192,212862,1,2,0:0:0:0:
256,192,213354,1,2,0:0:0:0:
256,192,213846,1,0,0:0:0:0:
256,192,214337,1,2,0:0:0:0:
256,192,214829,1,0,0:0:0:0:
256,192,215321,1,2,0:0:0:0:
256,192,215813,1,2,0:0:0:0:
256,192,216796,1,2,0:0:0:0:
256,192,217190,1,0,0:0:0:0:
256,192,217534,1,4,0:0:0:0:
