osu file format v14

[General]
AudioFilename: audio.mp3
AudioLeadIn: 0
PreviewTime: 49583
Countdown: 0
SampleSet: Normal
StackLeniency: 0.7
Mode: 1
LetterboxInBreaks: 0
WidescreenStoryboard: 0

[Editor]
Bookmarks: 11224,42698,50567,87944,111550,127288,150895,158764,182370
DistanceSpacing: 1
BeatDivisor: 4
GridSize: 32
TimelineZoom: 2.299998

[Metadata]
Title:jelly girl
TitleUnicode:jelly girl
Artist:wotoha
ArtistUnicode:をとは
Creator:tasuke912
Version:Everyday is a new day
Source:
Tags:osu! electronic japanese featured artist mappers' guild mg Mitsuki Neu ଳ 海月ねう fa masaichiro law of lily jpop j-pop
BeatmapID:3152671
BeatmapSetID:1542359

[Difficulty]
HPDrainRate:6
CircleSize:2
OverallDifficulty:6
ApproachRate:5
SliderMultiplier:1.4
SliderTickRate:1

[Events]
//Background and Video events
0,0,"bg_jellygirl.png",0,75
//Break Periods
//Storyboard Layer 0 (Background)
//Storyboard Layer 1 (Fail)
//Storyboard Layer 2 (Pass)
//Storyboard Layer 3 (Foreground)
//Storyboard Layer 4 (Overlay)
//Storyboard Sound Samples

[TimingPoints]
1387,491.803278688525,4,1,0,40,1,0
3231,-75.0001875004688,4,1,0,60,0,0
15075,-75.0001875004688,4,1,0,80,0,0
17126,-75.0001875004688,4,1,0,40,0,0
19032,-75.0001875004688,4,1,0,80,0,0
33108,-75.02,4,1,0,80,0,0
33354,-76.52,4,1,0,80,0,0
33600,-78.08,4,1,0,80,0,0
33846,-79.71,4,1,0,80,0,0
33968,-80.54,4,1,0,80,0,0
34091,-81.4,4,1,0,80,0,0
34214,-82.28,4,1,0,80,0,0
34337,-83.17,4,1,0,80,0,0
34399,-83.63,4,1,0,80,0,0
34460,-84.09,4,1,0,80,0,0
34522,-84.56,4,1,0,80,0,0
34583,-85.02,4,1,0,80,0,0
34645,-85.5,4,1,0,80,0,0
34706,-85.98,4,1,0,80,0,0
34768,-86.47,4,1,0,80,0,0
34829,-86.96,4,1,0,80,0,0
34952,-100,4,1,0,80,0,0
46632,-75.0001875004688,4,1,0,80,0,0
48600,-75.0001875004688,4,1,0,40,0,0
49522,-75.0001875004688,4,1,0,80,0,0
50567,-50,4,1,0,80,0,1
64583,-51.28,4,1,0,80,0,1
64706,-51.66,4,1,0,80,0,1
64829,-52.04,4,1,0,80,0,1
64952,-52.43,4,1,0,80,0,1
65075,-52.83,4,1,0,80,0,1
65198,-53.23,4,1,0,80,0,1
65321,-53.64,4,1,0,80,0,1
65444,-54.05,4,1,0,80,0,1
65567,-54.47,4,1,0,80,0,1
65690,-54.9,4,1,0,80,0,1
65813,-55.34,4,1,0,80,0,1
65874,-55.55,4,1,0,80,0,1
65936,-55.78,4,1,0,80,0,1
65997,-56,4,1,0,80,0,1
66059,-56.22,4,1,0,80,0,1
66120,-56.45,4,1,0,80,0,1
66182,-56.68,4,1,0,80,0,1
66305,-57.14,4,1,0,80,0,1
66427,-66.6666666666667,4,1,0,80,0,1
78108,-66.67,4,1,0,80,0,0
78354,-68.0272108843537,4,1,0,80,0,0
78600,-69.4444444444444,4,1,0,80,0,0
78846,-70.9219858156028,4,1,0,80,0,0
79337,-76.9230769230769,4,1,0,80,0,0
79829,-90.9090909090909,4,1,0,80,0,0
80075,-100,4,1,0,80,0,0
87944,-75.0187546886722,4,1,0,80,0,0
93846,-80,4,1,0,80,0,0
95813,-75.0001875004688,4,1,0,80,0,0
110505,-100,4,1,0,30,0,0
111489,-153.846153846153,4,1,0,80,0,0
119419,-90.9090909090909,4,1,0,80,0,0
123354,-75.187969924812,4,1,0,80,0,0
125321,-75,4,1,0,80,0,0
125813,-80,4,1,0,80,0,0
126223,-84.71,4,1,0,80,0,0
126305,-85.72,4,1,0,80,0,0
126550,-88.88,4,1,0,80,0,0
126796,-92.3,4,1,0,80,0,0
127288,-119.047619047619,4,1,0,80,0,0
135157,-80,4,1,0,80,0,0
148927,-50,4,1,0,80,0,0
150157,-62.5,4,1,0,80,0,0
150895,-75.0018750468762,4,1,0,80,0,0
158764,-66.6666666666667,4,1,0,80,0,0
162759,-66.6666666666667,4,1,0,60,0,0
163682,-66.6666666666667,4,1,0,30,0,0
164665,-75.0018750468762,4,1,0,50,0,0
166632,-100,4,1,0,60,0,0
174501,-75.0018750468762,4,1,0,60,0,0
178190,-80,4,1,0,60,0,0
178436,-83.3333333333333,4,1,0,60,0,0
180403,-50,4,1,0,80,0,0
181632,-71.4285714285714,4,1,0,80,0,0
181878,-78.125,4,1,0,80,0,0
182124,-83.3333333333333,4,1,0,80,0,0
182370,-50,4,1,0,80,0,1
196386,-51.28,4,1,0,80,0,1
196509,-51.66,4,1,0,80,0,1
196632,-52.04,4,1,0,80,0,1
196755,-52.43,4,1,0,80,0,1
196878,-52.83,4,1,0,80,0,1
197001,-53.23,4,1,0,80,0,1
197124,-53.64,4,1,0,80,0,1
197247,-54.05,4,1,0,80,0,1
197370,-54.47,4,1,0,80,0,1
197493,-54.9,4,1,0,80,0,1
197616,-55.34,4,1,0,80,0,1
197677,-55.55,4,1,0,80,0,1
197739,-55.78,4,1,0,80,0,1
197800,-56,4,1,0,80,0,1
197862,-56.22,4,1,0,80,0,1
197923,-56.45,4,1,0,80,0,1
197985,-56.68,4,1,0,80,0,1
198108,-57.14,4,1,0,80,0,1
198231,-66.6666666666667,4,1,0,80,0,1
209911,-66.6666666666667,4,1,0,80,0,0
210157,-68.0272108843537,4,1,0,80,0,0
210403,-69.4444444444444,4,1,0,80,0,0
210649,-70.9219858156028,4,1,0,80,0,0
211141,-74.0740740740741,4,1,0,80,0,0
211632,-78.125,4,1,0,80,0,0
211878,-80,4,1,0,80,0,0
217534,-50,4,1,0,80,0,0

[HitObjects]
256,192,1387,12,0,3108,0:0:0:0:
256,192,3354,5,2,0:0:0:0:
256,192,4337,1,2,0:0:0:0:
256,192,4731,1,2,0:0:0:0:
256,192,5321,1,2,0:0:0:0:
256,192,6306,1,2,0:0:0:0:
256,192,6698,1,2,0:0:0:0:
256,192,7288,1,2,0:0:0:0:
256,192,8272,1,2,0:0:0:0:
256,192,8665,1,2,0:0:0:0:
256,192,9255,1,2,0:0:0:0:
256,192,10239,1,2,0:0:0:0:
256,192,10649,1,2,0:0:0:0:
256,192,10731,1,2,0:0:0:0:
256,192,10895,1,2,0:0:0:0:
256,192,10977,1,0,0:0:0:0:
256,192,11224,1,0,0:0:0:0:
256,192,11468,1,2,0:0:0:0:
256,192,11591,1,2,0:0:0:0:
256,192,11714,1,0,0:0:0:0:
256,192,11960,1,2,0:0:0:0:
256,192,12124,1,0,0:0:0:0:
256,192,12206,1,2,0:0:0:0:
256,192,12370,1,2,0:0:0:0:
256,192,12452,1,0,0:0:0:0:
256,192,12616,1,2,0:0:0:0:
256,192,12944,1,0,0:0:0:0:
256,192,13190,1,0,0:0:0:0:
256,192,13355,1,2,0:0:0:0:
256,192,13437,1,2,0:0:0:0:
256,192,13601,1,2,0:0:0:0:
256,192,13682,1,0,0:0:0:0:
256,192,13847,1,0,0:0:0:0:
256,192,13927,1,2,0:0:0:0:
256,192,14091,1,2,0:0:0:0:
256,192,14173,1,0,0:0:0:0:
256,192,14337,1,2,0:0:0:0:
256,192,14419,1,2,0:0:0:0:
256,192,14583,1,0,0:0:0:0:
256,192,14911,1,2,0:0:0:0:
256,192,15157,1,0,0:0:0:0:
256,192,15649,1,0,0:0:0:0:
256,192,15896,1,0,0:0:0:0:
256,192,16386,1,2,0:0:0:0:
256,192,16550,1,2,0:0:0:0:
256,192,16632,1,0,0:0:0:0:
256,192,16878,1,4,0:0:0:0:
256,192,17124,12,2,18600,0:0:0:0:
256,192,19091,5,4,0:0:0:0:
256,192,19337,1,0,0:0:0:0:
256,192,19460,1,2,0:0:0:0:
256,192,19583,1,0,0:0:0:0:
256,192,19706,1,0,0:0:0:0:
256,192,19829,1,2,0:0:0:0:
256,192,19952,1,2,0:0:0:0:
256,192,20075,1,0,0:0:0:0:
256,192,20239,1,2,0:0:0:0:
256,192,20321,1,2,0:0:0:0:
256,192,20485,1,0,0:0:0:0:
256,192,20567,1,2,0:0:0:0:
256,192,20813,1,2,0:0:0:0:
256,192,20936,1,2,0:0:0:0:
256,192,21059,1,0,0:0:0:0:
256,192,21223,1,0,0:0:0:0:
256,192,21305,1,2,0:0:0:0:
256,192,21468,1,2,0:0:0:0:
256,192,21550,1,0,0:0:0:0:
256,192,21714,1,2,0:0:0:0:
256,192,21796,1,2,0:0:0:0:
256,192,21960,1,2,0:0:0:0:
256,192,22042,1,0,0:0:0:0:
256,192,22288,1,2,0:0:0:0:
256,192,22411,1,2,0:0:0:0:
256,192,22534,1,0,0:0:0:0:
256,192,22780,1,2,0:0:0:0:
256,192,23026,1,0,0:0:0:0:
256,192,23272,1,0,0:0:0:0:
256,192,23395,1,2,0:0:0:0:
256,192,23518,1,0,0:0:0:0:
256,192,23641,1,0,0:0:0:0:
256,192,23764,1,2,0:0:0:0:
256,192,23886,1,0,0:0:0:0:
256,192,24009,1,2,0:0:0:0:
256,192,24132,1,2,0:0:0:0:
256,192,24255,1,2,0:0:0:0:
256,192,24378,1,0,0:0:0:0:
256,192,24501,1,2,0:0:0:0:
256,192,24665,1,0,0:0:0:0:
256,192,24747,1,2,0:0:0:0:
256,192,24911,1,2,0:0:0:0:
256,192,24993,1,0,0:0:0:0:
256,192,25239,1,2,0:0:0:0:
256,192,25403,1,2,0:0:0:0:
256,192,25485,1,0,0:0:0:0:
256,192,25649,1,2,0:0:0:0:
256,192,25731,1,2,0:0:0:0:
256,192,25895,1,2,0:0:0:0:
256,192,25977,1,0,0:0:0:0:
256,192,26100,1,0,0:0:0:0:
256,192,26223,1,2,0:0:0:0:
256,192,26346,1,2,0:0:0:0:
256,192,26468,1,0,0:0:0:0:
256,192,26714,1,2,0:0:0:0:
256,192,26960,1,4,0:0:0:0:
256,192,27206,1,0,0:0:0:0:
256,192,27329,1,2,0:0:0:0:
256,192,27452,1,0,0:0:0:0:
256,192,27575,1,0,0:0:0:0:
256,192,27698,1,2,0:0:0:0:
256,192,27944,1,0,0:0:0:0:
256,192,28067,1,0,0:0:0:0:
256,192,28190,1,2,0:0:0:0:
256,192,28313,1,0,0:0:0:0:
256,192,28436,1,2,0:0:0:0:
256,192,28559,1,2,0:0:0:0:
256,192,28682,1,0,0:0:0:0:
256,192,28927,1,0,0:0:0:0:
256,192,29091,1,2,0:0:0:0:
256,192,29173,1,2,0:0:0:0:
256,192,29337,1,2,0:0:0:0:
256,192,29419,1,0,0:0:0:0:
256,192,29583,1,0,0:0:0:0:
256,192,29665,1,2,0:0:0:0:
256,192,29911,1,0,0:0:0:0:
256,192,30034,1,0,0:0:0:0:
256,192,30157,1,2,0:0:0:0:
256,192,30280,1,0,0:0:0:0:
256,192,30403,1,2,0:0:0:0:
256,192,30649,1,2,0:0:0:0:
256,192,30772,1,2,0:0:0:0:
256,192,30895,1,0,0:0:0:0:
256,192,31141,1,2,0:0:0:0:
256,192,31386,1,0,0:0:0:0:
256,192,31632,1,0,0:0:0:0:
256,192,32124,1,2,0:0:0:0:
256,192,32370,1,0,0:0:0:0:
256,192,32616,1,4,0:0:0:0:
256,192,33108,1,2,0:0:0:0:
256,192,33354,1,2,0:0:0:0:
256,192,33600,1,2,0:0:0:0:
256,192,33846,1,2,0:0:0:0:
256,192,33968,1,2,0:0:0:0:
256,192,34091,1,2,0:0:0:0:
256,192,34214,1,2,0:0:0:0:
256,192,34337,1,2,0:0:0:0:
256,192,34399,1,2,0:0:0:0:
256,192,34460,1,2,0:0:0:0:
256,192,34522,1,2,0:0:0:0:
256,192,34583,1,2,0:0:0:0:
256,192,34645,1,2,0:0:0:0:
256,192,34706,1,2,0:0:0:0:
256,192,34768,1,2,0:0:0:0:
256,192,34829,5,2,0:0:0:0:
256,192,35321,1,2,0:0:0:0:
256,192,35813,1,2,0:0:0:0:
256,192,36305,1,2,0:0:0:0:
256,192,36796,1,2,0:0:0:0:
256,192,37288,1,2,0:0:0:0:
256,192,37780,1,2,0:0:0:0:
256,192,38272,1,2,0:0:0:0:
256,192,38764,1,2,0:0:0:0:
256,192,39255,1,2,0:0:0:0:
256,192,39747,1,2,0:0:0:0:
256,192,40239,1,2,0:0:0:0:
256,192,40731,1,2,0:0:0:0:
256,192,41223,1,2,0:0:0:0:
256,192,41714,1,2,0:0:0:0:
256,192,42206,5,2,0:0:0:0:
256,192,42370,1,2,0:0:0:0:
256,192,42452,1,0,0:0:0:0:
256,192,42698,1,0,0:0:0:0:
256,192,42944,1,2,0:0:0:0:
256,192,43190,1,0,0:0:0:0:
256,192,43313,1,0,0:0:0:0:
256,192,43436,1,2,0:0:0:0:
256,192,43682,1,0,0:0:0:0:
256,192,43927,1,2,0:0:0:0:
256,192,44091,1,2,0:0:0:0:
256,192,44173,1,0,0:0:0:0:
256,192,44419,1,2,0:0:0:0:
256,192,44665,1,0,0:0:0:0:
256,192,44911,1,2,0:0:0:0:
256,192,45075,1,2,0:0:0:0:
256,192,45157,1,0,0:0:0:0:
256,192,45321,1,0,0:0:0:0:
256,192,45403,1,2,0:0:0:0:
256,192,45649,1,0,0:0:0:0:
256,192,45895,1,2,0:0:0:0:
256,192,46059,1,2,0:0:0:0:
256,192,46141,1,0,0:0:0:0:
256,192,46264,1,2,0:0:0:0:
256,192,46386,1,2,0:0:0:0:
256,192,46632,1,0,0:0:0:0:
256,192,46878,1,2,0:0:0:0:
256,192,47124,1,0,0:0:0:0:
256,192,47370,1,0,0:0:0:0:
256,192,47493,1,2,0:0:0:0:
256,192,47616,1,0,0:0:0:0:
256,192,47739,1,2,0:0:0:0:
256,192,47862,1,2,0:0:0:0:
256,192,47923,1,2,0:0:0:0:
256,192,47985,1,2,0:0:0:0:
256,192,48046,1,2,0:0:0:0:
256,192,48108,1,0,0:0:0:0:
256,192,48354,1,4,0:0:0:0:
256,192,48600,12,0,49460,0:0:0:0:
256,192,49583,5,0,0:0:0:0:
256,192,49747,1,0,0:0:0:0:
256,192,49829,1,2,0:0:0:0:
256,192,50075,1,2,0:0:0:0:
256,192,50321,1,2,0:0:0:0:
256,192,50567,1,4,0:0:0:0:
256,192,50731,1,2,0:0:0:0:
256,192,50813,1,2,0:0:0:0:
256,192,50977,1,2,0:0:0:0:
256,192,51059,1,0,0:0:0:0:
256,192,51305,1,2,0:0:0:0:
256,192,51468,1,2,0:0:0:0:
256,192,51550,1,0,0:0:0:0:
256,192,51714,1,0,0:0:0:0:
256,192,51796,1,2,0:0:0:0:
256,192,51960,1,0,0:0:0:0:
256,192,52206,1,2,0:0:0:0:
256,192,52288,1,0,0:0:0:0:
256,192,52370,1,2,0:0:0:0:
256,192,52452,1,2,0:0:0:0:
256,192,52534,1,0,0:0:0:0:
256,192,52698,1,2,0:0:0:0:
256,192,52780,1,2,0:0:0:0:
256,192,52944,1,0,0:0:0:0:
256,192,53026,1,2,0:0:0:0:
256,192,53272,1,0,0:0:0:0:
256,192,53436,1,2,0:0:0:0:
256,192,53518,1,0,0:0:0:0:
256,192,53682,1,2,0:0:0:0:
256,192,53927,1,2,0:0:0:0:
256,192,54009,1,0,0:0:0:0:
256,192,54173,1,0,0:0:0:0:
256,192,54255,1,2,0:0:0:0:
256,192,54337,1,2,0:0:0:0:
256,192,54419,1,2,0:0:0:0:
256,192,54501,1,0,0:0:0:0:
256,192,54747,1,2,0:0:0:0:
256,192,54911,1,2,0:0:0:0:
256,192,54993,1,0,0:0:0:0:
256,192,55157,1,0,0:0:0:0:
256,192,55239,1,2,0:0:0:0:
256,192,55403,1,0,0:0:0:0:
256,192,55649,1,0,0:0:0:0:
256,192,55731,1,2,0:0:0:0:
256,192,55895,1,2,0:0:0:0:
256,192,55977,1,0,0:0:0:0:
256,192,56059,1,0,0:0:0:0:
256,192,56141,1,0,0:0:0:0:
256,192,56223,1,2,0:0:0:0:
256,192,56386,1,2,0:0:0:0:
256,192,56468,1,0,0:0:0:0:
256,192,56632,1,2,0:0:0:0:
256,192,56714,1,0,0:0:0:0:
256,192,56878,1,0,0:0:0:0:
256,192,56960,1,2,0:0:0:0:
256,192,57206,1,0,0:0:0:0:
256,192,57370,1,2,0:0:0:0:
256,192,57452,1,0,0:0:0:0:
256,192,57698,1,2,0:0:0:0:
256,192,57862,1,2,0:0:0:0:
256,192,57944,1,0,0:0:0:0:
256,192,58108,1,2,0:0:0:0:
256,192,58190,1,2,0:0:0:0:
256,192,58436,1,4,0:0:0:0:
256,192,58600,1,2,0:0:0:0:
256,192,58682,1,2,0:0:0:0:
256,192,58846,1,0,0:0:0:0:
256,192,58927,1,2,0:0:0:0:
256,192,59173,1,0,0:0:0:0:
256,192,59337,1,2,0:0:0:0:
256,192,59419,1,0,0:0:0:0:
256,192,59583,1,0,0:0:0:0:
256,192,59665,1,2,0:0:0:0:
256,192,59829,1,0,0:0:0:0:
256,192,60075,1,0,0:0:0:0:
256,192,60157,1,2,0:0:0:0:
256,192,60321,1,2,0:0:0:0:
256,192,60403,1,0,0:0:0:0:
256,192,60649,1,2,0:0:0:0:
256,192,60813,1,2,0:0:0:0:
256,192,60895,1,0,0:0:0:0:
256,192,61059,1,2,0:0:0:0:
256,192,61141,1,2,0:0:0:0:
256,192,61305,1,2,0:0:0:0:
256,192,61386,1,0,0:0:0:0:
256,192,61550,1,0,0:0:0:0:
256,192,61632,1,2,0:0:0:0:
256,192,61714,1,2,0:0:0:0:
256,192,61796,1,2,0:0:0:0:
256,192,61878,1,0,0:0:0:0:
256,192,62042,1,2,0:0:0:0:
256,192,62124,1,0,0:0:0:0:
256,192,62370,1,0,0:0:0:0:
256,192,62616,1,0,0:0:0:0:
256,192,62739,1,0,0:0:0:0:
256,192,62862,1,2,0:0:0:0:
256,192,63108,1,6,0:0:0:0:
256,192,63600,1,6,0:0:0:0:
256,192,64091,1,4,0:0:0:0:
256,192,64583,1,0,0:0:0:0:
256,192,64706,1,2,0:0:0:0:
256,192,64829,1,0,0:0:0:0:
256,192,64952,1,0,0:0:0:0:
256,192,65075,1,2,0:0:0:0:
256,192,65198,1,2,0:0:0:0:
256,192,65321,1,0,0:0:0:0:
256,192,65444,1,2,0:0:0:0:
256,192,65567,1,0,0:0:0:0:
256,192,65690,1,2,0:0:0:0:
256,192,65813,1,0,0:0:0:0:
256,192,65874,1,0,0:0:0:0:
256,192,65936,1,0,0:0:0:0:
256,192,65997,1,0,0:0:0:0:
256,192,66059,1,2,0:0:0:0:
256,192,66120,1,2,0:0:0:0:
256,192,66182,1,2,0:0:0:0:
256,192,66305,1,4,0:0:0:0:
256,192,66550,1,0,0:0:0:0:
256,192,66673,1,2,0:0:0:0:
256,192,66796,1,0,0:0:0:0:
256,192,66919,1,0,0:0:0:0:
256,192,67042,1,2,0:0:0:0:
256,192,67165,1,2,0:0:0:0:
256,192,67288,1,0,0:0:0:0:
256,192,67411,1,2,0:0:0:0:
256,192,67657,1,2,0:0:0:0:
256,192,67780,1,0,0:0:0:0:
256,192,68026,1,2,0:0:0:0:
256,192,68108,1,2,0:0:0:0:
256,192,68190,1,2,0:0:0:0:
256,192,68272,1,0,0:0:0:0:
256,192,68518,1,0,0:0:0:0:
256,192,68641,1,0,0:0:0:0:
256,192,68764,1,2,0:0:0:0:
256,192,68886,1,2,0:0:0:0:
256,192,69009,1,0,0:0:0:0:
256,192,69132,1,2,0:0:0:0:
256,192,69255,1,0,0:0:0:0:
256,192,69378,1,0,0:0:0:0:
256,192,69624,1,0,0:0:0:0:
256,192,69747,1,2,0:0:0:0:
256,192,69993,1,0,0:0:0:0:
256,192,70075,1,2,0:0:0:0:
256,192,70157,1,2,0:0:0:0:
256,192,70239,1,0,0:0:0:0:
256,192,70485,1,0,0:0:0:0:
256,192,70608,1,0,0:0:0:0:
256,192,70731,1,2,0:0:0:0:
256,192,70977,1,2,0:0:0:0:
256,192,71100,1,0,0:0:0:0:
256,192,71346,1,0,0:0:0:0:
256,192,71468,1,2,0:0:0:0:
256,192,71714,1,0,0:0:0:0:
256,192,71837,1,0,0:0:0:0:
256,192,71960,1,2,0:0:0:0:
256,192,72206,1,0,0:0:0:0:
256,192,72329,1,2,0:0:0:0:
256,192,72452,1,0,0:0:0:0:
256,192,72575,1,0,0:0:0:0:
256,192,72698,1,2,0:0:0:0:
256,192,72944,1,0,0:0:0:0:
256,192,73190,1,2,0:0:0:0:
256,192,73436,1,2,0:0:0:0:
256,192,73559,1,2,0:0:0:0:
256,192,73682,1,0,0:0:0:0:
256,192,73805,1,2,0:0:0:0:
256,192,73927,1,2,0:0:0:0:
256,192,74173,1,0,0:0:0:0:
256,192,74337,1,0,0:0:0:0:
256,192,74419,1,2,0:0:0:0:
256,192,74583,1,0,0:0:0:0:
256,192,74665,1,2,0:0:0:0:
256,192,74911,1,0,0:0:0:0:
256,192,75075,1,2,0:0:0:0:
256,192,75157,1,0,0:0:0:0:
256,192,75321,1,2,0:0:0:0:
256,192,75403,1,2,0:0:0:0:
256,192,75567,1,2,0:0:0:0:
256,192,75649,1,0,0:0:0:0:
256,192,75895,1,6,0:0:0:0:
256,192,76386,1,2,0:0:0:0:
256,192,76632,1,2,0:0:0:0:
256,192,76878,1,4,0:0:0:0:
256,192,77288,1,2,0:0:0:0:
256,192,77370,1,2,0:0:0:0:
256,192,77534,1,0,0:0:0:0:
256,192,77616,1,2,0:0:0:0:
256,192,77739,1,2,0:0:0:0:
256,192,77862,1,0,0:0:0:0:
256,192,77944,1,2,0:0:0:0:
256,192,78026,1,2,0:0:0:0:
256,192,78108,1,0,0:0:0:0:
256,192,78354,1,0,0:0:0:0:
256,192,78600,1,0,0:0:0:0:
256,192,78846,1,2,0:0:0:0:
256,192,79337,1,2,0:0:0:0:
256,192,79829,1,2,0:0:0:0:
256,192,80075,1,0,0:0:0:0:
256,192,80567,1,0,0:0:0:0:
256,192,81059,1,2,0:0:0:0:
256,192,81550,1,0,0:0:0:0:
256,192,82534,1,0,0:0:0:0:
256,192,83026,1,2,0:0:0:0:
256,192,83518,1,0,0:0:0:0:
256,192,84501,1,0,0:0:0:0:
256,192,84993,1,2,0:0:0:0:
256,192,85485,1,0,0:0:0:0:
256,192,86468,1,0,0:0:0:0:
256,192,86960,1,2,0:0:0:0:
256,192,87452,1,0,0:0:0:0:
256,192,87616,1,0,0:0:0:0:
256,192,87698,1,2,0:0:0:0:
256,192,87944,5,0,0:0:0:0:
256,192,88190,1,2,0:0:0:0:
256,192,88436,1,0,0:0:0:0:
256,192,88682,1,2,0:0:0:0:
256,192,88846,1,0,0:0:0:0:
256,192,88927,1,0,0:0:0:0:
256,192,89091,1,2,0:0:0:0:
256,192,89173,1,0,0:0:0:0:
256,192,89419,1,2,0:0:0:0:
256,192,89911,1,0,0:0:0:0:
256,192,90157,1,2,0:0:0:0:
256,192,90321,1,2,0:0:0:0:
256,192,90403,1,0,0:0:0:0:
256,192,90567,1,0,0:0:0:0:
256,192,90649,1,2,0:0:0:0:
256,192,90813,1,0,0:0:0:0:
256,192,90895,1,2,0:0:0:0:
256,192,91141,1,0,0:0:0:0:
256,192,91305,1,2,0:0:0:0:
256,192,91386,1,2,0:0:0:0:
256,192,91632,1,2,0:0:0:0:
256,192,91878,1,0,0:0:0:0:
256,192,92124,1,2,0:0:0:0:
256,192,92288,1,2,0:0:0:0:
256,192,92370,1,0,0:0:0:0:
256,192,92534,1,2,0:0:0:0:
256,192,92616,1,2,0:0:0:0:
256,192,92862,1,0,0:0:0:0:
256,192,93026,1,2,0:0:0:0:
256,192,93272,1,2,0:0:0:0:
256,192,93354,1,0,0:0:0:0:
256,192,93600,1,4,0:0:0:0:
256,192,94009,1,2,0:0:0:0:
256,192,94091,1,0,0:0:0:0:
256,192,94337,1,0,0:0:0:0:
256,192,94583,1,2,0:0:0:0:
256,192,94731,1,2,0:0:0:0:
256,192,94977,1,2,0:0:0:0:
256,192,95075,1,2,0:0:0:0:
256,192,95321,1,2,0:0:0:0:
256,192,95813,1,4,0:0:0:0:
256,192,96059,1,2,0:0:0:0:
256,192,96182,1,2,0:0:0:0:
256,192,96305,1,0,0:0:0:0:
256,192,96427,1,0,0:0:0:0:
256,192,96550,1,2,0:0:0:0:
256,192,96673,1,0,0:0:0:0:
256,192,96796,1,0,0:0:0:0:
256,192,96960,1,2,0:0:0:0:
256,192,97042,1,2,0:0:0:0:
256,192,97206,1,0,0:0:0:0:
256,192,97288,1,2,0:0:0:0:
256,192,97534,1,2,0:0:0:0:
256,192,97657,1,2,0:0:0:0:
256,192,97780,1,0,0:0:0:0:
256,192,97944,1,0,0:0:0:0:
256,192,98026,1,2,0:0:0:0:
256,192,98190,1,2,0:0:0:0:
256,192,98272,1,0,0:0:0:0:
256,192,98436,1,2,0:0:0:0:
256,192,98518,1,2,0:0:0:0:
256,192,98682,1,2,0:0:0:0:
256,192,98764,1,0,0:0:0:0:
256,192,99009,1,2,0:0:0:0:
256,192,99132,1,0,0:0:0:0:
256,192,99255,1,2,0:0:0:0:
256,192,99378,1,2,0:0:0:0:
256,192,99501,1,0,0:0:0:0:
256,192,99747,1,0,0:0:0:0:
256,192,99993,1,0,0:0:0:0:
256,192,100116,1,2,0:0:0:0:
256,192,100239,1,0,0:0:0:0:
256,192,100362,1,0,0:0:0:0:
256,192,100485,1,2,0:0:0:0:
256,192,100731,1,0,0:0:0:0:
256,192,100854,1,0,0:0:0:0:
256,192,100977,1,2,0:0:0:0:
256,192,101100,1,0,0:0:0:0:
256,192,101223,1,2,0:0:0:0:
256,192,101346,1,2,0:0:0:0:
256,192,101468,1,2,0:0:0:0:
256,192,101714,1,0,0:0:0:0:
256,192,101878,1,2,0:0:0:0:
256,192,101960,1,2,0:0:0:0:
256,192,102124,1,2,0:0:0:0:
256,192,102206,1,0,0:0:0:0:
256,192,102370,1,0,0:0:0:0:
256,192,102452,1,2,0:0:0:0:
256,192,102616,1,2,0:0:0:0:
256,192,102698,1,0,0:0:0:0:
256,192,102821,1,2,0:0:0:0:
256,192,102944,1,2,0:0:0:0:
256,192,103067,1,0,0:0:0:0:
256,192,103190,1,2,0:0:0:0:
256,192,103436,1,2,0:0:0:0:
256,192,103682,5,4,0:0:0:0:
256,192,103928,1,2,0:0:0:0:
256,192,104051,1,2,0:0:0:0:
256,192,104174,1,0,0:0:0:0:
256,192,104296,1,2,0:0:0:0:
256,192,104542,1,2,0:0:0:0:
256,192,104666,1,0,0:0:0:0:
256,192,104789,1,0,0:0:0:0:
256,192,104912,1,2,0:0:0:0:
256,192,105035,1,0,0:0:0:0:
256,192,105158,1,2,0:0:0:0:
256,192,105404,1,2,0:0:0:0:
256,192,105526,1,2,0:0:0:0:
256,192,105649,1,0,0:0:0:0:
256,192,105813,1,2,0:0:0:0:
256,192,105895,1,2,0:0:0:0:
256,192,106059,1,2,0:0:0:0:
256,192,106141,1,0,0:0:0:0:
256,192,106305,1,0,0:0:0:0:
256,192,106387,1,2,0:0:0:0:
256,192,106633,1,0,0:0:0:0:
256,192,106756,1,2,0:0:0:0:
256,192,106879,1,2,0:0:0:0:
256,192,107002,1,0,0:0:0:0:
256,192,107125,1,2,0:0:0:0:
256,192,107371,1,2,0:0:0:0:
256,192,107494,1,2,0:0:0:0:
256,192,107617,1,0,0:0:0:0:
256,192,107863,1,2,0:0:0:0:
256,192,108108,1,0,0:0:0:0:
256,192,108354,1,0,0:0:0:0:
256,192,108846,1,2,0:0:0:0:
256,192,109091,1,0,0:0:0:0:
256,192,109337,1,4,0:0:0:0:
256,192,110567,12,0,111427,0:0:0:0:
256,192,111550,5,4,0:0:0:0:
256,192,112534,1,2,0:0:0:0:
256,192,112927,1,2,0:0:0:0:
256,192,113518,1,0,0:0:0:0:
256,192,114501,1,2,0:0:0:0:
256,192,114870,1,2,0:0:0:0:
256,192,115239,1,2,0:0:0:0:
256,192,115362,1,2,0:0:0:0:
256,192,115485,1,0,0:0:0:0:
256,192,116468,1,2,0:0:0:0:
256,192,117452,1,0,0:0:0:0:
256,192,118436,1,2,0:0:0:0:
256,192,118682,1,0,0:0:0:0:
256,192,118829,1,2,0:0:0:0:
256,192,119075,1,0,0:0:0:0:
256,192,119173,1,2,0:0:0:0:
256,192,119419,1,4,0:0:0:0:
256,192,119911,1,0,0:0:0:0:
256,192,120403,1,0,0:0:0:0:
256,192,120895,1,0,0:0:0:0:
256,192,121386,1,0,0:0:0:0:
256,192,121878,1,0,0:0:0:0:
256,192,122370,1,0,0:0:0:0:
256,192,122862,1,0,0:0:0:0:
256,192,123354,1,0,0:0:0:0:
256,192,123600,1,2,0:0:0:0:
256,192,123846,1,0,0:0:0:0:
256,192,124091,1,2,0:0:0:0:
256,192,124214,1,2,0:0:0:0:
256,192,124337,1,0,0:0:0:0:
256,192,124460,1,2,0:0:0:0:
256,192,124583,1,2,0:0:0:0:
256,192,124645,1,2,0:0:0:0:
256,192,124706,1,2,0:0:0:0:
256,192,124768,1,2,0:0:0:0:
256,192,124829,1,0,0:0:0:0:
256,192,125075,1,4,0:0:0:0:
256,192,125321,1,2,0:0:0:0:
256,192,125813,1,2,0:0:0:0:
256,192,126223,1,2,0:0:0:0:
256,192,126305,1,2,0:0:0:0:
256,192,126550,1,2,0:0:0:0:
256,192,126796,1,2,0:0:0:0:
256,192,127288,5,4,0:0:0:0:
256,192,127780,1,2,0:0:0:0:
256,192,128173,1,0,0:0:0:0:
256,192,128272,1,0,0:0:0:0:
256,192,128518,1,0,0:0:0:0:
256,192,128764,1,2,0:0:0:0:
256,192,129255,1,0,0:0:0:0:
256,192,129747,1,2,0:0:0:0:
256,192,130141,1,0,0:0:0:0:
256,192,130239,1,2,0:0:0:0:
256,192,130485,1,0,0:0:0:0:
256,192,130731,1,2,0:0:0:0:
256,192,130977,1,2,0:0:0:0:
256,192,131223,1,0,0:0:0:0:
256,192,131714,1,2,0:0:0:0:
256,192,132108,1,0,0:0:0:0:
256,192,132206,1,0,0:0:0:0:
256,192,132452,1,0,0:0:0:0:
256,192,132698,1,2,0:0:0:0:
256,192,133190,1,0,0:0:0:0:
256,192,133337,1,2,0:0:0:0:
256,192,133583,1,0,0:0:0:0:
256,192,133682,1,2,0:0:0:0:
256,192,133927,1,0,0:0:0:0:
256,192,134075,1,2,0:0:0:0:
256,192,134321,1,0,0:0:0:0:
256,192,134419,1,2,0:0:0:0:
256,192,134665,1,2,0:0:0:0:
256,192,135157,1,4,0:0:0:0:
256,192,135403,1,2,0:0:0:0:
256,192,135649,1,0,0:0:0:0:
256,192,135772,1,2,0:0:0:0:
256,192,136042,1,0,0:0:0:0:
256,192,136141,1,0,0:0:0:0:
256,192,136386,1,0,0:0:0:0:
256,192,136632,1,2,0:0:0:0:
256,192,137124,1,0,0:0:0:0:
256,192,137370,1,2,0:0:0:0:
256,192,137493,1,2,0:0:0:0:
256,192,137616,1,0,0:0:0:0:
256,192,137739,1,2,0:0:0:0:
256,192,138009,1,0,0:0:0:0:
256,192,138108,1,0,0:0:0:0:
256,192,138231,1,2,0:0:0:0:
256,192,138354,1,0,0:0:0:0:
256,192,138477,1,0,0:0:0:0:
256,192,138600,1,2,0:0:0:0:
256,192,138846,1,6,0:0:0:0:
256,192,139091,1,0,0:0:0:0:
256,192,139337,1,2,0:0:0:0:
256,192,139460,1,2,0:0:0:0:
256,192,139583,1,2,0:0:0:0:
256,192,139829,1,2,0:0:0:0:
256,192,139977,1,0,0:0:0:0:
256,192,140075,1,0,0:0:0:0:
256,192,140321,1,0,0:0:0:0:
256,192,140567,1,2,0:0:0:0:
256,192,140690,1,2,0:0:0:0:
256,192,140813,1,2,0:0:0:0:
256,192,140936,1,2,0:0:0:0:
256,192,141059,1,0,0:0:0:0:
256,192,141206,1,2,0:0:0:0:
256,192,141452,1,0,0:0:0:0:
256,192,141550,1,2,0:0:0:0:
256,192,141796,1,0,0:0:0:0:
256,192,141944,1,2,0:0:0:0:
256,192,142042,1,2,0:0:0:0:
256,192,142190,1,0,0:0:0:0:
256,192,142288,1,2,0:0:0:0:
256,192,142534,1,2,0:0:0:0:
256,192,142780,1,2,0:0:0:0:
256,192,142944,1,2,0:0:0:0:
256,192,143026,1,0,0:0:0:0:
256,192,143272,1,0,0:0:0:0:
256,192,143395,1,0,0:0:0:0:
256,192,143518,1,2,0:0:0:0:
256,192,143764,1,0,0:0:0:0:
256,192,143911,1,2,0:0:0:0:
256,192,144009,1,0,0:0:0:0:
256,192,144255,1,0,0:0:0:0:
256,192,144501,1,2,0:0:0:0:
256,192,144747,1,2,0:0:0:0:
256,192,144870,1,2,0:0:0:0:
256,192,144993,1,0,0:0:0:0:
256,192,145116,1,0,0:0:0:0:
256,192,145239,1,2,0:0:0:0:
256,192,145362,1,2,0:0:0:0:
256,192,145485,1,0,0:0:0:0:
256,192,145608,1,2,0:0:0:0:
256,192,145731,1,2,0:0:0:0:
256,192,145878,1,0,0:0:0:0:
256,192,145977,1,0,0:0:0:0:
256,192,146223,1,0,0:0:0:0:
256,192,146468,1,2,0:0:0:0:
256,192,146714,1,2,0:0:0:0:
256,192,146837,1,2,0:0:0:0:
256,192,146960,1,0,0:0:0:0:
256,192,147206,1,2,0:0:0:0:
256,192,147329,1,2,0:0:0:0:
256,192,147452,1,2,0:0:0:0:
256,192,147698,1,2,0:0:0:0:
256,192,147846,1,0,0:0:0:0:
256,192,147944,1,0,0:0:0:0:
256,192,148190,1,0,0:0:0:0:
256,192,148436,1,2,0:0:0:0:
256,192,148583,1,2,0:0:0:0:
256,192,148682,1,2,0:0:0:0:
256,192,149091,1,4,0:0:0:0:
256,192,149255,1,4,0:0:0:0:
256,192,149419,1,4,0:0:0:0:
256,192,149583,1,6,0:0:0:0:
256,192,149747,1,6,0:0:0:0:
256,192,149911,1,6,0:0:0:0:
256,192,150157,1,0,0:0:0:0:
256,192,150305,1,0,0:0:0:0:
256,192,150403,1,2,0:0:0:0:
256,192,150895,5,0,0:0:0:0:
256,192,151878,1,0,0:0:0:0:
256,192,152063,1,2,0:0:0:0:
256,192,152206,1,2,0:0:0:0:
256,192,152370,1,2,0:0:0:0:
256,192,152567,1,2,0:0:0:0:
256,192,152698,1,2,0:0:0:0:
256,192,152862,1,0,0:0:0:0:
256,192,153846,1,0,0:0:0:0:
256,192,154042,1,2,0:0:0:0:
256,192,154173,1,2,0:0:0:0:
256,192,154337,1,2,0:0:0:0:
256,192,154534,1,2,0:0:0:0:
256,192,154665,1,2,0:0:0:0:
256,192,154829,1,0,0:0:0:0:
256,192,155813,1,0,0:0:0:0:
256,192,155960,1,2,0:0:0:0:
256,192,156059,1,2,0:0:0:0:
256,192,156206,1,2,0:0:0:0:
256,192,156305,1,2,0:0:0:0:
256,192,156387,1,2,0:0:0:0:
256,192,156468,1,2,0:0:0:0:
256,192,156550,1,2,0:0:0:0:
256,192,156632,1,2,0:0:0:0:
256,192,156714,1,2,0:0:0:0:
256,192,156796,1,0,0:0:0:0:
256,192,157780,1,0,0:0:0:0:
256,192,157918,1,2,0:0:0:0:
256,192,158103,1,2,0:0:0:0:
256,192,158272,1,2,0:0:0:0:
256,192,158441,1,2,0:0:0:0:
256,192,158641,1,2,0:0:0:0:
256,192,158764,1,0,0:0:0:0:
256,192,159009,1,2,0:0:0:0:
256,192,159255,1,2,0:0:0:0:
256,192,159501,1,2,0:0:0:0:
256,192,159747,1,0,0:0:0:0:
256,192,159911,1,2,0:0:0:0:
256,192,160157,1,2,0:0:0:0:
256,192,160239,1,0,0:0:0:0:
256,192,160403,1,2,0:0:0:0:
256,192,160485,1,2,0:0:0:0:
256,192,160649,1,2,0:0:0:0:
256,192,160731,1,0,0:0:0:0:
256,192,160977,1,0,0:0:0:0:
256,192,161223,1,2,0:0:0:0:
256,192,161468,1,2,0:0:0:0:
256,192,161714,1,0,0:0:0:0:
256,192,161878,1,2,0:0:0:0:
256,192,162124,1,2,0:0:0:0:
256,192,162206,1,0,0:0:0:0:
256,192,162370,1,2,0:0:0:0:
256,192,162452,1,2,0:0:0:0:
256,192,162698,1,0,0:0:0:0:
256,192,162821,1,2,0:0:0:0:
256,192,162944,1,2,0:0:0:0:
256,192,163067,1,2,0:0:0:0:
256,192,163190,1,0,0:0:0:0:
256,192,163313,1,0,0:0:0:0:
256,192,163436,1,2,0:0:0:0:
256,192,163559,1,2,0:0:0:0:
256,192,163682,12,2,164419,0:0:0:0:
256,192,165157,5,2,0:0:0:0:
256,192,165280,1,2,0:0:0:0:
256,192,165403,1,2,0:0:0:0:
256,192,165526,1,2,0:0:0:0:
256,192,165649,1,2,0:0:0:0:
256,192,165895,1,2,0:0:0:0:
256,192,166141,1,2,0:0:0:0:
256,192,166632,1,0,0:0:0:0:
256,192,166878,1,2,0:0:0:0:
256,192,167370,1,2,0:0:0:0:
256,192,167862,1,2,0:0:0:0:
256,192,168354,1,2,0:0:0:0:
256,192,168600,1,0,0:0:0:0:
256,192,168846,1,2,0:0:0:0:
256,192,169337,1,2,0:0:0:0:
256,192,169829,1,2,0:0:0:0:
256,192,170321,1,2,0:0:0:0:
256,192,170567,1,0,0:0:0:0:
256,192,170813,1,2,0:0:0:0:
256,192,171305,1,2,0:0:0:0:
256,192,171796,1,2,0:0:0:0:
256,192,172288,1,2,0:0:0:0:
256,192,172534,1,0,0:0:0:0:
256,192,172780,1,2,0:0:0:0:
256,192,173272,1,2,0:0:0:0:
256,192,173518,1,0,0:0:0:0:
256,192,173764,1,2,0:0:0:0:
256,192,174009,1,0,0:0:0:0:
256,192,174255,1,2,0:0:0:0:
256,192,174501,1,0,0:0:0:0:
256,192,174747,1,0,0:0:0:0:
256,192,174993,1,2,0:0:0:0:
256,192,175239,1,0,0:0:0:0:
256,192,175485,1,2,0:0:0:0:
256,192,175649,1,2,0:0:0:0:
256,192,175895,1,0,0:0:0:0:
256,192,176223,1,2,0:0:0:0:
256,192,176468,1,0,0:0:0:0:
256,192,176632,1,0,0:0:0:0:
256,192,176714,1,0,0:0:0:0:
256,192,176878,1,2,0:0:0:0:
256,192,176960,1,0,0:0:0:0:
256,192,177124,1,0,0:0:0:0:
256,192,177206,1,2,0:0:0:0:
256,192,177452,1,2,0:0:0:0:
256,192,177616,1,2,0:0:0:0:
256,192,177698,1,2,0:0:0:0:
256,192,177862,1,0,0:0:0:0:
256,192,178190,1,2,0:0:0:0:
256,192,178436,1,0,0:0:0:0:
256,192,178682,1,2,0:0:0:0:
256,192,178805,1,2,0:0:0:0:
256,192,178927,1,0,0:0:0:0:
256,192,179173,1,2,0:0:0:0:
256,192,179419,1,0,0:0:0:0:
256,192,179665,1,2,0:0:0:0:
256,192,179829,1,2,0:0:0:0:
256,192,179911,1,0,0:0:0:0:
256,192,180157,1,0,0:0:0:0:
256,192,180567,1,4,0:0:0:0:
256,192,180731,1,4,0:0:0:0:
256,192,180895,1,4,0:0:0:0:
256,192,181059,1,6,0:0:0:0:
256,192,181223,1,6,0:0:0:0:
256,192,181386,1,6,0:0:0:0:
256,192,181632,1,2,0:0:0:0:
256,192,181878,1,2,0:0:0:0:
256,192,182124,1,2,0:0:0:0:
256,192,182370,5,4,0:0:0:0:
256,192,182534,1,0,0:0:0:0:
256,192,182616,1,2,0:0:0:0:
256,192,182780,1,2,0:0:0:0:
256,192,182862,1,0,0:0:0:0:
256,192,183026,1,2,0:0:0:0:
256,192,183108,1,2,0:0:0:0:
256,192,183272,1,2,0:0:0:0:
256,192,183354,1,0,0:0:0:0:
256,192,183518,1,0,0:0:0:0:
256,192,183600,1,2,0:0:0:0:
256,192,183764,1,0,0:0:0:0:
256,192,184009,1,2,0:0:0:0:
256,192,184091,1,0,0:0:0:0:
256,192,184173,1,2,0:0:0:0:
256,192,184255,1,2,0:0:0:0:
256,192,184337,1,0,0:0:0:0:
256,192,184501,1,2,0:0:0:0:
256,192,184583,1,2,0:0:0:0:
256,192,184747,1,2,0:0:0:0:
256,192,184829,1,0,0:0:0:0:
256,192,184993,1,2,0:0:0:0:
256,192,185075,1,0,0:0:0:0:
256,192,185239,1,0,0:0:0:0:
256,192,185321,1,0,0:0:0:0:
256,192,185485,1,0,0:0:0:0:
256,192,185567,1,2,0:0:0:0:
256,192,185731,1,2,0:0:0:0:
256,192,185977,1,0,0:0:0:0:
256,192,186059,1,2,0:0:0:0:
256,192,186141,1,2,0:0:0:0:
256,192,186223,1,2,0:0:0:0:
256,192,186305,1,0,0:0:0:0:
256,192,186550,1,2,0:0:0:0:
256,192,186714,1,2,0:0:0:0:
256,192,186796,1,0,0:0:0:0:
256,192,186960,1,0,0:0:0:0:
256,192,187042,1,2,0:0:0:0:
256,192,187206,1,0,0:0:0:0:
256,192,187452,1,0,0:0:0:0:
256,192,187534,1,2,0:0:0:0:
256,192,187698,1,2,0:0:0:0:
256,192,187780,1,0,0:0:0:0:
256,192,187944,1,2,0:0:0:0:
256,192,188026,1,2,0:0:0:0:
256,192,188272,1,0,0:0:0:0:
256,192,188436,1,2,0:0:0:0:
256,192,188518,1,0,0:0:0:0:
256,192,188682,1,0,0:0:0:0:
256,192,188764,1,2,0:0:0:0:
256,192,188846,1,2,0:0:0:0:
256,192,188927,1,2,0:0:0:0:
256,192,189009,1,0,0:0:0:0:
256,192,189173,1,0,0:0:0:0:
256,192,189255,1,2,0:0:0:0:
256,192,189419,1,2,0:0:0:0:
256,192,189501,1,0,0:0:0:0:
256,192,189583,1,2,0:0:0:0:
256,192,189665,1,2,0:0:0:0:
256,192,189747,1,0,0:0:0:0:
256,192,189911,1,2,0:0:0:0:
256,192,189993,1,2,0:0:0:0:
256,192,190239,1,4,0:0:0:0:
256,192,190403,1,2,0:0:0:0:
256,192,190485,1,2,0:0:0:0:
256,192,190649,1,2,0:0:0:0:
256,192,190731,1,0,0:0:0:0:
256,192,190895,1,2,0:0:0:0:
256,192,190977,1,0,0:0:0:0:
256,192,191141,1,0,0:0:0:0:
256,192,191223,1,0,0:0:0:0:
256,192,191386,1,0,0:0:0:0:
256,192,191468,1,2,0:0:0:0:
256,192,191632,1,2,0:0:0:0:
256,192,191714,1,0,0:0:0:0:
256,192,191796,1,0,0:0:0:0:
256,192,191878,1,0,0:0:0:0:
256,192,191960,1,2,0:0:0:0:
256,192,192124,1,2,0:0:0:0:
256,192,192206,1,0,0:0:0:0:
256,192,192370,1,2,0:0:0:0:
256,192,192452,1,0,0:0:0:0:
256,192,192534,1,2,0:0:0:0:
256,192,192616,1,2,0:0:0:0:
256,192,192698,1,0,0:0:0:0:
256,192,192862,1,0,0:0:0:0:
256,192,192944,1,2,0:0:0:0:
256,192,193108,1,2,0:0:0:0:
256,192,193190,1,0,0:0:0:0:
256,192,193354,1,0,0:0:0:0:
256,192,193436,1,2,0:0:0:0:
256,192,193518,1,0,0:0:0:0:
256,192,193600,1,0,0:0:0:0:
256,192,193682,1,2,0:0:0:0:
256,192,193764,1,2,0:0:0:0:
256,192,193846,1,2,0:0:0:0:
256,192,193927,1,0,0:0:0:0:
256,192,194173,1,4,0:0:0:0:
256,192,194419,1,0,0:0:0:0:
256,192,194542,1,0,0:0:0:0:
256,192,194665,1,2,0:0:0:0:
256,192,194911,1,6,0:0:0:0:
256,192,195403,1,6,0:0:0:0:
256,192,195895,1,4,0:0:0:0:
256,192,196386,1,0,0:0:0:0:
256,192,196509,1,2,0:0:0:0:
256,192,196632,1,0,0:0:0:0:
256,192,196755,1,0,0:0:0:0:
256,192,196878,1,2,0:0:0:0:
256,192,197001,1,2,0:0:0:0:
256,192,197124,1,0,0:0:0:0:
256,192,197247,1,2,0:0:0:0:
256,192,197370,1,0,0:0:0:0:
256,192,197493,1,2,0:0:0:0:
256,192,197616,1,0,0:0:0:0:
256,192,197677,1,0,0:0:0:0:
256,192,197739,1,0,0:0:0:0:
256,192,197800,1,0,0:0:0:0:
256,192,197862,1,2,0:0:0:0:
256,192,197923,1,2,0:0:0:0:
256,192,197985,1,2,0:0:0:0:
256,192,198108,5,4,0:0:0:0:
256,192,198354,1,0,0:0:0:0:
256,192,198477,1,0,0:0:0:0:
256,192,198600,1,2,0:0:0:0:
256,192,198723,1,2,0:0:0:0:
256,192,198846,1,0,0:0:0:0:
256,192,198968,1,2,0:0:0:0:
256,192,199091,1,0,0:0:0:0:
256,192,199214,1,0,0:0:0:0:
256,192,199337,1,2,0:0:0:0:
256,192,199460,1,0,0:0:0:0:
256,192,199706,1,2,0:0:0:0:
256,192,199829,1,0,0:0:0:0:
256,192,199911,1,2,0:0:0:0:
256,192,199993,1,2,0:0:0:0:
256,192,200075,1,0,0:0:0:0:
256,192,200198,1,2,0:0:0:0:
256,192,200321,1,0,0:0:0:0:
256,192,200444,1,0,0:0:0:0:
256,192,200567,1,2,0:0:0:0:
256,192,200813,1,2,0:0:0:0:
256,192,200936,1,2,0:0:0:0:
256,192,201059,1,0,0:0:0:0:
256,192,201182,1,2,0:0:0:0:
256,192,201427,1,2,0:0:0:0:
256,192,201550,1,0,0:0:0:0:
256,192,201673,1,0,0:0:0:0:
256,192,201796,1,2,0:0:0:0:
256,192,201878,1,2,0:0:0:0:
256,192,201960,1,2,0:0:0:0:
256,192,202042,1,0,0:0:0:0:
256,192,202288,1,0,0:0:0:0:
256,192,202411,1,0,0:0:0:0:
256,192,202534,1,2,0:0:0:0:
256,192,202780,1,2,0:0:0:0:
256,192,202903,1,0,0:0:0:0:
256,192,203149,1,0,0:0:0:0:
256,192,203272,1,2,0:0:0:0:
256,192,203518,1,0,0:0:0:0:
256,192,203641,1,0,0:0:0:0:
256,192,203764,1,2,0:0:0:0:
256,192,204009,1,0,0:0:0:0:
256,192,204132,1,2,0:0:0:0:
256,192,204255,1,0,0:0:0:0:
256,192,204378,1,0,0:0:0:0:
256,192,204501,1,2,0:0:0:0:
256,192,204747,1,0,0:0:0:0:
256,192,204993,1,2,0:0:0:0:
256,192,205116,1,2,0:0:0:0:
256,192,205239,1,0,0:0:0:0:
256,192,205362,1,0,0:0:0:0:
256,192,205485,1,2,0:0:0:0:
256,192,205608,1,2,0:0:0:0:
256,192,205731,1,2,0:0:0:0:
256,192,205977,1,0,0:0:0:0:
256,192,206141,1,2,0:0:0:0:
256,192,206223,1,2,0:0:0:0:
256,192,206387,1,0,0:0:0:0:
256,192,206469,1,2,0:0:0:0:
256,192,206715,1,0,0:0:0:0:
256,192,206879,1,2,0:0:0:0:
256,192,206961,1,0,0:0:0:0:
256,192,207125,1,2,0:0:0:0:
256,192,207207,1,2,0:0:0:0:
256,192,207371,1,2,0:0:0:0:
256,192,207453,1,0,0:0:0:0:
256,192,207699,1,6,0:0:0:0:
256,192,208190,1,2,0:0:0:0:
256,192,208436,1,2,0:0:0:0:
256,192,208682,1,4,0:0:0:0:
256,192,209092,1,2,0:0:0:0:
256,192,209174,1,2,0:0:0:0:
256,192,209338,1,0,0:0:0:0:
256,192,209420,1,2,0:0:0:0:
256,192,209543,1,2,0:0:0:0:
256,192,209666,1,0,0:0:0:0:
256,192,209748,1,2,0:0:0:0:
256,192,209830,1,2,0:0:0:0:
256,192,209912,1,0,0:0:0:0:
256,192,210158,1,0,0:0:0:0:
256,192,210404,1,0,0:0:0:0:
256,192,210650,1,2,0:0:0:0:
256,192,211141,1,2,0:0:0:0:
256,192,211632,1,2,0:0:0:0:
256,192,211878,1,0,0:0:0:0:
256,192,212124,1,2,0:0:0:0:
256,192,212272,1,2,0:0:0:0:
256,192,212518,1,2,0:0:0:0:
256,192,212616,1,2,0:0:0:0:
256,192,212862,1,0,0:0:0:0:
256,192,213108,1,2,0:0:0:0:
256,192,213255,1,2,0:0:0:0:
256,192,213501,1,2,0:0:0:0:
256,192,213600,1,2,0:0:0:0:
256,192,213846,1,0,0:0:0:0:
256,192,214092,1,2,0:0:0:0:
256,192,214239,1,2,0:0:0:0:
256,192,214485,1,2,0:0:0:0:
256,192,214584,1,2,0:0:0:0:
256,192,214829,1,0,0:0:0:0:
256,192,214977,1,0,0:0:0:0:
256,192,215075,1,2,0:0:0:0:
256,192,215223,1,2,0:0:0:0:
256,192,215321,1,0,0:0:0:0:
256,192,215468,1,2,0:0:0:0:
256,192,215567,1,2,0:0:0:0:
256,192,215813,1,0,0:0:0:0:
256,192,216796,1,2,0:0:0:0:
256,192,216944,1,2,0:0:0:0:
256,192,217190,1,0,0:0:0:0:
256,192,217534,5,4,0:0:0:0:
