osu file format v14

[General]
AudioFilename: audio.mp3
AudioLeadIn: 0
PreviewTime: 86077
Countdown: 0
SampleSet: Soft
StackLeniency: 0.7
Mode: 3
LetterboxInBreaks: 0
SpecialStyle: 0
WidescreenStoryboard: 1

[Editor]
Bookmarks: 42887
DistanceSpacing: 0.8
BeatDivisor: 4
GridSize: 4
TimelineZoom: 2.1

[Metadata]
Title:O108ROCKET feat. Neko Hacker
TitleUnicode:O108ROCKET feat. Neko Hacker
Artist:wotoha
ArtistUnicode:をとは
Creator:Murumoo
Version:Hard
Source:
Tags:japanese electronic ofutone records nnzn Kawaii Future Rock J-rock jrock ふにゃ _FUNY4 海月ねう mitukineu
BeatmapID:2875654
BeatmapSetID:1392416

[Difficulty]
HPDrainRate:7.5
CircleSize:4
OverallDifficulty:7.5
ApproachRate:5
SliderMultiplier:1.4
SliderTickRate:1

[Events]
//Background and Video events
Video,340,"bga.mp4"
0,0,"bg.jpg",0,0
//Break Periods
//Storyboard Layer 0 (Background)
//Storyboard Layer 1 (Fail)
//Storyboard Layer 2 (Pass)
//Storyboard Layer 3 (Foreground)
//Storyboard Layer 4 (Overlay)
//Storyboard Sound Samples

[TimingPoints]
2500,500,4,2,1,20,1,0
2500,-60,4,2,1,20,0,0
35677,300,4,2,1,40,1,0
219277,-100,4,2,1,40,0,1
245677,-100,4,2,1,40,0,0

[HitObjects]
64,192,2500,128,0,3000:0:0:0:50:finish.wav
192,192,2500,1,0,0:0:0:0:
448,192,2500,1,0,0:0:0:0:
320,192,3000,128,0,3500:0:0:0:0:
64,192,3500,1,0,0:0:0:0:
192,192,3500,128,0,4000:0:0:0:0:
448,192,4000,128,0,4500:0:0:0:0:
192,192,4500,128,0,5000:0:0:0:0:
320,192,4500,1,0,0:0:0:0:
64,192,5000,128,0,5500:0:0:0:0:
192,192,5500,128,0,6000:0:0:0:0:
448,192,5500,1,0,0:0:0:0:
320,192,6000,128,0,6500:0:0:0:0:
192,192,6250,128,0,6500:0:0:0:0:
64,192,6500,128,0,7250:0:0:0:0:
448,192,6500,1,0,0:0:0:0:
64,192,7500,1,0,0:0:0:0:
320,192,7500,128,0,8000:0:0:0:0:
192,192,8000,128,0,8500:0:0:0:0:
320,192,8250,128,0,8500:0:0:0:0:
64,192,8500,128,0,9000:0:0:0:0:
448,192,8500,1,0,0:0:0:0:
192,192,9500,128,0,10000:0:0:0:0:
320,192,9500,1,0,0:0:0:0:
448,192,10000,128,0,10500:0:0:0:0:
64,192,10500,1,0,0:0:0:0:
192,192,10500,128,0,11000:0:0:0:0:
64,192,11500,1,0,0:0:0:0:
320,192,11500,128,0,12000:0:0:0:0:
448,192,12000,128,0,12500:0:0:0:0:
64,192,12500,1,0,0:0:0:0:
320,192,12500,128,0,13500:0:0:0:0:
192,192,13500,128,0,14500:0:0:0:0:
448,192,13500,1,0,0:0:0:0:
64,192,14500,128,0,16500:0:0:0:0:
448,192,14500,1,0,0:0:0:0:
320,192,15500,1,0,0:0:0:0:
448,192,15500,1,0,0:0:0:0:
192,192,16500,1,0,0:0:0:0:
448,192,16500,128,0,17500:0:0:0:0:
320,192,17000,128,0,17500:0:0:0:0:
64,192,17500,128,0,18375:0:0:0:0:
192,192,17500,1,0,0:0:0:0:
192,192,18000,128,0,18375:0:0:0:0:
64,192,18500,1,0,0:0:0:50:finish.wav
320,192,18500,1,0,0:0:0:0:
448,192,18500,128,0,19000:0:0:0:0:
64,192,19000,128,0,19500:0:0:0:0:
448,192,19214,1,0,0:0:0:0:
320,192,19357,1,0,0:0:0:0:
448,192,19500,128,0,20000:0:0:0:0:
192,192,19750,1,0,0:0:0:0:
64,192,19750,1,0,0:0:0:0:
320,192,20000,128,0,20500:0:0:0:0:
192,192,20500,128,0,21000:0:0:0:0:
64,192,20750,1,0,0:0:0:0:
448,192,20750,1,0,0:0:0:0:
320,192,21000,128,0,21500:0:0:0:0:
448,192,21000,1,0,0:0:0:0:
64,192,21125,1,0,0:0:0:0:
192,192,21250,1,0,0:0:0:0:
64,192,21375,1,0,0:0:0:0:
448,192,21500,128,0,22000:0:0:0:0:
192,192,21750,1,0,0:0:0:0:
64,192,21750,1,0,0:0:0:0:
64,192,22000,128,0,22250:0:0:0:0:
192,192,22250,128,0,22500:0:0:0:0:
320,192,22500,128,0,23500:0:0:0:0:
448,192,22500,1,0,0:0:0:0:
192,192,23000,1,0,0:0:0:0:
448,192,23125,1,0,0:0:0:0:
192,192,23250,1,0,0:0:0:0:
448,192,23375,1,0,0:0:0:0:
64,192,23500,128,0,24000:0:0:0:0:
192,192,23500,1,0,0:0:0:0:
320,192,23750,1,0,0:0:0:0:
448,192,23750,1,0,0:0:0:0:
448,192,24000,128,0,24250:0:0:0:0:
320,192,24250,128,0,24500:0:0:0:0:
64,192,24500,128,0,25000:0:0:0:0:
192,192,24500,1,0,0:0:0:0:
320,192,24750,1,0,0:0:0:0:
448,192,24750,1,0,0:0:0:0:
448,192,25000,1,0,0:0:0:0:
320,192,25125,1,0,0:0:0:0:
192,192,25250,1,0,0:0:0:0:
64,192,25375,1,0,0:0:0:0:
320,192,25500,128,0,26000:0:0:0:0:
448,192,25500,1,0,0:0:0:0:
64,192,25750,1,0,0:0:0:0:
192,192,25750,1,0,0:0:0:0:
192,192,26000,128,0,26500:0:0:0:0:
64,192,26500,128,0,27000:0:0:0:0:
448,192,26500,1,0,0:0:0:0:
320,192,27000,1,0,0:0:0:0:
192,192,27125,1,0,0:0:0:0:
64,192,27250,1,0,0:0:0:0:
448,192,27375,1,0,0:0:0:0:
64,192,27500,128,0,28250:0:0:0:0:
192,192,27500,1,0,0:0:0:0:
320,192,27750,1,0,0:0:0:0:
448,192,27750,1,0,0:0:0:0:
448,192,28000,1,0,0:0:0:0:
192,192,28000,1,0,0:0:0:0:
64,192,28500,1,0,0:0:0:50:finish.wav
192,192,28500,1,0,0:0:0:0:
448,192,28500,128,0,29416:0:0:0:0:
64,192,29666,128,0,32499:0:0:0:0:
448,192,31500,128,0,32500:0:0:0:0:
320,192,33458,1,0,0:0:0:0:
192,192,33583,1,0,0:0:0:0:
320,192,33708,1,0,0:0:0:0:
192,192,33958,1,0,0:0:0:0:
320,192,34083,1,0,0:0:0:0:
192,192,34208,1,0,0:0:0:0:
64,192,35677,1,0,0:0:0:60:drum.wav
192,192,35677,1,0,0:0:0:50:finish.wav
448,192,35677,128,0,35827:0:0:0:0:
320,192,35827,128,0,35977:0:0:0:0:
192,192,35977,128,0,36127:0:0:0:50:Clap.wav
448,192,35977,1,0,0:0:0:0:
64,192,36127,128,0,36277:0:0:0:0:
192,192,36277,1,0,0:0:0:60:drum.wav
448,192,36277,128,0,36427:0:0:0:0:
320,192,36427,128,0,36577:0:0:0:0:
64,192,36577,1,0,0:0:0:50:Clap.wav
192,192,36577,1,0,0:0:0:0:
192,192,36727,128,0,37027:0:0:0:0:
320,192,36877,1,0,0:0:0:60:drum.wav
448,192,36877,1,0,0:0:0:0:
64,192,37027,128,0,37177:0:0:0:0:
192,192,37177,128,0,37327:0:0:0:50:Clap.wav
448,192,37177,1,0,0:0:0:0:
320,192,37327,128,0,37477:0:0:0:0:
64,192,37477,1,0,0:0:0:60:drum.wav
448,192,37477,128,0,37627:0:0:0:0:
320,192,37627,128,0,37777:0:0:0:0:
64,192,37777,1,0,0:0:0:50:Clap.wav
192,192,37777,128,0,37927:0:0:0:0:
448,192,37927,128,0,38077:0:0:0:0:
64,192,38077,128,0,38227:0:0:0:60:drum.wav
320,192,38077,1,0,0:0:0:0:
192,192,38227,128,0,38377:0:0:0:0:
64,192,38377,1,0,0:0:0:50:Clap.wav
320,192,38377,128,0,38527:0:0:0:0:
448,192,38527,128,0,38677:0:0:0:0:
64,192,38677,1,0,0:0:0:60:drum.wav
320,192,38677,128,0,38827:0:0:0:0:
192,192,38827,128,0,38977:0:0:0:0:
320,192,38977,1,0,0:0:0:50:Clap.wav
448,192,38977,1,0,0:0:0:0:
320,192,39127,128,0,39427:0:0:0:0:
64,192,39277,1,0,0:0:0:60:drum.wav
192,192,39277,1,0,0:0:0:0:
448,192,39427,128,0,39577:0:0:0:0:
64,192,39577,1,0,0:0:0:50:Clap.wav
320,192,39577,128,0,39727:0:0:0:0:
192,192,39727,128,0,39877:0:0:0:0:
64,192,39877,128,0,40027:0:0:0:60:drum.wav
448,192,39877,1,0,0:0:0:0:
192,192,40027,128,0,40177:0:0:0:0:
320,192,40177,128,0,40327:0:0:0:50:Clap.wav
448,192,40177,1,0,0:0:0:0:
64,192,40327,1,0,0:0:0:60:drum.wav
192,192,40402,1,0,0:0:0:60:drum.wav
320,192,40477,1,0,0:0:0:60:drum.wav
448,192,40477,128,0,40627:0:0:0:50:finish.wav
64,192,40627,128,0,40777:0:0:0:0:
192,192,40777,128,0,40927:0:0:0:50:Clap.wav
320,192,40777,1,0,0:0:0:0:
448,192,40927,128,0,41077:0:0:0:0:
64,192,41077,128,0,41227:0:0:0:60:drum.wav
320,192,41077,1,0,0:0:0:0:
192,192,41227,128,0,41377:0:0:0:0:
320,192,41377,1,0,0:0:0:50:Clap.wav
448,192,41377,1,0,0:0:0:0:
448,192,41527,128,0,41827:0:0:0:0:
64,192,41602,1,0,0:0:0:0:
192,192,41677,1,0,0:0:0:60:drum.wav
320,192,41677,1,0,0:0:0:0:
64,192,41827,128,0,41977:0:0:0:0:
192,192,41977,128,0,42127:0:0:0:50:Clap.wav
320,192,41977,1,0,0:0:0:0:
448,192,42127,1,0,0:0:0:0:
320,192,42202,1,0,0:0:0:0:
64,192,42277,128,0,42427:0:0:0:60:drum.wav
192,192,42277,1,0,0:0:0:0:
320,192,42427,1,0,0:0:0:0:
192,192,42502,1,0,0:0:0:0:
64,192,42577,1,0,0:0:0:50:Clap.wav
448,192,42577,1,0,0:0:0:0:
320,192,42652,1,0,0:0:0:60:drum.wav
192,192,42727,1,0,0:0:0:60:drum.wav
448,192,42802,1,0,0:0:0:60:drum.wav
64,192,42877,1,0,0:0:0:60:drum.wav
320,192,42877,1,0,0:0:0:50:finish.wav
192,192,43027,1,0,0:0:0:60:drum.wav
448,192,43027,1,0,0:0:0:50:finish.wav
320,192,43327,1,0,0:0:0:60:drum.wav
448,192,43327,1,0,0:0:0:50:finish.wav
64,192,43627,1,0,0:0:0:60:drum.wav
192,192,43627,1,0,0:0:0:50:finish.wav
192,192,43927,1,0,0:0:0:60:drum.wav
448,192,43927,1,0,0:0:0:50:finish.wav
192,192,44227,1,0,0:0:0:60:drum.wav
320,192,44302,1,0,0:0:0:60:drum.wav
64,192,44377,128,0,45277:0:0:0:60:drum.wav
192,192,44377,128,0,45277:0:0:0:50:finish.wav
320,192,45277,1,0,0:0:0:0:
448,192,45277,128,0,45577:0:0:0:0:
192,192,45427,1,0,0:0:0:0:
64,192,45577,1,0,0:0:0:0:
192,192,45652,1,0,0:0:0:0:
448,192,45727,1,0,0:0:0:0:
320,192,45802,1,0,0:0:0:0:
64,192,45877,1,0,0:0:0:0:
192,192,45877,1,0,0:0:0:0:
320,192,46027,1,0,0:0:0:0:
192,192,46102,1,0,0:0:0:0:
64,192,46177,1,0,0:0:0:0:
448,192,46252,1,0,0:0:0:0:
192,192,46327,1,0,0:0:0:0:
320,192,46402,1,0,0:0:0:0:
64,192,46477,128,0,46777:0:0:0:60:drum.wav
448,192,46477,1,0,0:0:0:50:finish.wav
320,192,46627,1,0,0:0:0:0:
192,192,46777,128,0,47077:0:0:0:50:snare.wav
448,192,46777,1,0,0:0:0:0:
64,192,46927,1,0,0:0:0:0:
320,192,47077,128,0,47377:0:0:0:60:drum.wav
448,192,47077,1,0,0:0:0:0:
192,192,47227,1,0,0:0:0:0:
64,192,47377,1,0,0:0:0:50:snare.wav
448,192,47377,128,0,47677:0:0:0:0:
192,192,47527,1,0,0:0:0:0:
64,192,47677,1,0,0:0:0:60:drum.wav
320,192,47677,128,0,47977:0:0:0:0:
448,192,47827,1,0,0:0:0:0:
64,192,47977,1,0,0:0:0:50:snare.wav
192,192,47977,128,0,48277:0:0:0:0:
448,192,48127,1,0,0:0:0:0:
64,192,48277,128,0,48577:0:0:0:60:drum.wav
320,192,48277,1,0,0:0:0:0:
192,192,48427,1,0,0:0:0:0:
320,192,48577,1,0,0:0:0:50:snare.wav
448,192,48577,128,0,48877:0:0:0:0:
192,192,48727,1,0,0:0:0:0:
64,192,48877,128,0,49477:0:0:0:60:drum.wav
320,192,48877,1,0,0:0:0:0:
448,192,49027,1,0,0:0:0:0:
192,192,49177,1,0,0:0:0:50:snare.wav
320,192,49177,1,0,0:0:0:0:
448,192,49327,1,0,0:0:0:0:
192,192,49477,128,0,49777:0:0:0:60:drum.wav
320,192,49477,1,0,0:0:0:0:
64,192,49627,1,0,0:0:0:0:
320,192,49777,1,0,0:0:0:50:snare.wav
448,192,49777,128,0,50077:0:0:0:0:
192,192,49927,1,0,0:0:0:0:
64,192,50077,1,0,0:0:0:60:drum.wav
320,192,50077,128,0,50677:0:0:0:0:
448,192,50227,1,0,0:0:0:0:
64,192,50377,1,0,0:0:0:50:snare.wav
192,192,50377,1,0,0:0:0:0:
448,192,50527,1,0,0:0:0:0:
64,192,50677,128,0,50977:0:0:0:60:drum.wav
192,192,50677,1,0,0:0:0:0:
320,192,50827,1,0,0:0:0:0:
192,192,50977,128,0,51277:0:0:0:50:snare.wav
448,192,50977,1,0,0:0:0:0:
64,192,51127,1,0,0:0:0:0:
320,192,51277,1,0,0:0:0:60:drum.wav
448,192,51277,128,0,51727:0:0:0:0:
192,192,51427,1,0,0:0:0:0:
64,192,51577,1,0,0:0:0:50:snare.wav
320,192,51577,1,0,0:0:0:0:
192,192,51727,1,0,0:0:0:0:
64,192,51877,1,0,0:0:0:60:drum.wav
448,192,51877,128,0,52177:0:0:0:0:
192,192,52027,1,0,0:0:0:0:
64,192,52177,1,0,0:0:0:50:snare.wav
320,192,52177,128,0,52477:0:0:0:0:
448,192,52327,1,0,0:0:0:0:
64,192,52477,128,0,52777:0:0:0:60:drum.wav
192,192,52477,1,0,0:0:0:0:
320,192,52627,1,0,0:0:0:0:
192,192,52777,128,0,53077:0:0:0:50:snare.wav
448,192,52777,1,0,0:0:0:0:
64,192,52927,1,0,0:0:0:0:
320,192,53077,128,0,53377:0:0:0:60:drum.wav
448,192,53077,1,0,0:0:0:0:
192,192,53227,1,0,0:0:0:0:
64,192,53377,1,0,0:0:0:50:snare.wav
448,192,53377,128,0,53677:0:0:0:0:
320,192,53527,1,0,0:0:0:0:
64,192,53677,1,0,0:0:0:60:drum.wav
192,192,53677,128,0,53977:0:0:0:0:
448,192,53827,1,0,0:0:0:0:
64,192,53977,1,0,0:0:0:50:snare.wav
320,192,53977,128,0,54277:0:0:0:0:
192,192,54127,1,0,0:0:0:0:
64,192,54277,128,0,54577:0:0:0:60:drum.wav
448,192,54277,1,0,0:0:0:0:
192,192,54427,1,0,0:0:0:0:
320,192,54577,1,0,0:0:0:50:snare.wav
448,192,54577,1,0,0:0:0:0:
64,192,54727,128,0,55777:0:0:0:60:drum.wav
192,192,54727,1,0,0:0:0:50:finish.wav
448,192,54727,1,0,0:0:0:0:
448,192,55027,1,0,0:0:0:0:
320,192,55102,1,0,0:0:0:0:
192,192,55177,1,0,0:0:0:0:
320,192,55327,1,0,0:0:0:0:
448,192,55477,1,0,0:0:0:0:
320,192,55627,1,0,0:0:0:0:
192,192,55777,1,0,0:0:0:50:Clap.wav
448,192,55777,1,0,0:0:0:0:
64,192,56077,1,0,0:0:0:60:drum.wav
192,192,56077,1,0,0:0:0:50:finish.wav
448,192,56077,1,0,0:0:0:0:
192,192,56227,1,0,0:0:0:0:
64,192,56377,1,0,0:0:0:60:drum.wav
320,192,56377,1,0,0:0:0:0:
320,192,56527,1,0,0:0:0:0:
192,192,56677,1,0,0:0:0:60:drum.wav
448,192,56677,1,0,0:0:0:0:
192,192,56827,1,0,0:0:0:0:
64,192,56977,1,0,0:0:0:60:drum.wav
448,192,56977,1,0,0:0:0:0:
64,192,57127,1,0,0:0:0:0:
192,192,57277,1,0,0:0:0:60:drum.wav
320,192,57277,1,0,0:0:0:0:
320,192,57427,1,0,0:0:0:0:
192,192,57577,1,0,0:0:0:60:drum.wav
448,192,57577,1,0,0:0:0:0:
192,192,57727,1,0,0:0:0:0:
320,192,57877,1,0,0:0:0:60:drum.wav
448,192,57877,1,0,0:0:0:0:
448,192,58027,1,0,0:0:0:0:
64,192,58177,1,0,0:0:0:60:drum.wav
192,192,58177,1,0,0:0:0:0:
192,192,58327,1,0,0:0:0:0:
64,192,58477,1,0,0:0:0:60:drum.wav
320,192,58477,1,0,0:0:0:0:
320,192,58627,1,0,0:0:0:0:
192,192,58777,1,0,0:0:0:60:drum.wav
448,192,58777,1,0,0:0:0:0:
192,192,58927,1,0,0:0:0:0:
64,192,59077,1,0,0:0:0:60:drum.wav
320,192,59077,1,0,0:0:0:0:
320,192,59227,1,0,0:0:0:0:
64,192,59377,1,0,0:0:0:60:drum.wav
448,192,59377,1,0,0:0:0:0:
448,192,59527,1,0,0:0:0:0:
192,192,59677,1,0,0:0:0:60:drum.wav
320,192,59677,1,0,0:0:0:0:
192,192,59827,1,0,0:0:0:0:
64,192,59977,1,0,0:0:0:60:drum.wav
320,192,59977,1,0,0:0:0:0:
320,192,60127,1,0,0:0:0:0:
64,192,60277,1,0,0:0:0:60:drum.wav
192,192,60277,1,0,0:0:0:0:
64,192,60427,1,0,0:0:0:0:
320,192,60577,1,0,0:0:0:60:drum.wav
448,192,60577,1,0,0:0:0:0:
320,192,60727,1,0,0:0:0:0:
64,192,60877,1,0,0:0:0:60:drum.wav
448,192,60877,1,0,0:0:0:0:
64,192,61027,1,0,0:0:0:0:
192,192,61177,1,0,0:0:0:60:drum.wav
320,192,61177,1,0,0:0:0:0:
320,192,61327,1,0,0:0:0:0:
192,192,61477,1,0,0:0:0:60:drum.wav
448,192,61477,1,0,0:0:0:0:
192,192,61627,1,0,0:0:0:0:
64,192,61777,1,0,0:0:0:60:drum.wav
448,192,61777,1,0,0:0:0:0:
448,192,61927,1,0,0:0:0:0:
192,192,62077,1,0,0:0:0:60:drum.wav
320,192,62077,1,0,0:0:0:0:
320,192,62227,1,0,0:0:0:0:
64,192,62377,1,0,0:0:0:60:drum.wav
192,192,62377,1,0,0:0:0:0:
192,192,62527,1,0,0:0:0:0:
320,192,62677,1,0,0:0:0:60:drum.wav
448,192,62677,1,0,0:0:0:0:
448,192,62827,1,0,0:0:0:0:
64,192,62977,1,0,0:0:0:60:drum.wav
192,192,62977,1,0,0:0:0:0:
192,192,63127,1,0,0:0:0:0:
64,192,63277,128,0,63352:0:0:0:60:drum.wav
448,192,63277,1,0,0:0:0:0:
448,192,63427,128,0,63502:0:0:0:0:
64,192,63577,1,0,0:0:0:60:drum.wav
320,192,63577,128,0,63652:0:0:0:0:
192,192,63727,128,0,63802:0:0:0:0:
64,192,63877,128,0,63952:0:0:0:60:drum.wav
448,192,63877,1,0,0:0:0:0:
320,192,64027,128,0,64102:0:0:0:0:
192,192,64177,128,0,64252:0:0:0:60:drum.wav
448,192,64177,1,0,0:0:0:0:
320,192,64327,128,0,64402:0:0:0:0:
64,192,64477,128,0,64552:0:0:0:60:drum.wav
192,192,64477,1,0,0:0:0:0:
320,192,64627,128,0,64702:0:0:0:0:
192,192,64777,128,0,64852:0:0:0:60:drum.wav
448,192,64777,1,0,0:0:0:0:
320,192,64927,128,0,65002:0:0:0:0:
192,192,65077,1,0,0:0:0:60:drum.wav
320,192,65152,1,0,0:0:0:0:
192,192,65227,1,0,0:0:0:0:
320,192,65302,1,0,0:0:0:0:
64,192,65377,1,0,0:0:0:50:Clap.wav
448,192,65377,1,0,0:0:0:0:
64,192,65677,1,0,0:0:0:60:drum.wav
192,192,65677,1,0,0:0:0:50:finish.wav
448,192,65677,1,0,0:0:0:0:
192,192,65827,1,0,0:0:0:0:
64,192,65977,128,0,66127:0:0:0:50:snare.wav
448,192,65977,1,0,0:0:0:0:
320,192,66127,128,0,66277:0:0:0:0:
64,192,66277,1,0,0:0:0:60:drum.wav
448,192,66277,128,0,66427:0:0:0:0:
192,192,66427,128,0,66577:0:0:0:0:
320,192,66577,128,0,66727:0:0:0:50:snare.wav
448,192,66577,1,0,0:0:0:0:
64,192,66727,128,0,66877:0:0:0:0:
320,192,66877,1,0,0:0:0:60:drum.wav
448,192,66877,1,0,0:0:0:0:
192,192,67027,128,0,67177:0:0:0:0:
64,192,67177,1,0,0:0:0:50:snare.wav
448,192,67177,128,0,67327:0:0:0:0:
320,192,67327,128,0,67477:0:0:0:0:
64,192,67477,1,0,0:0:0:60:drum.wav
192,192,67477,1,0,0:0:0:0:
320,192,67627,1,0,0:0:0:0:
64,192,67777,1,0,0:0:0:50:snare.wav
448,192,67777,128,0,67927:0:0:0:0:
192,192,67927,128,0,68077:0:0:0:0:
64,192,68077,128,0,68227:0:0:0:60:drum.wav
448,192,68077,1,0,0:0:0:0:
320,192,68227,1,0,0:0:0:0:
192,192,68377,1,0,0:0:0:50:snare.wav
448,192,68377,128,0,68527:0:0:0:0:
64,192,68527,128,0,68677:0:0:0:0:
192,192,68677,1,0,0:0:0:60:drum.wav
448,192,68677,1,0,0:0:0:0:
320,192,68827,128,0,68977:0:0:0:0:
192,192,68977,1,0,0:0:0:50:snare.wav
448,192,68977,1,0,0:0:0:0:
64,192,69127,128,0,69277:0:0:0:0:
192,192,69277,1,0,0:0:0:60:drum.wav
320,192,69277,1,0,0:0:0:0:
448,192,69427,128,0,69577:0:0:0:0:
64,192,69577,128,0,69727:0:0:0:50:snare.wav
320,192,69577,1,0,0:0:0:0:
192,192,69727,128,0,69877:0:0:0:0:
320,192,69877,1,0,0:0:0:60:drum.wav
448,192,69877,1,0,0:0:0:0:
192,192,70027,1,0,0:0:0:0:
64,192,70177,1,0,0:0:0:50:snare.wav
320,192,70177,1,0,0:0:0:0:
448,192,70327,1,0,0:0:0:0:
64,192,70477,1,0,0:0:0:60:drum.wav
192,192,70477,128,0,70627:0:0:0:0:
448,192,70627,128,0,70777:0:0:0:0:
64,192,70777,1,0,0:0:0:50:snare.wav
192,192,70777,1,0,0:0:0:0:
320,192,70927,128,0,71077:0:0:0:0:
64,192,71077,1,0,0:0:0:60:drum.wav
448,192,71077,1,0,0:0:0:0:
192,192,71227,128,0,71377:0:0:0:0:
320,192,71377,1,0,0:0:0:50:snare.wav
448,192,71377,1,0,0:0:0:0:
64,192,71527,128,0,71677:0:0:0:0:
192,192,71677,1,0,0:0:0:60:drum.wav
448,192,71677,1,0,0:0:0:0:
320,192,71827,128,0,71977:0:0:0:0:
64,192,71977,1,0,0:0:0:50:snare.wav
448,192,71977,1,0,0:0:0:0:
192,192,72127,128,0,72277:0:0:0:0:
64,192,72277,1,0,0:0:0:60:drum.wav
320,192,72277,1,0,0:0:0:0:
448,192,72427,128,0,72577:0:0:0:0:
64,192,72577,1,0,0:0:0:50:snare.wav
192,192,72577,1,0,0:0:0:0:
320,192,72727,1,0,0:0:0:0:
64,192,72877,128,0,73027:0:0:0:60:drum.wav
448,192,72877,1,0,0:0:0:0:
192,192,73027,1,0,0:0:0:0:
64,192,73177,1,0,0:0:0:50:snare.wav
320,192,73177,1,0,0:0:0:0:
192,192,73327,128,0,73477:0:0:0:0:
64,192,73477,1,0,0:0:0:60:drum.wav
448,192,73477,1,0,0:0:0:0:
320,192,73627,1,0,0:0:0:0:
192,192,73777,1,0,0:0:0:50:snare.wav
448,192,73777,128,0,73927:0:0:0:0:
64,192,73927,1,0,0:0:0:0:
192,192,74077,1,0,0:0:0:60:drum.wav
320,192,74077,1,0,0:0:0:0:
448,192,74227,128,0,74377:0:0:0:0:
64,192,74377,1,0,0:0:0:50:snare.wav
320,192,74377,1,0,0:0:0:0:
192,192,74527,1,0,0:0:0:0:
448,192,74677,1,0,0:0:0:60:drum.wav
320,192,74752,1,0,0:0:0:0:
64,192,74827,1,0,0:0:0:50:Clap.wav
192,192,74827,1,0,0:0:0:0:
320,192,74977,1,0,0:0:0:50:Clap.wav
448,192,74977,1,0,0:0:0:50:snare.wav
192,192,75127,1,0,0:0:0:60:drum.wav
64,192,75277,1,0,0:0:0:60:drum.wav
320,192,75277,1,0,0:0:0:50:finish.wav
448,192,75277,1,0,0:0:0:0:
192,192,75427,1,0,0:0:0:50:hat.wav
320,192,75502,1,0,0:0:0:0:
64,192,75577,1,0,0:0:0:60:drum.wav
448,192,75577,1,0,0:0:0:0:
192,192,75727,1,0,0:0:0:50:hat.wav
320,192,75877,1,0,0:0:0:60:drum.wav
448,192,75877,1,0,0:0:0:0:
192,192,76027,1,0,0:0:0:50:hat.wav
320,192,76102,1,0,0:0:0:0:
64,192,76177,1,0,0:0:0:60:drum.wav
192,192,76177,1,0,0:0:0:0:
320,192,76327,1,0,0:0:0:50:hat.wav
192,192,76477,1,0,0:0:0:60:drum.wav
448,192,76477,1,0,0:0:0:0:
320,192,76627,1,0,0:0:0:50:hat.wav
448,192,76702,1,0,0:0:0:0:
64,192,76777,1,0,0:0:0:60:drum.wav
192,192,76777,1,0,0:0:0:0:
320,192,76927,1,0,0:0:0:50:hat.wav
64,192,77077,1,0,0:0:0:60:drum.wav
448,192,77077,1,0,0:0:0:0:
192,192,77227,1,0,0:0:0:50:hat.wav
64,192,77377,1,0,0:0:0:60:drum.wav
448,192,77377,1,0,0:0:0:0:
192,192,77452,1,0,0:0:0:50:hat.wav
320,192,77527,1,0,0:0:0:50:hat.wav
192,192,77602,1,0,0:0:0:50:hat.wav
64,192,77677,1,0,0:0:0:60:drum.wav
448,192,77677,1,0,0:0:0:0:
320,192,77827,1,0,0:0:0:50:hat.wav
448,192,77902,1,0,0:0:0:0:
64,192,77977,1,0,0:0:0:60:drum.wav
192,192,77977,1,0,0:0:0:0:
320,192,78127,1,0,0:0:0:50:hat.wav
64,192,78277,1,0,0:0:0:60:drum.wav
448,192,78277,1,0,0:0:0:0:
192,192,78427,1,0,0:0:0:50:hat.wav
448,192,78502,1,0,0:0:0:0:
64,192,78577,1,0,0:0:0:60:drum.wav
320,192,78577,1,0,0:0:0:0:
192,192,78727,1,0,0:0:0:50:hat.wav
320,192,78877,1,0,0:0:0:60:drum.wav
448,192,78877,1,0,0:0:0:0:
192,192,79027,1,0,0:0:0:50:hat.wav
320,192,79102,1,0,0:0:0:0:
64,192,79177,1,0,0:0:0:60:drum.wav
448,192,79177,1,0,0:0:0:0:
320,192,79327,1,0,0:0:0:50:hat.wav
64,192,79477,1,0,0:0:0:60:drum.wav
192,192,79477,1,0,0:0:0:0:
320,192,79627,1,0,0:0:0:50:hat.wav
64,192,79777,1,0,0:0:0:60:drum.wav
448,192,79777,1,0,0:0:0:0:
320,192,79852,1,0,0:0:0:50:hat.wav
192,192,79927,1,0,0:0:0:50:hat.wav
320,192,80002,1,0,0:0:0:50:hat.wav
64,192,80077,1,0,0:0:0:50:Clap.wav
448,192,80077,1,0,0:0:0:0:
320,192,80227,1,0,0:0:0:50:hat.wav
192,192,80302,1,0,0:0:0:0:
320,192,80377,1,0,0:0:0:50:Clap.wav
448,192,80377,1,0,0:0:0:0:
192,192,80527,1,0,0:0:0:50:hat.wav
320,192,80602,1,0,0:0:0:50:hat.wav
64,192,80677,1,0,0:0:0:50:Clap.wav
192,192,80677,1,0,0:0:0:0:
320,192,80827,1,0,0:0:0:50:hat.wav
192,192,80902,1,0,0:0:0:0:
320,192,80977,1,0,0:0:0:50:Clap.wav
448,192,80977,1,0,0:0:0:0:
64,192,81127,1,0,0:0:0:50:hat.wav
320,192,81202,1,0,0:0:0:50:hat.wav
64,192,81277,1,0,0:0:0:50:Clap.wav
192,192,81277,1,0,0:0:0:0:
448,192,81427,1,0,0:0:0:50:hat.wav
192,192,81502,1,0,0:0:0:0:
320,192,81577,1,0,0:0:0:50:Clap.wav
448,192,81577,1,0,0:0:0:0:
64,192,81727,1,0,0:0:0:50:hat.wav
320,192,81802,1,0,0:0:0:50:hat.wav
64,192,81877,1,0,0:0:0:50:Clap.wav
192,192,81877,1,0,0:0:0:0:
448,192,82027,1,0,0:0:0:50:hat.wav
192,192,82102,1,0,0:0:0:0:
320,192,82177,1,0,0:0:0:50:Clap.wav
448,192,82177,1,0,0:0:0:0:
192,192,82327,1,0,0:0:0:60:drum.wav
320,192,82402,1,0,0:0:0:60:drum.wav
64,192,82477,1,0,0:0:0:50:snare.wav
192,192,82477,1,0,0:0:0:0:
448,192,82477,1,0,0:0:0:0:
320,192,82627,1,0,0:0:0:50:snare.wav
448,192,82627,1,0,0:0:0:0:
64,192,82927,1,0,0:0:0:50:snare.wav
320,192,82927,1,0,0:0:0:0:
448,192,82927,1,0,0:0:0:0:
64,192,83077,1,0,0:0:0:50:snare.wav
192,192,83077,1,0,0:0:0:0:
192,192,83377,1,0,0:0:0:50:snare.wav
320,192,83377,1,0,0:0:0:0:
448,192,83377,1,0,0:0:0:0:
64,192,83527,128,0,83977:0:0:0:50:snare.wav
320,192,83527,1,0,0:0:0:50:finish.wav
448,192,83527,1,0,0:0:0:0:
320,192,83827,1,0,0:0:0:60:drum.wav
192,192,83977,1,0,0:0:0:50:Clap.wav
448,192,83977,1,0,0:0:0:0:
320,192,84127,1,0,0:0:0:60:drum.wav
64,192,84277,1,0,0:0:0:50:Clap.wav
448,192,84277,1,0,0:0:0:0:
192,192,84427,1,0,0:0:0:60:drum.wav
64,192,84577,1,0,0:0:0:50:Clap.wav
320,192,84577,1,0,0:0:0:0:
192,192,84727,1,0,0:0:0:60:drum.wav
64,192,84877,1,0,0:0:0:50:Clap.wav
320,192,84877,1,0,0:0:0:0:
448,192,84952,1,0,0:0:0:60:drum.wav
192,192,85027,1,0,0:0:0:50:Clap.wav
320,192,85102,1,0,0:0:0:60:drum.wav
64,192,85177,1,0,0:0:0:50:Clap.wav
448,192,85177,1,0,0:0:0:0:
192,192,85252,1,0,0:0:0:60:drum.wav
320,192,85327,1,0,0:0:0:50:Clap.wav
448,192,85402,1,0,0:0:0:60:drum.wav
64,192,85477,1,0,0:0:0:50:Clap.wav
192,192,85477,1,0,0:0:0:0:
320,192,85552,1,0,0:0:0:60:drum.wav
192,192,85627,1,0,0:0:0:50:Clap.wav
64,192,85702,1,0,0:0:0:60:drum.wav
320,192,85777,1,0,0:0:0:50:snare.wav
448,192,85777,1,0,0:0:0:0:
64,192,86077,128,0,86377:0:0:0:60:drum.wav
320,192,86077,1,0,0:0:0:50:finish.wav
448,192,86077,1,0,0:0:0:0:
192,192,86227,128,0,86377:0:0:0:0:
320,192,86377,1,0,0:0:0:50:snare.wav
448,192,86377,128,0,86677:0:0:0:0:
192,192,86527,128,0,86677:0:0:0:0:
64,192,86677,128,0,86977:0:0:0:60:drum.wav
320,192,86677,1,0,0:0:0:0:
192,192,86827,128,0,86977:0:0:0:0:
320,192,86977,1,0,0:0:0:50:snare.wav
448,192,86977,128,0,87277:0:0:0:0:
64,192,87127,128,0,87277:0:0:0:0:
192,192,87277,128,0,87577:0:0:0:60:drum.wav
320,192,87277,1,0,0:0:0:0:
448,192,87427,128,0,87577:0:0:0:0:
64,192,87577,1,0,0:0:0:50:snare.wav
320,192,87577,128,0,87877:0:0:0:0:
192,192,87727,128,0,87877:0:0:0:0:
64,192,87877,128,0,88177:0:0:0:60:drum.wav
448,192,87877,1,0,0:0:0:0:
320,192,88027,128,0,88177:0:0:0:0:
192,192,88177,128,0,88477:0:0:0:50:snare.wav
448,192,88177,1,0,0:0:0:0:
64,192,88327,128,0,88477:0:0:0:0:
320,192,88477,1,0,0:0:0:60:drum.wav
448,192,88477,128,0,89077:0:0:0:0:
192,192,88627,128,0,88777:0:0:0:0:
64,192,88777,128,0,88927:0:0:0:50:snare.wav
320,192,88777,1,0,0:0:0:0:
320,192,88927,128,0,89077:0:0:0:0:
64,192,89077,128,0,89227:0:0:0:60:drum.wav
192,192,89077,1,0,0:0:0:0:
320,192,89227,1,0,0:0:0:0:
192,192,89377,1,0,0:0:0:50:snare.wav
448,192,89377,128,0,89527:0:0:0:0:
320,192,89527,128,0,89677:0:0:0:0:
64,192,89677,128,0,89977:0:0:0:60:drum.wav
192,192,89677,1,0,0:0:0:0:
320,192,89827,1,0,0:0:0:0:
192,192,89977,1,0,0:0:0:50:snare.wav
448,192,89977,1,0,0:0:0:0:
64,192,90127,1,0,0:0:0:0:
320,192,90277,1,0,0:0:0:60:drum.wav
448,192,90277,128,0,90577:0:0:0:0:
192,192,90427,1,0,0:0:0:0:
64,192,90577,1,0,0:0:0:50:snare.wav
320,192,90577,128,0,90877:0:0:0:0:
448,192,90727,1,0,0:0:0:0:
64,192,90877,128,0,91177:0:0:0:60:drum.wav
192,192,90877,1,0,0:0:0:0:
448,192,91027,128,0,91177:0:0:0:0:
192,192,91177,1,0,0:0:0:50:snare.wav
320,192,91177,128,0,91327:0:0:0:0:
448,192,91327,128,0,91477:0:0:0:0:
64,192,91477,128,0,91777:0:0:0:60:drum.wav
192,192,91477,1,0,0:0:0:0:
320,192,91627,128,0,91777:0:0:0:0:
192,192,91777,128,0,92077:0:0:0:50:snare.wav
448,192,91777,1,0,0:0:0:0:
64,192,91927,128,0,92077:0:0:0:0:
320,192,92077,1,0,0:0:0:60:drum.wav
448,192,92077,128,0,92527:0:0:0:0:
192,192,92227,1,0,0:0:0:0:
64,192,92377,1,0,0:0:0:50:snare.wav
320,192,92377,1,0,0:0:0:0:
192,192,92527,1,0,0:0:0:0:
320,192,92677,128,0,93127:0:0:0:60:drum.wav
448,192,92677,1,0,0:0:0:0:
64,192,92827,1,0,0:0:0:0:
192,192,92977,1,0,0:0:0:50:snare.wav
448,192,92977,1,0,0:0:0:0:
64,192,93127,1,0,0:0:0:0:
320,192,93277,1,0,0:0:0:60:drum.wav
448,192,93277,1,0,0:0:0:0:
64,192,93427,1,0,0:0:0:0:
192,192,93427,1,0,0:0:0:0:
320,192,93577,1,0,0:0:0:50:snare.wav
448,192,93577,1,0,0:0:0:0:
64,192,93727,1,0,0:0:0:0:
192,192,93727,1,0,0:0:0:0:
320,192,93877,1,0,0:0:0:60:drum.wav
448,192,93877,1,0,0:0:0:0:
192,192,94027,1,0,0:0:0:0:
320,192,94027,1,0,0:0:0:0:
64,192,94177,1,0,0:0:0:50:snare.wav
192,192,94177,1,0,0:0:0:0:
448,192,94177,1,0,0:0:0:0:
64,192,94327,1,0,0:0:0:60:drum.wav
320,192,94327,128,0,94627:0:0:0:50:finish.wav
448,192,94327,128,0,94627:0:0:0:0:
64,192,94627,1,0,0:0:0:60:drum.wav
192,192,94627,1,0,0:0:0:0:
320,192,94777,1,0,0:0:0:50:snare.wav
448,192,94777,1,0,0:0:0:0:
64,192,94927,128,0,95227:0:0:0:60:drum.wav
192,192,94927,128,0,95227:0:0:0:50:finish.wav
448,192,94927,1,0,0:0:0:0:
320,192,95227,1,0,0:0:0:60:drum.wav
448,192,95227,1,0,0:0:0:0:
192,192,95302,1,0,0:0:0:0:
64,192,95377,1,0,0:0:0:50:snare.wav
320,192,95452,1,0,0:0:0:0:
192,192,95527,1,0,0:0:0:0:
448,192,95602,1,0,0:0:0:0:
320,192,95677,128,0,95977:0:0:0:0:
192,192,95827,128,0,95977:0:0:0:0:
64,192,95977,128,0,96277:0:0:0:50:snare.wav
448,192,95977,1,0,0:0:0:50:finish.wav
320,192,96127,128,0,96277:0:0:0:0:
192,192,96277,128,0,96577:0:0:0:60:drum.wav
448,192,96277,1,0,0:0:0:0:
64,192,96427,128,0,96577:0:0:0:0:
320,192,96577,128,0,96877:0:0:0:50:snare.wav
448,192,96577,1,0,0:0:0:0:
192,192,96727,128,0,96877:0:0:0:0:
64,192,96877,1,0,0:0:0:60:drum.wav
448,192,96877,128,0,97177:0:0:0:0:
320,192,97027,128,0,97177:0:0:0:0:
64,192,97177,128,0,97477:0:0:0:50:snare.wav
192,192,97177,1,0,0:0:0:0:
448,192,97327,128,0,97477:0:0:0:0:
192,192,97477,128,0,97777:0:0:0:60:drum.wav
320,192,97477,1,0,0:0:0:0:
64,192,97627,128,0,97777:0:0:0:0:
320,192,97777,1,0,0:0:0:50:snare.wav
448,192,97777,128,0,98077:0:0:0:0:
192,192,97927,128,0,98077:0:0:0:0:
64,192,98077,128,0,98527:0:0:0:60:drum.wav
320,192,98077,1,0,0:0:0:0:
192,192,98227,1,0,0:0:0:0:
320,192,98377,1,0,0:0:0:50:snare.wav
448,192,98377,1,0,0:0:0:0:
192,192,98527,1,0,0:0:0:0:
64,192,98677,1,0,0:0:0:60:drum.wav
448,192,98677,128,0,98827:0:0:0:0:
320,192,98827,1,0,0:0:0:0:
64,192,98977,128,0,99127:0:0:0:50:snare.wav
192,192,98977,1,0,0:0:0:0:
320,192,99127,128,0,99277:0:0:0:0:
192,192,99277,1,0,0:0:0:60:drum.wav
448,192,99277,128,0,99577:0:0:0:0:
64,192,99427,1,0,0:0:0:0:
192,192,99577,1,0,0:0:0:50:snare.wav
320,192,99577,1,0,0:0:0:0:
448,192,99727,1,0,0:0:0:0:
64,192,99877,128,0,100177:0:0:0:60:drum.wav
192,192,99877,1,0,0:0:0:0:
320,192,100027,1,0,0:0:0:0:
192,192,100177,128,0,100477:0:0:0:50:snare.wav
448,192,100177,1,0,0:0:0:0:
64,192,100327,1,0,0:0:0:0:
320,192,100477,1,0,0:0:0:60:drum.wav
448,192,100477,128,0,100777:0:0:0:0:
64,192,100627,1,0,0:0:0:0:
192,192,100777,1,0,0:0:0:50:snare.wav
320,192,100777,1,0,0:0:0:0:
64,192,100927,1,0,0:0:0:0:
320,192,101077,1,0,0:0:0:60:drum.wav
448,192,101077,128,0,101677:0:0:0:0:
192,192,101227,1,0,0:0:0:0:
64,192,101377,1,0,0:0:0:50:snare.wav
320,192,101377,1,0,0:0:0:0:
192,192,101527,1,0,0:0:0:0:
64,192,101677,128,0,101977:0:0:0:60:drum.wav
320,192,101677,1,0,0:0:0:0:
448,192,101827,1,0,0:0:0:50:hat.wav
192,192,101977,128,0,102277:0:0:0:50:snare.wav
320,192,101977,1,0,0:0:0:0:
64,192,102127,1,0,0:0:0:50:hat.wav
320,192,102277,1,0,0:0:0:50:snare.wav
448,192,102277,128,0,102577:0:0:0:0:
64,192,102427,1,0,0:0:0:50:hat.wav
192,192,102577,1,0,0:0:0:50:snare.wav
320,192,102577,128,0,102877:0:0:0:0:
448,192,102727,1,0,0:0:0:50:hat.wav
64,192,102877,128,0,103027:0:0:0:60:drum.wav
192,192,102877,1,0,0:0:0:50:finish.wav
320,192,103027,1,0,0:0:0:0:
192,192,103177,1,0,0:0:0:50:Clap.wav
448,192,103177,128,0,103327:0:0:0:0:
64,192,103327,1,0,0:0:0:0:
320,192,103477,128,0,103777:0:0:0:60:drum.wav
448,192,103477,1,0,0:0:0:0:
192,192,103627,1,0,0:0:0:0:
64,192,103777,1,0,0:0:0:50:Clap.wav
448,192,103777,1,0,0:0:0:0:
192,192,103927,128,0,104077:0:0:0:0:
64,192,104077,1,0,0:0:0:60:drum.wav
448,192,104077,1,0,0:0:0:0:
320,192,104227,128,0,104377:0:0:0:0:
64,192,104377,128,0,104527:0:0:0:50:Clap.wav
192,192,104377,1,0,0:0:0:0:
448,192,104527,128,0,104677:0:0:0:0:
192,192,104677,1,0,0:0:0:60:drum.wav
320,192,104677,128,0,104977:0:0:0:0:
64,192,104827,1,0,0:0:0:0:
192,192,104977,1,0,0:0:0:50:Clap.wav
448,192,104977,1,0,0:0:0:0:
64,192,105127,128,0,105427:0:0:0:0:
192,192,105277,1,0,0:0:0:60:drum.wav
448,192,105277,1,0,0:0:0:0:
320,192,105427,128,0,105577:0:0:0:0:
64,192,105577,1,0,0:0:0:50:Clap.wav
192,192,105577,128,0,105727:0:0:0:0:
320,192,105727,128,0,105877:0:0:0:0:
64,192,105877,1,0,0:0:0:60:drum.wav
448,192,105877,128,0,106177:0:0:0:0:
192,192,106027,1,0,0:0:0:0:
64,192,106177,128,0,106327:0:0:0:50:Clap.wav
320,192,106177,1,0,0:0:0:0:
448,192,106327,128,0,106627:0:0:0:0:
64,192,106477,1,0,0:0:0:60:drum.wav
192,192,106477,1,0,0:0:0:0:
320,192,106627,128,0,106927:0:0:0:0:
192,192,106777,1,0,0:0:0:50:Clap.wav
448,192,106777,1,0,0:0:0:0:
64,192,106927,128,0,107077:0:0:0:0:
192,192,107077,1,0,0:0:0:60:drum.wav
448,192,107077,1,0,0:0:0:0:
320,192,107227,1,0,0:0:0:0:
64,192,107377,1,0,0:0:0:50:Clap.wav
192,192,107377,128,0,107527:0:0:0:0:
448,192,107377,1,0,0:0:0:0:
320,192,107677,1,0,0:0:0:60:drum.wav
448,192,107677,128,0,107827:0:0:0:0:
192,192,107827,1,0,0:0:0:0:
64,192,107977,128,0,108127:0:0:0:50:Clap.wav
320,192,107977,1,0,0:0:0:0:
448,192,108127,1,0,0:0:0:0:
64,192,108277,1,0,0:0:0:60:drum.wav
192,192,108277,128,0,108577:0:0:0:0:
320,192,108427,1,0,0:0:0:0:
64,192,108577,1,0,0:0:0:50:Clap.wav
448,192,108577,1,0,0:0:0:0:
320,192,108727,128,0,108877:0:0:0:0:
64,192,108877,1,0,0:0:0:60:drum.wav
448,192,108877,1,0,0:0:0:0:
192,192,109027,128,0,109177:0:0:0:0:
320,192,109177,1,0,0:0:0:50:Clap.wav
448,192,109177,128,0,109327:0:0:0:0:
64,192,109327,128,0,109477:0:0:0:0:
192,192,109477,128,0,109777:0:0:0:60:drum.wav
320,192,109477,1,0,0:0:0:0:
448,192,109627,1,0,0:0:0:0:
64,192,109777,1,0,0:0:0:50:Clap.wav
320,192,109777,1,0,0:0:0:0:
192,192,109927,1,0,0:0:0:0:
320,192,110077,128,0,110227:0:0:0:60:drum.wav
448,192,110077,128,0,110227:0:0:0:0:
64,192,110227,1,0,0:0:0:0:
192,192,110377,1,0,0:0:0:50:Clap.wav
448,192,110377,128,0,110527:0:0:0:0:
320,192,110527,1,0,0:0:0:0:
64,192,110677,1,0,0:0:0:60:drum.wav
448,192,110677,128,0,110977:0:0:0:0:
192,192,110977,1,0,0:0:0:50:Clap.wav
320,192,110977,1,0,0:0:0:0:
64,192,111127,128,0,111427:0:0:0:60:drum.wav
320,192,111127,1,0,0:0:0:50:finish.wav
448,192,111127,1,0,0:0:0:0:
448,192,111427,1,0,0:0:0:0:
448,192,111577,1,0,0:0:0:0:
448,192,111727,1,0,0:0:0:0:
448,192,111877,1,0,0:0:0:0:
320,192,111952,1,0,0:0:0:0:
192,192,112027,1,0,0:0:0:0:
64,192,112102,1,0,0:0:0:0:
320,192,112177,1,0,0:0:0:0:
448,192,112177,1,0,0:0:0:0:
64,192,112477,1,0,0:0:0:60:drum.wav
448,192,112477,128,0,112777:0:0:0:50:finish.wav
192,192,112627,1,0,0:0:0:0:
64,192,112777,1,0,0:0:0:50:snare.wav
320,192,112777,128,0,113077:0:0:0:0:
448,192,112927,1,0,0:0:0:0:
64,192,113077,1,0,0:0:0:60:drum.wav
192,192,113077,128,0,113377:0:0:0:0:
320,192,113227,1,0,0:0:0:0:
64,192,113377,128,0,113677:0:0:0:50:snare.wav
448,192,113377,1,0,0:0:0:0:
320,192,113527,1,0,0:0:0:0:
192,192,113677,128,0,113977:0:0:0:60:drum.wav
448,192,113677,1,0,0:0:0:0:
64,192,113827,1,0,0:0:0:0:
320,192,113977,128,0,114277:0:0:0:50:snare.wav
448,192,113977,1,0,0:0:0:0:
64,192,114127,1,0,0:0:0:0:
192,192,114277,1,0,0:0:0:60:drum.wav
448,192,114277,128,0,114577:0:0:0:0:
320,192,114427,1,0,0:0:0:0:
64,192,114577,128,0,114877:0:0:0:50:snare.wav
192,192,114577,1,0,0:0:0:0:
320,192,114727,1,0,0:0:0:0:
192,192,114877,1,0,0:0:0:60:drum.wav
448,192,114877,128,0,115477:0:0:0:0:
64,192,115027,1,0,0:0:0:0:
192,192,115177,1,0,0:0:0:50:snare.wav
320,192,115177,1,0,0:0:0:0:
64,192,115327,1,0,0:0:0:0:
192,192,115477,1,0,0:0:0:60:drum.wav
320,192,115477,128,0,115777:0:0:0:0:
448,192,115627,1,0,0:0:0:0:
64,192,115777,128,0,116077:0:0:0:50:snare.wav
192,192,115777,1,0,0:0:0:0:
320,192,115927,1,0,0:0:0:0:
192,192,116077,128,0,116677:0:0:0:60:drum.wav
448,192,116077,1,0,0:0:0:0:
64,192,116227,1,0,0:0:0:0:
320,192,116377,1,0,0:0:0:50:snare.wav
448,192,116377,1,0,0:0:0:0:
64,192,116527,1,0,0:0:0:0:
320,192,116677,1,0,0:0:0:60:drum.wav
448,192,116677,128,0,116977:0:0:0:0:
192,192,116827,1,0,0:0:0:0:
64,192,116977,1,0,0:0:0:50:snare.wav
320,192,116977,128,0,117277:0:0:0:0:
448,192,117127,1,0,0:0:0:0:
64,192,117277,128,0,117727:0:0:0:60:drum.wav
192,192,117277,1,0,0:0:0:0:
320,192,117427,1,0,0:0:0:0:
192,192,117577,1,0,0:0:0:50:snare.wav
448,192,117577,1,0,0:0:0:0:
320,192,117727,1,0,0:0:0:0:
64,192,117877,128,0,118177:0:0:0:60:drum.wav
448,192,117877,1,0,0:0:0:0:
320,192,118027,1,0,0:0:0:0:
192,192,118177,128,0,118477:0:0:0:50:snare.wav
448,192,118177,1,0,0:0:0:0:
64,192,118327,1,0,0:0:0:0:
320,192,118477,1,0,0:0:0:60:drum.wav
448,192,118477,128,0,118777:0:0:0:0:
192,192,118627,1,0,0:0:0:0:
64,192,118777,1,0,0:0:0:50:snare.wav
320,192,118777,128,0,119077:0:0:0:0:
448,192,118927,1,0,0:0:0:0:
64,192,119077,1,0,0:0:0:60:drum.wav
192,192,119077,128,0,119377:0:0:0:0:
320,192,119227,1,0,0:0:0:0:
64,192,119377,128,0,119677:0:0:0:50:snare.wav
448,192,119377,1,0,0:0:0:0:
192,192,119527,1,0,0:0:0:0:
320,192,119677,128,0,119977:0:0:0:60:drum.wav
448,192,119677,1,0,0:0:0:0:
64,192,119827,1,0,0:0:0:0:
192,192,119977,128,0,120277:0:0:0:50:snare.wav
448,192,119977,1,0,0:0:0:0:
320,192,120127,1,0,0:0:0:0:
64,192,120277,1,0,0:0:0:60:drum.wav
448,192,120277,128,0,120577:0:0:0:0:
320,192,120427,1,0,0:0:0:0:
64,192,120577,1,0,0:0:0:50:snare.wav
192,192,120577,1,0,0:0:0:0:
64,192,120727,1,0,0:0:0:60:drum.wav
320,192,120727,1,0,0:0:0:50:finish.wav
448,192,120727,128,0,121777:0:0:0:0:
64,192,121027,1,0,0:0:0:0:
192,192,121102,1,0,0:0:0:0:
320,192,121177,1,0,0:0:0:0:
192,192,121327,1,0,0:0:0:0:
64,192,121477,1,0,0:0:0:0:
192,192,121627,1,0,0:0:0:0:
64,192,121777,1,0,0:0:0:0:
320,192,121777,1,0,0:0:0:0:
320,192,122077,1,0,0:0:0:60:drum.wav
448,192,122077,1,0,0:0:0:50:finish.wav
64,192,122227,1,0,0:0:0:60:drum.wav
192,192,122227,1,0,0:0:0:0:
320,192,122377,1,0,0:0:0:50:snare.wav
448,192,122377,1,0,0:0:0:0:
64,192,122527,1,0,0:0:0:60:drum.wav
192,192,122527,1,0,0:0:0:0:
448,192,122677,1,0,0:0:0:0:
192,192,122827,1,0,0:0:0:60:drum.wav
320,192,122827,1,0,0:0:0:0:
64,192,122977,1,0,0:0:0:50:snare.wav
448,192,122977,1,0,0:0:0:0:
320,192,123127,1,0,0:0:0:0:
64,192,123427,1,0,0:0:0:60:drum.wav
192,192,123427,1,0,0:0:0:0:
320,192,123577,1,0,0:0:0:50:snare.wav
448,192,123577,1,0,0:0:0:0:
192,192,123727,1,0,0:0:0:0:
320,192,123877,1,0,0:0:0:60:drum.wav
448,192,123877,1,0,0:0:0:0:
320,192,124027,1,0,0:0:0:60:drum.wav
448,192,124027,1,0,0:0:0:0:
64,192,124177,1,0,0:0:0:50:snare.wav
192,192,124177,1,0,0:0:0:0:
320,192,124327,1,0,0:0:0:0:
192,192,124477,1,0,0:0:0:60:drum.wav
448,192,124477,1,0,0:0:0:0:
192,192,124627,1,0,0:0:0:60:drum.wav
448,192,124627,1,0,0:0:0:0:
64,192,124777,1,0,0:0:0:50:snare.wav
320,192,124777,1,0,0:0:0:0:
192,192,124927,1,0,0:0:0:60:drum.wav
448,192,124927,1,0,0:0:0:0:
64,192,125227,1,0,0:0:0:60:drum.wav
192,192,125227,1,0,0:0:0:0:
320,192,125377,1,0,0:0:0:50:snare.wav
448,192,125377,1,0,0:0:0:0:
64,192,125527,1,0,0:0:0:0:
192,192,125677,1,0,0:0:0:0:
320,192,125827,1,0,0:0:0:60:drum.wav
448,192,125827,1,0,0:0:0:0:
64,192,125977,1,0,0:0:0:50:snare.wav
192,192,125977,1,0,0:0:0:0:
448,192,126127,1,0,0:0:0:0:
64,192,126277,1,0,0:0:0:60:drum.wav
192,192,126277,1,0,0:0:0:0:
64,192,126427,1,0,0:0:0:60:drum.wav
192,192,126427,1,0,0:0:0:0:
320,192,126577,1,0,0:0:0:50:snare.wav
448,192,126577,1,0,0:0:0:0:
192,192,126727,1,0,0:0:0:0:
64,192,126877,1,0,0:0:0:60:drum.wav
448,192,126877,1,0,0:0:0:0:
192,192,127027,1,0,0:0:0:60:drum.wav
320,192,127027,1,0,0:0:0:0:
64,192,127177,1,0,0:0:0:50:snare.wav
448,192,127177,1,0,0:0:0:0:
192,192,127327,1,0,0:0:0:60:drum.wav
320,192,127327,1,0,0:0:0:0:
320,192,127627,1,0,0:0:0:60:drum.wav
448,192,127627,1,0,0:0:0:0:
64,192,127777,1,0,0:0:0:50:snare.wav
192,192,127777,1,0,0:0:0:0:
320,192,127927,1,0,0:0:0:0:
64,192,128077,1,0,0:0:0:0:
192,192,128227,1,0,0:0:0:60:drum.wav
448,192,128227,1,0,0:0:0:0:
64,192,128377,1,0,0:0:0:50:snare.wav
320,192,128377,1,0,0:0:0:0:
448,192,128527,1,0,0:0:0:0:
64,192,128677,1,0,0:0:0:60:drum.wav
192,192,128677,1,0,0:0:0:0:
64,192,128827,1,0,0:0:0:60:drum.wav
192,192,128827,1,0,0:0:0:0:
320,192,128977,1,0,0:0:0:50:snare.wav
448,192,128977,1,0,0:0:0:0:
320,192,129277,128,0,129352:0:0:0:60:drum.wav
448,192,129277,1,0,0:0:0:0:
64,192,129427,1,0,0:0:0:60:drum.wav
192,192,129427,128,0,129502:0:0:0:0:
320,192,129577,128,0,129652:0:0:0:50:snare.wav
448,192,129577,1,0,0:0:0:0:
64,192,129727,1,0,0:0:0:60:drum.wav
192,192,129727,128,0,129802:0:0:0:0:
448,192,129877,128,0,129952:0:0:0:0:
192,192,130027,1,0,0:0:0:60:drum.wav
320,192,130027,128,0,130102:0:0:0:0:
64,192,130177,128,0,130252:0:0:0:50:snare.wav
448,192,130177,1,0,0:0:0:0:
192,192,130327,128,0,130402:0:0:0:0:
448,192,130477,128,0,130552:0:0:0:0:
64,192,130627,1,0,0:0:0:60:drum.wav
320,192,130627,128,0,130702:0:0:0:0:
192,192,130777,128,0,130852:0:0:0:50:snare.wav
448,192,130777,1,0,0:0:0:0:
64,192,130927,128,0,131002:0:0:0:60:drum.wav
320,192,130927,1,0,0:0:0:0:
448,192,131077,1,0,0:0:0:60:drum.wav
192,192,131152,1,0,0:0:0:0:
448,192,131227,1,0,0:0:0:0:
192,192,131302,1,0,0:0:0:0:
64,192,131377,1,0,0:0:0:0:
320,192,131377,1,0,0:0:0:0:
64,192,131677,1,0,0:0:0:60:drum.wav
320,192,131677,1,0,0:0:0:50:finish.wav
448,192,131677,1,0,0:0:0:0:
320,192,131827,1,0,0:0:0:0:
64,192,131977,1,0,0:0:0:50:snare.wav
448,192,131977,128,0,132127:0:0:0:0:
192,192,132127,128,0,132277:0:0:0:0:
64,192,132277,128,0,132427:0:0:0:60:drum.wav
448,192,132277,1,0,0:0:0:0:
320,192,132427,128,0,132577:0:0:0:0:
64,192,132577,1,0,0:0:0:50:snare.wav
192,192,132577,128,0,132727:0:0:0:0:
448,192,132727,128,0,132877:0:0:0:0:
64,192,132877,1,0,0:0:0:60:drum.wav
192,192,132877,1,0,0:0:0:0:
320,192,133027,128,0,133177:0:0:0:0:
64,192,133177,128,0,133327:0:0:0:50:snare.wav
448,192,133177,1,0,0:0:0:0:
192,192,133327,128,0,133477:0:0:0:0:
320,192,133477,1,0,0:0:0:60:drum.wav
448,192,133477,1,0,0:0:0:0:
192,192,133627,1,0,0:0:0:0:
64,192,133777,128,0,133927:0:0:0:50:snare.wav
448,192,133777,1,0,0:0:0:0:
320,192,133927,128,0,134077:0:0:0:0:
64,192,134077,1,0,0:0:0:60:drum.wav
448,192,134077,128,0,134227:0:0:0:0:
192,192,134227,1,0,0:0:0:0:
64,192,134377,128,0,134527:0:0:0:50:snare.wav
320,192,134377,1,0,0:0:0:0:
448,192,134527,128,0,134677:0:0:0:0:
64,192,134677,1,0,0:0:0:60:drum.wav
320,192,134677,1,0,0:0:0:0:
192,192,134827,128,0,134977:0:0:0:0:
64,192,134977,1,0,0:0:0:50:snare.wav
320,192,134977,1,0,0:0:0:0:
448,192,135127,128,0,135277:0:0:0:0:
192,192,135277,1,0,0:0:0:60:drum.wav
320,192,135277,1,0,0:0:0:0:
64,192,135427,128,0,135577:0:0:0:0:
192,192,135577,1,0,0:0:0:50:snare.wav
448,192,135577,128,0,135727:0:0:0:0:
320,192,135727,128,0,135877:0:0:0:0:
64,192,135877,1,0,0:0:0:60:drum.wav
192,192,135877,1,0,0:0:0:0:
320,192,136027,1,0,0:0:0:0:
64,192,136177,1,0,0:0:0:50:snare.wav
448,192,136177,1,0,0:0:0:0:
192,192,136327,1,0,0:0:0:0:
64,192,136477,128,0,136627:0:0:0:60:drum.wav
448,192,136477,1,0,0:0:0:0:
320,192,136627,128,0,136777:0:0:0:0:
64,192,136777,1,0,0:0:0:50:snare.wav
448,192,136777,1,0,0:0:0:0:
192,192,136927,128,0,137077:0:0:0:0:
64,192,137077,1,0,0:0:0:60:drum.wav
448,192,137077,1,0,0:0:0:0:
320,192,137227,128,0,137377:0:0:0:0:
64,192,137377,1,0,0:0:0:50:snare.wav
192,192,137377,1,0,0:0:0:0:
448,192,137527,128,0,137677:0:0:0:0:
64,192,137677,1,0,0:0:0:60:drum.wav
320,192,137677,1,0,0:0:0:0:
192,192,137827,128,0,137977:0:0:0:0:
64,192,137977,1,0,0:0:0:50:snare.wav
448,192,137977,1,0,0:0:0:0:
320,192,138127,128,0,138277:0:0:0:0:
192,192,138277,1,0,0:0:0:60:drum.wav
448,192,138277,1,0,0:0:0:0:
64,192,138427,128,0,138577:0:0:0:0:
320,192,138577,128,0,138727:0:0:0:50:snare.wav
448,192,138577,1,0,0:0:0:0:
192,192,138727,1,0,0:0:0:0:
64,192,138877,1,0,0:0:0:60:drum.wav
448,192,138877,128,0,139027:0:0:0:0:
320,192,139027,1,0,0:0:0:0:
192,192,139177,1,0,0:0:0:50:snare.wav
448,192,139177,1,0,0:0:0:0:
320,192,139327,128,0,139477:0:0:0:0:
64,192,139477,1,0,0:0:0:60:drum.wav
448,192,139477,1,0,0:0:0:0:
192,192,139627,1,0,0:0:0:0:
64,192,139777,128,0,139927:0:0:0:50:snare.wav
320,192,139777,1,0,0:0:0:0:
448,192,139927,1,0,0:0:0:0:
192,192,140077,1,0,0:0:0:60:drum.wav
320,192,140077,1,0,0:0:0:0:
64,192,140227,128,0,140677:0:0:0:0:
320,192,140377,1,0,0:0:0:50:snare.wav
448,192,140377,1,0,0:0:0:0:
192,192,140527,1,0,0:0:0:0:
448,192,140677,1,0,0:0:0:60:drum.wav
320,192,140752,1,0,0:0:0:0:
64,192,140827,1,0,0:0:0:50:Clap.wav
192,192,140827,1,0,0:0:0:0:
320,192,140977,1,0,0:0:0:50:snare.wav
448,192,140977,1,0,0:0:0:0:
192,192,141127,1,0,0:0:0:60:drum.wav
64,192,141277,1,0,0:0:0:60:drum.wav
192,192,141277,1,0,0:0:0:50:finish.wav
448,192,141277,1,0,0:0:0:0:
320,192,141427,1,0,0:0:0:50:hat.wav
192,192,141502,1,0,0:0:0:0:
64,192,141577,1,0,0:0:0:60:drum.wav
448,192,141577,1,0,0:0:0:0:
320,192,141727,1,0,0:0:0:50:hat.wav
64,192,141877,1,0,0:0:0:60:drum.wav
192,192,141877,1,0,0:0:0:0:
320,192,142027,1,0,0:0:0:50:hat.wav
192,192,142102,1,0,0:0:0:0:
320,192,142177,1,0,0:0:0:60:drum.wav
448,192,142177,1,0,0:0:0:0:
192,192,142327,1,0,0:0:0:50:hat.wav
64,192,142477,1,0,0:0:0:60:drum.wav
320,192,142477,1,0,0:0:0:0:
192,192,142627,1,0,0:0:0:50:hat.wav
64,192,142702,1,0,0:0:0:0:
320,192,142777,1,0,0:0:0:60:drum.wav
448,192,142777,1,0,0:0:0:0:
192,192,142927,1,0,0:0:0:50:hat.wav
64,192,143077,1,0,0:0:0:60:drum.wav
448,192,143077,1,0,0:0:0:0:
320,192,143227,1,0,0:0:0:50:hat.wav
64,192,143377,1,0,0:0:0:60:drum.wav
448,192,143377,1,0,0:0:0:0:
320,192,143452,1,0,0:0:0:50:hat.wav
192,192,143527,1,0,0:0:0:50:hat.wav
320,192,143602,1,0,0:0:0:50:hat.wav
64,192,143677,1,0,0:0:0:60:drum.wav
448,192,143677,1,0,0:0:0:0:
192,192,143827,1,0,0:0:0:50:hat.wav
64,192,143902,1,0,0:0:0:0:
320,192,143977,1,0,0:0:0:60:drum.wav
448,192,143977,1,0,0:0:0:0:
192,192,144127,1,0,0:0:0:50:hat.wav
64,192,144277,1,0,0:0:0:60:drum.wav
448,192,144277,1,0,0:0:0:0:
320,192,144427,1,0,0:0:0:50:hat.wav
64,192,144502,1,0,0:0:0:0:
192,192,144577,1,0,0:0:0:60:drum.wav
448,192,144577,1,0,0:0:0:0:
320,192,144727,1,0,0:0:0:50:hat.wav
64,192,144877,1,0,0:0:0:60:drum.wav
192,192,144877,1,0,0:0:0:0:
320,192,145027,1,0,0:0:0:50:hat.wav
192,192,145102,1,0,0:0:0:0:
64,192,145177,1,0,0:0:0:60:drum.wav
448,192,145177,1,0,0:0:0:0:
192,192,145327,1,0,0:0:0:50:hat.wav
320,192,145477,1,0,0:0:0:60:drum.wav
448,192,145477,1,0,0:0:0:0:
192,192,145627,1,0,0:0:0:50:hat.wav
64,192,145777,1,0,0:0:0:60:drum.wav
448,192,145777,1,0,0:0:0:0:
192,192,145852,1,0,0:0:0:50:hat.wav
320,192,145927,1,0,0:0:0:50:hat.wav
192,192,146002,1,0,0:0:0:50:hat.wav
64,192,146077,1,0,0:0:0:50:Clap.wav
448,192,146077,1,0,0:0:0:0:
192,192,146227,1,0,0:0:0:50:hat.wav
320,192,146302,1,0,0:0:0:0:
64,192,146377,1,0,0:0:0:50:Clap.wav
192,192,146377,1,0,0:0:0:0:
320,192,146527,1,0,0:0:0:50:hat.wav
192,192,146602,1,0,0:0:0:50:hat.wav
320,192,146677,1,0,0:0:0:50:Clap.wav
448,192,146677,1,0,0:0:0:0:
192,192,146827,1,0,0:0:0:50:hat.wav
320,192,146902,1,0,0:0:0:0:
64,192,146977,1,0,0:0:0:50:Clap.wav
192,192,146977,1,0,0:0:0:0:
448,192,147127,1,0,0:0:0:50:hat.wav
192,192,147202,1,0,0:0:0:50:hat.wav
320,192,147277,1,0,0:0:0:50:Clap.wav
448,192,147277,1,0,0:0:0:0:
64,192,147427,1,0,0:0:0:50:hat.wav
320,192,147502,1,0,0:0:0:0:
64,192,147577,1,0,0:0:0:50:Clap.wav
192,192,147577,1,0,0:0:0:0:
448,192,147727,1,0,0:0:0:50:hat.wav
192,192,147802,1,0,0:0:0:50:hat.wav
320,192,147877,1,0,0:0:0:50:Clap.wav
448,192,147877,1,0,0:0:0:0:
64,192,148027,1,0,0:0:0:50:hat.wav
320,192,148102,1,0,0:0:0:0:
64,192,148177,1,0,0:0:0:50:Clap.wav
192,192,148177,1,0,0:0:0:0:
320,192,148327,1,0,0:0:0:60:drum.wav
192,192,148402,1,0,0:0:0:60:drum.wav
64,192,148477,1,0,0:0:0:50:snare.wav
320,192,148477,1,0,0:0:0:0:
448,192,148477,1,0,0:0:0:0:
64,192,148627,1,0,0:0:0:50:snare.wav
192,192,148627,1,0,0:0:0:0:
64,192,148927,1,0,0:0:0:50:snare.wav
192,192,148927,1,0,0:0:0:0:
448,192,148927,1,0,0:0:0:0:
320,192,149077,1,0,0:0:0:50:snare.wav
448,192,149077,1,0,0:0:0:0:
64,192,149377,1,0,0:0:0:50:snare.wav
192,192,149377,1,0,0:0:0:0:
320,192,149377,1,0,0:0:0:0:
64,192,149527,1,0,0:0:0:50:snare.wav
192,192,149527,1,0,0:0:0:50:finish.wav
448,192,149527,128,0,149977:0:0:0:0:
192,192,149827,1,0,0:0:0:60:drum.wav
64,192,149977,1,0,0:0:0:50:Clap.wav
320,192,149977,1,0,0:0:0:0:
192,192,150127,1,0,0:0:0:60:drum.wav
64,192,150277,1,0,0:0:0:50:Clap.wav
448,192,150277,1,0,0:0:0:0:
320,192,150427,1,0,0:0:0:60:drum.wav
192,192,150577,1,0,0:0:0:50:Clap.wav
448,192,150577,1,0,0:0:0:0:
320,192,150727,1,0,0:0:0:60:drum.wav
192,192,150877,1,0,0:0:0:50:Clap.wav
448,192,150877,1,0,0:0:0:0:
64,192,150952,1,0,0:0:0:60:drum.wav
320,192,151027,1,0,0:0:0:50:Clap.wav
192,192,151102,1,0,0:0:0:60:drum.wav
64,192,151177,1,0,0:0:0:50:Clap.wav
448,192,151177,1,0,0:0:0:0:
320,192,151252,1,0,0:0:0:60:drum.wav
192,192,151327,1,0,0:0:0:50:Clap.wav
64,192,151402,1,0,0:0:0:60:drum.wav
320,192,151477,1,0,0:0:0:50:Clap.wav
448,192,151477,1,0,0:0:0:0:
192,192,151552,1,0,0:0:0:60:drum.wav
320,192,151627,1,0,0:0:0:50:Clap.wav
448,192,151702,1,0,0:0:0:60:drum.wav
64,192,151777,1,0,0:0:0:50:snare.wav
192,192,151777,1,0,0:0:0:0:
64,192,152077,1,0,0:0:0:60:drum.wav
192,192,152077,1,0,0:0:0:50:finish.wav
448,192,152077,128,0,152377:0:0:0:0:
320,192,152227,128,0,152377:0:0:0:0:
64,192,152377,128,0,152677:0:0:0:50:snare.wav
192,192,152377,1,0,0:0:0:0:
320,192,152527,128,0,152677:0:0:0:0:
192,192,152677,1,0,0:0:0:60:drum.wav
448,192,152677,128,0,152977:0:0:0:0:
320,192,152827,128,0,152977:0:0:0:0:
64,192,152977,128,0,153277:0:0:0:50:snare.wav
192,192,152977,1,0,0:0:0:0:
448,192,153127,128,0,153277:0:0:0:0:
192,192,153277,1,0,0:0:0:60:drum.wav
320,192,153277,128,0,153577:0:0:0:0:
64,192,153427,128,0,153577:0:0:0:0:
192,192,153577,128,0,153877:0:0:0:50:snare.wav
448,192,153577,1,0,0:0:0:0:
320,192,153727,128,0,153877:0:0:0:0:
64,192,153877,1,0,0:0:0:60:drum.wav
448,192,153877,128,0,154177:0:0:0:0:
192,192,154027,128,0,154177:0:0:0:0:
64,192,154177,1,0,0:0:0:50:snare.wav
320,192,154177,128,0,154477:0:0:0:0:
448,192,154327,128,0,154477:0:0:0:0:
64,192,154477,128,0,155077:0:0:0:60:drum.wav
192,192,154477,1,0,0:0:0:0:
320,192,154627,128,0,154777:0:0:0:0:
192,192,154777,1,0,0:0:0:50:snare.wav
448,192,154777,128,0,154927:0:0:0:0:
192,192,154927,128,0,155077:0:0:0:0:
320,192,155077,1,0,0:0:0:60:drum.wav
448,192,155077,128,0,155227:0:0:0:0:
192,192,155227,1,0,0:0:0:0:
64,192,155377,128,0,155527:0:0:0:50:snare.wav
320,192,155377,1,0,0:0:0:0:
192,192,155527,128,0,155677:0:0:0:0:
320,192,155677,1,0,0:0:0:60:drum.wav
448,192,155677,128,0,155977:0:0:0:0:
192,192,155827,1,0,0:0:0:0:
64,192,155977,1,0,0:0:0:50:snare.wav
320,192,155977,1,0,0:0:0:0:
448,192,156127,1,0,0:0:0:0:
64,192,156277,128,0,156577:0:0:0:60:drum.wav
192,192,156277,1,0,0:0:0:0:
320,192,156427,1,0,0:0:0:0:
192,192,156577,128,0,156877:0:0:0:50:snare.wav
448,192,156577,1,0,0:0:0:0:
64,192,156727,1,0,0:0:0:0:
320,192,156877,1,0,0:0:0:60:drum.wav
448,192,156877,128,0,157177:0:0:0:0:
64,192,157027,128,0,157177:0:0:0:0:
192,192,157177,128,0,157327:0:0:0:50:snare.wav
320,192,157177,1,0,0:0:0:0:
64,192,157327,128,0,157477:0:0:0:0:
320,192,157477,1,0,0:0:0:60:drum.wav
448,192,157477,128,0,157777:0:0:0:0:
192,192,157627,128,0,157777:0:0:0:0:
64,192,157777,1,0,0:0:0:50:snare.wav
320,192,157777,128,0,158077:0:0:0:0:
448,192,157927,128,0,158077:0:0:0:0:
64,192,158077,128,0,158527:0:0:0:60:drum.wav
192,192,158077,1,0,0:0:0:0:
320,192,158227,1,0,0:0:0:0:
192,192,158377,1,0,0:0:0:50:snare.wav
448,192,158377,1,0,0:0:0:0:
320,192,158527,1,0,0:0:0:0:
64,192,158677,1,0,0:0:0:60:drum.wav
192,192,158677,128,0,159127:0:0:0:0:
448,192,158827,1,0,0:0:0:0:
64,192,158977,1,0,0:0:0:50:snare.wav
320,192,158977,1,0,0:0:0:0:
448,192,159127,1,0,0:0:0:0:
64,192,159277,1,0,0:0:0:60:drum.wav
192,192,159277,1,0,0:0:0:0:
320,192,159427,1,0,0:0:0:0:
448,192,159427,1,0,0:0:0:0:
64,192,159577,1,0,0:0:0:50:snare.wav
192,192,159577,1,0,0:0:0:0:
320,192,159727,1,0,0:0:0:0:
448,192,159727,1,0,0:0:0:0:
64,192,159877,1,0,0:0:0:60:drum.wav
192,192,159877,1,0,0:0:0:0:
192,192,160027,1,0,0:0:0:0:
320,192,160027,1,0,0:0:0:0:
64,192,160177,1,0,0:0:0:50:snare.wav
320,192,160177,1,0,0:0:0:0:
448,192,160177,1,0,0:0:0:0:
64,192,160327,128,0,160627:0:0:0:60:drum.wav
192,192,160327,128,0,160627:0:0:0:50:finish.wav
448,192,160327,1,0,0:0:0:0:
320,192,160627,1,0,0:0:0:60:drum.wav
448,192,160627,1,0,0:0:0:0:
64,192,160777,1,0,0:0:0:50:snare.wav
192,192,160777,1,0,0:0:0:0:
64,192,160927,1,0,0:0:0:60:drum.wav
320,192,160927,128,0,161227:0:0:0:50:finish.wav
448,192,160927,128,0,161227:0:0:0:0:
64,192,161227,1,0,0:0:0:60:drum.wav
192,192,161227,1,0,0:0:0:0:
320,192,161302,1,0,0:0:0:0:
448,192,161377,1,0,0:0:0:50:snare.wav
192,192,161452,1,0,0:0:0:0:
320,192,161527,1,0,0:0:0:0:
64,192,161602,1,0,0:0:0:0:
192,192,161677,128,0,161977:0:0:0:0:
320,192,161827,128,0,161977:0:0:0:0:
64,192,161977,1,0,0:0:0:50:snare.wav
448,192,161977,128,0,162277:0:0:0:50:finish.wav
192,192,162127,128,0,162277:0:0:0:0:
64,192,162277,1,0,0:0:0:60:drum.wav
320,192,162277,128,0,162577:0:0:0:0:
448,192,162427,128,0,162577:0:0:0:0:
64,192,162577,1,0,0:0:0:50:snare.wav
192,192,162577,128,0,162877:0:0:0:0:
320,192,162727,128,0,162877:0:0:0:0:
64,192,162877,128,0,163177:0:0:0:60:drum.wav
448,192,162877,1,0,0:0:0:0:
192,192,163027,128,0,163177:0:0:0:0:
320,192,163177,1,0,0:0:0:50:snare.wav
448,192,163177,128,0,163477:0:0:0:0:
64,192,163327,128,0,163477:0:0:0:0:
192,192,163477,1,0,0:0:0:60:drum.wav
320,192,163477,128,0,163777:0:0:0:0:
448,192,163627,128,0,163777:0:0:0:0:
64,192,163777,128,0,164077:0:0:0:50:snare.wav
192,192,163777,1,0,0:0:0:0:
320,192,163927,128,0,164077:0:0:0:0:
192,192,164077,1,0,0:0:0:60:drum.wav
448,192,164077,128,0,164527:0:0:0:0:
320,192,164227,1,0,0:0:0:0:
64,192,164377,1,0,0:0:0:50:snare.wav
192,192,164377,1,0,0:0:0:0:
320,192,164527,1,0,0:0:0:0:
64,192,164677,128,0,164827:0:0:0:60:drum.wav
448,192,164677,1,0,0:0:0:0:
192,192,164827,1,0,0:0:0:0:
320,192,164977,1,0,0:0:0:50:snare.wav
448,192,164977,128,0,165127:0:0:0:0:
192,192,165127,128,0,165277:0:0:0:0:
64,192,165277,128,0,165577:0:0:0:60:drum.wav
320,192,165277,1,0,0:0:0:0:
448,192,165427,1,0,0:0:0:0:
192,192,165577,1,0,0:0:0:50:snare.wav
320,192,165577,1,0,0:0:0:0:
64,192,165727,1,0,0:0:0:0:
320,192,165877,1,0,0:0:0:60:drum.wav
448,192,165877,128,0,166177:0:0:0:0:
192,192,166027,1,0,0:0:0:0:
64,192,166177,1,0,0:0:0:50:snare.wav
320,192,166177,128,0,166477:0:0:0:0:
448,192,166327,1,0,0:0:0:0:
64,192,166477,128,0,166777:0:0:0:60:drum.wav
192,192,166477,1,0,0:0:0:0:
448,192,166627,1,0,0:0:0:0:
192,192,166777,1,0,0:0:0:50:snare.wav
320,192,166777,1,0,0:0:0:0:
448,192,166927,1,0,0:0:0:0:
64,192,167077,128,0,167377:0:0:0:60:drum.wav
192,192,167077,1,0,0:0:0:0:
320,192,167227,1,0,0:0:0:0:
192,192,167377,128,0,167677:0:0:0:50:snare.wav
448,192,167377,1,0,0:0:0:0:
64,192,167527,1,0,0:0:0:60:drum.wav
320,192,167527,1,0,0:0:0:50:finish.wav
448,192,167677,128,0,167977:0:0:0:0:
64,192,167827,1,0,0:0:0:0:
320,192,167977,128,0,168277:0:0:0:0:
192,192,168127,1,0,0:0:0:0:
64,192,168277,128,0,168577:0:0:0:0:
448,192,168427,1,0,0:0:0:0:
192,192,168577,128,0,168877:0:0:0:0:
320,192,168727,1,0,0:0:0:0:
64,192,168877,1,0,0:0:0:60:drum.wav
448,192,168877,128,0,169627:0:0:0:50:finish.wav
192,192,169027,1,0,0:0:0:0:
64,192,169177,1,0,0:0:0:50:snare.wav
320,192,169177,1,0,0:0:0:0:
192,192,169327,1,0,0:0:0:0:
64,192,169477,1,0,0:0:0:60:drum.wav
192,192,169477,1,0,0:0:0:0:
320,192,169627,1,0,0:0:0:0:
64,192,169777,128,0,170077:0:0:0:50:snare.wav
448,192,169777,1,0,0:0:0:0:
192,192,169927,128,0,170077:0:0:0:0:
320,192,170077,1,0,0:0:0:60:drum.wav
448,192,170077,1,0,0:0:0:0:
448,192,170227,128,0,170377:0:0:0:0:
64,192,170377,1,0,0:0:0:50:snare.wav
320,192,170377,128,0,170527:0:0:0:0:
192,192,170527,128,0,170677:0:0:0:0:
64,192,170677,1,0,0:0:0:60:drum.wav
448,192,170677,128,0,170827:0:0:0:0:
320,192,170827,128,0,170977:0:0:0:0:
192,192,170977,128,0,171127:0:0:0:50:snare.wav
448,192,170977,1,0,0:0:0:0:
64,192,171127,128,0,171277:0:0:0:0:
320,192,171277,1,0,0:0:0:60:drum.wav
448,192,171277,1,0,0:0:0:0:
448,192,171427,1,0,0:0:0:0:
64,192,171577,1,0,0:0:0:50:snare.wav
448,192,171577,1,0,0:0:0:0:
192,192,171727,1,0,0:0:0:0:
192,192,171877,1,0,0:0:0:60:drum.wav
320,192,171877,1,0,0:0:0:0:
448,192,172027,1,0,0:0:0:0:
64,192,172177,1,0,0:0:0:50:snare.wav
320,192,172177,1,0,0:0:0:0:
64,192,172327,1,0,0:0:0:0:
192,192,172477,128,0,172627:0:0:0:60:drum.wav
448,192,172477,1,0,0:0:0:0:
320,192,172627,128,0,172777:0:0:0:0:
64,192,172777,1,0,0:0:0:50:snare.wav
448,192,172777,128,0,172927:0:0:0:0:
64,192,172927,128,0,173077:0:0:0:0:
192,192,173077,128,0,173677:0:0:0:60:drum.wav
320,192,173077,1,0,0:0:0:0:
448,192,173227,1,0,0:0:0:0:
64,192,173377,1,0,0:0:0:50:snare.wav
320,192,173377,1,0,0:0:0:0:
448,192,173527,1,0,0:0:0:0:
64,192,173677,128,0,174277:0:0:0:60:drum.wav
448,192,173677,1,0,0:0:0:0:
320,192,173827,1,0,0:0:0:0:
192,192,173977,1,0,0:0:0:50:snare.wav
448,192,173977,1,0,0:0:0:0:
320,192,174127,1,0,0:0:0:0:
320,192,174277,1,0,0:0:0:60:drum.wav
448,192,174277,1,0,0:0:0:0:
192,192,174427,128,0,174577:0:0:0:0:
64,192,174577,1,0,0:0:0:50:snare.wav
320,192,174577,128,0,174727:0:0:0:0:
448,192,174727,128,0,175027:0:0:0:0:
192,192,174877,1,0,0:0:0:60:drum.wav
320,192,174877,1,0,0:0:0:0:
64,192,175027,1,0,0:0:0:0:
192,192,175177,1,0,0:0:0:50:snare.wav
448,192,175177,128,0,175327:0:0:0:0:
320,192,175327,128,0,175477:0:0:0:0:
192,192,175477,128,0,175627:0:0:0:60:drum.wav
448,192,175477,1,0,0:0:0:0:
64,192,175627,128,0,175777:0:0:0:0:
320,192,175777,128,0,175927:0:0:0:50:snare.wav
448,192,175777,1,0,0:0:0:0:
192,192,175927,128,0,176077:0:0:0:0:
64,192,176077,1,0,0:0:0:60:drum.wav
320,192,176077,128,0,176227:0:0:0:0:
448,192,176227,128,0,176377:0:0:0:0:
64,192,176377,1,0,0:0:0:50:snare.wav
192,192,176377,128,0,176527:0:0:0:0:
320,192,176527,128,0,176827:0:0:0:0:
192,192,176677,1,0,0:0:0:60:drum.wav
448,192,176677,1,0,0:0:0:0:
64,192,176827,128,0,176977:0:0:0:0:
192,192,176977,1,0,0:0:0:50:snare.wav
448,192,176977,1,0,0:0:0:0:
64,192,177127,128,0,177427:0:0:0:60:drum.wav
320,192,177127,1,0,0:0:0:50:finish.wav
448,192,177127,1,0,0:0:0:0:
192,192,177427,1,0,0:0:0:60:drum.wav
448,192,177427,1,0,0:0:0:0:
64,192,177577,1,0,0:0:0:50:snare.wav
320,192,177577,1,0,0:0:0:0:
64,192,177727,1,0,0:0:0:60:drum.wav
192,192,177727,1,0,0:0:0:50:finish.wav
448,192,177727,128,0,178027:0:0:0:0:
64,192,178027,1,0,0:0:0:60:drum.wav
320,192,178027,1,0,0:0:0:0:
192,192,178177,1,0,0:0:0:50:snare.wav
448,192,178177,1,0,0:0:0:0:
320,192,178327,1,0,0:0:0:50:snare.wav
64,192,178477,128,0,178777:0:0:0:60:drum.wav
192,192,178477,1,0,0:0:0:0:
320,192,178552,1,0,0:0:0:60:drum.wav
448,192,178627,1,0,0:0:0:60:drum.wav
320,192,178702,1,0,0:0:0:60:drum.wav
192,192,178777,128,0,179077:0:0:0:60:drum.wav
448,192,178777,1,0,0:0:0:50:finish.wav
64,192,179077,1,0,0:0:0:60:drum.wav
320,192,179077,128,0,179377:0:0:0:50:finish.wav
448,192,179077,1,0,0:0:0:0:
192,192,179377,1,0,0:0:0:0:
448,192,179377,128,0,179677:0:0:0:0:
64,192,179677,1,0,0:0:0:60:drum.wav
192,192,179677,1,0,0:0:0:50:finish.wav
320,192,179677,128,0,179977:0:0:0:0:
448,192,179977,128,0,180277:0:0:0:0:
64,192,180127,1,0,0:0:0:60:drum.wav
320,192,180127,1,0,0:0:0:50:finish.wav
64,192,180277,1,0,0:0:0:50:snare.wav
192,192,180277,128,0,180577:0:0:0:0:
320,192,180427,1,0,0:0:0:60:drum.wav
448,192,180427,1,0,0:0:0:50:finish.wav
64,192,180577,128,0,180877:0:0:0:0:
192,192,180877,128,0,181402:0:0:0:0:
64,192,181177,128,0,181402:0:0:0:60:drum.wav
448,192,181177,128,0,181402:0:0:0:50:finish.wav
64,192,181477,128,0,181777:0:0:0:60:drum.wav
320,192,181477,128,0,181777:0:0:0:50:finish.wav
448,192,181477,128,0,181777:0:0:0:0:
192,192,181777,128,0,182077:0:0:0:0:
64,192,182077,128,0,182452:0:0:0:60:drum.wav
320,192,182077,128,0,182452:0:0:0:50:finish.wav
448,192,182077,128,0,182452:0:0:0:0:
64,192,182527,1,0,0:0:0:60:drum.wav
192,192,182527,1,0,0:0:0:50:finish.wav
448,192,182527,1,0,0:0:0:0:
192,192,182677,128,0,182977:0:0:0:50:snare.wav
64,192,182827,1,0,0:0:0:60:drum.wav
448,192,182827,1,0,0:0:0:50:finish.wav
320,192,182977,128,0,183277:0:0:0:0:
64,192,183127,1,0,0:0:0:50:snare.wav
192,192,183127,1,0,0:0:0:0:
64,192,183277,1,0,0:0:0:60:drum.wav
192,192,183277,1,0,0:0:0:50:finish.wav
448,192,183277,128,0,183727:0:0:0:0:
320,192,183427,1,0,0:0:0:50:hat.wav
64,192,183577,1,0,0:0:0:60:drum.wav
192,192,183577,1,0,0:0:0:0:
320,192,183727,1,0,0:0:0:50:hat.wav
64,192,183877,128,0,184177:0:0:0:60:drum.wav
448,192,183877,1,0,0:0:0:0:
320,192,184027,1,0,0:0:0:50:hat.wav
192,192,184177,128,0,184477:0:0:0:60:drum.wav
448,192,184177,1,0,0:0:0:0:
64,192,184327,1,0,0:0:0:50:hat.wav
320,192,184477,128,0,184777:0:0:0:60:drum.wav
448,192,184477,1,0,0:0:0:0:
192,192,184627,1,0,0:0:0:50:hat.wav
64,192,184777,1,0,0:0:0:60:drum.wav
448,192,184777,128,0,185077:0:0:0:0:
320,192,184927,1,0,0:0:0:50:hat.wav
64,192,185077,1,0,0:0:0:60:drum.wav
192,192,185077,128,0,185377:0:0:0:0:
448,192,185227,1,0,0:0:0:50:hat.wav
64,192,185377,128,0,185677:0:0:0:60:drum.wav
320,192,185377,1,0,0:0:0:0:
192,192,185527,1,0,0:0:0:50:hat.wav
320,192,185677,128,0,185977:0:0:0:60:drum.wav
448,192,185677,1,0,0:0:0:0:
64,192,185827,1,0,0:0:0:50:hat.wav
192,192,185977,128,0,186277:0:0:0:60:drum.wav
448,192,185977,1,0,0:0:0:0:
320,192,186127,1,0,0:0:0:50:hat.wav
64,192,186277,1,0,0:0:0:60:drum.wav
448,192,186277,128,0,186577:0:0:0:0:
320,192,186427,1,0,0:0:0:50:hat.wav
64,192,186577,1,0,0:0:0:60:drum.wav
192,192,186577,1,0,0:0:0:0:
64,192,186727,1,0,0:0:0:60:drum.wav
320,192,186727,128,0,188002:0:0:0:50:finish.wav
448,192,186727,128,0,188002:0:0:0:0:
64,192,187477,128,0,188002:0:0:0:0:
64,192,188077,1,0,0:0:0:60:drum.wav
192,192,188077,1,0,0:0:0:50:finish.wav
448,192,188077,1,0,0:0:0:0:
64,192,188377,1,0,0:0:0:60:drum.wav
192,192,188377,1,0,0:0:0:0:
64,192,188677,1,0,0:0:0:60:drum.wav
192,192,188677,1,0,0:0:0:0:
64,192,188977,1,0,0:0:0:60:drum.wav
192,192,188977,1,0,0:0:0:0:
320,192,189127,1,0,0:0:0:0:
320,192,189277,1,0,0:0:0:60:drum.wav
448,192,189277,1,0,0:0:0:0:
320,192,189577,1,0,0:0:0:60:drum.wav
448,192,189577,1,0,0:0:0:0:
320,192,189877,1,0,0:0:0:60:drum.wav
448,192,189877,1,0,0:0:0:0:
320,192,190177,1,0,0:0:0:60:drum.wav
448,192,190177,1,0,0:0:0:0:
192,192,190327,1,0,0:0:0:0:
64,192,190477,1,0,0:0:0:60:drum.wav
192,192,190477,1,0,0:0:0:0:
64,192,190777,1,0,0:0:0:60:drum.wav
192,192,190777,1,0,0:0:0:0:
64,192,191077,1,0,0:0:0:60:drum.wav
192,192,191077,1,0,0:0:0:0:
64,192,191377,1,0,0:0:0:60:drum.wav
192,192,191377,1,0,0:0:0:0:
448,192,191527,1,0,0:0:0:0:
64,192,191677,1,0,0:0:0:60:drum.wav
448,192,191677,1,0,0:0:0:0:
64,192,191977,1,0,0:0:0:60:drum.wav
448,192,191977,1,0,0:0:0:0:
64,192,192277,1,0,0:0:0:60:drum.wav
448,192,192277,1,0,0:0:0:0:
64,192,192577,1,0,0:0:0:60:drum.wav
448,192,192577,1,0,0:0:0:0:
320,192,192727,1,0,0:0:0:0:
320,192,192877,1,0,0:0:0:60:drum.wav
448,192,192877,1,0,0:0:0:0:
320,192,193177,1,0,0:0:0:60:drum.wav
448,192,193177,1,0,0:0:0:0:
320,192,193477,1,0,0:0:0:60:drum.wav
448,192,193477,1,0,0:0:0:0:
320,192,193777,1,0,0:0:0:60:drum.wav
448,192,193777,1,0,0:0:0:0:
192,192,193927,1,0,0:0:0:0:
192,192,194077,1,0,0:0:0:60:drum.wav
320,192,194077,1,0,0:0:0:0:
192,192,194377,1,0,0:0:0:60:drum.wav
320,192,194377,1,0,0:0:0:0:
192,192,194677,1,0,0:0:0:60:drum.wav
320,192,194677,1,0,0:0:0:0:
192,192,194977,1,0,0:0:0:60:drum.wav
320,192,194977,1,0,0:0:0:0:
64,192,195127,1,0,0:0:0:0:
64,192,195277,1,0,0:0:0:60:drum.wav
448,192,195277,1,0,0:0:0:0:
64,192,195577,1,0,0:0:0:60:drum.wav
448,192,195577,1,0,0:0:0:0:
64,192,195877,1,0,0:0:0:60:drum.wav
448,192,195877,1,0,0:0:0:0:
64,192,196177,1,0,0:0:0:60:drum.wav
448,192,196177,1,0,0:0:0:0:
320,192,196327,1,0,0:0:0:0:
320,192,196477,1,0,0:0:0:60:drum.wav
448,192,196477,1,0,0:0:0:0:
320,192,196777,1,0,0:0:0:60:drum.wav
448,192,196777,1,0,0:0:0:0:
320,192,197077,1,0,0:0:0:60:drum.wav
448,192,197077,1,0,0:0:0:0:
320,192,197377,1,0,0:0:0:60:drum.wav
448,192,197377,1,0,0:0:0:0:
192,192,197527,1,0,0:0:0:0:
64,192,197677,1,0,0:0:0:60:drum.wav
192,192,197677,1,0,0:0:0:50:finish.wav
320,192,197677,1,0,0:0:0:0:
448,192,197827,1,0,0:0:0:50:hat.wav
64,192,197977,1,0,0:0:0:60:drum.wav
192,192,197977,1,0,0:0:0:0:
448,192,198127,1,0,0:0:0:50:hat.wav
64,192,198277,1,0,0:0:0:60:drum.wav
192,192,198277,1,0,0:0:0:0:
448,192,198427,1,0,0:0:0:50:hat.wav
64,192,198577,1,0,0:0:0:60:drum.wav
192,192,198577,1,0,0:0:0:0:
320,192,198727,1,0,0:0:0:50:hat.wav
64,192,198877,1,0,0:0:0:60:drum.wav
448,192,198877,1,0,0:0:0:0:
192,192,199027,1,0,0:0:0:50:hat.wav
64,192,199177,1,0,0:0:0:60:drum.wav
448,192,199177,1,0,0:0:0:0:
192,192,199327,1,0,0:0:0:50:hat.wav
64,192,199477,1,0,0:0:0:60:drum.wav
448,192,199477,1,0,0:0:0:0:
192,192,199627,1,0,0:0:0:50:hat.wav
64,192,199777,1,0,0:0:0:60:drum.wav
448,192,199777,1,0,0:0:0:0:
192,192,199927,1,0,0:0:0:50:hat.wav
320,192,200077,1,0,0:0:0:60:drum.wav
448,192,200077,1,0,0:0:0:0:
64,192,200227,1,0,0:0:0:50:hat.wav
320,192,200377,1,0,0:0:0:60:drum.wav
448,192,200377,1,0,0:0:0:0:
64,192,200527,1,0,0:0:0:50:hat.wav
320,192,200677,1,0,0:0:0:60:drum.wav
448,192,200677,1,0,0:0:0:0:
64,192,200827,1,0,0:0:0:50:hat.wav
320,192,200977,1,0,0:0:0:60:drum.wav
448,192,200977,1,0,0:0:0:0:
192,192,201127,1,0,0:0:0:50:hat.wav
64,192,201277,1,0,0:0:0:60:drum.wav
320,192,201277,1,0,0:0:0:0:
448,192,201427,1,0,0:0:0:50:hat.wav
64,192,201577,1,0,0:0:0:60:drum.wav
320,192,201577,1,0,0:0:0:0:
448,192,201727,1,0,0:0:0:50:hat.wav
64,192,201877,1,0,0:0:0:60:drum.wav
320,192,201877,1,0,0:0:0:0:
448,192,202027,1,0,0:0:0:50:hat.wav
64,192,202177,1,0,0:0:0:60:drum.wav
320,192,202177,1,0,0:0:0:0:
448,192,202327,1,0,0:0:0:50:hat.wav
192,192,202477,1,0,0:0:0:60:drum.wav
320,192,202477,1,0,0:0:0:0:
64,192,202627,1,0,0:0:0:50:hat.wav
192,192,202777,1,0,0:0:0:60:drum.wav
320,192,202777,1,0,0:0:0:0:
64,192,202927,1,0,0:0:0:50:hat.wav
192,192,203077,1,0,0:0:0:60:drum.wav
320,192,203077,1,0,0:0:0:0:
64,192,203227,1,0,0:0:0:50:hat.wav
192,192,203377,1,0,0:0:0:60:drum.wav
320,192,203377,1,0,0:0:0:0:
64,192,203527,1,0,0:0:0:50:hat.wav
320,192,203677,1,0,0:0:0:60:drum.wav
448,192,203677,1,0,0:0:0:0:
192,192,203827,1,0,0:0:0:50:hat.wav
320,192,203977,1,0,0:0:0:60:drum.wav
448,192,203977,1,0,0:0:0:0:
192,192,204127,1,0,0:0:0:50:hat.wav
320,192,204277,1,0,0:0:0:60:drum.wav
448,192,204277,1,0,0:0:0:0:
192,192,204427,1,0,0:0:0:50:hat.wav
320,192,204577,1,0,0:0:0:60:drum.wav
448,192,204577,1,0,0:0:0:0:
64,192,204727,1,0,0:0:0:50:hat.wav
192,192,204877,1,0,0:0:0:60:drum.wav
448,192,204877,1,0,0:0:0:0:
320,192,205027,1,0,0:0:0:50:hat.wav
192,192,205177,1,0,0:0:0:60:drum.wav
448,192,205177,1,0,0:0:0:0:
320,192,205327,1,0,0:0:0:50:hat.wav
192,192,205477,1,0,0:0:0:60:drum.wav
448,192,205477,1,0,0:0:0:0:
320,192,205627,1,0,0:0:0:50:hat.wav
192,192,205777,1,0,0:0:0:60:drum.wav
448,192,205777,1,0,0:0:0:0:
320,192,205927,1,0,0:0:0:50:hat.wav
64,192,206077,1,0,0:0:0:60:drum.wav
192,192,206077,1,0,0:0:0:0:
448,192,206227,1,0,0:0:0:50:hat.wav
64,192,206377,1,0,0:0:0:60:drum.wav
192,192,206377,1,0,0:0:0:0:
448,192,206527,1,0,0:0:0:50:hat.wav
64,192,206677,128,0,207202:0:0:0:60:drum.wav
320,192,206677,1,0,0:0:0:0:
448,192,206827,1,0,0:0:0:50:hat.wav
192,192,206977,128,0,207202:0:0:0:60:drum.wav
320,192,206977,1,0,0:0:0:0:
448,192,207127,1,0,0:0:0:50:hat.wav
64,192,207277,128,0,207427:0:0:0:50:Clap.wav
320,192,207277,1,0,0:0:0:50:finish.wav
448,192,207277,1,0,0:0:0:0:
192,192,207427,128,0,207577:0:0:0:50:hat.wav
64,192,207577,1,0,0:0:0:50:Clap.wav
320,192,207577,128,0,207727:0:0:0:0:
448,192,207727,128,0,207877:0:0:0:50:hat.wav
64,192,207877,1,0,0:0:0:50:Clap.wav
192,192,207877,128,0,208027:0:0:0:0:
320,192,208027,128,0,208177:0:0:0:50:hat.wav
192,192,208177,128,0,208327:0:0:0:50:Clap.wav
448,192,208177,1,0,0:0:0:0:
64,192,208327,128,0,208477:0:0:0:50:hat.wav
192,192,208477,1,0,0:0:0:50:Clap.wav
448,192,208477,128,0,208627:0:0:0:0:
320,192,208627,128,0,208777:0:0:0:50:hat.wav
192,192,208777,128,0,208927:0:0:0:50:Clap.wav
448,192,208777,1,0,0:0:0:0:
64,192,208927,128,0,209077:0:0:0:50:hat.wav
320,192,209077,128,0,209227:0:0:0:50:Clap.wav
448,192,209077,1,0,0:0:0:0:
192,192,209227,128,0,209377:0:0:0:50:hat.wav
64,192,209377,1,0,0:0:0:50:Clap.wav
320,192,209377,128,0,209527:0:0:0:0:
448,192,209527,128,0,209677:0:0:0:50:Clap.wav
192,192,209602,1,0,0:0:0:50:Clap.wav
64,192,209677,128,0,209827:0:0:0:50:Clap.wav
320,192,209677,1,0,0:0:0:0:
192,192,209827,128,0,209977:0:0:0:50:hat.wav
320,192,209977,128,0,210127:0:0:0:50:Clap.wav
448,192,209977,1,0,0:0:0:0:
192,192,210127,128,0,210277:0:0:0:50:hat.wav
64,192,210277,1,0,0:0:0:50:Clap.wav
448,192,210277,128,0,210427:0:0:0:0:
320,192,210427,128,0,210577:0:0:0:50:hat.wav
192,192,210577,128,0,210727:0:0:0:50:Clap.wav
448,192,210577,1,0,0:0:0:0:
64,192,210727,128,0,210877:0:0:0:50:hat.wav
192,192,210877,1,0,0:0:0:50:Clap.wav
448,192,210877,128,0,211027:0:0:0:0:
320,192,211027,128,0,211177:0:0:0:50:hat.wav
64,192,211177,1,0,0:0:0:50:Clap.wav
192,192,211177,128,0,211327:0:0:0:0:
320,192,211327,128,0,211477:0:0:0:50:hat.wav
64,192,211477,128,0,211627:0:0:0:50:Clap.wav
448,192,211477,1,0,0:0:0:0:
192,192,211627,128,0,211777:0:0:0:50:hat.wav
64,192,211777,1,0,0:0:0:50:Clap.wav
320,192,211777,128,0,211927:0:0:0:0:
448,192,211927,128,0,212077:0:0:0:50:Clap.wav
192,192,212002,1,0,0:0:0:50:Clap.wav
64,192,212077,1,0,0:0:0:50:Clap.wav
320,192,212077,128,0,212227:0:0:0:0:
192,192,212227,128,0,212377:0:0:0:50:hat.wav
320,192,212377,128,0,212527:0:0:0:50:Clap.wav
448,192,212377,1,0,0:0:0:0:
64,192,212527,128,0,212677:0:0:0:50:hat.wav
192,192,212677,1,0,0:0:0:50:Clap.wav
448,192,212677,128,0,212827:0:0:0:0:
320,192,212827,128,0,212977:0:0:0:50:hat.wav
64,192,212977,1,0,0:0:0:50:Clap.wav
192,192,212977,128,0,213127:0:0:0:0:
320,192,213127,128,0,213277:0:0:0:50:hat.wav
64,192,213277,128,0,213427:0:0:0:50:Clap.wav
192,192,213277,1,0,0:0:0:0:
448,192,213427,128,0,213577:0:0:0:50:hat.wav
64,192,213577,1,0,0:0:0:50:Clap.wav
192,192,213577,128,0,213727:0:0:0:0:
320,192,213727,128,0,213877:0:0:0:50:hat.wav
192,192,213877,1,0,0:0:0:50:Clap.wav
448,192,213877,128,0,214027:0:0:0:0:
64,192,214027,128,0,214177:0:0:0:50:hat.wav
320,192,214177,128,0,214327:0:0:0:50:Clap.wav
448,192,214177,1,0,0:0:0:0:
64,192,214327,1,0,0:0:0:50:snare.wav
192,192,214327,1,0,0:0:0:0:
320,192,214402,1,0,0:0:0:50:snare.wav
64,192,214477,1,0,0:0:0:60:drum.wav
192,192,214477,1,0,0:0:0:50:finish.wav
448,192,214477,1,0,0:0:0:0:
320,192,214627,1,0,0:0:0:60:drum.wav
448,192,214627,1,0,0:0:0:50:finish.wav
64,192,214927,1,0,0:0:0:60:drum.wav
320,192,214927,1,0,0:0:0:50:finish.wav
448,192,214927,1,0,0:0:0:0:
64,192,215077,1,0,0:0:0:60:drum.wav
192,192,215077,1,0,0:0:0:50:finish.wav
192,192,215377,1,0,0:0:0:60:drum.wav
320,192,215377,1,0,0:0:0:50:finish.wav
448,192,215377,1,0,0:0:0:0:
64,192,215527,1,0,0:0:0:60:drum.wav
448,192,215527,1,0,0:0:0:50:finish.wav
192,192,215827,1,0,0:0:0:60:drum.wav
320,192,215827,1,0,0:0:0:0:
64,192,215977,1,0,0:0:0:50:Clap.wav
448,192,215977,1,0,0:0:0:0:
192,192,216127,1,0,0:0:0:60:drum.wav
320,192,216127,1,0,0:0:0:0:
64,192,216277,1,0,0:0:0:50:Clap.wav
448,192,216277,1,0,0:0:0:0:
192,192,216427,1,0,0:0:0:60:drum.wav
320,192,216427,1,0,0:0:0:0:
64,192,216577,1,0,0:0:0:50:Clap.wav
448,192,216577,1,0,0:0:0:0:
192,192,216727,1,0,0:0:0:60:drum.wav
320,192,216727,1,0,0:0:0:0:
64,192,216877,1,0,0:0:0:50:Clap.wav
448,192,216877,1,0,0:0:0:0:
320,192,216952,1,0,0:0:0:60:drum.wav
192,192,217027,1,0,0:0:0:50:Clap.wav
448,192,217102,1,0,0:0:0:60:drum.wav
64,192,217177,1,0,0:0:0:50:Clap.wav
320,192,217177,1,0,0:0:0:0:
192,192,217252,1,0,0:0:0:60:drum.wav
320,192,217327,1,0,0:0:0:50:Clap.wav
448,192,217402,1,0,0:0:0:60:drum.wav
64,192,217477,1,0,0:0:0:50:Clap.wav
192,192,217477,1,0,0:0:0:0:
320,192,217552,1,0,0:0:0:60:drum.wav
448,192,217627,1,0,0:0:0:50:Clap.wav
192,192,217702,1,0,0:0:0:60:drum.wav
64,192,217777,1,0,0:0:0:50:Clap.wav
320,192,217777,1,0,0:0:0:0:
448,192,217852,1,0,0:0:0:60:drum.wav
192,192,217927,1,0,0:0:0:50:Clap.wav
320,192,218002,1,0,0:0:0:60:drum.wav
64,192,218077,1,0,0:0:0:60:drum.wav
448,192,218077,1,0,0:0:0:0:
192,192,218152,1,0,0:0:0:0:
320,192,218227,1,0,0:0:0:0:
192,192,218302,1,0,0:0:0:0:
320,192,218377,1,0,0:0:0:0:
448,192,218452,1,0,0:0:0:0:
192,192,218527,1,0,0:0:0:0:
64,192,218602,1,0,0:0:0:0:
320,192,218677,1,0,0:0:0:0:
192,192,218752,1,0,0:0:0:0:
320,192,218827,1,0,0:0:0:0:
192,192,218902,1,0,0:0:0:0:
64,192,218977,1,0,0:0:0:50:snare.wav
448,192,218977,1,0,0:0:0:0:
64,192,219277,128,0,219577:0:0:0:60:drum.wav
320,192,219277,128,0,219427:0:0:0:50:finish.wav
448,192,219277,128,0,219427:0:0:0:0:
192,192,219427,128,0,219577:0:0:0:0:
320,192,219577,128,0,219727:0:0:0:50:snare.wav
448,192,219577,128,0,219877:0:0:0:0:
192,192,219727,128,0,219877:0:0:0:0:
64,192,219877,128,0,220177:0:0:0:60:drum.wav
320,192,219877,128,0,220027:0:0:0:0:
192,192,220027,128,0,220177:0:0:0:0:
320,192,220177,128,0,220327:0:0:0:50:snare.wav
448,192,220177,128,0,220477:0:0:0:0:
64,192,220327,128,0,220477:0:0:0:0:
192,192,220477,128,0,220777:0:0:0:60:drum.wav
320,192,220477,128,0,220627:0:0:0:0:
448,192,220627,128,0,220777:0:0:0:0:
64,192,220777,128,0,220927:0:0:0:50:snare.wav
320,192,220777,128,0,221077:0:0:0:0:
192,192,220927,128,0,221077:0:0:0:0:
64,192,221077,128,0,221377:0:0:0:60:drum.wav
448,192,221077,128,0,221227:0:0:0:0:
320,192,221227,128,0,221377:0:0:0:0:
192,192,221377,128,0,221677:0:0:0:50:snare.wav
448,192,221377,128,0,221527:0:0:0:0:
64,192,221527,128,0,221677:0:0:0:0:
320,192,221677,128,0,221827:0:0:0:60:drum.wav
448,192,221677,128,0,221977:0:0:0:0:
192,192,221827,128,0,221977:0:0:0:0:
64,192,221977,128,0,222127:0:0:0:50:snare.wav
320,192,221977,128,0,222277:0:0:0:0:
448,192,222127,128,0,222277:0:0:0:0:
64,192,222277,128,0,222427:0:0:0:60:drum.wav
192,192,222277,128,0,222577:0:0:0:0:
320,192,222427,128,0,222577:0:0:0:0:
64,192,222577,128,0,222727:0:0:0:50:snare.wav
448,192,222577,128,0,222877:0:0:0:0:
320,192,222727,128,0,222877:0:0:0:0:
64,192,222877,128,0,223177:0:0:0:60:drum.wav
192,192,222877,128,0,223027:0:0:0:0:
320,192,223027,1,0,0:0:0:0:
192,192,223177,1,0,0:0:0:50:snare.wav
448,192,223177,1,0,0:0:0:0:
64,192,223327,1,0,0:0:0:0:
320,192,223477,1,0,0:0:0:60:drum.wav
448,192,223477,128,0,223777:0:0:0:0:
192,192,223627,128,0,223777:0:0:0:0:
64,192,223777,1,0,0:0:0:50:snare.wav
320,192,223777,128,0,224077:0:0:0:0:
448,192,223927,128,0,224077:0:0:0:0:
64,192,224077,128,0,224377:0:0:0:60:drum.wav
192,192,224077,128,0,224227:0:0:0:0:
448,192,224227,128,0,224377:0:0:0:0:
192,192,224377,1,0,0:0:0:50:snare.wav
320,192,224377,128,0,224527:0:0:0:0:
448,192,224527,128,0,224677:0:0:0:0:
64,192,224677,128,0,224977:0:0:0:60:drum.wav
192,192,224677,128,0,224827:0:0:0:0:
320,192,224827,128,0,224977:0:0:0:0:
192,192,224977,128,0,225277:0:0:0:50:snare.wav
448,192,224977,128,0,225127:0:0:0:0:
64,192,225127,128,0,225277:0:0:0:0:
320,192,225277,128,0,225427:0:0:0:60:drum.wav
448,192,225277,128,0,225727:0:0:0:0:
192,192,225427,128,0,225577:0:0:0:0:
64,192,225577,128,0,225727:0:0:0:50:snare.wav
320,192,225577,1,0,0:0:0:0:
192,192,225727,128,0,225877:0:0:0:0:
64,192,225877,128,0,226327:0:0:0:60:drum.wav
320,192,225877,128,0,226027:0:0:0:0:
448,192,226027,128,0,226177:0:0:0:0:
192,192,226177,1,0,0:0:0:50:snare.wav
320,192,226177,128,0,226327:0:0:0:0:
192,192,226327,128,0,226477:0:0:0:0:
320,192,226477,128,0,226552:0:0:0:60:drum.wav
448,192,226477,128,0,226552:0:0:0:0:
64,192,226627,128,0,226702:0:0:0:0:
192,192,226627,128,0,226702:0:0:0:0:
320,192,226777,128,0,226852:0:0:0:50:snare.wav
448,192,226777,128,0,226852:0:0:0:0:
64,192,226927,128,0,227002:0:0:0:0:
192,192,226927,128,0,227002:0:0:0:0:
320,192,227077,128,0,227152:0:0:0:60:drum.wav
448,192,227077,128,0,227152:0:0:0:0:
192,192,227227,128,0,227302:0:0:0:0:
320,192,227227,128,0,227302:0:0:0:0:
64,192,227377,128,0,227452:0:0:0:50:snare.wav
192,192,227377,128,0,227452:0:0:0:0:
448,192,227377,128,0,227452:0:0:0:0:
64,192,227527,128,0,227677:0:0:0:60:drum.wav
320,192,227527,128,0,227827:0:0:0:50:finish.wav
448,192,227527,128,0,227827:0:0:0:0:
64,192,227827,128,0,227902:0:0:0:60:drum.wav
192,192,227827,128,0,227902:0:0:0:0:
320,192,227977,128,0,228052:0:0:0:50:snare.wav
448,192,227977,128,0,228052:0:0:0:0:
64,192,228127,128,0,228427:0:0:0:60:drum.wav
192,192,228127,128,0,228427:0:0:0:50:finish.wav
448,192,228127,128,0,228277:0:0:0:0:
320,192,228427,1,0,0:0:0:60:drum.wav
448,192,228427,1,0,0:0:0:0:
192,192,228502,1,0,0:0:0:0:
64,192,228577,1,0,0:0:0:50:snare.wav
320,192,228652,1,0,0:0:0:0:
192,192,228727,1,0,0:0:0:0:
448,192,228802,1,0,0:0:0:0:
320,192,228877,128,0,229177:0:0:0:0:
192,192,229027,128,0,229177:0:0:0:0:
64,192,229177,128,0,229477:0:0:0:50:snare.wav
448,192,229177,128,0,229327:0:0:0:50:finish.wav
320,192,229327,128,0,229477:0:0:0:0:
192,192,229477,128,0,229777:0:0:0:60:drum.wav
448,192,229477,128,0,229627:0:0:0:0:
64,192,229627,128,0,229777:0:0:0:0:
320,192,229777,128,0,230077:0:0:0:50:snare.wav
448,192,229777,128,0,229927:0:0:0:0:
192,192,229927,128,0,230077:0:0:0:0:
64,192,230077,128,0,230227:0:0:0:60:drum.wav
448,192,230077,128,0,230377:0:0:0:0:
320,192,230227,128,0,230377:0:0:0:0:
64,192,230377,128,0,230677:0:0:0:50:snare.wav
192,192,230377,128,0,230527:0:0:0:0:
448,192,230527,128,0,230677:0:0:0:0:
192,192,230677,128,0,230977:0:0:0:60:drum.wav
320,192,230677,128,0,230827:0:0:0:0:
64,192,230827,128,0,230977:0:0:0:0:
320,192,230977,128,0,231127:0:0:0:50:snare.wav
448,192,230977,128,0,231277:0:0:0:0:
192,192,231127,128,0,231277:0:0:0:0:
64,192,231277,128,0,231727:0:0:0:60:drum.wav
320,192,231277,128,0,231427:0:0:0:0:
192,192,231427,128,0,231577:0:0:0:0:
320,192,231577,1,0,0:0:0:50:snare.wav
448,192,231577,128,0,231727:0:0:0:0:
192,192,231727,128,0,231877:0:0:0:0:
64,192,231877,1,0,0:0:0:60:drum.wav
448,192,231877,128,0,232027:0:0:0:0:
320,192,232027,128,0,232177:0:0:0:0:
64,192,232177,128,0,232477:0:0:0:50:snare.wav
192,192,232177,128,0,232327:0:0:0:0:
320,192,232327,128,0,232477:0:0:0:0:
192,192,232477,128,0,232627:0:0:0:60:drum.wav
448,192,232477,128,0,232777:0:0:0:0:
64,192,232627,128,0,232777:0:0:0:0:
192,192,232777,1,0,0:0:0:50:snare.wav
320,192,232777,128,0,232927:0:0:0:0:
448,192,232927,128,0,233077:0:0:0:0:
64,192,233077,128,0,233377:0:0:0:60:drum.wav
192,192,233077,1,0,0:0:0:0:
320,192,233227,128,0,233377:0:0:0:0:
192,192,233377,128,0,233677:0:0:0:50:snare.wav
448,192,233377,1,0,0:0:0:0:
64,192,233527,128,0,233677:0:0:0:0:
320,192,233677,1,0,0:0:0:60:drum.wav
448,192,233677,128,0,233977:0:0:0:0:
64,192,233827,128,0,233977:0:0:0:0:
192,192,233977,1,0,0:0:0:50:snare.wav
320,192,233977,1,0,0:0:0:0:
64,192,234127,1,0,0:0:0:0:
192,192,234277,1,0,0:0:0:60:drum.wav
448,192,234277,128,0,234877:0:0:0:0:
320,192,234427,128,0,234577:0:0:0:0:
64,192,234577,1,0,0:0:0:50:snare.wav
192,192,234577,1,0,0:0:0:0:
192,192,234727,128,0,234877:0:0:0:0:
64,192,234877,128,0,235177:0:0:0:60:drum.wav
320,192,234877,1,0,0:0:0:0:
320,192,235027,128,0,235177:0:0:0:50:hat.wav
192,192,235177,128,0,235477:0:0:0:50:snare.wav
448,192,235177,1,0,0:0:0:0:
320,192,235327,128,0,235477:0:0:0:50:hat.wav
64,192,235477,1,0,0:0:0:50:snare.wav
448,192,235477,128,0,235777:0:0:0:0:
192,192,235627,128,0,235777:0:0:0:50:hat.wav
64,192,235777,1,0,0:0:0:50:snare.wav
320,192,235777,128,0,236077:0:0:0:0:
448,192,235927,128,0,236077:0:0:0:50:hat.wav
64,192,236077,128,0,236227:0:0:0:60:drum.wav
192,192,236077,1,0,0:0:0:50:finish.wav
320,192,236227,1,0,0:0:0:0:
192,192,236377,1,0,0:0:0:50:Clap.wav
448,192,236377,128,0,236527:0:0:0:0:
64,192,236527,1,0,0:0:0:0:
320,192,236677,128,0,236977:0:0:0:60:drum.wav
448,192,236677,1,0,0:0:0:0:
192,192,236827,1,0,0:0:0:0:
64,192,236977,1,0,0:0:0:50:Clap.wav
448,192,236977,1,0,0:0:0:0:
192,192,237127,128,0,237277:0:0:0:0:
64,192,237277,1,0,0:0:0:60:drum.wav
448,192,237277,1,0,0:0:0:0:
320,192,237427,128,0,237577:0:0:0:0:
64,192,237577,128,0,237727:0:0:0:50:Clap.wav
192,192,237577,1,0,0:0:0:0:
448,192,237727,128,0,237877:0:0:0:0:
192,192,237877,1,0,0:0:0:60:drum.wav
320,192,237877,128,0,238177:0:0:0:0:
64,192,238027,1,0,0:0:0:0:
192,192,238177,1,0,0:0:0:50:Clap.wav
448,192,238177,1,0,0:0:0:0:
64,192,238327,128,0,238627:0:0:0:0:
192,192,238477,1,0,0:0:0:60:drum.wav
448,192,238477,1,0,0:0:0:0:
320,192,238627,128,0,238777:0:0:0:0:
64,192,238777,1,0,0:0:0:50:Clap.wav
192,192,238777,128,0,238927:0:0:0:0:
320,192,238927,128,0,239077:0:0:0:0:
64,192,239077,1,0,0:0:0:60:drum.wav
448,192,239077,128,0,239377:0:0:0:0:
192,192,239227,1,0,0:0:0:0:
64,192,239377,128,0,239527:0:0:0:50:Clap.wav
320,192,239377,1,0,0:0:0:0:
192,192,239527,128,0,239677:0:0:0:0:
64,192,239677,1,0,0:0:0:60:drum.wav
448,192,239677,1,0,0:0:0:0:
320,192,239827,128,0,239977:0:0:0:0:
192,192,239977,128,0,240127:0:0:0:50:Clap.wav
448,192,239977,1,0,0:0:0:0:
64,192,240127,1,0,0:0:0:0:
192,192,240277,1,0,0:0:0:60:drum.wav
320,192,240277,128,0,240427:0:0:0:0:
448,192,240427,1,0,0:0:0:0:
64,192,240577,128,0,240727:0:0:0:50:Clap.wav
192,192,240577,1,0,0:0:0:0:
320,192,240577,1,0,0:0:0:0:
320,192,240877,1,0,0:0:0:60:drum.wav
448,192,240877,128,0,241027:0:0:0:0:
192,192,241027,1,0,0:0:0:0:
64,192,241177,128,0,241327:0:0:0:50:Clap.wav
320,192,241177,1,0,0:0:0:0:
448,192,241327,1,0,0:0:0:0:
64,192,241477,1,0,0:0:0:60:drum.wav
192,192,241477,128,0,241777:0:0:0:0:
320,192,241627,1,0,0:0:0:0:
64,192,241777,1,0,0:0:0:50:Clap.wav
448,192,241777,1,0,0:0:0:0:
320,192,241927,128,0,242077:0:0:0:0:
64,192,242077,1,0,0:0:0:60:drum.wav
448,192,242077,1,0,0:0:0:0:
192,192,242227,128,0,242377:0:0:0:0:
320,192,242377,1,0,0:0:0:50:Clap.wav
448,192,242377,128,0,242527:0:0:0:0:
64,192,242527,128,0,242677:0:0:0:0:
192,192,242677,128,0,242977:0:0:0:60:drum.wav
320,192,242677,1,0,0:0:0:0:
448,192,242827,1,0,0:0:0:0:
64,192,242977,1,0,0:0:0:50:Clap.wav
320,192,242977,1,0,0:0:0:0:
192,192,243127,1,0,0:0:0:0:
320,192,243277,128,0,243427:0:0:0:60:drum.wav
448,192,243277,128,0,243427:0:0:0:0:
64,192,243427,1,0,0:0:0:0:
192,192,243577,1,0,0:0:0:50:Clap.wav
448,192,243577,128,0,243727:0:0:0:0:
320,192,243727,1,0,0:0:0:0:
64,192,243877,1,0,0:0:0:60:drum.wav
448,192,243877,128,0,244177:0:0:0:0:
192,192,244177,1,0,0:0:0:50:Clap.wav
320,192,244177,1,0,0:0:0:0:
64,192,244327,128,0,244627:0:0:0:60:drum.wav
320,192,244327,1,0,0:0:0:50:finish.wav
448,192,244327,1,0,0:0:0:0:
448,192,244627,1,0,0:0:0:0:
448,192,244777,1,0,0:0:0:0:
448,192,244927,1,0,0:0:0:0:
448,192,245077,1,0,0:0:0:0:
320,192,245152,1,0,0:0:0:0:
192,192,245227,1,0,0:0:0:0:
64,192,245302,1,0,0:0:0:0:
448,192,245377,128,0,245452:0:0:0:0:
320,192,245452,128,0,245527:0:0:0:0:
64,192,245527,128,0,245602:0:0:0:0:
192,192,245602,128,0,245677:0:0:0:0:
320,192,245677,1,0,0:0:0:60:drum.wav
448,192,245677,128,0,245977:0:0:0:50:finish.wav
192,192,245827,1,0,0:0:0:0:
64,192,245977,1,0,0:0:0:50:snare.wav
320,192,245977,128,0,246277:0:0:0:0:
448,192,246127,1,0,0:0:0:0:
64,192,246277,1,0,0:0:0:60:drum.wav
192,192,246277,128,0,246577:0:0:0:0:
320,192,246427,1,0,0:0:0:0:
64,192,246577,128,0,246877:0:0:0:50:snare.wav
448,192,246577,1,0,0:0:0:0:
320,192,246727,1,0,0:0:0:0:
192,192,246877,128,0,247177:0:0:0:60:drum.wav
448,192,246877,1,0,0:0:0:0:
64,192,247027,1,0,0:0:0:0:
320,192,247177,128,0,247477:0:0:0:50:snare.wav
448,192,247177,1,0,0:0:0:0:
64,192,247327,1,0,0:0:0:0:
192,192,247477,1,0,0:0:0:60:drum.wav
448,192,247477,128,0,247777:0:0:0:0:
320,192,247627,1,0,0:0:0:0:
64,192,247777,128,0,248077:0:0:0:50:snare.wav
192,192,247777,1,0,0:0:0:0:
320,192,247927,1,0,0:0:0:0:
192,192,248077,1,0,0:0:0:60:drum.wav
448,192,248077,128,0,248677:0:0:0:0:
64,192,248227,1,0,0:0:0:0:
192,192,248377,1,0,0:0:0:50:snare.wav
320,192,248377,1,0,0:0:0:0:
64,192,248527,1,0,0:0:0:0:
192,192,248677,1,0,0:0:0:60:drum.wav
320,192,248677,128,0,248977:0:0:0:0:
448,192,248827,1,0,0:0:0:0:
64,192,248977,128,0,249277:0:0:0:50:snare.wav
192,192,248977,1,0,0:0:0:0:
320,192,249127,1,0,0:0:0:0:
192,192,249277,128,0,249877:0:0:0:60:drum.wav
448,192,249277,1,0,0:0:0:0:
64,192,249427,1,0,0:0:0:0:
320,192,249577,1,0,0:0:0:50:snare.wav
448,192,249577,1,0,0:0:0:0:
64,192,249727,1,0,0:0:0:0:
320,192,249877,1,0,0:0:0:60:drum.wav
448,192,249877,128,0,250177:0:0:0:0:
192,192,250027,1,0,0:0:0:0:
64,192,250177,1,0,0:0:0:50:snare.wav
320,192,250177,128,0,250477:0:0:0:0:
448,192,250327,1,0,0:0:0:0:
64,192,250477,128,0,250927:0:0:0:60:drum.wav
192,192,250477,1,0,0:0:0:0:
320,192,250627,1,0,0:0:0:0:
192,192,250777,1,0,0:0:0:50:snare.wav
448,192,250777,1,0,0:0:0:0:
320,192,250927,1,0,0:0:0:0:
64,192,251077,128,0,251377:0:0:0:60:drum.wav
448,192,251077,1,0,0:0:0:0:
320,192,251227,1,0,0:0:0:0:
192,192,251377,128,0,251677:0:0:0:50:snare.wav
448,192,251377,1,0,0:0:0:0:
64,192,251527,1,0,0:0:0:0:
320,192,251677,1,0,0:0:0:60:drum.wav
448,192,251677,128,0,251977:0:0:0:0:
192,192,251827,1,0,0:0:0:0:
64,192,251977,1,0,0:0:0:50:snare.wav
320,192,251977,128,0,252277:0:0:0:0:
448,192,252127,1,0,0:0:0:0:
64,192,252277,1,0,0:0:0:60:drum.wav
192,192,252277,128,0,252577:0:0:0:0:
320,192,252427,1,0,0:0:0:0:
64,192,252577,128,0,252877:0:0:0:50:snare.wav
448,192,252577,1,0,0:0:0:0:
192,192,252727,1,0,0:0:0:0:
320,192,252877,128,0,253177:0:0:0:60:drum.wav
448,192,252877,1,0,0:0:0:0:
64,192,253027,1,0,0:0:0:0:
192,192,253177,128,0,253477:0:0:0:50:snare.wav
448,192,253177,1,0,0:0:0:0:
320,192,253327,1,0,0:0:0:0:
64,192,253477,1,0,0:0:0:60:drum.wav
448,192,253477,128,0,253777:0:0:0:0:
320,192,253627,1,0,0:0:0:0:
64,192,253777,1,0,0:0:0:50:snare.wav
192,192,253777,1,0,0:0:0:0:
64,192,253927,1,0,0:0:0:60:drum.wav
320,192,253927,1,0,0:0:0:50:finish.wav
448,192,253927,128,0,254977:0:0:0:0:
64,192,254227,1,0,0:0:0:0:
192,192,254302,1,0,0:0:0:0:
320,192,254377,1,0,0:0:0:0:
192,192,254527,1,0,0:0:0:0:
64,192,254677,1,0,0:0:0:0:
192,192,254827,1,0,0:0:0:0:
64,192,254977,1,0,0:0:0:50:Clap.wav
320,192,254977,1,0,0:0:0:0:
64,192,255277,1,0,0:0:0:60:drum.wav
192,192,255277,1,0,0:0:0:50:finish.wav
448,192,255277,1,0,0:0:0:0:
320,192,255427,1,0,0:0:0:60:drum.wav
448,192,255427,1,0,0:0:0:50:finish.wav
192,192,255727,1,0,0:0:0:60:drum.wav
320,192,255727,1,0,0:0:0:50:finish.wav
448,192,255727,1,0,0:0:0:0:
64,192,255877,1,0,0:0:0:60:drum.wav
192,192,255877,1,0,0:0:0:50:finish.wav
64,192,256177,1,0,0:0:0:60:drum.wav
320,192,256177,1,0,0:0:0:50:finish.wav
448,192,256177,1,0,0:0:0:0:
64,192,256327,1,0,0:0:0:60:drum.wav
192,192,256327,1,0,0:0:0:50:finish.wav
64,192,256777,128,0,257077:0:0:0:60:drum.wav
320,192,256777,128,0,257077:0:0:0:50:finish.wav
448,192,256777,128,0,257077:0:0:0:0:
64,192,257227,128,0,257527:0:0:0:60:drum.wav
192,192,257227,128,0,257527:0:0:0:50:finish.wav
448,192,257227,128,0,257527:0:0:0:0:
64,192,257677,128,0,258427:0:0:0:60:drum.wav
320,192,257677,128,0,258427:0:0:0:50:finish.wav
448,192,257677,128,0,258427:0:0:0:0:
64,192,258577,1,0,0:0:0:60:drum.wav
192,192,258577,1,0,0:0:0:0:
448,192,258577,1,0,0:0:0:0:
64,192,258727,1,0,0:0:0:60:drum.wav
448,192,258727,1,0,0:0:0:0:
