osu file format v14

[General]
AudioFilename: audio.mp3
AudioLeadIn: 0
PreviewTime: 152002
Countdown: 0
SampleSet: Soft
StackLeniency: 0.7
Mode: 0
LetterboxInBreaks: 0
EpilepsyWarning: 1
WidescreenStoryboard: 1

[Editor]
DistanceSpacing: 0.8
BeatDivisor: 4
GridSize: 4
TimelineZoom: 2.599999

[Metadata]
Title:O108ROCKET (feat. Neko Hacker)
TitleUnicode:O108ROCKET (feat. Neko Hacker)
Artist:wotoha
ArtistUnicode:をとは
Creator:Garden
Version:Insane
Source:
Tags:ジーニアース Geniearth 海月ねう mituki mitsuki neu japanese electronic pop rock ofutone records NNZN ふにゃ yf_bmp Yogurtt Dored featured artist fa mappers' guild mpg
BeatmapID:3114385
BeatmapSetID:1510106

[Difficulty]
HPDrainRate:5
CircleSize:4
OverallDifficulty:7.5
ApproachRate:9
SliderMultiplier:1.6
SliderTickRate:1

[Events]
//Background and Video events
0,0,"O108.jpg",0,0
Video,235,"video.mp4"
//Break Periods
2,122277,131077
2,188277,197077
//Storyboard Layer 0 (Background)
//Storyboard Layer 1 (Fail)
//Storyboard Layer 2 (Pass)
//Storyboard Layer 3 (Foreground)
//Storyboard Layer 4 (Overlay)
//Storyboard Sound Samples

[TimingPoints]
2500,500,4,2,1,40,1,0
2500,-125,4,2,1,40,0,0
14250,-125,4,2,1,10,0,0
14500,-125,4,2,1,40,0,0
17250,-125,4,2,1,10,0,0
17500,-125,4,2,1,40,0,0
18250,-125,4,2,1,10,0,0
18500,-125,4,2,1,40,0,0
28000,-125,4,2,0,30,0,0
28500,-125,4,2,1,50,0,0
28625,-125,4,2,1,30,0,0
32500,-125,4,2,1,40,0,0
35677,300,4,2,1,70,1,0
44377,-133.333333333333,4,2,1,70,0,0
45277,-100,4,2,1,70,0,0
56077,-111.111111111111,4,2,1,50,0,0
65677,-100,4,2,1,60,0,0
80077,-100,4,2,1,65,0,0
85477,-76.9230769230769,4,2,1,65,0,0
86002,-76.9230769230769,4,2,1,5,0,0
86077,-90.9090909090909,4,2,1,70,0,1
95677,-90.9090909090909,4,2,1,70,0,0
95977,-90.9090909090909,4,2,1,70,0,1
102877,-100,4,2,1,70,0,0
111427,-100,4,2,1,70,0,0
112177,-76.9230769230769,4,2,1,70,0,0
112402,-76.9230769230769,4,2,1,70,0,0
112477,-100,4,2,1,70,0,0
122077,-100,4,2,1,55,0,0
129277,-100,4,2,1,60,0,0
131677,-100,4,2,1,60,0,0
141277,-111.111111111111,4,2,1,60,0,0
146077,-100,4,2,1,65,0,0
151477,-76.9230769230769,4,2,1,65,0,0
152002,-76.9230769230769,4,2,1,5,0,0
152077,-90.9090909090909,4,2,1,70,0,1
161677,-90.9090909090909,4,2,1,70,0,0
161977,-90.9090909090909,4,2,1,70,0,1
168877,-100,4,2,1,70,0,0
182827,-111.111111111111,4,2,1,70,0,0
183277,-100,4,2,1,70,0,0
186802,-100,4,2,1,7,0,0
188077,-100,4,2,1,70,0,0
197677,-100,4,2,1,60,0,0
197752,-133.333333333333,4,2,1,60,0,0
206677,-133.333333333333,4,2,1,70,0,0
207277,-100,4,2,1,70,0,0
218527,-76.9230769230769,4,2,1,70,0,0
219202,-76.9230769230769,4,2,1,5,0,0
219277,-90.9090909090909,4,2,1,70,0,1
228877,-90.9090909090909,4,2,1,70,0,0
229177,-90.9090909090909,4,2,1,70,0,1
236077,-100,4,2,1,70,0,0
244627,-100,4,2,1,70,0,0
245377,-100,4,2,1,50,0,0
245677,-100,4,2,1,70,0,0

[Colours]
Combo1 : 170,227,255
Combo2 : 184,149,255
Combo3 : 149,197,255
Combo4 : 213,170,255

[HitObjects]
176,308,2500,6,0,P|237:290|300:281,1,128,4|0,0:0|0:0,0:0:0:0:
336,76,3500,2,0,P|274:93|211:102,1,128,2|0,0:0|0:0,0:0:0:0:
378,354,4500,6,0,P|386:290|408:213,1,128,2|0,0:0|0:0,0:0:0:0:
134,30,5500,2,0,P|126:94|104:171,1,128,2|0,0:0|0:0,0:0:0:0:
41,212,6250,1,0,0:0:0:0:
41,212,6500,6,0,P|121:206|166:241,1,128,2|0,0:0|0:0,0:0:0:0:
25,306,7500,2,0,P|80:335|142:325,1,128,2|0,0:0|0:0,0:0:0:0:
223,286,8250,1,0,0:0:0:0:
331,384,8500,2,0,P|318:326|307:247,1,128,2|0,0:0|0:0,0:0:0:0:
456,65,9500,5,2,0:0:0:0:
485,143,10000,1,0,0:0:0:0:
512,223,10500,2,0,P|448:211|378:204,1,128,2|0,0:0|0:0,0:0:0:0:
220,384,11500,5,2,0:0:0:0:
191,306,12000,1,0,0:0:0:0:
164,226,12500,2,0,P|228:238|298:245,1,128,2|0,0:0|0:0,0:0:0:0:
89,2,13500,2,0,P|79:82|179:126,1,192,2|0,0:0|0:0,0:0:0:0:
255,146,14500,6,0,P|244:86|224:20,1,128,2|0,0:0|0:0,0:0:0:0:
413,207,15500,2,0,P|402:147|382:81,1,128
276,264,16500,6,0,P|246:352|144:347,1,192
61,384,17500,2,0,B|61:258|123:318|128:201,1,192
83,132,18500,6,0,P|149:116|232:89,1,128,4|8,0:0|0:1,0:0:0:0:
277,42,19250,1,8,0:1:0:0:
277,42,19375,1,8,0:1:0:0:
277,42,19500,1,8,0:1:0:0:
296,129,19750,2,0,P|357:109|419:95,1,128,8|0,0:1|0:0,0:0:0:0:
474,24,20500,5,8,0:1:0:0:
424,99,20750,2,0,P|432:138|445:169,1,64,8|8,0:1|0:1,0:0:0:0:
486,249,21250,1,8,0:1:0:0:
486,249,21375,1,8,0:1:0:0:
486,249,21500,1,8,0:1:0:0:
396,240,21750,2,0,P|342:255|265:282,1,128,8|0,0:1|0:0,0:0:0:0:
183,384,22500,6,0,P|214:374|244:363,1,64,8|0,0:1|0:0,0:0:0:0:
183,255,23000,2,0,P|177:268|173:285,4,32,8|8|8|8|8,0:1|0:1|0:1|0:1|0:1,0:0:0:0:
49,384,23750,2,0,P|69:316|88:236,1,128,8|0,0:1|0:0,0:0:0:0:
28,189,24500,5,8,0:1:0:0:
112,159,24750,2,0,P|124:127|137:75,1,64,8|8,0:1|0:1,0:0:0:0:
75,42,25250,1,8,0:1:0:0:
75,42,25375,1,8,0:1:0:0:
75,42,25500,1,8,0:1:0:0:
139,97,25750,2,0,P|217:112|296:119,1,128,8|0,0:1|0:0,0:0:0:0:
364,0,26500,6,0,P|431:7|460:66,1,128,8|8,0:1|0:1,0:0:0:0:
364,154,27250,1,8,0:1:0:0:
364,154,27375,1,8,0:1:0:0:
364,154,27500,2,0,P|369:120|384:80,1,64,8|8,0:1|0:1,0:0:0:0:
266,156,28000,2,0,L|261:171,6,16,8|8|8|8|8|8|8,3:0|3:0|3:0|3:0|3:0|3:0|3:0,0:0:0:0:
256,192,28500,1,4,0:0:0:0:
256,192,28625,12,4,32500,0:0:0:0:
199,238,35677,6,0,P|163:243|121:258,1,80,4|2,3:2|0:0,0:0:0:0:
299,219,35977,1,8,1:2:0:0:
186,329,36127,1,2,0:0:0:0:
299,384,36277,2,0,P|286:349|273:289,1,80,2|2,3:2|0:0,0:0:0:0:
361,155,36577,1,10,1:2:0:0:
390,309,36727,6,0,B|387:259|420:227|437:247|460:212|457:162,1,160,2|2,0:0|0:0,0:0:0:0:
347,77,37177,2,0,P|353:115|364:165,1,80,8|2,1:2|0:0,0:0:0:0:
315,234,37477,1,2,3:2:0:0:
229,212,37627,1,2,0:0:0:0:
192,131,37777,1,10,1:2:0:0:
219,47,37927,1,2,0:0:0:0:
131,208,38077,6,0,P|90:221|47:233,1,80,2|2,3:2|0:0,0:0:0:0:
229,212,38377,1,8,1:2:0:0:
70,135,38527,1,2,0:0:0:0:
180,294,38677,2,0,P|184:329|200:381,1,80,2|2,3:2|0:0,0:0:0:0:
409,313,38977,1,10,1:2:0:0:
276,296,39127,6,0,B|364:282|314:230|421:221,1,160,2|2,0:0|0:0,0:0:0:0:
512,111,39577,2,0,P|474:121|416:135,1,80,8|2,1:2|0:0,0:0:0:0:
272,111,39877,1,2,3:2:0:0:
285,24,40027,1,2,0:0:0:0:
354,78,40177,1,10,1:2:0:0:
307,78,40327,5,2,3:2:0:0:
307,78,40402,1,0,3:0:0:0:
307,78,40477,2,0,P|252:93|199:104,1,80,4|2,3:2|0:0,0:0:0:0:
47,149,40777,1,8,1:2:0:0:
199,11,40927,1,2,0:0:0:0:
150,159,41077,2,0,P|137:121|129:81,1,80,2|2,3:2|0:0,0:0:0:0:
247,191,41377,1,10,1:2:0:0:
247,191,41527,6,0,B|269:283|202:265|226:360,1,160,2|2,0:0|0:0,0:0:0:0:
131,251,41977,2,0,P|92:260|55:274,1,80,8|2,1:2|0:0,0:0:0:0:
232,349,42277,2,0,P|280:339|314:327,1,80,2|2,3:2|0:0,0:0:0:0:
443,225,42577,1,8,3:0:0:0:
439,213,42652,1,4,0:3:0:0:
436,201,42727,1,4,0:3:0:0:
434,189,42802,1,4,0:3:0:0:
431,177,42877,5,8,3:0:0:0:
460,312,43027,1,4,3:3:0:0:
460,312,43327,6,0,P|402:328|341:342,1,120,8|0,3:3|0:0,0:0:0:0:
308,352,43627,2,0,P|302:312|292:273,1,80,4|0,3:3|0:0,0:0:0:0:
200,178,43927,6,0,P|128:197|132:271,1,160,8|0,3:0|3:0,0:0:0:0:
73,329,44302,1,0,3:0:0:0:
73,329,44377,2,0,B|164:332|219:245|173:243|216:161|322:170,1,300.000011444092,4|0,3:2|0:0,0:0:0:0:
416,150,45277,6,0,P|406:192|396:244,1,80,2|2,0:0|0:0,0:0:0:0:
398,228,45502,1,2,0:0:0:0:
398,228,45577,2,0,L|446:219,3,40,2|2|2|2,0:0|0:0|0:0|0:0,0:0:0:0:
496,155,45877,2,0,P|502:127|507:101,3,40,2|2|2|2,1:2|1:2|1:2|1:2,0:0:0:0:
458,43,46177,1,2,1:2:0:0:
431,34,46252,1,2,1:2:0:0:
403,40,46327,1,2,1:2:0:0:
382,58,46402,1,2,1:2:0:0:
369,82,46477,6,0,P|291:62|212:50,1,160,4|10,3:2|3:2,0:0:0:0:
117,61,46927,1,0,0:0:0:0:
284,156,47077,2,0,P|246:168|207:177,1,80,2|0,3:2|0:0,0:0:0:0:
82,355,47377,2,0,P|96:320|105:278,1,80,10|0,3:2|0:0,0:0:0:0:
190,264,47602,1,0,0:0:0:0:
190,264,47677,6,0,P|158:167|82:174,2,160,2|10|2,3:2|3:2|3:2,0:0:0:0:
82,355,48427,1,0,0:0:0:0:
82,355,48502,1,0,0:0:0:0:
82,355,48577,2,0,P|131:355|172:363,1,80,10|0,3:2|0:0,0:0:0:0:
323,384,48877,6,0,P|303:326|280:228,1,160,2|8,3:2|3:2,0:0:0:0:
335,150,49327,1,0,0:0:0:0:
402,327,49477,2,0,P|416:282|421:231,1,80,2|0,3:2|0:0,0:0:0:0:
385,48,49777,2,0,P|399:86|424:125,1,80,10|0,3:2|0:0,0:0:0:0:
491,180,50002,1,2,0:0:0:0:
491,180,50077,6,0,P|416:162|314:147,1,160,2|8,3:2|3:2,0:0:0:0:
41,0,50677,2,0,P|40:69|103:89,1,120,2|0,3:2|0:0,0:0:0:0:
162,87,50977,2,0,P|148:128|140:182,1,80,10|0,3:2|0:0,0:0:0:0:
308,242,51277,6,0,P|310:167|239:144,1,160,4|8,3:2|3:2,0:0:0:0:
141,259,51727,1,0,0:0:0:0:
141,259,51802,1,0,0:0:0:0:
141,259,51877,2,0,P|185:267|230:268,1,80,2|0,3:2|0:0,0:0:0:0:
43,384,52177,2,0,P|54:346|57:306,1,80,10|0,3:2|0:0,0:0:0:0:
55,217,52477,5,2,3:2:0:0:
144,351,52627,1,0,0:0:0:0:
191,187,52777,2,0,P|195:150|206:102,1,80,10|0,3:2|0:0,0:0:0:0:
250,31,53077,5,2,3:2:0:0:
116,120,53227,1,0,0:0:0:0:
280,167,53377,2,0,P|317:171|365:182,1,80,10|0,3:2|0:0,0:0:0:0:
488,27,53677,6,0,P|417:22|367:100,1,160,2|10,3:2|3:2,0:0:0:0:
358,180,54127,1,0,0:0:0:0:
489,118,54277,2,0,P|468:152|456:190,1,80,2|2,3:2|0:0,0:0:0:0:
504,270,54577,1,10,3:2:0:0:
351,350,54727,1,4,3:2:0:0:
256,192,54802,12,4,56077,3:2:0:0:
351,350,56377,6,0,P|337:318|337:280,1,71.9999978027344,2|0,3:2|0:0,0:0:0:0:
329,188,56677,2,0,P|396:212|466:229,1,143.999995605469,2|0,3:2|3:0,0:0:0:0:
512,149,57127,2,0,P|508:104|473:70,1,71.9999978027344,2|0,0:0|3:0,0:0:0:0:
326,33,57427,2,0,P|402:80|392:130,1,143.999995605469,2|2,0:0|0:0,0:0:0:0:
329,188,57877,1,0,3:0:0:0:
329,188,58177,5,2,3:2:0:0:
421,214,58327,1,2,0:0:0:0:
349,278,58477,2,0,P|283:295|195:322,1,143.999995605469,2|0,3:2|3:0,0:0:0:0:
100,211,58927,2,0,P|142:222|172:234,1,71.9999978027344,2|0,0:0|3:0,0:0:0:0:
142,384,59227,2,0,P|127:349|117:305,1,71.9999978027344,2|0,0:0|3:0,0:0:0:0:
257,215,59527,2,0,P|251:148|185:139,1,143.999995605469,2|2,0:0|0:0,0:0:0:0:
108,198,59977,2,0,P|69:186|33:176,1,71.9999978027344,2|0,3:2|0:0,0:0:0:0:
14,95,60277,1,0,3:0:0:0:
14,95,60577,6,0,P|25:51|41:16,1,71.9999978027344,2|0,3:2|0:0,0:0:0:0:
127,68,60877,1,2,3:2:0:0:
127,68,61027,2,0,P|138:24|154:-11,1,71.9999978027344,2|0,0:0|3:0,0:0:0:0:
192,179,61327,2,0,P|203:135|219:100,1,71.9999978027344,2|0,0:0|3:0,0:0:0:0:
304,141,61627,2,0,P|315:97|331:62,1,71.9999978027344,2|0,0:0|3:0,0:0:0:0:
488,11,61927,6,0,P|431:32|441:131,1,143.999995605469,2|2,0:0|0:0,0:0:0:0:
481,176,62377,1,0,3:0:0:0:
357,268,62527,2,0,P|402:260|441:238,1,71.9999978027344,2|0,0:0|3:0,0:0:0:0:
420,107,62827,2,0,P|413:71|401:37,1,71.9999978027344,2|0,0:0|3:0,0:0:0:0:
481,176,63127,1,2,0:0:0:0:
322,92,63277,5,2,3:2:0:0:
322,92,63577,1,2,3:2:0:0:
245,140,63727,2,0,P|212:136|163:123,1,71.9999978027344,0|2,0:0|3:2,0:0:0:0:
51,33,64027,2,0,P|85:41|121:46,1,71.9999978027344,0|2,0:0|3:2,0:0:0:0:
105,195,64327,1,0,0:0:0:0:
105,195,64477,5,2,3:2:0:0:
193,217,64627,1,2,0:0:0:0:
245,140,64777,1,2,3:2:0:0:
333,162,64927,1,2,0:0:0:0:
385,85,65077,2,0,L|380:67,8,17.9999994506836,2|2|2|2|2|2|2|2|10,3:2|0:0|0:0|0:0|0:0|0:0|0:0|0:0|0:0,0:0:0:0:
490,0,65677,6,0,P|475:71|461:162,1,160,4|10,3:2|3:2,0:0:0:0:
510,236,66127,1,0,0:0:0:0:
407,323,66277,2,0,P|413:278|426:225,1,80,2|0,3:2|0:0,0:0:0:0:
494,362,66577,1,10,3:2:0:0:
331,229,66727,6,0,P|261:221|211:294,1,160
75,384,67177,2,0,P|116:367|171:354,1,80,10|2,3:2|0:0,0:0:0:0:
120,270,67477,1,0,3:2:0:0:
120,270,67777,1,10,3:2:0:0:
150,357,67927,1,0,0:0:0:0:
211,286,68077,6,0,P|194:217|165:120,1,160,2|10,3:2|3:2,0:0:0:0:
95,0,68527,2,0,P|85:38|65:77,1,80,2|0,0:0|3:0,0:0:0:0:
7,189,68827,2,0,P|48:170|92:162,1,80,2|10,0:0|3:2,0:0:0:0:
180,43,69127,6,0,P|260:70|337:91,1,160
512,105,69577,1,10,3:2:0:0:
489,18,69727,1,2,0:0:0:0:
403,162,69877,2,0,P|413:123|428:86,1,80,2|2,3:2|0:0,0:0:0:0:
512,219,70177,2,0,P|473:231|436:245,1,80,10|0,3:2|0:0,0:0:0:0:
313,288,70477,5,2,3:2:0:0:
313,288,70627,2,0,P|367:305|388:333,1,80,2|10,0:1|3:2,0:0:0:0:
179,384,70927,2,0,P|155:336|221:267,1,160,2|2,0:1|0:1,0:0:0:0:
313,288,71377,1,10,3:2:0:0:
181,179,71527,6,0,P|167:142|156:103,1,80,2|2,0:1|3:2,0:0:0:0:
264,123,71827,2,0,P|277:160|288:199,1,80,2|10,0:1|3:2,0:0:0:0:
392,216,72127,2,0,P|378:178|367:139,1,80,2|2,0:1|3:2,0:0:0:0:
499,81,72427,2,0,P|425:66|336:45,1,160,2|0,0:1|0:0,0:0:0:0:
186,18,72877,6,0,P|110:10|66:73,1,160,4|8,3:2|3:2,0:0:0:0:
0,207,73327,2,0,P|72:172|146:142,1,160,2|2,0:0|0:0,0:0:0:0:
258,81,73777,2,0,P|236:147|215:242,1,160,10|0,3:2|3:2,0:0:0:0:
79,384,74227,2,0,P|142:317|214:333,1,160,2|2,0:0|0:0,0:0:0:0:
284,383,74677,1,2,3:2:0:0:
284,383,74752,1,2,1:2:0:0:
284,383,74827,1,2,1:2:0:0:
315,234,74977,2,0,P|330:272|339:313,1,80,10|0,1:2|0:0,0:0:0:0:
459,384,75277,6,0,P|480:322|388:260,2,160,4|2|2,3:2|1:2|1:2,0:0:0:0:
338,310,76027,2,0,P|323:272|314:233,1,80,0|2,0:0|1:2,0:0:0:0:
400,171,76327,1,2,0:0:0:0:
400,171,76402,1,2,0:0:0:0:
400,171,76477,6,0,P|417:134|424:90,1,80,2|0,1:2|0:0,0:0:0:0:
243,67,76777,2,0,P|291:12|372:17,1,160,2|2,1:2|1:2,0:0:0:0:
309,139,77227,2,0,P|267:151|222:167,1,80,0|2,0:0|1:2,0:0:0:0:
127,195,77527,1,2,0:0:0:0:
127,195,77602,1,2,0:0:0:0:
127,195,77677,6,0,P|141:132|154:32,1,160,4|2,1:2|1:2,0:0:0:0:
23,188,78127,2,0,P|27:231|66:273,1,80,0|2,0:0|1:2,0:0:0:0:
265,384,78427,2,0,P|291:347|290:296,1,80,0|2,0:0|1:2,0:0:0:0:
143,285,78727,1,2,0:0:0:0:
143,285,78802,1,2,0:0:0:0:
143,285,78877,6,0,P|190:266|229:256,1,80,2|0,1:2|0:0,0:0:0:0:
304,216,79177,1,2,1:2:0:0:
378,362,79327,2,0,P|454:352|489:284,1,160
491,105,79777,1,2,1:2:0:0:
486,128,79852,1,0,1:0:0:0:
481,151,79927,1,0,1:0:0:0:
476,174,80002,1,0,1:0:0:0:
471,197,80077,6,0,P|425:191|364:170,1,80,12|0,1:2|0:0,0:0:0:0:
317,114,80377,1,8,1:2:0:0:
304,216,80527,1,2,0:0:0:0:
304,216,80602,1,0,0:0:0:0:
304,216,80677,1,8,1:2:0:0:
408,93,80827,2,0,P|420:53|429:8,1,80,2|8,0:0|1:2,0:0:0:0:
317,114,81127,1,2,0:0:0:0:
317,114,81202,1,0,0:0:0:0:
317,114,81277,6,0,P|277:123|222:131,1,80,8|2,1:2|0:0,0:0:0:0:
154,79,81577,1,8,1:2:0:0:
211,222,81727,1,2,0:0:0:0:
211,222,81802,1,0,0:0:0:0:
211,222,81877,2,0,P|171:231|116:239,1,80,8|8,1:2|0:0,0:0:0:0:
28,294,82177,1,10,1:2:0:0:
33,270,82252,1,0,1:0:0:0:
38,246,82327,1,8,1:2:0:0:
44,223,82402,1,0,1:0:0:0:
50,199,82477,5,4,3:2:0:0:
104,354,82627,1,6,3:2:0:0:
238,129,82927,5,4,3:2:0:0:
292,284,83077,1,4,3:2:0:0:
426,59,83377,5,4,3:2:0:0:
480,214,83527,2,0,P|422:199|314:187,1,160,4|0,3:2|3:0,0:0:0:0:
312,22,83977,6,0,P|326:61|335:107,1,80,10|0,3:2|3:0,0:0:0:0:
480,214,84277,2,0,P|510:177|501:137,1,80,10|0,3:2|3:0,0:0:0:0:
376,276,84577,2,0,P|390:315|399:361,1,80,10|0,3:2|3:0,0:0:0:0:
258,264,84877,5,10,3:2:0:0:
233,243,84952,1,0,3:0:0:0:
233,211,85027,1,10,3:2:0:0:
252,185,85102,1,0,3:0:0:0:
283,179,85177,2,0,L|347:192,3,40,10|0|10|0,3:2|3:0|3:2|3:0,0:0:0:0:
404,152,85477,5,10,3:2:0:0:
430,127,85552,1,0,3:0:0:0:
434,90,85627,1,10,3:2:0:0:
413,59,85702,1,0,3:0:0:0:
382,39,85777,2,0,P|320:61|227:90,1,155.999992858887,12|0,1:2|0:0,0:0:0:0:
162,148,86077,6,0,P|148:98|127:42,1,88.000002685547,6|2,3:2|0:0,0:0:0:0:
2,207,86377,2,0,P|50:218|119:224,1,88.000002685547,10|2,1:2|0:0,0:0:0:0:
205,333,86677,2,0,P|161:323|92:309,1,88.000002685547,2|2,3:2|0:0,0:0:0:0:
251,176,86977,2,0,P|262:217|281:271,1,88.000002685547,10|2,1:2|0:0,0:0:0:0:
442,301,87277,6,0,P|392:368|310:353,1,176.000005371094,2|10,3:1|1:2,0:0:0:0:
512,234,87727,1,2,0:1:0:0:
512,234,87802,1,0,0:0:0:0:
512,234,87877,2,0,P|429:198|340:175,1,176.000005371094,2|6,3:1|1:0,0:0:0:0:
324,80,88327,1,0,0:0:0:0:
324,80,88402,1,0,0:0:0:0:
324,80,88477,6,0,P|420:99|430:178,2,176.000005371094,4|10|2,3:2|1:2|3:2,0:0:0:0:
253,146,89227,1,2,0:0:0:0:
146,19,89377,2,0,P|157:66|172:114,1,88.000002685547,10|2,1:2|0:0,0:0:0:0:
274,239,89677,6,0,P|202:221|91:203,1,176.000005371094,2|10,3:1|1:2,0:0:0:0:
101,204,90277,2,0,P|95:250|62:278,1,88.000002685547,2|0,3:1|0:1,0:0:0:0:
0,93,90577,2,0,P|39:102|108:123,1,88.000002685547,10|0,1:2|0:0,0:0:0:0:
195,243,90877,6,0,P|216:164|258:77,1,176.000005371094,4|10,3:2|1:2,0:0:0:0:
442,108,91327,1,2,0:0:0:0:
442,108,91402,1,0,0:0:0:0:
442,108,91477,2,0,P|475:72|475:24,1,88.000002685547,2|2,3:2|0:0,0:0:0:0:
296,0,91777,2,0,P|346:22|403:38,1,88.000002685547,10|2,1:2|0:0,0:0:0:0:
512,166,92077,6,0,P|419:157|371:250,1,176.000005371094,2|10,3:1|1:2,0:0:0:0:
393,301,92527,1,2,0:0:0:0:
261,384,92677,2,0,P|175:369|76:356,1,176.000005371094,2|10,3:1|1:2,0:0:0:0:
248,291,93127,1,0,0:0:0:0:
248,291,93202,1,0,0:0:0:0:
248,291,93277,6,0,P|263:245|274:192,1,88.000002685547,4|2,3:2|0:1,0:0:0:0:
185,132,93577,2,0,P|170:178|159:231,1,88.000002685547,2|2,1:0|0:1,0:0:0:0:
373,188,93877,1,2,3:2:0:0:
373,188,94027,2,0,P|388:142|399:89,1,88.000002685547,2|6,0:1|1:0,0:0:0:0:
143,41,94327,6,0,P|164:86|297:85,1,176.000005371094,4|2,3:2|3:2,0:0:0:0:
338,27,94777,1,10,1:2:0:0:
471,197,94927,6,0,P|402:211|278:261,1,176.000005371094,4|0,3:2|3:0,0:0:0:0:
219,262,95302,1,0,3:0:0:0:
219,262,95377,2,0,L|239:316,3,44.0000013427735,0|0|0|0,3:0|3:0|3:0|3:0,0:0:0:0:
171,373,95677,5,2,0:0:0:0:
132,365,95752,1,2,0:0:0:0:
107,334,95827,1,2,0:0:0:0:
105,294,95902,1,2,0:0:0:0:
129,262,95977,2,0,P|117:211|100:153,1,88.000002685547,12|0,1:2|0:0,0:0:0:0:
4,51,96277,2,0,P|45:66|107:84,1,88.000002685547,2|0,3:2|0:0,0:0:0:0:
208,184,96577,2,0,P|238:147|235:93,1,88.000002685547,10|2,1:2|0:0,0:0:0:0:
141,0,96877,6,0,P|227:18|325:36,1,176.000005371094,2|10,3:2|1:2,0:0:0:0:
512,127,97327,1,0,0:0:0:0:
512,127,97402,1,0,0:0:0:0:
512,127,97477,2,0,P|489:158|420:164,1,88.000002685547,2|0,3:2|0:0,0:0:0:0:
395,89,97777,2,0,P|407:37|421:4,1,88.000002685547,10|2,1:2|0:0,0:0:0:0:
488,263,98077,6,0,P|441:193|335:203,1,176.000005371094,6|10,3:2|1:2,0:0:0:0:
280,244,98527,1,2,0:0:0:0:
171,120,98677,2,0,P|186:161|197:203,1,88.000002685547,2|2,3:2|0:0,0:0:0:0:
279,331,98977,1,8,1:2:0:0:
111,237,99127,1,2,0:0:0:0:
31,361,99277,6,0,P|110:324|194:297,1,176.000005371094,2|10,3:1|1:2,0:0:0:0:
392,378,99727,1,2,0:1:0:0:
392,378,99802,1,0,0:0:0:0:
392,378,99877,2,0,P|375:336|366:274,1,88.000002685547,2|2,3:1|0:1,0:0:0:0:
432,73,100177,2,0,P|450:122|383:186,1,132.00000402832,6|0,1:0|0:0,0:0:0:0:
459,262,100477,6,0,P|405:205|305:217,1,176.000005371094,4|10,3:2|1:2,0:0:0:0:
31,361,101077,2,0,P|53:275|79:171,1,176.000005371094,2|10,3:2|1:2,0:0:0:0:
90,88,101527,1,2,0:0:0:0:
90,88,101602,1,0,0:0:0:0:
90,88,101677,6,0,P|50:99|-11:118,1,88.000002685547,2|2,3:2|0:0,0:0:0:0:
149,266,101977,2,0,P|188:254|250:236,1,88.000002685547,10|2,1:2|0:0,0:0:0:0:
331,44,102277,1,4,3:2:0:0:
169,159,102427,1,0,0:0:0:0:
328,236,102577,1,12,1:2:0:0:
243,79,102727,1,0,0:0:0:0:
243,79,102802,1,0,0:0:0:0:
243,79,102877,6,0,P|258:115|273:173,1,80,4|0,3:2|0:0,0:0:0:0:
466,260,103177,2,0,P|450:227|432:161,1,80,10|0,1:2|0:0,0:0:0:0:
436,157,103402,1,0,0:0:0:0:
436,157,103477,2,0,P|366:162|332:257,1,160,4|10,3:2|1:2,0:0:0:0:
379,320,103927,6,0,P|301:336|225:361,1,160,2|2,1:0|0:1,0:0:0:0:
133,384,104377,1,10,1:2:0:0:
205,260,104527,1,2,0:0:0:0:
133,384,104677,2,0,P|119:305|99:227,1,160,4|10,3:2|1:2,0:0:0:0:
2,197,105127,6,0,P|78:200|125:139,1,160,2|2,0:1|0:1,0:0:0:0:
126,48,105577,1,10,1:2:0:0:
126,48,105727,1,2,0:0:0:0:
217,166,105877,2,0,P|229:114|243:76,1,80,4|0,3:2|0:0,0:0:0:0:
293,3,106177,1,10,1:2:0:0:
412,65,106327,6,0,P|373:74|336:90,1,80,2|0,1:0|3:0,0:0:0:0:
244,253,106627,2,0,P|283:240|320:221,1,80,2|8,1:0|1:2,0:0:0:0:
430,166,106927,2,0,P|407:254|392:341,1,160,2|0,1:0|1:0,0:0:0:0:
481,382,107377,1,6,1:0:0:0:
142,306,107677,6,0,P|154:265|162:217,1,80,4|0,3:2|0:0,0:0:0:0:
257,77,107977,2,0,P|245:118|237:166,1,80,10|0,1:2|0:0,0:0:0:0:
256,182,108202,1,0,0:0:0:0:
256,182,108277,2,0,P|148:175|124:112,1,160,4|10,3:2|1:2,0:0:0:0:
15,1,108727,6,0,P|72:23|181:56,1,160,2|2,1:0|0:1,0:0:0:0:
257,77,109177,1,10,1:2:0:0:
319,10,109327,1,2,0:0:0:0:
445,37,109477,6,0,P|458:78|467:135,1,80,4|0,3:2|0:0,0:0:0:0:
268,202,109777,2,0,P|311:153|367:156,1,120,10|0,1:2|0:0,0:0:0:0:
380,170,110077,6,0,P|390:210|407:254,1,80,4|0,3:2|0:0,0:0:0:0:
318,384,110377,2,0,P|307:343|291:300,1,80,10|0,1:2|0:0,0:0:0:0:
152,213,110677,2,0,P|162:253|179:297,1,80,4|0,3:2|0:0,0:0:0:0:
268,202,110977,1,10,1:2:0:0:
48,76,111127,6,0,P|129:99|216:124,1,160,0|2,1:0|0:0,0:0:0:0:
201,119,111577,2,0,P|189:77|183:35,1,80,2|2,0:0|0:0,0:0:0:0:
376,2,111877,2,0,P|375:21|352:10,3,40,2|2|2|2,0:0|0:0|0:0|0:0,0:0:0:0:
283,64,112177,6,0,P|377:61|415:130,1,155.999992858887,2|2,3:0|0:0,0:0:0:0:
472,174,112477,6,0,P|433:183|394:195,1,80,4|0,3:2|0:0,0:0:0:0:
190,353,112777,2,0,P|231:340|285:328,1,80,10|0,3:2|0:0,0:0:0:0:
474,368,113077,2,0,P|436:300|359:294,1,160,2|10,3:2|3:2,0:0:0:0:
282,238,113527,1,0,0:0:0:0:
282,238,113602,1,0,0:0:0:0:
282,238,113677,6,0,P|294:176|308:143,1,80,2|0,3:2|0:0,0:0:0:0:
420,0,113977,2,0,P|408:62|394:95,1,80,10|0,3:2|0:0,0:0:0:0:
219,101,114277,2,0,P|244:29|320:23,1,160,2|10,3:2|3:2,0:0:0:0:
299,160,114727,1,0,0:0:0:0:
299,160,114802,1,0,0:0:0:0:
299,160,114877,6,0,P|204:185|117:209,2,160,2|8|2,3:2|3:2|3:2,0:0:0:0:
392,191,115627,1,0,0:0:0:0:
482,41,115777,2,0,P|472:79|465:119,1,80,10|0,3:2|0:0,0:0:0:0:
452,304,116077,6,0,P|457:228|391:190,1,160,2|8,3:2|3:2,0:0:0:0:
318,256,116527,1,2,0:0:0:0:
318,256,116602,1,0,0:0:0:0:
318,256,116677,2,0,P|278:267|219:278,1,80,2|0,3:2|0:0,0:0:0:0:
69,366,116977,2,0,P|74:326|86:288,1,80,10|0,3:2|0:0,0:0:0:0:
55,141,117277,6,0,P|116:140|156:235,1,160,4|8,3:2|3:2,0:0:0:0:
86,288,117727,1,0,0:0:0:0:
86,288,117802,1,0,0:0:0:0:
86,288,117877,2,0,P|42:301|-17:314,1,80,2|0,3:2|0:0,0:0:0:0:
226,353,118177,2,0,P|235:314|240:274,1,80,10|0,3:2|0:0,0:0:0:0:
278,123,118477,6,0,B|293:217|335:172|345:275,2,160,2|10|2,3:2|3:2|3:2,0:0:0:0:
379,114,119227,1,0,0:0:0:0:
231,16,119377,2,0,P|267:24|313:31,1,80,10|0,3:2|0:0,0:0:0:0:
496,33,119677,6,0,P|419:48|378:114,1,160,2|10,3:2|3:2,0:0:0:0:
420,205,120127,1,0,0:0:0:0:
368,340,120277,2,0,P|357:300|343:262,1,80,2|2,3:2|0:0,0:0:0:0:
463,351,120577,1,10,3:2:0:0:
262,326,120727,6,0,B|171:330|207:283|107:292,1,160,4|0,3:2|0:0,0:0:0:0:
91,311,121102,1,2,0:0:0:0:
91,311,121177,2,0,P|38:297|25:275,1,80,2|2,0:0|0:0,0:0:0:0:
13,187,121477,1,2,0:0:0:0:
86,125,121627,1,2,0:0:0:0:
60,7,121777,1,10,0:0:0:0:
60,7,122077,5,4,3:2:0:0:
86,125,131677,6,0,P|107:184|122:243,1,120,4|0,3:2|0:0,0:0:0:0:
116,271,131977,2,0,P|150:295|199:290,1,80,10|0,3:2|0:0,0:0:0:0:
376,331,132277,2,0,P|298:328|244:384,1,160,2|8,3:2|3:2,0:0:0:0:
267,240,132727,6,0,P|261:211|243:152,1,80,2|2,0:0|3:2,0:0:0:0:
197,69,133027,2,0,P|252:123|329:117,1,160,2|0,0:0|0:0,0:0:0:0:
457,79,133477,1,2,3:2:0:0:
375,33,133627,1,0,0:0:0:0:
414,164,133777,2,0,P|428:210|448:252,1,80,10|0,3:2|0:0,0:0:0:0:
363,355,134077,6,0,P|295:348|277:249,1,160,2|8,3:2|3:2,0:0:0:0:
441,239,134527,2,0,P|402:249|365:265,1,80,2|0,0:0|3:0,0:0:0:0:
232,159,134827,2,0,P|268:175|307:180,1,80,2|8,0:0|3:2,0:0:0:0:
441,239,135127,2,0,P|470:168|475:84,1,160,2|0,0:0|0:0,0:0:0:0:
343,0,135577,5,10,3:2:0:0:
343,0,135727,1,0,0:0:0:0:
381,86,135877,1,2,3:2:0:0:
381,86,136027,1,0,0:0:0:0:
307,180,136177,2,0,P|294:139|278:101,1,80,10|0,3:2|0:0,0:0:0:0:
83,21,136477,5,2,3:2:0:0:
83,21,136627,2,0,P|134:31|167:76,1,80,2|8,0:0|3:2,0:0:0:0:
279,104,136927,2,0,P|242:116|196:141,1,80,2|0,0:0|3:0,0:0:0:0:
91,217,137227,2,0,P|112:174|111:134,1,80,2|8,0:0|3:2,0:0:0:0:
9,265,137527,6,0,P|43:332|134:329,1,160,2|2,0:0|0:0,0:0:0:0:
296,254,137977,1,8,3:2:0:0:
204,384,138127,2,0,P|208:344|215:304,1,80,2|0,0:0|3:0,0:0:0:0:
313,384,138427,1,2,0:0:0:0:
313,384,138577,2,0,P|364:375|400:353,1,80,10|0,3:2|0:0,0:0:0:0:
490,202,138877,6,0,P|454:134|378:129,1,160,2|8,3:2|3:2,0:0:0:0:
486,352,139327,2,0,B|456:257|410:308|393:216,1,160,2|2,0:0|0:0,0:0:0:0:
306,34,139777,6,0,P|286:113|255:193,1,160,10|0,3:2|3:0,0:0:0:0:
84,21,140227,2,0,P|163:22|189:118,1,160,2|0,0:0|0:0,0:0:0:0:
162,183,140677,1,2,3:2:0:0:
162,183,140752,1,2,1:2:0:0:
162,183,140827,1,2,1:2:0:0:
258,186,140977,1,10,1:2:0:0:
284,176,141052,1,0,1:0:0:0:
310,165,141127,1,0,1:0:0:0:
336,156,141202,1,0,1:0:0:0:
361,145,141277,6,0,P|369:105|399:-2,2,143.999995605469,4|2|2,3:2|1:2|1:2,0:0:0:0:
482,343,142027,2,0,P|492:308|506:275,1,71.9999978027344,0|2,0:0|1:2,0:0:0:0:
435,212,142327,1,2,0:0:0:0:
435,212,142402,1,2,0:0:0:0:
435,212,142477,6,0,P|396:231|343:249,1,71.9999978027344,2|0,1:2|0:0,0:0:0:0:
387,337,142777,2,0,P|321:316|229:294,1,143.999995605469,2|2,1:2|1:2,0:0:0:0:
172,357,143227,1,0,0:0:0:0:
79,326,143377,1,2,1:2:0:0:
64,305,143452,1,2,0:0:0:0:
62,279,143527,1,2,0:0:0:0:
70,255,143602,1,2,0:0:0:0:
86,235,143677,6,0,P|74:194|56:147,1,71.9999978027344,4|0,1:2|0:0,0:0:0:0:
153,145,143977,1,2,1:2:0:0:
4,95,144127,2,0,P|89:73|166:53,1,143.999995605469,2|0,0:0|0:0,0:0:0:0:
230,96,144577,1,2,1:2:0:0:
342,0,144727,1,2,0:0:0:0:
342,0,144802,1,2,0:0:0:0:
342,0,144877,6,0,P|323:40|313:77,1,71.9999978027344,2|0,1:2|0:0,0:0:0:0:
408,87,145177,1,2,1:2:0:0:
457,215,145327,2,0,P|471:179|483:132,1,71.9999978027344,0|2,0:0|1:2,0:0:0:0:
408,87,145627,1,0,0:0:0:0:
361,209,145777,1,2,1:2:0:0:
353,233,145852,1,0,1:0:0:0:
348,257,145927,1,0,1:0:0:0:
345,282,146002,1,0,1:0:0:0:
343,307,146077,6,0,P|391:298|443:290,1,80,12|0,1:2|0:0,0:0:0:0:
270,182,146377,2,0,P|221:190|173:199,1,80,8|2,1:2|0:0,0:0:0:0:
158,206,146602,1,0,0:0:0:0:
158,206,146677,1,8,1:2:0:0:
75,132,146827,1,2,0:0:0:0:
49,229,146977,1,8,1:2:0:0:
180,110,147127,1,2,0:0:0:0:
180,110,147202,1,0,0:0:0:0:
180,110,147277,6,0,P|172:71|153:8,1,80,8|2,1:2|0:0,0:0:0:0:
380,214,147577,2,0,P|372:182|346:116,1,80,8|2,1:2|0:0,0:0:0:0:
336,113,147802,1,0,0:0:0:0:
336,113,147877,2,0,P|402:91|463:160,1,160,8|10,1:2|1:2,0:0:0:0:
476,249,148327,1,8,1:2:0:0:
476,249,148402,1,0,1:0:0:0:
476,249,148477,5,4,3:2:0:0:
284,194,148627,1,6,3:2:0:0:
144,58,148927,5,4,3:2:0:0:
336,113,149077,1,4,3:2:0:0:
226,275,149377,5,4,3:2:0:0:
34,220,149527,2,0,P|112:205|199:182,1,160,4|0,3:2|3:0,0:0:0:0:
111,370,149977,6,0,P|122:328|140:282,1,80,10|0,3:2|3:0,0:0:0:0:
262,121,150277,2,0,P|284:154|284:194,1,80,10|0,3:2|3:0,0:0:0:0:
82,62,150577,2,0,P|121:71|158:86,1,80,10|0,3:2|3:0,0:0:0:0:
351,54,150877,5,10,3:2:0:0:
367,31,150952,1,0,3:0:0:0:
391,18,151027,1,10,3:2:0:0:
418,18,151102,1,0,3:0:0:0:
444,27,151177,2,0,L|457:71,3,40,10|0|10|0,3:2|3:0|3:2|3:0,0:0:0:0:
398,134,151477,5,10,3:2:0:0:
379,165,151552,1,0,3:0:0:0:
379,201,151627,1,10,3:2:0:0:
399,231,151702,1,0,3:0:0:0:
429,249,151777,2,0,P|354:271|294:319,1,155.999992858887,12|0,1:2|0:0,0:0:0:0:
226,372,152077,6,0,P|181:358|152:311,1,88.000002685547,6|2,3:2|0:0,0:0:0:0:
0,290,152377,2,0,P|41:274|81:257,1,88.000002685547,10|2,1:2|0:0,0:0:0:0:
259,180,152677,2,0,P|242:221|229:263,1,88.000002685547,2|2,3:2|0:0,0:0:0:0:
138,63,152977,2,0,P|137:105|167:137,1,88.000002685547,10|2,1:2|0:0,0:0:0:0:
350,220,153277,6,0,P|406:214|443:109,1,176.000005371094,2|10,3:1|1:2,0:0:0:0:
492,0,153727,1,2,0:1:0:0:
492,0,153802,1,0,0:0:0:0:
492,0,153877,2,0,P|444:15|396:32,1,88.000002685547,2|0,3:1|0:0,0:0:0:0:
316,0,154177,1,6,1:0:0:0:
259,179,154327,1,0,0:0:0:0:
259,179,154402,1,0,0:0:0:0:
259,179,154477,6,0,P|178:152|72:127,1,176.000005371094,4|10,3:2|1:2,0:0:0:0:
163,52,154927,1,2,0:0:0:0:
20,203,155077,2,0,P|27:259|59:280,1,88.000002685547,2|2,3:2|0:0,0:0:0:0:
211,361,155377,1,10,1:2:0:0:
240,266,155527,1,2,0:0:0:0:
2,367,155677,6,0,P|71:296|179:307,1,176.000005371094,2|10,3:1|1:2,0:0:0:0:
143,291,156277,2,0,P|153:239|168:196,1,88.000002685547,2|0,3:1|0:1,0:0:0:0:
46,73,156577,2,0,P|58:126|93:146,1,88.000002685547,10|0,1:2|0:0,0:0:0:0:
256,242,156877,6,0,P|327:183|415:190,1,176.000005371094,4|10,3:2|1:2,0:0:0:0:
484,262,157327,1,2,0:0:0:0:
484,262,157402,1,0,0:0:0:0:
484,262,157477,2,0,P|441:276|396:299,1,88.000002685547,2|2,3:2|0:0,0:0:0:0:
501,164,157777,2,0,P|521:117|500:66,1,88.000002685547,10|2,1:2|0:0,0:0:0:0:
402,0,158077,6,0,P|319:29|234:55,1,176.000005371094,2|10,3:1|1:2,0:0:0:0:
145,19,158527,1,2,0:0:0:0:
21,151,158677,2,0,P|47:199|183:178,1,176.000005371094,2|10,3:1|1:2,0:0:0:0:
241,148,159127,1,0,0:0:0:0:
241,148,159202,1,0,0:0:0:0:
241,148,159277,6,0,P|252:192|261:250,1,88.000002685547,4|2,3:2|0:1,0:0:0:0:
382,373,159577,2,0,P|371:329|362:271,1,88.000002685547,2|2,1:0|0:1,0:0:0:0:
275,338,159877,1,2,3:2:0:0:
352,185,160027,1,2,0:1:0:0:
275,338,160177,2,0,P|253:343|232:347,1,44.0000013427735,6|0,1:0|0:0,0:0:0:0:
120,384,160327,6,0,P|49:355|51:256,1,176.000005371094,4|2,3:2|3:2,0:0:0:0:
117,198,160777,1,10,1:2:0:0:
13,85,160927,6,0,P|107:107|185:121,1,176.000005371094,4|0,3:2|3:0,0:0:0:0:
221,117,161302,1,0,3:0:0:0:
221,117,161377,2,0,L|231:68,3,44.0000013427735,0|0|0|0,3:0|3:0|3:0|3:0,0:0:0:0:
294,5,161677,5,2,0:0:0:0:
331,16,161752,1,2,0:0:0:0:
356,46,161827,1,2,0:0:0:0:
362,85,161902,1,2,0:0:0:0:
342,119,161977,2,0,P|330:160|318:217,1,88.000002685547,12|0,1:2|0:0,0:0:0:0:
319,384,162277,2,0,P|363:366|383:302,1,88.000002685547,2|0,3:2|0:0,0:0:0:0:
500,216,162577,2,0,P|455:231|400:245,1,88.000002685547,10|2,1:2|0:0,0:0:0:0:
239,341,162877,6,0,P|155:313|57:294,1,176.000005371094,2|10,3:2|1:2,0:0:0:0:
182,161,163327,1,0,0:0:0:0:
182,161,163402,1,0,0:0:0:0:
182,161,163477,2,0,P|214:192|200:250,1,88.000002685547,2|0,3:2|0:0,0:0:0:0:
353,384,163777,2,0,P|344:341|327:284,1,88.000002685547,10|0,1:2|0:0,0:0:0:0:
441,122,164077,6,0,P|401:195|317:198,2,176.000005371094,6|10|2,3:2|1:2|3:2,0:0:0:0:
363,69,164827,1,2,0:0:0:0:
511,26,164977,2,0,P|460:13|414:-1,1,88.000002685547,8|2,1:2|0:0,0:0:0:0:
194,19,165277,6,0,P|278:42|362:68,1,176.000005371094,2|10,3:1|1:2,0:0:0:0:
450,130,165727,1,2,0:1:0:0:
450,130,165802,1,0,0:0:0:0:
450,130,165877,2,0,P|443:178|389:201,1,88.000002685547,2|2,3:1|0:1,0:0:0:0:
232,359,166177,2,0,P|308:329|376:309,1,132.00000402832,6|0,1:0|0:0,0:0:0:0:
452,289,166477,6,0,P|402:231|282:250,1,176.000005371094,4|10,3:2|1:2,0:0:0:0:
68,380,167077,2,0,P|77:337|91:295,1,88.000002685547,2|0,3:2|0:0,0:0:0:0:
171,221,167377,1,10,1:2:0:0:
0,189,167527,6,0,P|50:117|134:125,1,176.000005371094,2|2,3:1|0:0,0:0:0:0:
319,0,167977,2,0,P|275:19|235:43,1,88.000002685547,10|2,1:2|0:0,0:0:0:0:
215,71,168202,1,0,0:0:0:0:
215,71,168277,2,0,P|227:93|235:114,3,44.0000013427735,4|2|2|2,3:2|0:0|0:0|0:0,0:0:0:0:
250,200,168577,1,2,1:2:0:0:
289,201,168652,1,2,1:2:0:0:
322,179,168727,1,2,1:2:0:0:
336,142,168802,1,2,1:2:0:0:
336,106,168877,6,0,B|422:75|478:148|478:148|451:307|451:307|410:344|371:302|371:302|385:226,1,480,4|10,3:2|1:2,0:0:0:0:
383,236,169927,2,0,B|288:217|288:217|279:223|279:223|268:275,1,160,2|2,0:1|0:1,0:0:0:0:
256,364,170377,5,10,1:2:0:0:
256,364,170527,1,2,0:1:0:0:
163,349,170677,1,2,3:1:0:0:
163,349,170827,1,2,0:1:0:0:
177,261,170977,1,10,1:2:0:0:
177,261,171127,1,2,0:1:0:0:
8,281,171277,5,2,3:1:0:0:
8,281,171427,2,0,P|50:289|111:296,1,80,2|10,0:1|1:2,0:0:0:0:
182,172,171727,1,2,0:1:0:0:
182,172,171877,2,0,P|220:178|269:184,1,80,2|2,3:1|0:0,0:0:0:0:
357,62,172177,1,10,1:2:0:0:
357,62,172327,2,0,P|395:68|444:74,1,80,2|2,0:1|3:2,0:0:0:0:
261,183,172627,5,2,0:1:0:0:
342,246,172777,2,0,P|368:214|366:174,1,80,10|2,1:2|0:1,0:0:0:0:
231,40,173077,2,0,B|231:62|223:84|223:84|242:111|242:111|232:138|232:138|252:152|261:185,1,160,6|10,3:1|1:2,0:0:0:0:
251,284,173527,1,0,0:0:0:0:
251,284,173602,1,0,0:0:0:0:
251,284,173677,6,0,P|327:272|383:337,2,160,6|10|0,3:1|1:2|3:0,0:0:0:0:
179,346,174427,1,2,0:1:0:0:
133,164,174577,1,10,1:2:0:0:
1,300,174727,6,0,P|77:275|154:255,1,160,2|2,0:1|0:1,0:0:0:0:
252,109,175177,2,0,P|238:145|229:192,1,80,10|2,1:2|0:0,0:0:0:0:
53,98,175477,5,2,3:1:0:0:
133,164,175627,1,2,0:1:0:0:
207,16,175777,5,10,1:2:0:0:
121,172,175927,1,2,0:1:0:0:
251,284,176077,6,0,P|290:281|321:257,1,80,2|2,3:1|0:1,0:0:0:0:
333,229,176302,1,0,0:0:0:0:
333,229,176377,1,10,1:2:0:0:
494,179,176527,2,0,P|441:128|352:146,1,160,2|2,0:1|0:1,0:0:0:0:
367,29,176977,1,10,1:2:0:0:
263,157,177127,6,0,P|269:119|282:65,1,80,6|0,3:1|0:0,0:0:0:0:
175,107,177427,1,2,3:1:0:0:
333,229,177577,1,10,1:2:0:0:
175,107,177727,2,0,P|155:194|142:283,1,160,6|2,3:1|3:1,0:0:0:0:
0,384,178177,2,0,P|40:350|82:349,1,80,10|2,1:2|0:0,0:0:0:0:
103,363,178402,1,2,0:0:0:0:
103,363,178477,6,0,L|158:352,3,40,0|0|0|0,1:0|1:0|1:0|1:0,0:0:0:0:
220,313,178777,2,0,P|267:302|321:293,1,80,4|0,3:1|0:0,0:0:0:0:
483,281,179077,2,0,B|422:305|362:244|393:241|355:177|271:206,1,240,4|0,3:1|0:0,0:0:0:0:
359,37,179677,6,0,P|449:60|447:206,1,240,4|0,3:1|3:0,0:0:0:0:
483,281,180277,1,4,1:0:0:0:
324,375,180427,2,0,P|345:263|378:132,1,240,0|0,3:0|0:0,0:0:0:0:
375,140,181177,6,0,P|333:132|279:117,1,80,4|0,3:1|0:0,0:0:0:0:
139,21,181477,2,0,P|45:22|18:159,1,240,4|0,3:1|0:0,0:0:0:0:
0,243,182077,6,0,B|66:254|114:200|80:196|126:119|205:148,1,240,4|0,3:1|3:0,0:0:0:0:
272,210,182677,1,4,1:0:0:0:
162,384,182827,2,0,P|170:304|184:229,1,143.999995605469,0|0,3:0|1:0,0:0:0:0:
263,366,183277,6,0,P|355:356|386:295,1,160,2|0,3:2|3:2,0:0:0:0:
383,214,183727,1,0,0:0:0:0:
383,214,183877,2,0,P|427:220|468:224,1,80,2|0,3:2|0:0,0:0:0:0:
373,127,184177,2,0,P|329:121|288:117,1,80,2|0,3:2|0:0,0:0:0:0:
483,5,184477,5,2,3:2:0:0:
483,5,184627,1,0,0:0:0:0:
392,43,184777,1,2,3:2:0:0:
392,43,184927,1,0,0:0:0:0:
471,103,185077,2,0,P|462:139|454:190,1,80,2|0,3:2|0:0,0:0:0:0:
348,297,185377,2,0,P|356:260|365:210,1,80,2|0,3:2|0:0,0:0:0:0:
437,331,185677,6,0,P|357:340|280:360,1,160,2|2,3:2|3:2,0:0:0:0:
180,373,186127,1,2,0:3:0:0:
180,373,186277,2,0,P|188:333|198:295,1,80,2|2,3:2|0:3,0:0:0:0:
151,127,186577,1,2,3:2:0:0:
256,192,186727,1,4,3:1:0:0:
256,192,186802,12,6,188077,0:0:0:0:
32,360,197677,5,4,3:2:0:0:
45,281,197977,1,0,3:0:0:0:
99,222,198277,1,0,3:0:0:0:
178,211,198577,1,0,3:0:0:0:
178,211,198727,2,0,P|166:152|149:89,1,120.000004577637,2|0,0:0|0:0,0:0:0:0:
119,15,199177,1,0,3:0:0:0:
119,15,199477,5,0,3:0:0:0:
61,84,199627,1,2,0:0:0:0:
150,94,199777,2,0,P|187:87|230:77,1,60.0000022888184,0|2,3:0|0:0,0:0:0:0:
480,24,200077,5,2,3:2:0:0:
467,103,200377,1,0,3:0:0:0:
413,162,200677,1,0,3:0:0:0:
334,173,200977,1,0,3:0:0:0:
334,173,201127,2,0,P|346:232|363:295,1,120.000004577637,2|0,0:0|0:0,0:0:0:0:
393,369,201577,1,0,3:0:0:0:
393,369,201877,5,0,3:0:0:0:
451,300,202027,1,2,0:0:0:0:
362,290,202177,2,0,P|324:296|282:307,1,60.0000022888184,0|2,3:0|0:0,0:0:0:0:
128,342,202477,5,2,3:2:0:0:
63,288,202777,1,0,3:0:0:0:
54,204,203077,1,0,3:0:0:0:
101,134,203377,1,0,3:0:0:0:
101,134,203527,2,0,P|171:128|202:86,1,120.000004577637,2|0,0:0|0:0,0:0:0:0:
215,7,203977,1,0,3:0:0:0:
215,7,204277,5,0,3:0:0:0:
199,92,204427,1,2,0:0:0:0:
182,180,204577,2,0,L|174:239,1,60.0000022888184,0|2,3:0|0:0,0:0:0:0:
384,342,204877,5,2,3:2:0:0:
449,288,205177,1,0,3:0:0:0:
458,204,205477,1,0,3:0:0:0:
411,134,205777,1,0,3:0:0:0:
411,134,205927,2,0,P|341:128|310:86,1,120.000004577637,2|0,0:0|0:0,0:0:0:0:
297,7,206377,1,2,3:2:0:0:
297,7,206677,5,4,3:2:0:0:
312,92,206827,1,0,0:0:0:0:
330,180,206977,2,0,L|341:242,1,60.0000022888184,4|0,3:2|0:0,0:0:0:0:
415,293,207277,6,0,P|336:277|257:267,1,160,12|8,3:2|3:2,0:0:0:0:
127,351,207727,1,2,0:0:0:0:
127,351,207877,2,0,P|100:377|36:374,1,80,8|2,3:2|0:0,0:0:0:0:
165,272,208177,2,0,P|173:231|177:185,1,80,8|2,3:2|0:0,0:0:0:0:
97,91,208477,6,0,P|176:107|255:117,1,160,12|8,3:2|3:2,0:0:0:0:
385,33,208927,1,2,0:0:0:0:
385,33,209077,2,0,P|412:7|476:10,1,80,8|2,3:2|0:0,0:0:0:0:
347,112,209377,2,0,P|338:152|335:199,1,80,8|2,3:2|0:0,0:0:0:0:
459,370,209677,5,12,3:2:0:0:
512,310,209827,1,2,0:0:0:0:
471,240,209977,2,0,P|434:253|387:263,1,80,8|2,3:2|0:0,0:0:0:0:
308,274,210277,1,8,3:2:0:0:
308,274,210427,1,2,0:0:0:0:
244,212,210577,2,0,P|204:220|167:234,1,80,8|2,3:2|0:0,0:0:0:0:
53,14,210877,5,12,3:2:0:0:
0,74,211027,1,2,0:0:0:0:
41,144,211177,2,0,P|77:130|125:121,1,80,8|2,3:2|0:0,0:0:0:0:
204,110,211477,1,8,3:2:0:0:
204,110,211627,1,2,0:0:0:0:
268,172,211777,2,0,P|307:163|344:149,1,80,8|2,3:2|0:0,0:0:0:0:
449,8,212077,5,12,3:2:0:0:
449,8,212227,1,10,0:0:0:0:
401,79,212377,1,10,3:2:0:0:
401,79,212527,1,10,0:0:0:0:
473,169,212677,5,12,3:2:0:0:
473,169,212827,1,10,0:0:0:0:
425,240,212977,1,8,3:2:0:0:
425,240,213127,1,10,0:0:0:0:
497,330,213277,6,0,P|468:326|390:320,1,80,12|10,3:2|0:0,0:0:0:0:
256,366,213577,6,0,P|259:324|268:283,1,80,10|10,3:2|0:0,0:0:0:0:
245,97,213877,6,0,P|253:57|256:18,1,80,10|10,3:2|0:0,0:0:0:0:
15,54,214177,6,0,P|44:58|122:64,1,80,10|10,3:2|0:0,0:0:0:0:
342,169,214477,5,4,3:2:0:0:
342,169,214627,1,4,3:2:0:0:
258,194,214927,5,4,3:2:0:0:
258,194,215077,1,4,3:2:0:0:
171,219,215377,5,4,3:2:0:0:
171,219,215527,2,0,P|183:144|202:52,1,160,4|0,3:2|3:0,0:0:0:0:
360,1,215977,5,10,3:2:0:0:
418,55,216127,1,0,3:0:0:0:
338,164,216277,5,10,3:2:0:0:
413,136,216427,1,0,3:0:0:0:
411,283,216577,5,10,3:2:0:0:
449,212,216727,1,0,3:0:0:0:
512,322,216877,6,0,L|506:281,7,40,4|0|10|0|10|0|10|0,3:2|3:0|3:2|3:0|3:2|3:0|3:2|3:0,0:0:0:0:
423,379,217477,5,10,3:2:0:0:
403,374,217552,1,0,3:0:0:0:
396,355,217627,1,10,3:2:0:0:
402,336,217702,1,0,3:0:0:0:
416,322,217777,2,0,L|410:282,3,40,10|0|10|0,3:2|3:0|3:2|3:0,0:0:0:0:
327,247,218077,6,0,L|321:207,3,40,2|0|2|0,0:0|0:0|0:0|0:0,0:0:0:0:
393,152,218377,2,0,L|387:112,1,40,2|2,0:0|0:0,0:0:0:0:
312,53,218527,5,2,0:0:0:0:
285,56,218602,1,0,0:0:0:0:
260,65,218677,1,2,0:0:0:0:
239,82,218752,1,0,0:0:0:0:
220,99,218827,1,2,0:0:0:0:
195,109,218902,1,2,0:0:0:0:
168,112,218977,2,0,P|121:54|45:58,1,155.999992858887,6|0,3:1|0:0,0:0:0:0:
0,150,219277,6,0,P|43:142|85:131,1,88.000002685547,6|2,3:2|0:0,0:0:0:0:
240,193,219577,2,0,P|236:235|204:264,1,88.000002685547,10|2,1:2|0:0,0:0:0:0:
90,382,219877,2,0,P|91:341|110:276,1,88.000002685547,2|2,3:2|0:0,0:0:0:0:
272,362,220177,2,0,P|321:356|358:309,1,88.000002685547,10|2,1:2|0:0,0:0:0:0:
504,269,220477,6,0,P|431:253|326:235,1,176.000005371094,2|10,3:1|1:2,0:0:0:0:
440,87,220927,1,2,0:1:0:0:
440,87,221002,1,0,0:0:0:0:
440,87,221077,2,0,P|475:129|464:177,1,88.000002685547,2|0,3:1|0:0,0:0:0:0:
362,363,221377,2,0,P|346:299|331:235,1,132.00000402832,6|0,1:0|0:0,0:0:0:0:
322,204,221677,6,0,P|280:199|219:187,1,88.000002685547,4|2,3:2|0:0,0:0:0:0:
152,132,221977,1,10,1:2:0:0:
152,132,222127,1,2,0:0:0:0:
36,284,222277,2,0,P|8:250|7:207,1,88.000002685547,2|2,3:2|0:0,0:0:0:0:
190,46,222577,1,10,1:2:0:0:
104,217,222727,1,2,0:0:0:0:
0,86,222877,6,0,P|92:114|185:136,1,176.000005371094,2|10,3:1|1:2,0:0:0:0:
348,77,223327,1,2,0:1:0:0:
348,77,223402,1,0,0:0:0:0:
348,77,223477,2,0,P|342:20|305:-9,1,88.000002685547,2|0,3:1|0:1,0:0:0:0:
272,148,223777,2,0,P|283:186|293:243,1,88.000002685547,10|0,1:2|0:0,0:0:0:0:
471,314,224077,6,0,P|456:223|379:204,2,176.000005371094,4|10|2,3:2|1:2|3:2,0:0:0:0:
405,384,224827,1,2,0:0:0:0:
288,323,224977,2,0,P|336:306|391:296,1,88.000002685547,10|2,1:2|0:0,0:0:0:0:
500,113,225277,6,0,P|467:190|384:202,1,176.000005371094,2|10,3:1|1:2,0:0:0:0:
299,153,225727,1,2,0:0:0:0:
299,153,225802,1,0,0:0:0:0:
299,153,225877,2,0,P|306:110|319:58,1,88.000002685547,2|2,3:1|0:0,0:0:0:0:
90,0,226177,2,0,P|97:49|142:75,1,88.000002685547,10|0,1:2|0:0,0:0:0:0:
221,88,226477,5,4,3:2:0:0:
195,2,226627,1,2,0:1:0:0:
81,223,226777,5,2,1:0:0:0:
55,137,226927,1,2,0:1:0:0:
231,246,227077,5,2,3:2:0:0:
231,246,227227,2,0,P|250:286|255:340,1,88.000002685547,2|6,0:1|1:0,0:0:0:0:
10,346,227527,6,0,P|65:274|143:290,1,176.000005371094,4|2,3:2|3:2,0:0:0:0:
231,246,227977,1,10,1:2:0:0:
345,384,228127,2,0,P|329:297|319:210,1,176.000005371094,4|0,3:2|3:0,0:0:0:0:
284,134,228502,1,0,3:0:0:0:
284,134,228577,2,0,P|314:127|334:126,3,44.0000013427735,0|0|0|0,3:0|3:0|3:0|3:0,0:0:0:0:
415,137,228877,5,2,0:0:0:0:
441,114,228952,1,2,0:0:0:0:
452,80,229027,1,2,0:0:0:0:
446,45,229102,1,2,0:0:0:0:
420,20,229177,2,0,P|371:28|314:40,1,88.000002685547,12|0,1:2|0:0,0:0:0:0:
139,7,229477,2,0,P|160:44|201:58,1,88.000002685547,2|0,3:2|0:0,0:0:0:0:
256,217,229777,2,0,P|267:174|284:134,1,88.000002685547,10|2,1:2|0:0,0:0:0:0:
500,262,230077,6,0,P|427:272|308:303,1,176.000005371094,2|10,3:2|1:2,0:0:0:0:
157,238,230527,1,2,0:0:0:0:
157,238,230602,1,0,0:0:0:0:
157,238,230677,2,0,P|123:213|62:220,1,88.000002685547,2|0,3:2|0:0,0:0:0:0:
217,384,230977,2,0,P|220:340|230:297,1,88.000002685547,10|0,1:2|0:0,0:0:0:0:
419,257,231277,6,0,P|361:195|277:208,1,176.000005371094,6|10,3:2|1:2,0:0:0:0:
425,109,231727,1,2,0:0:0:0:
299,15,231877,2,0,P|313:52|327:110,1,88.000002685547,2|2,3:2|0:0,0:0:0:0:
74,211,232177,2,0,P|109:153|173:149,1,132.00000402832,8|0,1:2|0:0,0:0:0:0:
208,72,232477,6,0,P|198:121|178:251,1,176.000005371094,2|10,3:1|1:2,0:0:0:0:
269,353,232927,1,2,0:1:0:0:
269,353,233002,1,0,0:0:0:0:
269,353,233077,1,2,3:1:0:0:
285,249,233227,1,2,0:1:0:0:
85,372,233377,2,0,P|125:355|167:341,1,88.000002685547,6|0,1:0|0:0,0:0:0:0:
364,321,233677,6,0,P|448:322|498:253,1,176.000005371094,4|10,3:2|1:2,0:0:0:0:
244,26,234277,2,0,P|328:20|385:83,1,176.000005371094,2|10,3:2|1:2,0:0:0:0:
467,159,234727,1,2,0:0:0:0:
467,159,234802,1,0,0:0:0:0:
467,159,234877,6,0,P|419:171|374:189,1,88.000002685547,2|2,3:2|0:0,0:0:0:0:
218,126,235177,1,10,1:2:0:0:
252,273,235327,1,2,1:2:0:0:
252,273,235402,1,0,1:0:0:0:
252,273,235477,2,0,P|287:216|270:164,1,88.000002685547,4|2,3:2|1:2,0:0:0:0:
302,102,235702,1,0,1:0:0:0:
302,102,235777,2,0,P|262:115|194:129,1,88.000002685547,12|0,1:2|1:0,0:0:0:0:
14,16,236077,6,0,P|30:53|44:101,1,80,4|0,3:2|0:0,0:0:0:0:
0,239,236377,2,0,P|44:208|93:218,1,80,10|0,1:2|0:0,0:0:0:0:
108,221,236602,1,0,0:0:0:0:
108,221,236677,2,0,P|125:149|148:62,1,160,4|10,3:2|1:2,0:0:0:0:
308,14,237127,6,0,P|385:14|426:82,1,160,2|2,1:0|0:1,0:0:0:0:
416,206,237577,1,10,1:2:0:0:
336,125,237727,1,2,0:0:0:0:
512,97,237877,2,0,P|434:116|355:130,1,160,4|10,3:2|1:2,0:0:0:0:
237,346,238327,6,0,P|175:299|177:222,1,160,2|2,0:1|0:1,0:0:0:0:
252,151,238777,1,10,1:2:0:0:
252,151,238927,1,2,0:0:0:0:
72,111,239077,2,0,P|109:123|149:131,1,80,4|0,3:2|0:0,0:0:0:0:
176,222,239377,1,10,1:2:0:0:
276,245,239527,6,0,P|317:235|351:220,1,80,2|0,1:0|3:0,0:0:0:0:
411,136,239827,1,2,1:0:0:0:
447,310,239977,2,0,P|454:265|458:212,1,80,12|2,1:2|0:0,0:0:0:0:
460,55,240277,1,4,3:2:0:0:
314,131,240427,1,2,0:0:0:0:
457,230,240577,1,6,1:0:0:0:
231,352,240877,6,0,P|191:359|153:370,1,80,4|0,3:2|0:0,0:0:0:0:
38,184,241177,2,0,P|26:222|19:261,1,80,10|0,1:2|0:0,0:0:0:0:
29,296,241402,1,0,0:0:0:0:
29,296,241477,2,0,P|127:270|143:214,1,160,4|10,3:2|1:2,0:0:0:0:
0,70,241927,6,0,P|57:92|166:125,1,160,2|2,1:0|0:1,0:0:0:0:
242,0,242377,1,10,1:2:0:0:
359,41,242527,1,2,0:0:0:0:
287,185,242677,6,0,P|279:145|267:107,1,80,4|0,3:2|0:0,0:0:0:0:
501,179,242977,2,0,P|499:237|453:272,1,120,10|0,1:2|0:0,0:0:0:0:
422,256,243277,6,0,P|383:265|345:279,1,80,4|0,3:2|0:0,0:0:0:0:
152,384,243577,2,0,P|190:373|228:360,1,80,10|0,1:2|0:0,0:0:0:0:
287,185,243877,2,0,P|247:195|203:212,1,80,4|0,3:2|0:0,0:0:0:0:
123,141,244177,1,10,1:2:0:0:
96,299,244327,6,0,P|107:219|122:141,1,160,0|2,1:0|0:0,0:0:0:0:
122,141,244777,2,0,P|83:152|46:166,1,80,2|2,0:0|0:0,0:0:0:0:
181,0,245077,6,0,L|174:39,3,40,2|2|2|2,0:0|0:0|0:0|0:0,0:0:0:0:
244,92,245377,6,0,L|240:111,6,20,2|2|2|2|2|2|2,3:0|0:0|0:0|0:0|0:0|0:0|0:0,0:0:0:0:
287,185,245677,6,0,P|364:165|443:153,1,160,4|10,3:2|3:2,0:0:0:0:
512,215,246127,1,0,0:0:0:0:
404,332,246277,2,0,P|416:294|425:255,1,80,2|0,3:2|0:0,0:0:0:0:
338,43,246577,2,0,P|373:57|415:66,1,80,10|0,3:2|0:0,0:0:0:0:
443,153,246802,1,0,0:0:0:0:
443,153,246877,6,0,P|448:59|529:27,2,160,2|10|2,3:2|3:2|3:2,0:0:0:0:
267,228,247627,1,0,0:0:0:0:
267,228,247702,1,0,0:0:0:0:
267,228,247777,2,0,P|311:208|350:198,1,80,10|0,3:2|0:0,0:0:0:0:
144,329,248077,6,0,P|160:244|177:166,1,160,2|8,3:2|3:2,0:0:0:0:
84,128,248527,1,0,0:0:0:0:
225,13,248677,2,0,P|231:52|243:90,1,80,2|0,3:2|0:0,0:0:0:0:
416,282,248977,2,0,P|408:244|377:220,1,80,10|0,3:2|0:0,0:0:0:0:
281,193,249202,1,2,0:0:0:0:
281,193,249277,6,0,P|339:131|425:142,1,160,2|8,3:2|3:2,0:0:0:0:
220,371,249877,2,0,P|162:373|123:330,1,120,2|0,3:2|0:0,0:0:0:0:
46,307,250177,2,0,P|60:266|68:212,1,80,10|0,3:2|0:0,0:0:0:0:
0,124,250477,6,0,P|70:144|166:154,1,160,4|8,3:2|3:2,0:0:0:0:
312,5,250927,1,0,0:0:0:0:
312,5,251002,1,0,0:0:0:0:
312,5,251077,2,0,P|340:33|339:75,1,80,2|0,3:2|0:0,0:0:0:0:
243,209,251377,2,0,P|254:171|257:131,1,80,10|0,3:2|0:0,0:0:0:0:
334,261,251677,5,2,3:2:0:0:
156,153,251827,1,0,0:0:0:0:
334,261,251977,2,0,P|325:300|320:339,1,80,10|0,3:2|0:0,0:0:0:0:
233,305,252277,5,2,3:2:0:0:
422,218,252427,1,0,0:0:0:0:
233,305,252577,2,0,P|194:315|154:318,1,80,10|0,3:2|0:0,0:0:0:0:
47,156,252877,6,0,P|123:153|167:216,1,160,2|10,3:2|3:2,0:0:0:0:
159,58,253327,1,0,0:0:0:0:
242,144,253477,2,0,P|254:105|274:72,1,80,2|2,3:2|0:0,0:0:0:0:
468,84,253777,1,10,3:2:0:0:
348,0,253927,6,0,P|374:84|390:173,1,160,4|0,3:2|0:0,0:0:0:0:
393,190,254302,1,2,0:0:0:0:
393,190,254377,2,0,P|352:195|304:225,1,80,2|2,0:0|0:0,0:0:0:0:
234,281,254677,1,2,0:0:0:0:
336,316,254827,1,2,0:0:0:0:
217,179,254977,1,10,0:0:0:0:
217,179,255277,5,4,3:2:0:0:
234,281,255427,1,4,3:2:0:0:
118,142,255727,5,4,3:2:0:0:
135,244,255877,1,4,3:2:0:0:
200,77,256177,5,4,3:2:0:0:
217,179,256327,1,4,3:2:0:0:
217,179,256777,6,0,B|272:182|293:150|274:150|313:113|363:125,1,160,4|0,3:2|0:0,0:0:0:0:
415,16,257227,2,0,B|406:66|441:93|449:74|480:95|471:154,1,160,4|0,3:2|0:0,0:0:0:0:
512,247,257677,6,0,B|470:217|392:248|410:362|410:362|358:259|291:266|255:311,1,400,4|0,3:2|0:0,0:0:0:0:
367,192,258577,5,4,3:2:0:0:
367,192,258727,2,0,P|355:138|355:194,1,160,4|0,3:2|0:0,0:0:0:0:
