osu file format v14

[General]
AudioFilename: audio.mp3
AudioLeadIn: 0
PreviewTime: 152002
Countdown: 0
SampleSet: Soft
StackLeniency: 0.7
Mode: 0
LetterboxInBreaks: 0
EpilepsyWarning: 1
WidescreenStoryboard: 1

[Editor]
Bookmarks: 56077,86077,112477,131677,152077,168877,188077,207277,219277,245677
DistanceSpacing: 1.4
BeatDivisor: 4
GridSize: 4
TimelineZoom: 1.5

[Metadata]
Title:O108ROCKET (feat. Neko Hacker)
TitleUnicode:O108ROCKET (feat. Neko Hacker)
Artist:wotoha
ArtistUnicode:をとは
Creator:Garden
Version:Collab Hard
Source:
Tags:ジーニアース Geniearth 海月ねう mituki mitsuki neu japanese electronic pop rock ofutone records NNZN ふにゃ yf_bmp Yogurtt Dored featured artist fa mappers' guild mpg
BeatmapID:3103243
BeatmapSetID:1510106

[Difficulty]
HPDrainRate:4
CircleSize:3.5
OverallDifficulty:6
ApproachRate:8
SliderMultiplier:1.4
SliderTickRate:1

[Events]
//Background and Video events
0,0,"O108.jpg",0,0
Video,235,"video.mp4"
//Break Periods
2,188277,196927
//Storyboard Layer 0 (Background)
//Storyboard Layer 1 (Fail)
//Storyboard Layer 2 (Pass)
//Storyboard Layer 3 (Foreground)
//Storyboard Layer 4 (Overlay)
//Storyboard Sound Samples

[TimingPoints]
2500,500,4,2,1,40,1,0
2500,-125,4,2,1,40,0,0
28000,-125,4,2,1,30,0,0
28500,-125,4,2,1,50,0,0
32500,-125,4,2,1,40,0,0
35677,300,4,2,1,70,1,0
44377,-133.333333333333,4,2,1,70,0,0
45277,-100,4,2,1,70,0,0
56077,-111.111111111111,4,2,1,50,0,0
65677,-100,4,2,1,60,0,0
80077,-100,4,2,1,65,0,0
86077,-100,4,2,1,70,0,1
95677,-100,4,2,1,70,0,0
95977,-100,4,2,1,70,0,1
102877,-100,4,2,1,70,0,0
111427,-100,4,2,1,70,0,0
112477,-100,4,2,1,70,0,0
122077,-111.111111111111,4,2,1,55,0,0
129277,-111.111111111111,4,2,1,60,0,0
131677,-100,4,2,1,60,0,0
146077,-100,4,2,1,65,0,0
152077,-100,4,2,1,70,0,1
161677,-100,4,2,1,70,0,0
161977,-100,4,2,1,70,0,1
168877,-100,4,2,1,70,0,0
188077,-111.111111111111,4,2,1,70,0,0
197677,-111.111111111111,4,2,1,60,0,0
206677,-111.111111111111,4,2,1,70,0,0
207277,-100,4,2,1,70,0,0
213277,-90.9090909090909,4,2,1,70,0,0
219202,-90.9090909090909,4,2,1,5,0,0
219277,-100,4,2,1,70,0,1
228877,-100,4,2,1,70,0,0
229177,-100,4,2,1,70,0,1
236077,-100,4,2,1,70,0,0

[Colours]
Combo1 : 170,227,255
Combo2 : 184,149,255
Combo3 : 149,197,255
Combo4 : 213,170,255

[HitObjects]
450,377,2500,6,0,P|410:340|339:354,1,112,4|0,0:0|0:0,0:0:0:0:
447,261,3500,2,0,P|469:192|473:141,1,112,2|0,0:0|0:0,0:0:0:0:
350,44,4500,2,0,P|372:113|376:164,1,112,2|0,0:0|0:0,0:0:0:0:
249,46,5500,2,0,P|185:47|163:104,1,112,2|0,0:0|0:0,0:0:0:0:
87,129,6250,1,0,0:0:0:0:
87,129,6500,6,0,P|103:184|116:252,1,112,2|0,0:0|0:0,0:0:0:0:
57,370,7500,1,2,0:0:0:0:
57,370,8000,2,0,P|88:349|119:343,1,56
183,300,8500,6,0,P|218:344|276:335,1,112,2|0,0:0|0:0,0:0:0:0:
367,217,9500,1,2,0:0:0:0:
455,353,10000,1,0,0:0:0:0:
455,353,10500,6,0,P|501:327|498:250,1,112,2|0,0:0|0:0,0:0:0:0:
374,192,11500,1,2,0:0:0:0:
418,46,12000,1,0,0:0:0:0:
418,46,12500,6,0,P|348:91|266:107,1,168,2|0,0:0|0:0,0:0:0:0:
200,168,13500,2,0,P|149:105|68:106,1,168,2|0,0:0|0:0,0:0:0:0:
17,32,14500,6,0,P|41:140|60:261,3,224,2|0|0|0,0:0|0:0|0:0|0:0,0:0:0:0:
58,250,18500,6,0,P|125:249|160:284,1,112,4|8,0:0|0:1,0:0:0:0:
205,351,19250,2,0,L|198:380,2,28,8|8|8,0:1|0:1|0:1,0:0:0:0:
277,297,19750,2,0,P|266:243|248:181,1,112,8|0,0:1|0:0,0:0:0:0:
187,123,20500,6,0,P|216:74|281:73,1,112,8|8,0:1|0:1,0:0:0:0:
353,90,21250,2,0,L|363:52,2,28,8|8|8,0:1|0:1|0:1,0:0:0:0:
394,169,21750,2,0,P|452:155|504:130,1,112,8|0,0:1|0:0,0:0:0:0:
496,126,22500,6,0,P|477:188|472:255,1,112,8|8,0:1|0:1,0:0:0:0:
484,323,23250,2,0,L|526:313,2,28,8|8|8,0:1|0:1|0:1,0:0:0:0:
405,366,23750,2,0,P|363:347|358:268,1,112,8|0,0:1|0:0,0:0:0:0:
381,203,24500,6,0,P|334:187|259:175,1,112,8|8,0:1|0:1,0:0:0:0:
189,210,25250,2,0,L|181:236,2,28,8|8|8,0:1|0:1|0:1,0:0:0:0:
129,142,25750,2,0,P|117:88|152:47,1,112,8|0,0:1|0:0,0:0:0:0:
235,16,26500,6,0,P|289:33|343:42,1,112,8|8,0:1|0:1,0:0:0:0:
439,33,27250,1,8,0:1:0:0:
439,33,27375,1,8,0:1:0:0:
439,33,27500,2,0,P|446:64|451:100,1,56,8|0,0:1|0:0,0:0:0:0:
380,184,28000,2,0,P|375:156|369:129,1,56,8|8,1:0|0:1,0:0:0:0:
256,192,28500,5,4,0:0:0:0:
256,192,28625,12,4,32500,0:0:0:0:
353,384,35677,6,0,P|359:349|364:315,1,70,4|2,3:2|0:0,0:0:0:0:
453,273,35977,2,0,P|459:235|464:178,1,70,8|2,1:2|0:0,0:0:0:0:
409,127,36277,1,2,3:2:0:0:
409,127,36427,2,0,P|440:112|475:110,1,70,2|10,0:0|1:2,0:0:0:0:
369,213,36727,6,0,P|290:207|270:135,1,140,2|2,0:0|0:0,0:0:0:0:
187,101,37177,2,0,P|176:134|167:168,1,70,8|2,1:2|0:0,0:0:0:0:
161,269,37477,1,2,3:2:0:0:
161,269,37627,1,2,0:0:0:0:
80,223,37777,1,10,1:2:0:0:
80,223,37927,1,2,0:0:0:0:
77,125,38077,6,0,P|85:88|100:49,2,70,2|2|8,3:2|0:0|1:2,0:0:0:0:
167,168,38527,1,2,0:0:0:0:
167,168,38677,2,0,P|205:166|241:132,1,70,2|2,3:2|0:0,0:0:0:0:
269,58,38977,1,10,1:2:0:0:
366,53,39127,6,0,P|435:67|467:147,1,140,2|2,0:0|0:0,0:0:0:0:
442,218,39577,2,0,P|408:239|366:239,1,70,8|2,1:2|0:0,0:0:0:0:
286,273,39877,2,0,P|284:237|300:196,1,70,2|2,3:2|0:0,0:0:0:0:
375,148,40177,1,10,1:2:0:0:
295,111,40327,1,2,3:2:0:0:
295,111,40402,1,0,3:0:0:0:
295,111,40477,6,0,P|248:95|205:103,1,70,4|2,3:2|0:0,0:0:0:0:
149,154,40777,2,0,P|116:154|78:143,1,70,8|2,1:2|0:0,0:0:0:0:
8,84,41077,1,2,3:2:0:0:
8,84,41227,2,0,P|15:41|35:4,1,70,2|10,0:0|1:2,0:0:0:0:
80,144,41527,6,0,P|57:212|47:290,1,140,2|2,0:0|0:0,0:0:0:0:
126,337,41977,2,0,P|169:330|197:295,1,70,8|2,1:2|0:0,0:0:0:0:
212,221,42277,1,2,3:2:0:0:
212,221,42427,1,2,0:0:0:0:
300,262,42577,2,0,L|320:306,3,35,8|4|4|4,3:0|0:3|0:3|0:3,0:0:0:0:
335,328,42877,5,8,3:0:0:0:
335,328,43027,2,0,P|379:336|412:361,1,70,4|0,3:3|0:0,0:0:0:0:
469,279,43327,2,0,P|480:227|498:178,1,105,8|0,3:3|0:0,0:0:0:0:
485,147,43627,2,0,P|446:143|402:119,1,70,4|0,3:3|0:0,0:0:0:0:
351,59,43927,6,0,P|282:54|244:118,1,140,8|0,3:0|3:0,0:0:0:0:
248,147,44302,1,0,3:0:0:0:
248,147,44377,2,0,P|178:182|159:48,1,262.500010013581,4|0,3:2|0:0,0:0:0:0:
242,0,45277,6,0,L|257:41,3,35,2|2|2|2,0:0|0:0|0:0|0:0,0:0:0:0:
268,63,45577,2,0,P|343:35|418:26,1,140,2|2,0:0|1:2,0:0:0:0:
490,90,46027,1,2,1:2:0:0:
490,90,46102,1,0,1:0:0:0:
490,90,46177,2,0,L|505:139,3,35,2|2|2|2,1:2|1:2|1:2|1:2,0:0:0:0:
477,151,46477,6,0,P|526:208|500:269,1,140,4|10,3:2|3:2,0:0:0:0:
430,323,46927,1,0,0:0:0:0:
430,323,47077,2,0,P|395:314|359:308,1,70,2|0,3:2|0:0,0:0:0:0:
301,231,47377,2,0,P|264:241|228:260,1,70,10|0,3:2|0:0,0:0:0:0:
174,331,47677,6,0,P|106:324|72:265,1,140,2|10,3:2|3:2,0:0:0:0:
128,186,48127,1,0,0:0:0:0:
128,186,48277,2,0,P|202:158|283:137,1,140,2|10,3:2|3:2,0:0:0:0:
457,133,48877,6,0,P|466:66|401:18,2,140,2|8|2,3:2|3:2|3:2,0:0:0:0:
363,147,49627,1,0,0:0:0:0:
363,147,49777,2,0,P|347:107|337:64,1,70,10|0,3:2|0:0,0:0:0:0:
278,5,50077,6,0,P|214:23|132:57,1,140,2|8,3:2|3:2,0:0:0:0:
73,113,50527,1,2,0:0:0:0:
73,113,50677,1,2,3:2:0:0:
256,192,50977,1,10,3:2:0:0:
439,271,51277,6,0,P|373:295|306:315,1,140,4|8,3:2|3:2,0:0:0:0:
226,370,51727,1,0,0:0:0:0:
226,370,51877,2,0,P|213:339|207:294,1,70,2|0,3:2|0:0,0:0:0:0:
120,255,52177,2,0,P|131:216|151:184,1,70,10|0,3:2|0:0,0:0:0:0:
230,140,52477,6,0,P|141:131|116:81,2,140,2|10|2,3:2|3:2|3:2,0:0:0:0:
277,55,53227,1,0,0:0:0:0:
277,55,53377,2,0,P|314:44|351:38,1,70,10|0,3:2|0:0,0:0:0:0:
439,14,53677,6,0,P|424:82|411:151,1,140,2|10,3:2|3:2,0:0:0:0:
383,247,54127,1,0,0:0:0:0:
383,247,54277,2,0,P|345:257|309:264,1,70,2|2,3:2|0:0,0:0:0:0:
256,192,54577,1,10,3:2:0:0:
256,192,54727,1,4,3:2:0:0:
256,192,54877,12,4,56077,3:2:0:0:
379,323,56377,6,0,P|383:291|389:261,1,62.9999980773926,2|0,3:2|0:0,0:0:0:0:
427,181,56677,2,0,P|333:166|302:159,1,125.999996154785,2|0,3:2|3:0,0:0:0:0:
263,238,57127,6,0,P|201:236|155:278,1,125.999996154785,2|2,0:0|0:0,0:0:0:0:
106,351,57577,2,0,P|74:355|44:361,1,62.9999980773926,0|2,3:0|0:0,0:0:0:0:
5,281,57877,1,0,3:0:0:0:
5,281,58177,2,0,P|37:277|67:271,1,62.9999980773926,2|2,3:2|0:0,0:0:0:0:
117,197,58477,6,0,P|119:135|77:89,1,125.999996154785,2|0,3:2|3:0,0:0:0:0:
136,23,58927,2,0,P|166:29|198:33,1,62.9999980773926,2|0,0:0|3:0,0:0:0:0:
245,107,59227,2,0,P|251:137|255:169,1,62.9999980773926,2|0,0:0|3:0,0:0:0:0:
286,30,59527,6,0,P|380:15|411:8,1,125.999996154785,2|2,0:0|0:0,0:0:0:0:
479,62,59977,2,0,P|493:107|493:140,1,62.9999980773926,2|0,3:2|0:0,0:0:0:0:
459,206,60277,1,0,3:0:0:0:
459,206,60577,2,0,P|428:199|396:195,1,62.9999980773926,2|0,3:2|0:0,0:0:0:0:
316,158,60877,5,2,3:2:0:0:
316,158,61027,2,0,P|285:165|253:169,1,62.9999980773926,2|0,0:0|3:0,0:0:0:0:
192,232,61327,2,0,P|130:234|84:192,1,125.999996154785,2|2,0:0|0:0,0:0:0:0:
161,149,61777,1,0,3:0:0:0:
161,149,61927,6,0,P|152:86|139:24,2,125.999996154785,2|2|2,0:0|0:0|0:0,0:0:0:0:
192,232,62677,1,0,3:0:0:0:
192,232,62827,2,0,P|163:241|132:248,1,62.9999980773926,2|0,0:0|3:0,0:0:0:0:
141,336,63127,1,2,0:0:0:0:
141,336,63277,6,0,P|201:317|262:303,1,125.999996154785,2|2,3:2|3:2,0:0:0:0:
296,220,63727,2,0,P|322:238|340:264,1,62.9999980773926,0|2,0:0|3:2,0:0:0:0:
419,304,64027,2,0,P|405:332|403:363,1,62.9999980773926,0|2,0:0|3:2,0:0:0:0:
504,280,64327,6,0,P|491:218|482:155,1,125.999996154785,0|2,0:0|0:0,0:0:0:0:
393,153,64777,2,0,P|400:122|404:90,1,62.9999980773926,2|2,3:2|0:0,0:0:0:0:
408,2,65077,2,0,L|438:10,3,31.4999990386963,2|2|2|2,3:2|0:0|0:0|0:0,0:0:0:0:
481,20,65377,1,10,0:0:0:0:
393,153,65677,6,0,P|315:128|257:116,1,140,4|10,3:2|3:2,0:0:0:0:
265,19,66127,1,0,0:0:0:0:
265,19,66277,2,0,P|229:30|197:37,2,70,2|0|10,3:2|0:0|3:2,0:0:0:0:
258,116,66727,5,0,0:0:0:0:
85,23,67027,1,0,0:0:0:0:
85,23,67177,2,0,P|106:89|121:157,1,140,10|0,3:2|3:2,0:0:0:0:
75,244,67627,1,2,0:0:0:0:
75,244,67777,2,0,P|109:251|142:261,1,70,10|0,3:2|0:0,0:0:0:0:
208,334,68077,6,0,P|257:287|326:289,1,140,2|10,3:2|3:2,0:0:0:0:
408,342,68527,2,0,P|418:308|425:274,1,70,2|0,0:0|3:0,0:0:0:0:
512,230,68827,2,0,P|504:195|494:162,1,70,2|10,0:0|3:2,0:0:0:0:
411,110,69127,5,0,0:0:0:0:
325,288,69427,1,0,0:0:0:0:
325,288,69577,2,0,P|259:309|191:324,1,140,10|2,3:2|3:2,0:0:0:0:
107,378,70027,1,2,0:0:0:0:
107,378,70177,2,0,P|75:362|41:355,1,70,10|0,3:2|0:0,0:0:0:0:
98,274,70477,5,2,3:2:0:0:
98,274,70627,2,0,P|90:239|80:206,1,70,2|10,0:1|3:2,0:0:0:0:
169,164,70927,2,0,P|100:165|51:118,1,140,2|2,0:1|0:1,0:0:0:0:
68,22,71377,1,10,3:2:0:0:
68,22,71527,6,0,P|102:14|135:4,1,70,2|2,0:1|3:2,0:0:0:0:
204,73,71827,2,0,P|238:81|271:91,1,70,2|10,0:1|3:2,0:0:0:0:
330,12,72127,2,0,P|398:10|447:57,1,140,2|2,0:1|0:1,0:0:0:0:
512,131,72577,2,0,P|501:164|494:198,1,70,10|0,3:2|0:0,0:0:0:0:
401,232,72877,6,0,P|386:163|364:96,1,140,4|8,3:2|3:2,0:0:0:0:
330,12,73327,2,0,P|263:33|194:48,1,140,2|2,0:0|0:0,0:0:0:0:
153,136,73777,2,0,P|103:88|35:90,1,140,10|0,3:2|3:2,0:0:0:0:
0,183,74227,5,2,0:0:0:0:
0,183,74377,2,0,P|11:216|18:250,1,70,10|2,3:2|0:0,0:0:0:0:
116,241,74677,2,0,L|149:250,2,35,2|2|2,3:2|1:2|1:2,0:0:0:0:
73,330,74977,2,0,P|107:337|140:348,1,70,10|0,1:2|0:0,0:0:0:0:
229,307,75277,6,0,P|295:285|363:270,2,140,4|2|2,3:2|1:2|1:2,0:0:0:0:
149,250,76027,2,0,P|160:217|167:183,1,70,0|2,0:0|1:2,0:0:0:0:
166,84,76327,1,2,0:0:0:0:
166,84,76402,1,2,0:0:0:0:
166,84,76477,6,0,P|199:95|233:102,1,70,2|0,1:2|0:0,0:0:0:0:
290,182,76777,2,0,P|340:134|408:136,1,140,2|2,1:2|1:2,0:0:0:0:
500,166,77227,1,0,0:0:0:0:
478,71,77377,2,0,L|469:38,3,35,2|2|2|2,1:2|0:0|0:0|0:0,0:0:0:0:
439,0,77677,6,0,P|373:22|305:37,1,140,4|2,1:2|1:2,0:0:0:0:
233,102,78127,2,0,P|244:135|251:169,1,70,0|2,0:0|1:2,0:0:0:0:
342,204,78427,2,0,P|331:237|324:271,1,70,0|2,0:0|1:2,0:0:0:0:
249,335,78727,1,2,0:0:0:0:
249,335,78802,1,2,0:0:0:0:
249,335,78877,6,0,P|216:324|182:317,2,70,2|0|2,1:2|0:0|1:2,0:0:0:0:
341,368,79327,2,0,P|407:346|475:331,1,140
504,236,79777,2,0,L|471:227,3,35,2|0|0|0,1:2|1:0|1:0|1:0,0:0:0:0:
425,248,80077,6,0,P|377:199|378:130,1,140,12|8,1:2|1:2,0:0:0:0:
421,42,80527,1,2,0:0:0:0:
421,42,80602,1,0,0:0:0:0:
421,42,80677,2,0,P|455:35|488:24,1,70,8|2,1:2|0:0,0:0:0:0:
377,131,80977,1,8,1:2:0:0:
290,85,81127,1,2,0:0:0:0:
290,85,81202,1,0,0:0:0:0:
290,85,81277,6,0,P|282:50|271:17,2,70,8|2|8,1:2|0:0|1:2,0:0:0:0:
246,173,81727,2,0,P|189:211|122:198,1,140,2|8,0:0|0:0,0:0:0:0:
43,139,82177,2,0,P|32:172|24:206,1,70,10|8,1:2|1:2,0:0:0:0:
80,287,82477,5,4,3:2:0:0:
80,287,82627,1,6,3:2:0:0:
170,112,82927,1,4,3:2:0:0:
170,112,83077,1,4,3:2:0:0:
318,239,83377,1,4,3:2:0:0:
318,239,83527,1,4,3:2:0:0:
256,192,83677,12,12,85777,1:2:0:0:
228,293,86077,6,0,P|260:279|294:270,1,70,6|2,3:2|0:0,0:0:0:0:
373,213,86377,2,0,P|359:175|351:131,1,70,10|2,1:2|0:0,0:0:0:0:
414,69,86677,2,0,P|372:15|305:20,1,140,2|10,3:2|1:2,0:0:0:0:
235,87,87127,1,2,0:0:0:0:
140,62,87277,6,0,P|72:73|-8:104,1,140,2|10,3:1|1:2,0:0:0:0:
9,199,87727,1,0,0:1:0:0:
9,199,87877,2,0,P|17:242|31:271,1,70,2|0,3:1|0:0,0:0:0:0:
84,345,88177,2,0,P|124:330|175:319,1,70,6|0,1:0|0:0,0:0:0:0:
247,343,88477,6,0,P|193:290|224:212,1,140,4|10,3:2|1:2,0:0:0:0:
226,140,88927,1,2,0:0:0:0:
226,140,89077,2,0,P|261:150|308:154,1,70,2|2,3:2|0:0,0:0:0:0:
366,87,89377,1,10,1:2:0:0:
366,87,89527,1,2,0:0:0:0:
447,141,89677,2,0,P|438:188|347:219,1,140,2|10,3:1|1:2,0:0:0:0:
360,222,90277,6,0,P|349:251|343:299,1,70,2|0,3:1|0:1,0:0:0:0:
245,292,90577,2,0,P|235:331|231:375,1,70,10|0,1:2|0:0,0:0:0:0:
133,362,90877,2,0,P|64:361|22:308,1,140,4|10,3:2|1:2,0:0:0:0:
175,185,91477,6,0,P|185:155|192:108,1,70,2|2,3:2|0:0,0:0:0:0:
290,115,91777,2,0,P|299:75|304:32,1,70,10|2,1:2|0:0,0:0:0:0:
398,24,92077,2,0,P|466:24|509:78,1,140,2|10,3:1|1:2,0:0:0:0:
504,179,92527,1,2,0:0:0:0:
504,179,92677,2,0,P|463:192|421:198,1,70,2|2,3:1|0:0,0:0:0:0:
337,199,92977,1,10,1:2:0:0:
248,372,93277,6,0,P|281:363|316:356,1,70,4|2,3:2|0:1,0:0:0:0:
354,266,93577,2,0,P|342:233|336:198,1,70,2|2,1:0|0:1,0:0:0:0:
450,289,93877,2,0,P|460:322|468:356,1,70,2|2,3:2|0:1,0:0:0:0:
508,210,94177,1,6,1:0:0:0:
459,124,94327,6,0,P|406:79|338:94,1,140,4|2,3:2|3:2,0:0:0:0:
263,152,94777,1,10,1:2:0:0:
265,249,94927,2,0,P|198:260|147:216,1,140,4|0,3:2|3:0,0:0:0:0:
127,192,95302,1,0,3:0:0:0:
127,192,95377,2,0,P|139:149|145:109,1,70,0|0,3:0|3:0,0:0:0:0:
60,71,95677,6,0,L|67:36,3,35,2|2|2|2,0:0|0:0|0:0|0:0,0:0:0:0:
97,25,95977,2,0,P|131:15|173:10,1,70,12|0,1:2|0:0,0:0:0:0:
237,77,96277,2,0,P|270:67|304:60,1,70,2|0,3:2|0:0,0:0:0:0:
396,95,96577,2,0,P|402:60|411:26,1,70,10|2,1:2|0:0,0:0:0:0:
478,146,96877,6,0,P|410:139|364:188,1,140,2|10,3:2|1:2,0:0:0:0:
336,285,97327,1,0,0:0:0:0:
336,285,97477,1,2,3:2:0:0:
188,156,97777,1,10,1:2:0:0:
67,310,98077,6,0,P|137:289|202:276,2,140,6|10|2,3:2|1:2|3:2,0:0:0:0:
20,229,98827,1,2,0:0:0:0:
20,229,98977,2,0,P|25:197|52:155,1,70,8|2,1:2|0:0,0:0:0:0:
23,67,99277,6,0,P|65:121|133:125,1,140,2|10,3:1|1:2,0:0:0:0:
214,190,99727,1,2,0:1:0:0:
214,190,99877,2,0,P|252:174|305:160,1,70,2|2,3:1|0:1,0:0:0:0:
377,153,100177,2,0,P|369:187|364:221,1,70,6|0,1:0|0:0,0:0:0:0:
471,125,100477,6,0,P|448:62|382:52,1,140,4|10,3:2|1:2,0:0:0:0:
442,249,101077,2,0,P|374:260|296:283,1,140,2|10,3:2|1:2,0:0:0:0:
232,342,101527,1,2,0:0:0:0:
232,342,101602,1,0,0:0:0:0:
232,342,101677,6,0,P|191:325|147:310,1,70,2|2,3:2|0:0,0:0:0:0:
74,348,101977,2,0,P|125:291|117:229,1,140,10|4,1:2|3:2,0:0:0:0:
68,159,102427,1,0,0:0:0:0:
68,159,102502,1,0,0:0:0:0:
68,159,102577,2,0,P|26:169|-17:182,1,70,12|0,1:2|0:0,0:0:0:0:
118,232,102877,6,0,P|156:223|185:214,1,70,4|0,3:2|0:0,0:0:0:0:
236,130,103177,2,0,P|231:95|224:61,1,70,10|0,1:2|0:0,0:0:0:0:
330,162,103477,2,0,P|344:237|361:303,1,140,4|10,3:2|1:2,0:0:0:0:
451,346,103927,1,2,1:0:0:0:
451,346,104227,1,2,0:1:0:0:
511,269,104377,2,0,P|504:234|495:200,1,70,10|2,1:2|0:0,0:0:0:0:
505,103,104677,2,0,P|437:100|394:47,1,140,4|10,3:2|1:2,0:0:0:0:
394,47,105127,6,0,P|325:59|256:74,1,140,2|2,0:1|0:1,0:0:0:0:
172,35,105577,1,10,1:2:0:0:
172,35,105727,1,2,0:0:0:0:
174,132,105877,2,0,P|167:188|150:287,1,140,4|10,3:2|1:2,0:0:0:0:
202,355,106327,6,0,P|144:317|77:331,1,140,2|2,1:0|1:0,0:0:0:0:
2,280,106777,1,10,1:2:0:0:
2,280,106927,2,0,P|6:247|17:201,1,70,2|0,1:0|3:0,0:0:0:0:
98,160,107227,1,0,1:0:0:0:
10,116,107377,2,0,P|19:64|30:13,1,105,6|0,1:0|0:0,0:0:0:0:
57,1,107677,6,0,P|94:7|141:14,1,70,4|0,3:2|0:0,0:0:0:0:
201,75,107977,2,0,P|193:109|188:143,1,70,10|0,1:2|0:0,0:0:0:0:
288,29,108277,2,0,P|374:43|442:56,1,140,4|10,3:2|1:2,0:0:0:0:
478,142,108727,1,2,1:0:0:0:
478,142,109027,1,2,0:1:0:0:
398,199,109177,2,0,P|364:195|327:187,1,70,10|2,1:2|0:0,0:0:0:0:
239,229,109477,2,0,P|226:284|217:346,1,105,4|0,3:2|0:0,0:0:0:0:
237,353,109777,2,0,P|282:360|321:369,1,70,10|0,1:2|0:0,0:0:0:0:
401,384,110077,5,4,3:2:0:0:
329,187,110377,1,10,1:2:0:0:
141,279,110677,1,4,3:2:0:0:
69,82,110977,5,10,1:2:0:0:
69,82,111127,2,0,P|110:130|197:118,1,140,0|2,1:0|0:0,0:0:0:0:
279,136,111577,2,0,P|270:101|258:69,1,70,2|2,0:0|0:0,0:0:0:0:
343,21,111877,2,0,L|357:62,3,35,2|2|2|2,0:0|0:0|0:0|0:0,0:0:0:0:
364,79,112177,2,0,P|426:82|460:120,1,105,2|2,3:0|0:0,0:0:0:0:
487,147,112477,6,0,P|465:213|450:281,1,140,4|10,3:2|3:2,0:0:0:0:
374,345,112927,1,0,0:0:0:0:
374,345,113077,2,0,P|340:334|306:327,1,70,2|0,3:2|0:0,0:0:0:0:
214,363,113377,2,0,P|197:332|178:302,1,70,10|0,3:2|0:0,0:0:0:0:
79,302,113677,6,0,P|101:235|116:167,1,140,2|10,3:2|3:2,0:0:0:0:
69,80,114127,1,0,0:0:0:0:
146,20,114277,2,0,P|213:10|267:52,1,140,2|10,3:2|3:2,0:0:0:0:
366,222,114877,6,0,P|433:231|487:189,2,140,2|8|2,3:2|3:2|3:2,0:0:0:0:
286,165,115627,1,0,0:0:0:0:
286,165,115777,2,0,P|252:176|218:183,1,70,10|0,3:2|0:0,0:0:0:0:
183,275,116077,6,0,P|116:252|48:237,1,140,2|8,3:2|3:2,0:0:0:0:
4,155,116527,1,2,0:0:0:0:
4,155,116677,1,2,3:2:0:0:
130,5,116977,1,10,3:2:0:0:
218,182,117277,6,0,P|286:191|340:149,1,140,4|8,3:2|3:2,0:0:0:0:
394,67,117727,1,0,0:0:0:0:
394,67,117877,2,0,P|386:32|376:0,1,70,2|0,3:2|0:0,0:0:0:0:
476,122,118177,2,0,P|465:155|458:189,1,70,10|0,3:2|0:0,0:0:0:0:
374,242,118477,6,0,P|305:257|239:279,2,140,2|10|2,3:2|3:2|3:2,0:0:0:0:
339,149,119227,1,0,0:0:0:0:
339,149,119377,2,0,P|304:141|271:131,1,70,10|0,3:2|0:0,0:0:0:0:
221,46,119677,6,0,P|166:87|99:78,1,140,2|10,3:2|3:2,0:0:0:0:
22,140,120127,1,0,0:0:0:0:
22,140,120277,2,0,P|33:173|40:207,1,70,2|2,3:2|0:0,0:0:0:0:
45,305,120577,1,10,3:2:0:0:
45,305,120727,1,4,3:2:0:0:
256,192,120877,12,4,122077,3:2:0:0:
98,77,122377,6,0,P|159:89|222:98,1,125.999996154785,2|0,1:2|0:0,0:0:0:0:
285,159,122827,1,2,0:0:0:0:
285,159,123127,6,0,P|330:118|392:120,1,125.999996154785,2|2,0:0|0:0,0:0:0:0:
471,157,123577,1,0,1:0:0:0:
375,9,123877,1,0,3:0:0:0:
285,159,124177,2,0,P|291:189|295:221,1,62.9999980773926,10|0,1:2|0:0,0:0:0:0:
222,98,124477,6,0,P|159:89|97:76,1,125.999996154785,2|0,3:2|1:0,0:0:0:0:
20,119,124927,1,2,0:0:0:0:
173,206,125227,1,2,0:0:0:0:
13,280,125527,6,0,P|74:272|123:309,1,125.999996154785,2|2,0:0|0:0,0:0:0:0:
172,384,125977,1,0,1:0:0:0:
173,206,126277,1,0,3:0:0:0:
284,342,126577,2,0,P|314:335|346:331,1,62.9999980773926,10|0,1:2|0:0,0:0:0:0:
432,358,126877,5,2,3:2:0:0:
432,358,127027,2,0,P|440:295|453:233,1,125.999996154785,2|2,0:0|0:0,0:0:0:0:
337,100,127627,2,0,P|333:131|326:161,1,62.9999980773926,2|0,0:0|1:0,0:0:0:0:
361,238,127927,6,0,P|312:201|252:210,2,125.999996154785,2|2|2,0:0|0:0|0:0,0:0:0:0:
452,233,128677,2,0,P|455:201|462:171,1,62.9999980773926,0|0,3:0|3:0,0:0:0:0:
482,88,128977,1,10,1:2:0:0:
482,88,129277,6,0,P|419:80|357:67,1,125.999996154785,2|0,3:2|1:0,0:0:0:0:
294,129,129727,2,0,P|263:120|237:102,1,62.9999980773926,2|2,0:0|3:2,0:0:0:0:
153,77,130027,2,0,P|168:49|174:18,1,62.9999980773926,2|2,3:2|1:2,0:0:0:0:
74,118,130327,6,0,P|37:167|46:227,1,125.999996154785,2|2,0:0|1:2,0:0:0:0:
105,294,130777,2,0,P|135:287|167:283,1,62.9999980773926,2|2,1:2|1:2,0:0:0:0:
224,215,131077,2,0,L|254:223,3,31.4999990386963,2|2|2|2,3:2|0:0|0:0|0:0,0:0:0:0:
296,234,131377,1,10,1:2:0:0:
428,384,131677,6,0,P|403:306|391:248,1,140,4|10,3:2|3:2,0:0:0:0:
470,190,132127,1,0,0:0:0:0:
470,190,132277,2,0,P|481:154|488:122,2,70,2|0|8,3:2|0:0|3:2,0:0:0:0:
391,249,132727,6,0,P|360:237|314:227,1,70,2|2,0:0|3:2,0:0:0:0:
230,220,133027,1,2,0:0:0:0:
230,220,133177,2,0,P|243:152|267:65,1,140,10|2,3:2|3:2,0:0:0:0:
194,20,133627,1,0,0:0:0:0:
194,20,133777,2,0,P|160:27|127:37,1,70,10|0,3:2|0:0,0:0:0:0:
30,18,134077,6,0,P|83:65|75:136,1,140,2|8,3:2|3:2,0:0:0:0:
17,206,134527,2,0,P|51:216|85:223,1,70,2|0,0:0|3:0,0:0:0:0:
181,243,134827,2,0,P|173:208|163:175,1,70,2|8,0:0|3:2,0:0:0:0:
236,109,135127,5,2,0:0:0:0:
290,302,135427,1,0,0:0:0:0:
290,302,135577,2,0,P|371:301|409:243,1,140,10|2,3:2|3:2,0:0:0:0:
471,187,136027,1,0,0:0:0:0:
471,187,136177,2,0,P|439:171|405:164,1,70,10|0,3:2|0:0,0:0:0:0:
320,209,136477,5,2,3:2:0:0:
320,209,136627,2,0,P|312:174|302:141,1,70,2|8,0:0|3:2,0:0:0:0:
354,58,136927,2,0,P|304:11|236:12,1,140,2|2,0:0|0:0,0:0:0:0:
164,78,137377,1,8,3:2:0:0:
164,78,137527,6,0,P|130:70|97:60,1,70,2|0,0:0|3:0,0:0:0:0:
0,43,137827,2,0,P|8:77|18:110,1,70,2|8,0:0|3:2,0:0:0:0:
46,204,138127,2,0,P|114:202|163:249,1,140,2|2,0:0|0:0,0:0:0:0:
184,345,138577,2,0,P|217:334|251:327,1,70,10|0,3:2|0:0,0:0:0:0:
344,357,138877,6,0,P|359:288|381:221,1,140,2|8,3:2|3:2,0:0:0:0:
437,142,139327,2,0,P|368:127|301:106,1,140,2|2,0:0|0:0,0:0:0:0:
247,24,139777,2,0,P|178:22|129:70,1,140,10|0,3:2|3:0,0:0:0:0:
67,146,140227,6,0,P|103:158|143:167,1,70,2|10,0:0|3:2,0:0:0:0:
212,234,140527,1,0,0:0:0:0:
120,267,140677,2,0,L|111:300,2,35,2|2|2,3:2|1:2|1:2,0:0:0:0:
212,234,140977,2,0,P|246:241|279:252,1,70,10|0,1:2|0:0,0:0:0:0:
353,314,141277,6,0,P|421:322|472:277,2,140,4|2|2,3:2|1:2|1:2,0:0:0:0:
279,252,142027,2,0,P|290:219|297:185,1,70,0|2,0:0|1:2,0:0:0:0:
378,127,142327,1,2,0:0:0:0:
378,127,142402,1,2,0:0:0:0:
378,127,142477,6,0,P|411:138|445:145,1,70,2|0,1:2|0:0,0:0:0:0:
297,184,142777,2,0,P|248:136|179:137,1,140,2|2,1:2|1:2,0:0:0:0:
95,187,143227,1,0,0:0:0:0:
32,111,143377,2,0,L|41:78,3,35,2|2|2|2,1:2|0:0|0:0|0:0,0:0:0:0:
53,46,143677,6,0,P|121:30|187:8,1,140,4|2,1:2|1:2,0:0:0:0:
285,24,144127,2,0,P|274:57|267:91,1,70,0|2,0:0|1:2,0:0:0:0:
179,137,144427,2,0,P|190:170|197:204,1,70,0|2,0:0|1:2,0:0:0:0:
212,309,144727,1,2,0:0:0:0:
212,309,144802,1,2,0:0:0:0:
212,309,144877,6,0,P|179:298|145:291,2,70,2|0|2,1:2|0:0|1:2,0:0:0:0:
293,363,145327,2,0,P|367:358|399:296,1,140
416,215,145777,1,2,1:2:0:0:
416,215,145852,1,0,1:0:0:0:
416,215,145927,2,0,L|460:224,2,35,0|0|12,1:0|1:0|1:2,0:0:0:0:
266,91,146377,6,0,P|300:84|334:74,1,70,8|2,1:2|0:0,0:0:0:0:
371,67,146602,1,0,0:0:0:0:
371,67,146677,1,8,1:2:0:0:
448,7,146827,2,0,P|466:38|463:85,1,70,2|8,0:0|1:2,0:0:0:0:
415,157,147127,1,2,0:0:0:0:
415,157,147202,1,0,0:0:0:0:
415,157,147277,6,0,P|423:192|434:225,2,70,8|2|8,1:2|0:0|1:2,0:0:0:0:
371,67,147727,2,0,P|309:18|233:41,1,140,2|8,0:0|0:0,0:0:0:0:
190,102,148177,2,0,P|149:101|117:90,1,70,10|8,1:2|1:2,0:0:0:0:
78,10,148477,5,4,3:2:0:0:
78,10,148627,1,6,3:2:0:0:
146,199,148927,1,4,3:2:0:0:
146,199,149077,1,4,3:2:0:0:
252,26,149377,1,4,3:2:0:0:
252,26,149527,1,4,3:2:0:0:
256,192,149677,12,12,151777,1:2:0:0:
375,127,152077,6,0,P|367:92|357:59,1,70,6|2,3:2|0:0,0:0:0:0:
451,189,152377,2,0,P|441:223|432:257,1,70,10|2,1:2|0:0,0:0:0:0:
480,343,152677,2,0,P|426:301|358:310,1,140,2|10,3:2|1:2,0:0:0:0:
286,376,153127,1,2,0:0:0:0:
191,353,153277,6,0,P|124:330|56:315,1,140,2|10,3:1|1:2,0:0:0:0:
1,233,153727,1,0,0:1:0:0:
1,233,153877,2,0,P|35:224|68:214,1,70,2|0,3:1|0:0,0:0:0:0:
127,135,154177,2,0,P|117:101|108:67,1,70,6|0,1:0|0:0,0:0:0:0:
209,187,154477,6,0,P|276:196|330:154,1,140,4|10,3:2|1:2,0:0:0:0:
358,61,154927,1,2,0:0:0:0:
358,61,155077,2,0,P|392:52|425:42,1,70,2|2,3:2|0:0,0:0:0:0:
504,102,155377,1,10,1:2:0:0:
504,102,155527,1,2,0:0:0:0:
432,168,155677,6,0,P|409:235|394:303,1,140,2|10,3:1|1:2,0:0:0:0:
216,384,156277,2,0,P|207:349|197:316,1,70,2|0,3:1|0:1,0:0:0:0:
121,255,156577,2,0,P|88:245|54:237,1,70,10|0,1:2|0:0,0:0:0:0:
195,192,156877,6,0,P|263:176|329:154,1,140,4|10,3:2|1:2,0:0:0:0:
512,217,157477,2,0,P|502:250|493:284,1,70,2|2,3:2|0:0,0:0:0:0:
398,307,157777,2,0,P|389:272|379:239,1,70,10|2,1:2|0:0,0:0:0:0:
329,154,158077,6,0,P|275:112|207:121,1,140,2|10,3:1|1:2,0:0:0:0:
169,31,158527,1,2,0:0:0:0:
169,31,158677,2,0,P|135:40|101:49,1,70,2|2,3:1|0:0,0:0:0:0:
39,125,158977,1,10,1:2:0:0:
39,125,159277,6,0,P|48:158|57:192,1,70,4|2,3:2|0:1,0:0:0:0:
153,211,159577,2,0,P|136:241|118:271,1,70,2|2,1:0|0:1,0:0:0:0:
172,352,159877,2,0,P|138:361|104:370,1,70,2|2,3:2|0:1,0:0:0:0:
26,309,160177,1,6,1:0:0:0:
118,271,160327,6,0,P|186:255|252:233,1,140,4|2,3:2|3:2,0:0:0:0:
265,330,160777,1,10,1:2:0:0:
345,273,160927,2,0,P|398:314|466:305,1,140,4|0,3:2|3:0,0:0:0:0:
500,269,161302,1,0,3:0:0:0:
500,269,161377,2,0,P|490:235|483:201,1,70,0|0,3:0|3:0,0:0:0:0:
439,113,161677,6,0,L|404:120,3,35,2|2|2|2,0:0|0:0|0:0|0:0,0:0:0:0:
374,159,161977,2,0,P|340:149|306:140,1,70,12|0,1:2|0:0,0:0:0:0:
229,79,162277,2,0,P|219:45|210:11,1,70,2|0,3:2|0:0,0:0:0:0:
142,125,162577,2,0,P|132:158|123:192,1,70,10|2,1:2|0:0,0:0:0:0:
211,236,162877,6,0,P|252:289|243:357,1,140,2|10,3:2|1:2,0:0:0:0:
149,384,163327,1,0,0:0:0:0:
149,384,163477,1,2,3:2:0:0:
31,227,163777,1,10,1:2:0:0:
135,61,164077,6,0,P|68:84|0:99,2,140,6|10|2,3:2|1:2|3:2,0:0:0:0:
205,130,164827,1,2,0:0:0:0:
205,130,164977,2,0,P|239:138|272:148,1,70,8|2,1:2|0:0,0:0:0:0:
331,68,165277,6,0,P|384:109|452:100,1,140,2|10,3:1|1:2,0:0:0:0:
506,182,165727,1,2,0:1:0:0:
506,182,165877,2,0,P|496:215|487:249,1,70,2|2,3:1|0:1,0:0:0:0:
406,305,166177,2,0,P|415:338|424:372,1,70,6|0,1:0|0:0,0:0:0:0:
320,255,166477,6,0,P|251:270|185:292,1,140,4|10,3:2|1:2,0:0:0:0:
36,164,167077,2,0,P|104:148|170:126,1,140,2|10,3:2|1:2,0:0:0:0:
225,44,167527,1,2,3:2:0:0:
225,44,167602,1,0,3:0:0:0:
225,44,167677,6,0,P|190:35|157:25,1,70,2|2,3:2|0:0,0:0:0:0:
269,128,167977,2,0,P|322:86|390:95,1,140,10|4,1:2|3:2,0:0:0:0:
481,153,168427,1,2,0:0:0:0:
481,153,168502,1,2,0:0:0:0:
481,153,168577,2,0,P|489:118|499:85,1,70,2|0,0:0|0:0,0:0:0:0:
387,192,168877,2,0,P|365:271|354:340,2,140,4|10|0,3:2|1:2|3:0,0:0:0:0:
251,334,169777,5,10,1:2:0:0:
251,334,169927,2,0,P|214:337|175:350,1,70,2|0,0:1|3:0,0:0:0:0:
115,281,170227,1,2,0:1:0:0:
115,281,170377,2,0,P|119:243|141:207,1,70,10|2,1:2|0:1,0:0:0:0:
223,172,170677,1,2,3:1:0:0:
223,172,170827,1,2,0:1:0:0:
289,243,170977,2,0,P|329:236|367:222,1,70,10|2,1:2|0:1,0:0:0:0:
444,283,171277,5,2,3:1:0:0:
444,283,171427,2,0,P|494:224|471:159,1,140,2|2,0:1|0:1,0:0:0:0:
509,74,171877,2,0,P|441:56|375:31,1,140,2|10,3:1|1:2,0:0:0:0:
281,1,172327,6,0,P|265:63|264:89,1,70,2|2,0:1|3:2,0:0:0:0:
312,159,172627,1,2,0:1:0:0:
229,212,172777,2,0,P|184:207|134:193,1,70,10|2,1:2|0:1,0:0:0:0:
312,159,173077,2,0,P|410:214|379:299,1,210,6|0,3:1|0:0,0:0:0:0:
301,339,173677,6,0,P|373:339|421:386,2,140,6|10|0,3:1|1:2|3:0,0:0:0:0:
214,383,174427,1,2,0:1:0:0:
214,383,174577,1,10,1:2:0:0:
129,333,174727,6,0,P|139:264|154:187,1,140,2|2,0:1|0:1,0:0:0:0:
67,145,175177,2,0,P|33:155|0:163,1,70,10|2,1:2|0:0,0:0:0:0:
111,60,175477,1,2,3:1:0:0:
111,60,175627,1,2,0:1:0:0:
194,111,175777,2,0,P|227:101|261:93,1,70,10|2,1:2|0:1,0:0:0:0:
344,147,176077,5,2,3:1:0:0:
394,63,176227,2,0,P|388:43|377:17,2,35,2|0|10,0:1|0:0|1:2,0:0:0:0:
344,147,176527,2,0,P|343:232|409:259,1,140,2|2,0:1|0:1,0:0:0:0:
480,271,176977,1,10,1:2:0:0:
420,349,177127,6,0,P|370:357|292:375,1,105,6|0,3:1|0:0,0:0:0:0:
284,373,177427,2,0,P|253:357|219:349,1,70,2|10,3:1|1:2,0:0:0:0:
123,369,177727,2,0,P|178:330|178:263,1,140,6|2,3:1|3:1,0:0:0:0:
104,197,178177,1,10,1:2:0:0:
179,134,178327,1,2,0:0:0:0:
179,134,178402,1,2,0:0:0:0:
179,134,178477,6,0,L|167:77,3,35,0|0|0|0,1:0|1:0|1:0|1:0,0:0:0:0:
163,70,178777,2,0,P|129:64|95:56,1,70,4|0,3:1|0:0,0:0:0:0:
249,22,179077,2,0,B|379:35|311:95|435:106,1,210,4|0,3:1|0:0,0:0:0:0:
424,7,179677,6,0,P|386:105|360:206,1,210,4|0,3:1|3:0,0:0:0:0:
445,254,180277,1,4,1:0:0:0:
359,302,180427,2,0,P|267:316|135:349,1,210,0|0,3:0|0:0,0:0:0:0:
153,343,181177,6,0,P|162:306|171:261,1,70,4|0,3:1|0:0,0:0:0:0:
76,238,181477,2,0,P|40:203|58:119,1,140,4|0,3:1|0:0,0:0:0:0:
55,121,182077,6,0,B|186:118|126:49|253:46,1,210,4|0,3:1|3:0,0:0:0:0:
335,10,182677,1,4,1:0:0:0:
243,46,182827,2,0,P|225:115|215:192,1,140,0|0,3:0|1:0,0:0:0:0:
282,254,183277,6,0,P|372:244|397:181,1,140,2|0,3:2|3:2,0:0:0:0:
500,41,183877,2,0,P|462:53|411:65,1,70,2|0,3:2|0:0,0:0:0:0:
343,102,184177,2,0,P|337:67|326:34,1,70,2|0,3:2|0:0,0:0:0:0:
230,13,184477,6,0,P|163:25|85:43,2,140,2|2|2,3:2|3:2|3:2,0:0:0:0:
330,38,185227,1,0,0:0:0:0:
330,38,185377,2,0,P|371:31|412:21,1,70,2|0,3:2|0:0,0:0:0:0:
259,104,185677,5,2,3:2:0:0:
435,188,185977,1,2,3:2:0:0:
269,292,186277,1,2,3:2:0:0:
445,376,186577,1,2,3:2:0:0:
445,376,186727,1,4,3:1:0:0:
256,192,186877,12,6,188077,0:0:0:0:
269,292,197677,6,0,P|275:262|279:230,1,62.9999980773926,4|0,3:2|0:0,0:0:0:0:
340,165,197977,2,0,L|334:133,2,31.4999990386963,0|0|0,3:0|0:0|0:0,0:0:0:0:
370,247,198277,2,0,P|431:234|494:225,1,125.999996154785,0|0,3:0|3:0,0:0:0:0:
485,136,198727,1,2,0:0:0:0:
485,136,198877,6,0,P|453:139|422:146,1,62.9999980773926,0|0,3:0|0:0,0:0:0:0:
334,133,199177,2,0,P|303:139|271:143,1,62.9999980773926,0|0,3:0|0:0,0:0:0:0:
225,65,199477,2,0,P|184:110|186:172,1,125.999996154785,0|0,3:0|3:0,0:0:0:0:
229,249,199927,1,2,0:0:0:0:
229,249,200077,6,0,P|183:289|121:287,1,125.999996154785,2|0,3:2|3:0,0:0:0:0:
54,238,200527,1,0,0:0:0:0:
54,238,200677,2,0,P|45:175|32:114,1,125.999996154785,0|0,3:0|3:0,0:0:0:0:
3,30,201127,1,2,0:0:0:0:
89,48,201277,6,0,P|120:44|151:37,1,62.9999980773926,2|0,3:2|0:0,0:0:0:0:
190,17,201502,1,0,0:0:0:0:
190,17,201577,2,0,P|220:23|252:27,1,62.9999980773926,0|0,3:0|0:0,0:0:0:0:
300,100,201877,2,0,P|345:59|407:61,1,125.999996154785,0|0,3:0|3:0,0:0:0:0:
467,125,202327,1,2,0:0:0:0:
467,125,202477,6,0,P|460:155|456:186,1,62.9999980773926,2|2,3:2|0:0,0:0:0:0:
375,223,202777,2,0,P|370:191|364:161,1,62.9999980773926,0|0,3:0|0:0,0:0:0:0:
300,100,203077,2,0,P|238:113|176:121,1,125.999996154785,0|0,3:0|3:0,0:0:0:0:
128,195,203527,1,2,0:0:0:0:
128,195,203677,6,0,P|169:240|167:302,1,125.999996154785,2|0,3:2|3:0,0:0:0:0:
102,362,204127,1,0,0:0:0:0:
102,362,204277,2,0,P|71:355|39:350,1,62.9999980773926,0|2,3:0|0:0,0:0:0:0:
166,302,204577,2,0,P|196:308|228:313,1,62.9999980773926,0|2,3:0|0:0,0:0:0:0:
310,350,204877,6,0,P|318:287|331:225,1,125.999996154785,2|0,3:2|3:0,0:0:0:0:
246,200,205327,1,0,0:0:0:0:
246,200,205477,2,0,P|237:137|224:75,1,125.999996154785,0|0,3:0|3:0,0:0:0:0:
296,23,205927,1,2,0:0:0:0:
296,23,206077,6,0,P|327:18|358:11,1,62.9999980773926,2|0,3:2|0:0,0:0:0:0:
361,100,206377,2,0,P|391:93|423:88,1,62.9999980773926,2|0,3:2|0:0,0:0:0:0:
485,150,206677,1,4,3:2:0:0:
329,233,206977,1,4,3:2:0:0:
472,339,207277,6,0,P|411:348|315:371,1,140,12|8,3:2|3:2,0:0:0:0:
253,311,207727,1,2,0:0:0:0:
253,311,207877,2,0,P|247:237|225:153,1,140,8|8,3:2|3:2,0:0:0:0:
145,138,208327,1,2,0:0:0:0:
145,138,208477,6,0,P|96:173|7:151,1,140,12|8,3:2|3:2,0:0:0:0:
4,69,208927,1,2,0:0:0:0:
4,69,209077,2,0,P|53:34|142:56,1,140,8|8,3:2|3:2,0:0:0:0:
224,83,209527,1,2,0:0:0:0:
224,83,209677,6,0,P|263:77|304:68,1,70,12|2,3:2|0:0,0:0:0:0:
375,122,209977,2,0,P|409:114|443:109,1,70,8|2,3:2|0:0,0:0:0:0:
288,167,210277,2,0,P|294:206|303:247,1,70,8|2,3:2|0:0,0:0:0:0:
393,265,210577,2,0,P|400:299|405:333,1,70,8|2,3:2|0:0,0:0:0:0:
306,334,210877,6,0,P|270:338|217:350,1,70,12|2,3:2|0:0,0:0:0:0:
142,316,211177,2,0,P|108:322|73:327,1,70,8|2,3:2|0:0,0:0:0:0:
210,243,211477,2,0,P|203:208|198:173,1,70,8|2,3:2|0:0,0:0:0:0:
104,146,211777,2,0,P|99:111|92:76,1,70,8|2,3:2|0:0,0:0:0:0:
167,12,212077,5,12,3:2:0:0:
167,12,212227,1,10,0:0:0:0:
225,90,212377,2,0,P|265:83|315:72,1,70,10|10,3:2|0:0,0:0:0:0:
385,36,212677,5,12,3:2:0:0:
385,36,212827,1,10,0:0:0:0:
442,114,212977,2,0,P|477:107|511:102,1,70,8|10,3:2|0:0,0:0:0:0:
348,166,213277,6,0,P|351:204|360:241,1,77.0000023498536,12|10,3:2|0:0,0:0:0:0:
274,364,213577,6,0,P|271:326|262:289,1,77.0000023498536,10|10,3:2|0:0,0:0:0:0:
168,144,213877,6,0,P|171:182|180:219,1,77.0000023498536,10|10,3:2|0:0,0:0:0:0:
95,342,214177,6,0,P|91:303|82:266,1,77.0000023498536,10|10,3:2|0:0,0:0:0:0:
3,204,214477,5,4,3:2:0:0:
3,204,214627,1,4,3:2:0:0:
154,50,214927,5,4,3:2:0:0:
154,50,215077,1,4,3:2:0:0:
344,161,215377,5,4,3:2:0:0:
344,161,215527,2,0,P|417:155|446:55,1,154.000004699707,4|0,3:2|3:0,0:0:0:0:
391,0,215977,2,0,P|374:34|361:71,1,77.0000023498536,10|0,3:2|0:0,0:0:0:0:
221,42,216277,2,0,P|251:75|277:126,1,77.0000023498536,10|0,3:2|0:0,0:0:0:0:
169,179,216577,2,0,P|205:191|243:196,1,77.0000023498536,10|0,3:2|0:0,0:0:0:0:
336,274,216877,6,0,P|334:255|333:236,15,38.5000011749268,4|0|10|0|10|0|10|0|10|0|10|0|10|0|10|0,3:2|3:0|3:2|3:0|3:2|3:0|3:2|3:0|3:2|3:0|3:2|3:0|3:2|3:0|3:2|3:0,0:0:0:0:
357,211,218077,6,0,P|444:229|455:300,1,154.000004699707,2|2,0:0|0:0,0:0:0:0:
391,368,218527,1,2,0:0:0:0:
391,368,218602,1,0,0:0:0:0:
391,368,218677,2,0,L|339:371,3,38.5000011749268,2|0|2|2,0:0|0:0|0:0|0:0,0:0:0:0:
320,374,218977,2,0,B|248:368|284:334|194:334,1,115.50000352478,6|0,3:1|0:0,0:0:0:0:
165,345,219277,6,0,P|157:310|147:277,1,70,6|2,3:2|0:0,0:0:0:0:
99,191,219577,2,0,P|132:182|166:172,1,70,10|2,1:2|0:0,0:0:0:0:
235,244,219877,2,0,P|302:252|356:210,1,140,2|10,3:2|1:2,0:0:0:0:
439,260,220327,1,2,0:0:0:0:
475,169,220477,6,0,P|452:102|437:34,1,140,2|10,3:1|1:2,0:0:0:0:
342,42,220927,1,2,0:1:0:0:
342,42,221077,2,0,P|332:81|322:109,1,70,2|0,3:1|0:0,0:0:0:0:
233,153,221377,2,0,P|199:161|165:171,1,70,6|0,1:0|0:0,0:0:0:0:
67,166,221677,6,0,P|76:199|85:233,1,70,4|2,3:2|0:0,0:0:0:0:
179,263,221977,2,0,P|187:298|197:331,1,70,10|2,1:2|0:0,0:0:0:0:
275,242,222277,2,0,P|352:225|432:199,1,140,2|10,3:2|1:2,0:0:0:0:
482,273,222727,1,2,0:0:0:0:
416,346,222877,6,0,P|347:361|281:383,1,140,2|10,3:1|1:2,0:0:0:0:
197,331,223327,1,2,0:1:0:0:
197,331,223477,2,0,P|163:322|129:312,1,70,2|0,3:1|0:1,0:0:0:0:
31,316,223777,2,0,P|41:349|49:383,1,70,10|0,1:2|0:0,0:0:0:0:
129,312,224077,6,0,P|106:245|90:177,1,140,4|10,3:2|1:2,0:0:0:0:
201,13,224677,2,0,P|167:24|133:32,1,70,2|2,3:2|0:0,0:0:0:0:
259,92,224977,2,0,P|293:99|326:110,1,70,10|2,1:2|0:0,0:0:0:0:
410,59,225277,6,0,P|452:113|443:181,1,140,2|10,3:1|1:2,0:0:0:0:
365,240,225727,1,2,0:0:0:0:
365,240,225877,2,0,P|331:229|297:221,1,70,2|2,3:1|0:0,0:0:0:0:
209,176,226177,1,10,1:2:0:0:
209,176,226477,6,0,P|198:142|190:108,1,70,4|2,3:2|0:1,0:0:0:0:
135,240,226777,2,0,P|145:273|153:307,1,70,2|2,1:0|0:1,0:0:0:0:
66,168,227077,2,0,P|31:160|-1:150,1,70,2|2,3:2|0:1,0:0:0:0:
99,76,227377,1,6,1:0:0:0:
190,108,227527,6,0,P|257:116|311:74,1,140,4|2,3:2|3:2,0:0:0:0:
376,148,227977,1,10,1:2:0:0:
472,132,228127,2,0,P|449:199|433:267,1,140,4|0,3:2|3:0,0:0:0:0:
405,307,228502,1,0,3:0:0:0:
405,307,228577,2,0,P|371:297|337:290,1,70,0|0,3:0|3:0,0:0:0:0:
265,222,228877,6,0,L|230:229,3,35,2|2|2|2,0:0|0:0|0:0|0:0,0:0:0:0:
182,240,229177,2,0,P|172:206|165:172,1,70,12|0,1:2|0:0,0:0:0:0:
215,88,229477,2,0,P|248:78|282:71,1,70,2|0,3:2|0:0,0:0:0:0:
138,27,229777,2,0,P|104:36|70:43,1,70,10|2,1:2|0:0,0:0:0:0:
43,140,230077,6,0,P|110:130|164:171,1,140,2|10,3:2|1:2,0:0:0:0:
108,252,230527,1,2,0:0:0:0:
108,252,230677,1,2,3:2:0:0:
293,187,230977,1,10,1:2:0:0:
250,378,231277,6,0,P|234:309|212:243,2,140,6|10|2,3:2|1:2|3:2,0:0:0:0:
330,320,232027,1,2,0:0:0:0:
330,320,232177,2,0,P|363:309|397:301,1,70,8|2,1:2|0:0,0:0:0:0:
454,221,232477,6,0,P|495:168|486:100,1,140,2|10,3:1|1:2,0:0:0:0:
415,31,232927,1,2,0:1:0:0:
415,31,233077,2,0,P|381:22|347:11,1,70,2|2,3:1|0:1,0:0:0:0:
266,66,233377,2,0,P|255:99|247:133,1,70,6|0,1:0|0:0,0:0:0:0:
289,222,233677,6,0,P|236:181|168:190,1,140,4|10,3:2|1:2,0:0:0:0:
17,313,234277,2,0,P|84:322|138:281,1,140,2|10,3:2|1:2,0:0:0:0:
167,190,234727,1,2,0:0:0:0:
167,190,234802,1,0,0:0:0:0:
167,190,234877,6,0,P|158:155|148:122,1,70,2|2,3:2|0:0,0:0:0:0:
200,39,235177,2,0,P|266:61|334:76,1,140,10|4,1:2|3:2,0:0:0:0:
412,135,235627,1,2,1:2:0:0:
412,135,235702,1,0,1:0:0:0:
412,135,235777,2,0,P|445:124|479:116,1,70,12|0,1:2|1:0,0:0:0:0:
334,76,236077,6,0,P|323:109|315:143,1,70,4|0,3:2|0:0,0:0:0:0:
252,219,236377,2,0,P|262:252|270:286,1,70,10|0,1:2|0:0,0:0:0:0:
340,355,236677,2,0,P|407:337|476:325,1,140,4|10,3:2|1:2,0:0:0:0:
512,231,237127,1,2,1:0:0:0:
512,231,237427,1,2,0:1:0:0:
414,219,237577,2,0,P|405:185|395:151,1,70,10|2,1:2|0:0,0:0:0:0:
334,76,237877,2,0,P|279:34|212:44,1,140,4|10,3:2|1:2,0:0:0:0:
212,44,238327,6,0,P|144:61|75:73,1,140,2|2,0:1|0:1,0:0:0:0:
23,158,238777,1,10,1:2:0:0:
23,158,238927,1,2,0:0:0:0:
109,204,239077,2,0,P|176:186|245:174,1,140,4|10,3:2|1:2,0:0:0:0:
298,91,239527,6,0,P|352:132|419:122,1,140,2|2,1:0|1:0,0:0:0:0:
479,200,239977,2,0,P|468:233|460:267,1,70,12|2,1:2|0:0,0:0:0:0:
386,330,240277,1,4,3:2:0:0:
386,330,240577,2,0,P|358:335|284:357,1,105,6|0,1:0|0:0,0:0:0:0:
249,322,240877,6,0,P|215:311|181:303,1,70,4|0,3:2|0:0,0:0:0:0:
84,313,241177,2,0,P|94:279|102:245,1,70,10|0,1:2|0:0,0:0:0:0:
92,147,241477,2,0,P|159:166|227:181,1,140,4|10,3:2|1:2,0:0:0:0:
307,247,241927,1,2,1:0:0:0:
307,247,242227,1,2,0:1:0:0:
368,170,242377,2,0,P|357:136|349:102,1,70,10|2,1:2|0:0,0:0:0:0:
303,15,242677,2,0,P|251:13|208:41,1,105,4|0,3:2|0:0,0:0:0:0:
183,84,242977,2,0,P|149:73|115:65,1,70,10|0,1:2|0:0,0:0:0:0:
26,24,243277,5,4,3:2:0:0:
41,219,243577,1,10,1:2:0:0:
183,84,243877,1,4,3:2:0:0:
198,279,244177,5,10,1:2:0:0:
198,279,244327,2,0,P|239:231|326:243,1,140,0|2,1:0|0:0,0:0:0:0:
380,302,244777,2,0,P|371:335|361:369,1,70,2|2,0:0|0:0,0:0:0:0:
467,258,245077,2,0,P|453:210|438:132,1,105,2|2,0:0|0:0,0:0:0:0:
414,130,245377,2,0,L|366:138,3,35,2|2|2|2,3:0|0:0|0:0|0:0,0:0:0:0:
345,144,245677,6,0,P|298:81|225:84,1,140,4|10,3:2|3:2,0:0:0:0:
146,80,246127,1,0,0:0:0:0:
146,80,246277,2,0,P|135:46|128:12,1,70,2|0,3:2|0:0,0:0:0:0:
241,77,246577,2,0,P|231:110|223:144,1,70,10|0,3:2|0:0,0:0:0:0:
268,231,246877,6,0,P|199:244|133:268,1,140,2|10,3:2|3:2,0:0:0:0:
68,341,247327,1,0,0:0:0:0:
7,263,247477,2,0,P|-3:196|53:153,1,140,2|10,3:2|3:2,0:0:0:0:
182,10,248077,6,0,P|207:92|229:161,2,140,2|8|2,3:2|3:2|3:2,0:0:0:0:
284,19,248827,1,0,0:0:0:0:
284,19,248977,2,0,P|294:55|306:89,1,70,10|0,3:2|0:0,0:0:0:0:
378,151,249277,6,0,P|462:142|496:82,1,140,2|8,3:2|3:2,0:0:0:0:
487,7,249727,1,2,0:0:0:0:
487,7,249877,1,2,3:2:0:0:
378,151,250177,1,10,3:2:0:0:
282,306,250477,6,0,P|214:315|160:268,1,140,4|8,3:2|3:2,0:0:0:0:
96,205,250927,1,0,0:0:0:0:
96,205,251077,2,0,P|61:197|29:187,1,70,2|0,3:2|0:0,0:0:0:0:
190,175,251377,2,0,P|197:140|208:107,1,70,10|0,3:2|0:0,0:0:0:0:
224,10,251677,6,0,P|166:31|89:47,2,140,2|10|2,3:2|3:2|3:2,0:0:0:0:
301,78,252427,1,0,0:0:0:0:
301,78,252577,2,0,P|346:85|387:98,1,70,10|0,3:2|0:0,0:0:0:0:
438,21,252877,6,0,P|416:84|457:138,1,140,2|10,3:2|3:2,0:0:0:0:
512,226,253327,1,0,0:0:0:0:
512,226,253477,2,0,P|501:259|494:293,1,70,2|2,3:2|0:0,0:0:0:0:
410,345,253777,1,10,3:2:0:0:
353,264,253927,6,0,P|315:230|221:246,1,140,4|0,3:2|0:0,0:0:0:0:
203,258,254302,1,2,0:0:0:0:
203,258,254377,2,0,P|194:294|187:334,1,70,2|2,0:0|0:0,0:0:0:0:
91,345,254677,2,0,P|99:308|107:269,1,70,2|2,0:0|0:0,0:0:0:0:
25,220,254977,1,10,0:0:0:0:
146,67,255277,5,4,3:2:0:0:
146,67,255427,1,4,3:2:0:0:
203,258,255727,1,4,3:2:0:0:
203,258,255877,1,4,3:2:0:0:
324,105,256177,1,4,3:2:0:0:
324,105,256327,1,4,3:2:0:0:
388,353,256777,6,0,P|474:349|505:304,1,140,4|0,3:2|0:0,0:0:0:0:
470,217,257227,2,0,P|384:221|353:266,1,140,4|0,3:2|0:0,0:0:0:0:
295,338,257677,2,0,B|216:354|150:302|196:280|145:206|40:245,1,280,4|0,3:2|0:0,0:0:0:0:
182,91,258577,5,4,3:2:0:0:
182,91,258727,2,0,P|242:122|226:208,1,140,4|0,3:2|0:0,0:0:0:0:
