osu file format v14

[General]
AudioFilename: audio.mp3
AudioLeadIn: 0
PreviewTime: 60651
Countdown: 0
SampleSet: Soft
StackLeniency: 0.4
Mode: 0
LetterboxInBreaks: 0
WidescreenStoryboard: 1

[Editor]
DistanceSpacing: 1
BeatDivisor: 4
GridSize: 16
TimelineZoom: 1.4

[Metadata]
Title:Digital Life Hacker
TitleUnicode:Digital Life Hacker
Artist:wotoha
ArtistUnicode:をとは
Creator:climbx3145
Version:Normal
Source:
Tags:Neko Hacker jelly girl electronic Japanese pop j-pop jpop 海月ねう mitukineu featured artist fa Kuse KuBsNia_ZhoYL_
BeatmapID:3115810
BeatmapSetID:1516617

[Difficulty]
HPDrainRate:3
CircleSize:3.5
OverallDifficulty:4
ApproachRate:5
SliderMultiplier:1
SliderTickRate:1

[Events]
//Background and Video events
0,0,"bg.jpg",0,0
Video,-360,"Video.mp4"
//Break Periods
2,97039,101639
2,157039,161639
2,169039,173639
//Storyboard Layer 0 (Background)
//Storyboard Layer 1 (Fail)
//Storyboard Layer 2 (Pass)
//Storyboard Layer 3 (Foreground)
//Storyboard Layer 4 (Overlay)
//Storyboard Sound Samples

[TimingPoints]
839,375,4,2,1,50,1,0
839,-111.111111111111,4,2,1,50,0,0
9839,-100,4,2,1,50,0,0
12276,-100,4,2,1,50,0,0
12370,-100,4,2,1,50,0,0
12464,-100,4,2,1,50,0,0
12557,-100,4,2,1,50,0,0
12651,-100,4,2,1,50,0,0
12745,-100,4,2,1,50,0,0
12839,-100,4,2,1,70,0,0
13589,-100,4,2,1,70,0,0
13964,-100,4,2,1,70,0,0
14339,-100,4,2,1,70,0,0
15839,-100,4,2,1,70,0,0
16589,-100,4,2,1,70,0,0
16964,-100,4,2,1,70,0,0
18089,-100,4,2,1,70,0,0
18839,-100,4,2,1,70,0,0
19964,-100,4,2,1,70,0,0
20339,-100,4,2,1,70,0,0
21839,-100,4,2,1,70,0,0
24089,-100,4,2,1,70,0,0
24839,-111.111111111111,4,2,1,50,0,0
25589,-111.111111111111,4,2,1,50,0,0
30839,-111.111111111111,4,2,1,50,0,0
31589,-111.111111111111,4,2,1,50,0,0
36839,-100,4,2,1,60,0,0
41714,-100,4,2,1,60,0,0
42839,-100,4,2,1,60,0,0
47714,-100,4,2,1,60,0,0
48839,-111.111111111111,4,2,1,50,0,0
54839,-100,4,2,1,60,0,0
57839,-100,4,2,1,60,0,0
60464,-100,4,2,1,60,0,0
60839,-90.9090909090909,4,2,1,80,0,1
72839,-90.9090909090909,4,2,1,60,0,0
73214,-90.9090909090909,4,2,1,80,0,1
73589,-90.9090909090909,4,2,1,80,0,1
84839,-100,4,2,1,70,0,0
85589,-100,4,2,1,70,0,0
85964,-100,4,2,1,70,0,0
86339,-100,4,2,1,70,0,0
87839,-100,4,2,1,70,0,0
88589,-100,4,2,1,70,0,0
88964,-100,4,2,1,70,0,0
90089,-100,4,2,1,70,0,0
90839,-100,4,2,1,70,0,0
92339,-100,4,2,1,70,0,0
93839,-100,4,2,1,70,0,0
96839,-100,4,2,1,40,0,0
102839,-100,4,2,1,60,0,0
107339,-100,4,2,1,60,0,0
108839,-111.111111111111,4,2,1,50,0,0
114839,-100,4,2,1,60,0,0
117839,-100,4,2,1,60,0,0
120464,-100,4,2,1,60,0,0
120839,-90.9090909090909,4,2,1,80,0,1
132839,-90.9090909090909,4,2,1,60,0,0
133214,-90.9090909090909,4,2,1,80,0,1
133589,-90.9090909090909,4,2,1,80,0,1
144839,-100,4,2,1,70,0,0
146339,-100,4,2,1,70,0,0
147089,-100,4,2,1,70,0,0
147839,-100,4,2,1,70,0,0
155339,-100,4,2,1,70,0,0
155714,-100,4,2,1,70,0,0
156089,-100,4,2,1,70,0,0
156839,-100,4,2,1,60,0,0
162839,-100,4,2,1,60,0,0
167714,-100,4,2,1,60,0,0
168089,-100,4,2,1,60,0,0
168839,-100,4,2,1,40,0,0
174839,-100,4,2,1,60,0,0
177839,-100,4,2,1,60,0,0
179339,-100,4,2,1,70,0,0
181214,-90.9090909090909,4,2,1,80,0,1
181589,-90.9090909090909,4,2,1,80,0,1
184026,-90.9090909090909,4,2,1,80,0,1
184776,-90.9090909090909,4,2,1,80,0,1
192839,-100,4,2,1,76,0,0
193589,-100,4,2,1,76,0,0
193964,-100,4,2,1,76,0,0
194339,-100,4,2,1,76,0,0
196589,-100,4,2,1,76,0,0
196964,-100,4,2,1,76,0,0
197339,-100,4,2,1,76,0,0
198839,-100,4,2,1,76,0,0
200339,-100,4,2,1,76,0,0
204089,-100,4,2,1,56,0,0

[Colours]
Combo1 : 255,176,176
Combo2 : 151,203,255
Combo3 : 179,179,255

[HitObjects]
373,134,6839,6,0,L|388:45,2,89.9999972534181,10|10|10,0:1|0:1|0:1,0:0:0:0:
308,196,7964,1,10,0:1:0:0:
241,135,8339,2,0,L|152:150,1,89.9999972534181,10|10,0:1|0:1,0:0:0:0:
65,126,9089,1,8,0:1:0:0:
22,205,9464,1,10,0:1:0:0:
90,278,9839,6,0,L|81:327,2,50,8|10|10,0:1|0:1|0:1,0:0:0:0:
136,256,10401,1,10,0:1:0:0:
136,256,10589,2,0,L|185:247,1,50,10|10,0:1|0:1,0:0:0:0:
225,218,10964,2,0,L|274:226,1,50,10|10,0:1|0:1,0:0:0:0:
315,197,11339,2,0,B|320:165|320:165|318:136|318:136|325:94,1,100,8|0,0:1|3:3,0:0:0:0:
332,48,11901,1,0,3:3:0:0:
431,35,12276,2,0,L|480:26,2,50,2|2|2,0:0|0:0|0:0,0:0:0:0:
418,83,12839,6,0,P|453:116|457:168,1,100,6|10,3:1|0:0,0:0:0:0:
439,214,13401,1,2,0:0:0:0:
439,214,13589,1,2,3:2:0:0:
475,307,13964,1,10,0:0:0:0:
387,356,14339,2,0,B|337:367|337:367|288:355,1,100,2|10,3:2|0:0,0:0:0:0:
228,276,15089,2,0,B|178:264|178:264|129:277,1,100,2|10,3:2|0:0,0:0:0:0:
34,305,15839,5,2,3:2:0:0:
10,206,16214,2,0,P|8:182|18:159,1,50,10|2,0:0|0:0,0:0:0:0:
43,116,16589,1,2,3:2:0:0:
139,140,16964,1,10,0:0:0:0:
210,69,17339,2,0,P|259:66|303:88,1,100,2|10,3:2|0:0,0:0:0:0:
275,184,18089,1,2,3:2:0:0:
329,267,18464,1,10,0:0:0:0:
427,283,18839,6,0,P|462:249|466:200,1,100,2|10,3:2|0:0,0:0:0:0:
448,159,19401,1,2,0:0:0:0:
448,159,19589,2,0,L|456:109,1,50,2|2,3:2|0:0,0:0:0:0:
465,60,19964,1,10,0:0:0:0:
367,39,20339,2,0,P|317:39|270:22,1,100,2|10,3:2|0:0,0:0:0:0:
182,69,21089,2,0,P|132:68|85:85,1,100,2|10,3:2|0:0,0:0:0:0:
32,170,21839,6,0,L|40:219,1,50,2|2,3:2|0:0,0:0:0:0:
77,253,22214,2,0,L|68:302,1,50,10|2,0:0|0:0,0:0:0:0:
62,352,22589,1,2,3:2:0:0:
156,383,22964,1,10,0:0:0:0:
229,314,23339,6,0,P|276:321|312:289,2,100,0|8|0,3:2|0:0|3:2,0:0:0:0:
210,273,24276,1,0,3:2:0:0:
210,273,24464,2,0,L|218:223,1,50,8|0,0:0|3:2,0:0:0:0:
250,185,24839,6,0,P|289:205|333:202,1,89.9999972534181,6|8,3:2|0:1,0:0:0:0:
395,125,25589,2,0,L|383:58,2,67.4999979400635,2|2|2,3:2|3:2|3:2,0:0:0:0:
485,243,26714,5,10,0:1:0:0:
407,305,27089,2,0,L|395:371,2,67.4999979400635,2|2|2,3:2|3:2|3:2,0:0:0:0:
276,233,28214,5,10,0:1:0:0:
338,156,28589,2,0,L|404:167,2,67.4999979400635,2|2|2,3:2|3:2|3:2,0:0:0:0:
251,35,29714,5,2,3:2:0:0:
160,74,30089,1,2,3:2:0:0:
66,41,30464,1,10,3:1:0:0:
17,127,30839,6,0,P|37:166|34:210,1,89.9999972534181,2|10,3:2|0:1,0:0:0:0:
67,304,31589,2,0,P|51:333|53:366,2,67.4999979400635,2|2|2,3:2|3:2|3:2,0:0:0:0:
190,221,32714,5,8,0:1:0:0:
286,243,33089,2,0,P|319:245|348:229,2,67.4999979400635,2|2|2,3:2|3:2|3:2,0:0:0:0:
235,103,34214,5,8,0:1:0:0:
136,112,34589,2,0,P|133:78|149:49,2,67.4999979400635,2|2|2,3:2|3:2|3:2,0:0:0:0:
180,253,35714,5,2,3:2:0:0:
264,305,36089,1,2,3:2:0:0:
348,253,36464,1,2,3:2:0:0:
444,278,36839,6,0,P|474:239|475:189,1,100,6|10,3:2|0:0,0:0:0:0:
458,148,37401,1,2,0:0:0:0:
458,148,37589,2,0,L|471:74,2,75,2|2|2,3:2|0:0|0:0,0:0:0:0:
362,161,38526,1,2,0:0:0:0:
362,161,38714,2,0,L|312:152,1,50,10|2,0:0|0:0,0:0:0:0:
267,130,39089,2,0,P|280:95|274:58,2,75,2|2|2,3:2|0:0|0:0,0:0:0:0:
216,217,40026,5,2,0:0:0:0:
216,217,40214,2,0,L|227:280,1,50,10|0,0:0|0:0,0:0:0:0:
237,314,40589,2,0,P|271:300|308:306,2,75,2|2|2,3:2|0:0|0:0,0:0:0:0:
198,345,41339,2,0,P|149:355|105:335,1,100,0|10,3:2|0:0,0:0:0:0:
28,271,42089,1,2,3:2:0:0:
41,171,42464,1,10,0:0:0:0:
140,176,42839,6,0,P|189:174|228:144,1,100,6|10,3:2|0:0,0:0:0:0:
253,102,43401,1,2,0:0:0:0:
253,102,43589,2,0,L|238:18,2,75,2|2|2,3:2|0:0|0:0,0:0:0:0:
343,156,44526,1,2,0:0:0:0:
343,156,44714,2,0,L|334:205,1,50,10|0,0:0|0:0,0:0:0:0:
329,255,45089,2,0,P|364:243|401:249,2,75,2|2|2,3:2|0:0|0:0,0:0:0:0:
261,329,46026,5,2,0:0:0:0:
261,329,46214,2,0,L|211:321,1,50,10|2,0:0|0:0,0:0:0:0:
164,305,46589,2,0,P|171:256|149:211,1,100,2|8,3:2|0:0,0:0:0:0:
124,175,47151,1,2,0:0:0:0:
124,175,47339,6,0,L|133:125,1,50,4|0,0:3|3:2,0:0:0:0:
141,76,47714,1,8,0:0:0:0:
218,12,48089,1,0,3:2:0:0:
286,84,48464,1,8,0:0:0:0:
372,35,48839,6,0,P|438:38|498:69,1,134.999995880127,6|0,3:1|3:2,0:0:0:0:
509,117,49589,1,8,0:0:0:0:
383,196,50151,2,0,B|365:229|365:229|380:278,2,89.9999972534181,0|0|0,3:2|3:2|3:2,0:0:0:0:
413,156,51089,1,8,0:0:0:0:
271,129,51651,1,0,0:0:0:0:
271,129,51839,6,0,P|206:148|140:163,1,134.999995880127,0|0,3:2|3:2,0:0:0:0:
93,179,52589,1,8,0:0:0:0:
85,281,52964,1,0,0:0:0:0:
85,281,53151,2,0,P|40:278|-1:261,2,89.9999972534181,0|0|0,3:2|3:2|3:2,0:0:0:0:
134,282,54089,1,8,0:0:0:0:
214,242,54464,2,0,L|258:249,1,44.999998626709,0|0,0:0|0:0,0:0:0:0:
308,254,54839,5,6,3:2:0:0:
376,327,55214,1,2,3:2:0:0:
459,272,55589,2,0,B|453:238|453:238|472:175,1,100,0|0,3:2|3:2,0:0:0:0:
503,80,56339,5,2,3:2:0:0:
414,33,56714,2,0,L|364:41,1,50,10|2,3:1|0:0,0:0:0:0:
329,77,57089,2,0,P|279:79|236:55,1,100,2|8,3:2|3:1,0:0:0:0:
145,13,57839,6,0,L|136:62,1,50,2|10,3:2|0:1,0:0:0:0:
128,111,58214,1,10,3:1:0:0:
167,202,58589,2,0,L|216:193,1,50,2|8,3:2|0:1,0:0:0:0:
261,171,58964,2,0,L|310:179,1,50,2|10,3:2|0:1,0:0:0:0:
359,187,59339,1,2,3:2:0:0:
418,267,59714,2,0,L|409:316,1,50,2|8,3:2|0:1,0:0:0:0:
401,365,60089,1,2,0:0:0:0:
301,377,60464,5,8,0:0:0:0:
212,332,60839,6,0,L|103:351,1,110.000003356934,6|10,3:1|0:0,0:0:0:0:
17,302,61589,2,0,B|36:278|36:278|50:196,1,110.000003356934,2|8,3:2|0:0,0:0:0:0:
80,162,62151,1,2,0:0:0:0:
80,162,62339,2,0,L|70:107,1,55.0000016784668,0|2,3:2|0:0,0:0:0:0:
64,63,62714,1,10,0:0:0:0:
64,63,62901,1,2,0:0:0:0:
162,53,63276,2,0,L|171:-2,2,55.0000016784668,2|10|2,0:0|0:0|0:0,0:0:0:0:
215,136,64026,6,0,L|224:190,2,55.0000016784668,2|10|2,0:0|0:0|0:0,0:0:0:0:
307,94,64776,1,2,0:0:0:0:
307,94,64964,1,10,0:0:0:0:
307,94,65151,2,0,P|360:92|401:127,1,110.000003356934,2|2,0:0|0:0,0:0:0:0:
402,177,65714,2,0,L|392:232,1,55.0000016784668,10|2,0:0|0:0,0:0:0:0:
383,279,66089,1,2,3:2:0:0:
284,276,66464,2,0,L|275:330,1,55.0000016784668,10|2,0:0|0:0,0:0:0:0:
263,378,66839,5,2,3:2:0:0:
164,378,67214,1,10,0:0:0:0:
92,309,67589,2,0,P|125:266|130:212,1,110.000003356934,2|10,3:2|0:0,0:0:0:0:
146,168,68151,1,2,0:0:0:0:
146,168,68339,2,0,L|200:177,1,55.0000016784668,2|2,3:2|0:0,0:0:0:0:
239,207,68714,2,0,L|293:197,1,55.0000016784668,10|2,0:0|0:0,0:0:0:0:
394,236,69276,1,2,0:0:0:0:
394,236,69464,1,10,0:0:0:0:
394,236,69651,6,0,P|404:181|421:127,1,110.000003356934,2|2,0:0|0:0,0:0:0:0:
434,81,70214,1,10,0:0:0:0:
352,24,70589,2,0,L|297:33,1,55.0000016784668,2|2,3:2|0:0,0:0:0:0:
263,69,70964,2,0,L|208:59,1,55.0000016784668,10|2,0:0|0:0,0:0:0:0:
160,49,71339,1,0,3:2:0:0:
68,10,71714,1,8,0:0:0:0:
4,85,72089,2,0,L|13:139,1,55.0000016784668,0|0,3:2|3:2,0:0:0:0:
45,176,72464,2,0,L|35:230,2,55.0000016784668,8|0|0,0:0|3:2|0:0,0:0:0:0:
140,150,73214,5,6,3:1:0:0:
213,216,73589,2,0,P|266:204|320:192,1,110.000003356934,2|10,3:2|0:0,0:0:0:0:
360,162,74151,1,2,0:0:0:0:
360,162,74339,2,0,P|387:166|414:171,1,55.0000016784668,0|2,3:2|0:0,0:0:0:0:
466,185,74714,1,10,0:0:0:0:
466,185,74901,1,2,0:0:0:0:
506,275,75276,2,0,P|506:302|500:329,2,55.0000016784668,2|10|2,0:0|0:0|0:0,0:0:0:0:
407,264,76026,6,0,P|400:290|401:318,2,55.0000016784668,2|10|2,0:0|0:0|0:0,0:0:0:0:
338,208,76776,1,2,0:0:0:0:
338,208,76964,1,10,0:0:0:0:
338,208,77151,2,0,P|284:212|243:247,1,110.000003356934,2|2,0:0|0:0,0:0:0:0:
198,268,77714,2,0,L|143:259,1,55.0000016784668,10|2,0:0|0:0,0:0:0:0:
95,249,78089,1,2,3:2:0:0:
35,170,78464,2,0,L|44:115,1,55.0000016784668,10|2,0:0|0:0,0:0:0:0:
52,66,78839,5,2,3:2:0:0:
147,40,79214,2,0,P|174:36|199:26,1,55.0000016784668,10|2,0:0|0:0,0:0:0:0:
248,35,79589,2,0,P|275:38|300:48,1,55.0000016784668,2|2,3:2|0:0,0:0:0:0:
338,88,79964,1,10,0:0:0:0:
338,88,80151,1,2,0:0:0:0:
282,170,80526,6,0,L|291:224,1,55.0000016784668,2|10,0:0|0:0,0:0:0:0:
300,273,80901,1,2,0:0:0:0:
375,352,81276,1,2,0:0:0:0:
375,352,81464,1,10,0:0:0:0:
375,352,81651,2,0,P|428:349|469:314,1,110.000003356934,2|2,0:0|0:0,0:0:0:0:
488,267,82214,1,10,0:0:0:0:
418,196,82589,2,0,L|427:141,1,55.0000016784668,2|2,3:2|0:0,0:0:0:0:
467,112,82964,2,0,L|457:57,1,55.0000016784668,10|2,0:0|0:0,0:0:0:0:
446,9,83339,5,0,3:2:0:0:
352,42,83714,1,8,0:0:0:0:
259,5,84089,2,0,P|231:3|206:14,1,55.0000016784668,0|0,3:2|3:2,0:0:0:0:
174,52,84464,2,0,P|146:53|121:42,1,55.0000016784668,8|0,0:0|3:2,0:0:0:0:
73,27,84839,5,6,3:2:0:0:
5,100,85214,2,0,L|14:149,1,50,10|2,0:0|0:0,0:0:0:0:
24,198,85589,1,2,3:2:0:0:
111,246,85964,1,10,0:0:0:0:
158,158,86339,2,0,B|225:146|225:146|255:156,1,100,2|10,3:2|0:0,0:0:0:0:
321,231,87089,2,0,B|388:243|388:243|418:232,1,100,2|10,3:2|0:0,0:0:0:0:
502,285,87839,6,0,P|505:334|466:368,1,100,2|10,3:2|0:0,0:0:0:0:
424,362,88401,1,2,0:0:0:0:
424,362,88589,1,2,3:2:0:0:
334,318,88964,1,10,0:0:0:0:
246,365,89339,2,0,P|198:354|175:311,1,100,2|10,3:2|0:0,0:0:0:0:
247,242,90089,1,2,3:2:0:0:
191,158,90464,1,10,0:0:0:0:
236,68,90839,6,0,P|280:88|329:78,1,100,2|10,3:2|0:0,0:0:0:0:
367,46,91401,1,2,0:0:0:0:
367,46,91589,2,0,L|416:54,1,50,2|2,3:2|0:0,0:0:0:0:
463,70,91964,1,10,0:0:0:0:
487,167,92339,2,0,P|475:218|461:279,1,100,2|10,3:2|0:0,0:0:0:0:
370,298,93089,2,0,P|358:249|347:200,1,100,2|10,3:2|0:0,0:0:0:0:
323,103,93839,5,2,3:2:0:0:
238,155,94214,1,10,0:0:0:0:
142,126,94589,2,0,P|118:133|97:147,1,50,2|2,3:2|0:0,0:0:0:0:
76,193,94964,2,0,P|83:216|97:237,1,50,10|2,0:0|0:0,0:0:0:0:
109,286,95339,6,0,P|83:328|88:377,2,100,2|8|0,3:2|0:0|3:2,0:0:0:0:
150,256,96276,1,0,3:2:0:0:
150,256,96464,2,0,L|199:264,1,50,8|0,0:0|3:2,0:0:0:0:
248,275,96839,5,6,3:2:0:0:
248,275,102839,6,0,P|286:244|336:242,1,100,6|10,3:2|0:0,0:0:0:0:
378,278,103401,1,2,0:0:0:0:
378,278,103589,2,0,L|363:362,2,75,2|2|2,3:2|0:0|0:0,0:0:0:0:
459,218,104526,1,2,0:0:0:0:
459,218,104714,2,0,L|468:169,1,50,10|2,0:0|0:0,0:0:0:0:
443,125,105089,2,0,P|480:123|512:105,2,75,2|2|2,3:2|0:0|0:0,0:0:0:0:
356,86,106026,5,2,0:0:0:0:
356,86,106214,2,0,L|306:78,1,50,10|2,0:0|0:0,0:0:0:0:
257,85,106589,2,0,P|255:48|237:16,2,75,2|2|2,3:2|0:0|0:0,0:0:0:0:
241,132,107339,6,0,L|250:182,1,50,4|2,0:3|3:2,0:0:0:0:
258,230,107714,1,10,0:0:0:0:
226,324,108089,2,0,P|203:335|179:339,1,50,2|0,3:2|0:0,3:2:0:0:
130,339,108464,1,10,0:0:0:0:
126,240,108839,6,0,P|125:173|92:114,1,134.999995880127,6|2,3:1|3:2,0:0:0:0:
56,81,109589,1,10,0:0:0:0:
207,66,110151,1,2,3:2:0:0:
207,66,110339,2,0,P|202:32|210:0,2,67.4999979400635,0|0|0,0:0|3:2|3:2,0:0:0:0:
240,102,111089,1,8,0:0:0:0:
324,230,111651,1,0,0:0:0:0:
324,230,111839,6,0,P|403:220|470:208,1,134.999995880127,0|0,3:2|3:2,0:0:0:0:
494,176,112589,1,8,0:0:0:0:
402,65,113151,1,0,3:2:0:0:
402,65,113339,2,0,L|413:-2,2,67.4999979400635,0|0|0,0:0|3:2|3:2,0:0:0:0:
393,113,114089,1,8,0:0:0:0:
298,208,114651,1,0,0:0:0:0:
298,208,114839,6,0,P|273:205|249:197,1,50,8|8,3:1|0:1,0:0:0:0:
209,166,115214,2,0,P|184:168|160:176,1,50,8|8,0:1|0:1,0:0:0:0:
113,193,115589,1,0,3:1:0:0:
201,372,116339,6,0,P|225:369|249:361,1,50,8|8,3:1|0:1,0:0:0:0:
290,330,116714,2,0,P|314:332|338:340,1,50,8|8,0:1|0:1,0:0:0:0:
386,357,117089,1,0,3:1:0:0:
510,200,117839,6,0,L|501:150,1,50,0|8,3:1|0:1,0:0:0:0:
481,103,118214,2,0,P|458:96|442:77,1,50,0|8,3:1|0:1,0:0:0:0:
406,43,118589,2,0,L|357:52,1,50,0|8,3:1|0:1,0:0:0:0:
319,85,118964,2,0,L|270:77,1,50,0|8,3:1|0:1,0:0:0:0:
220,67,119339,1,0,3:1:0:0:
156,144,119714,2,0,P|155:168|164:191,1,50,0|8,3:1|0:1,0:0:0:0:
192,233,120089,1,2,0:0:0:0:
290,213,120464,5,8,0:0:0:0:
316,308,120839,6,0,P|272:340|219:333,1,110.000003356934,6|10,3:1|0:0,0:0:0:0:
134,282,121589,2,0,P|80:292|25:301,1,110.000003356934,2|8,3:2|0:0,0:0:0:0:
4,262,122151,1,2,0:0:0:0:
4,262,122339,2,0,L|14:207,1,55.0000016784668,0|2,3:2|0:0,0:0:0:0:
26,162,122714,1,10,0:0:0:0:
26,162,122901,1,2,0:0:0:0:
93,89,123276,2,0,P|89:62|99:36,2,55.0000016784668,2|10|2,0:0|0:0|0:0,0:0:0:0:
179,137,124026,6,0,P|189:162|185:189,2,55.0000016784668,2|10|2,0:0|0:0|0:0,0:0:0:0:
250,69,124776,1,2,0:0:0:0:
250,69,124964,1,10,0:0:0:0:
250,69,125151,2,0,P|303:71|344:36,1,110.000003356934,2|2,0:0|0:0,0:0:0:0:
382,3,125714,2,0,L|437:13,1,55.0000016784668,10|2,0:0|0:0,0:0:0:0:
485,20,126089,1,2,3:2:0:0:
510,115,126464,2,0,L|501:169,1,55.0000016784668,10|0,0:0|0:0,0:0:0:0:
489,217,126839,5,2,3:2:0:0:
403,266,127214,2,0,L|348:256,1,55.0000016784668,10|0,0:0|0:0,0:0:0:0:
303,276,127589,2,0,P|250:284|207:251,1,110.000003356934,2|10,3:2|0:0,0:0:0:0:
193,209,128151,1,2,0:0:0:0:
193,209,128339,2,0,L|202:155,1,55.0000016784668,2|2,3:2|0:0,0:0:0:0:
232,115,128714,2,0,L|222:61,1,55.0000016784668,10|2,0:0|0:0,0:0:0:0:
123,53,129276,2,0,L|132:-1,2,55.0000016784668,2|10|2,0:0|0:0|0:0,0:0:0:0:
114,102,129839,5,0,3:2:0:0:
47,174,130214,1,10,0:0:0:0:
88,264,130589,2,0,L|143:273,1,55.0000016784668,2|2,3:2|0:0,0:0:0:0:
177,309,130964,2,0,L|232:299,1,55.0000016784668,10|2,0:0|0:0,0:0:0:0:
280,289,131339,1,0,3:2:0:0:
366,337,131714,1,8,0:0:0:0:
445,277,132089,2,0,L|454:223,1,55.0000016784668,0|0,3:2|3:2,0:0:0:0:
435,176,132464,2,0,L|425:122,2,55.0000016784668,8|0|0,0:0|3:2|0:0,0:0:0:0:
347,223,133214,5,6,3:1:0:0:
264,168,133589,2,0,P|215:192|161:188,1,110.000003356934,2|10,3:2|0:0,0:0:0:0:
128,158,134151,1,2,0:0:0:0:
128,158,134339,2,0,P|132:131|137:104,1,55.0000016784668,0|2,3:2|0:0,0:0:0:0:
146,58,134714,1,10,0:0:0:0:
146,58,134901,1,2,0:0:0:0:
237,19,135276,2,0,P|263:10|288:0,2,55.0000016784668,2|10|2,0:0|0:0|0:0,0:0:0:0:
246,117,136026,6,0,P|272:125|297:136,2,55.0000016784668,2|10|2,0:0|0:0|0:0,0:0:0:0:
169,176,136776,1,2,0:0:0:0:
169,176,136964,1,10,0:0:0:0:
169,176,137151,2,0,P|173:230|208:271,1,110.000003356934,2|2,0:0|0:0,0:0:0:0:
256,283,137714,2,0,L|311:274,1,55.0000016784668,10|2,0:0|0:0,0:0:0:0:
358,262,138089,2,0,B|349:226|349:226|366:155,1,110.000003356934,2|10,3:2|0:0,0:0:0:0:
391,59,138839,5,2,3:2:0:0:
302,15,139214,2,0,P|276:25|249:29,1,55.0000016784668,10|2,0:0|0:0,0:0:0:0:
206,48,139589,1,2,3:2:0:0:
206,48,139776,2,0,P|151:50|103:25,1,110.000003356934,2|2,0:0|0:0,0:0:0:0:
58,45,140339,6,0,L|67:99,1,55.0000016784668,2|2,3:2|0:0,0:0:0:0:
107,128,140714,2,0,L|98:182,1,55.0000016784668,10|2,0:0|0:0,0:0:0:0:
131,285,141276,1,2,0:0:0:0:
131,285,141464,1,10,0:0:0:0:
131,285,141651,2,0,P|184:282|225:247,1,110.000003356934,2|2,0:0|0:0,0:0:0:0:
233,200,142214,1,10,0:0:0:0:
233,200,142401,2,0,P|216:147|210:92,1,110.000003356934,2|2,0:0|0:0,0:0:0:0:
231,47,142964,2,0,L|286:57,1,55.0000016784668,10|2,0:0|0:0,0:0:0:0:
334,62,143339,5,0,3:2:0:0:
425,23,143714,1,8,0:0:0:0:
483,102,144089,2,0,P|485:130|474:155,1,55.0000016784668,0|0,3:2|3:2,0:0:0:0:
436,187,144464,2,0,P|435:215|446:240,1,55.0000016784668,8|4,0:0|0:3,0:0:0:0:
444,289,144839,6,0,B|406:284|406:284|374:271|374:271|339:269,1,100,6|8,3:2|0:0,0:0:0:0:
303,288,145401,1,2,0:0:0:0:
303,288,145589,2,0,P|254:290|223:253,1,100,2|8,3:2|0:0,0:0:0:0:
265,162,146339,2,0,B|282:129|282:129|275:66,1,100,2|10,3:2|0:0,0:0:0:0:
195,5,147089,1,2,3:2:0:0:
103,46,147464,1,10,0:0:0:0:
30,114,147839,6,0,B|19:136|19:136|19:161,1,50,2|2,3:2|0:0,0:0:0:0:
56,195,148214,2,0,B|56:220|56:220|45:242,1,50,10|2,0:0|0:0,0:0:0:0:
23,287,148589,2,0,P|71:286|108:319,1,100,2|10,3:2|0:0,0:0:0:0:
190,375,149339,2,0,B|225:382|225:382|306:361,1,100,2|10,3:2|0:0,0:0:0:0:
315,326,149901,1,2,0:0:0:0:
315,326,150089,2,0,L|306:276,1,50,2|2,3:2|0:0,0:0:0:0:
297,227,150464,1,10,0:0:0:0:
219,164,150839,6,0,B|232:121|232:121|232:107|232:107|242:67,1,100,2|10,3:2|0:0,0:0:0:0:
280,34,151401,1,2,0:0:0:0:
280,34,151589,2,0,B|323:47|323:47|337:47|337:47|376:57,1,100,2|10,3:2|0:0,0:0:0:0:
424,84,152151,1,2,0:0:0:0:
424,84,152339,2,0,P|456:71|494:73,2,50,2|2|10,3:2|0:0|0:0,0:0:0:0:
380,174,153089,2,0,L|388:223,1,50,2|0,3:2|0:0,0:0:0:0:
403,271,153464,1,10,0:0:0:0:
305,294,153839,6,0,P|256:296|224:333,1,100,2|8,3:2|0:0,0:0:0:0:
195,374,154401,1,2,0:0:0:0:
195,374,154589,2,0,P|145:366|98:351,1,100,2|8,3:2|0:0,0:0:0:0:
45,265,155339,6,0,P|21:222|41:178,2,100,2|8|0,3:2|0:0|3:2,0:0:0:0:
98,266,156276,1,0,3:2:0:0:
98,266,156464,2,0,L|162:254,1,50,8|0,0:0|0:0,0:0:0:0:
196,247,156839,5,6,3:2:0:0:
178,97,162839,6,0,P|220:70|269:70,1,100,6|0,3:2|3:2,0:0:0:0:
296,166,163589,2,0,P|254:192|205:192,1,100,0|0,3:2|3:2,0:0:0:0:
105,179,164339,2,0,L|87:277,1,100,0|0,3:2|3:2,0:0:0:0:
31,360,165089,1,0,3:2:0:0:
128,382,165464,1,0,3:2:0:0:
210,326,165839,6,0,L|259:334,1,50,0|8,3:2|0:1,0:0:0:0:
303,358,166214,2,0,L|352:349,1,50,0|8,3:2|0:1,0:0:0:0:
399,332,166589,1,0,3:2:0:0:
493,364,166964,1,0,3:2:0:0:
484,264,167339,6,0,P|479:215|506:174,1,100,0|0,3:2|3:2,0:0:0:0:
512,127,167901,1,8,0:1:0:0:
512,127,168089,2,0,L|503:77,1,50,0|8,3:2|0:1,0:0:0:0:
468,42,168464,2,0,L|418:50,1,50,0|8,3:2|0:1,0:0:0:0:
369,61,168839,5,6,3:1:0:0:
223,196,174839,6,0,L|120:183,1,100,2|10,3:2|0:0,0:0:0:0:
47,119,175589,1,2,3:2:0:0:
47,119,175776,2,0,P|56:67|108:54,1,100,2|2,0:0|0:0,0:0:0:0:
144,65,176339,2,0,L|193:56,1,50,0|2,3:2|0:0,0:0:0:0:
237,32,176714,2,0,L|286:40,1,50,10|2,0:0|0:0,0:0:0:0:
374,87,177276,2,0,P|385:65|387:40,2,50,2|10|2,0:0|0:0|0:0,0:0:0:0:
324,174,178026,6,0,P|335:195|337:220,2,50,2|10|2,0:0|0:0|0:0,0:0:0:0:
231,148,178776,1,2,0:0:0:0:
231,148,178964,2,0,P|199:153|161:157,1,50,10|2,0:0|0:0,0:0:0:0:
132,166,179339,1,0,3:2:0:0:
56,231,179714,1,8,0:0:0:0:
142,281,180089,2,0,L|133:330,1,50,0|0,3:2|3:2,0:0:0:0:
118,378,180464,2,0,P|95:381|69:369,2,50,8|0|0,0:0|3:2|0:0,0:0:0:0:
215,358,181214,5,6,3:1:0:0:
281,284,181589,2,0,P|333:295|364:339,1,110.000003356934,2|8,3:2|0:0,0:0:0:0:
405,376,182151,1,2,0:0:0:0:
405,376,182339,2,0,P|432:372|459:367,1,55.0000016784668,2|2,3:2|0:0,0:0:0:0:
509,352,182714,1,10,0:0:0:0:
509,352,182901,1,2,0:0:0:0:
472,259,183276,2,0,P|480:232|478:204,1,55.0000016784668,2|10,0:0|0:0,0:0:0:0:
460,159,183651,1,2,0:0:0:0:
377,103,184026,6,0,P|354:119|327:119,1,55.0000016784668,2|10,0:0|0:0,0:0:0:0:
283,96,184401,1,2,0:0:0:0:
199,142,184776,1,2,0:0:0:0:
199,142,184964,1,10,0:0:0:0:
199,142,185151,2,0,P|202:195|238:237,1,110.000003356934,2|2,0:0|0:0,0:0:0:0:
281,260,185714,2,0,L|272:315,1,55.0000016784668,10|2,0:0|0:0,0:0:0:0:
262,362,186089,1,2,3:2:0:0:
165,342,186464,2,0,L|110:351,1,55.0000016784668,10|2,0:0|0:0,0:0:0:0:
61,357,186839,5,2,3:2:0:0:
1,278,187214,2,0,P|5:251|15:226,1,55.0000016784668,10|2,0:0|0:0,0:0:0:0:
43,184,187589,2,0,P|40:157|30:132,1,55.0000016784668,2|2,3:2|0:0,0:0:0:0:
15,89,187964,1,10,0:0:0:0:
15,89,188151,1,2,0:0:0:0:
59,0,188526,6,0,L|113:9,1,55.0000016784668,2|10,0:0|0:0,0:0:0:0:
162,18,188901,1,2,0:0:0:0:
223,108,189276,1,2,0:0:0:0:
223,108,189464,1,10,0:0:0:0:
223,108,189651,2,0,P|276:105|317:70,1,110.000003356934,2|2,0:0|0:0,0:0:0:0:
342,26,190214,1,10,0:0:0:0:
440,34,190589,2,0,L|431:89,1,55.0000016784668,2|2,3:2|0:0,0:0:0:0:
404,129,190964,2,0,L|414:184,1,55.0000016784668,10|2,0:0|0:0,0:0:0:0:
425,231,191339,5,0,3:2:0:0:
495,300,191714,1,8,0:0:0:0:
421,366,192089,2,0,P|393:368|368:357,1,55.0000016784668,0|0,3:2|3:2,0:0:0:0:
333,322,192464,2,0,P|305:321|280:332,1,55.0000016784668,8|0,0:0|3:2,0:0:0:0:
235,352,192839,6,0,P|206:312|214:263,1,100,6|10,3:2|0:0,0:0:0:0:
236,222,193401,1,2,0:0:0:0:
236,222,193589,2,0,L|285:230,1,50,2|0,3:2|0:0,0:0:0:0:
335,234,193964,1,10,0:0:0:0:
338,134,194339,2,0,P|329:84|316:36,1,100,2|10,3:2|0:0,0:0:0:0:
219,10,195089,2,0,P|210:59|197:107,1,100,2|10,3:2|0:0,0:0:0:0:
200,207,195839,6,0,P|175:205|152:195,1,50,2|2,3:2|0:0,0:0:0:0:
106,215,196214,2,0,P|81:216|58:226,1,50,10|2,0:0|0:0,0:0:0:0:
19,257,196589,2,0,L|11:306,1,50,2|0,3:2|0:0,0:0:0:0:
1,355,196964,1,10,0:0:0:0:
100,357,197339,2,0,P|149:358|189:330,1,100,2|10,3:2|0:0,0:0:0:0:
226,297,197901,1,2,0:0:0:0:
226,297,198089,1,2,3:2:0:0:
227,197,198464,1,10,0:0:0:0:
142,142,198839,6,0,P|117:144|94:154,1,50,2|2,3:2|0:0,0:0:0:0:
57,187,199214,2,0,P|32:186|9:176,1,50,10|2,0:0|0:0,0:0:0:0:
1,126,199589,2,0,L|9:77,1,50,2|2,3:2|0:0,0:0:0:0:
22,28,199964,1,10,0:0:0:0:
121,8,200339,2,0,P|163:34|211:45,1,100,2|10,3:2|0:0,0:0:0:0:
264,130,201089,2,0,P|215:140|173:167,1,100,2|10,3:2|0:0,0:0:0:0:
132,259,201839,6,0,P|139:282|153:303,1,50,2|2,3:2|0:0,0:0:0:0:
160,352,202214,2,0,P|182:363|206:368,1,50,10|2,0:0|0:0,0:0:0:0:
254,383,202589,2,0,P|277:376|298:362,1,50,2|2,3:2|0:0,0:0:0:0:
347,353,202964,2,0,P|358:331|363:307,1,50,10|2,0:0|0:0,0:0:0:0:
256,192,203339,12,0,204839,0:0:0:0:
