osu file format v14

[General]
AudioFilename: audio.mp3
AudioLeadIn: 0
PreviewTime: 60651
Countdown: 0
SampleSet: Soft
StackLeniency: 0.4
Mode: 0
LetterboxInBreaks: 0
WidescreenStoryboard: 1

[Editor]
DistanceSpacing: 0.4
BeatDivisor: 8
GridSize: 16
TimelineZoom: 2.2

[Metadata]
Title:Digital Life Hacker
TitleUnicode:Digital Life Hacker
Artist:wotoha
ArtistUnicode:をとは
Creator:climbx3145
Version:Kuse's Hard
Source:
Tags:Neko Hacker jelly girl electronic Japanese pop j-pop jpop 海月ねう mitukineu featured artist fa Kuse KuBsNia_ZhoYL_
BeatmapID:3122547
BeatmapSetID:1516617

[Difficulty]
HPDrainRate:4
CircleSize:3.5
OverallDifficulty:7
ApproachRate:8
SliderMultiplier:1.4
SliderTickRate:1

[Events]
//Background and Video events
0,0,"bg.jpg",0,0
Video,-360,"Video.mp4"
//Break Periods
2,157039,162089
2,169589,174089
//Storyboard Layer 0 (Background)
//Storyboard Layer 1 (Fail)
//Storyboard Layer 2 (Pass)
//Storyboard Layer 3 (Foreground)
//Storyboard Layer 4 (Overlay)
//Storyboard Sound Samples

[TimingPoints]
839,375,4,2,1,50,1,0
839,-111.111111111111,4,2,1,50,0,0
12839,-100,4,2,1,70,0,0
24839,-111.111111111111,4,2,1,50,0,0
36839,-111.111111111111,4,2,1,60,0,0
48839,-125,4,2,1,50,0,0
54839,-111.111111111111,4,2,1,60,0,0
60745,-111.111111111111,4,2,1,60,0,0
60839,-90.9090909090909,4,2,1,80,0,1
72839,-90.9090909090909,4,2,1,60,0,0
73214,-90.9090909090909,4,2,1,80,0,1
84839,-100,4,2,1,70,0,0
96839,-111.111111111111,4,2,1,40,0,0
102839,-100,4,2,1,60,0,0
108839,-111.111111111111,4,2,1,50,0,0
114839,-100,4,2,1,60,0,0
120745,-100,4,2,1,60,0,0
120839,-90.9090909090909,4,2,1,80,0,1
132839,-90.9090909090909,4,2,1,60,0,0
133214,-90.9090909090909,4,2,1,80,0,1
144839,-90.9090909090909,4,2,1,70,0,0
147745,-90.9090909090909,4,2,1,70,0,0
147839,-90.9090909090909,4,2,1,70,0,0
156839,-90.9090909090909,4,2,1,60,0,0
162839,-100,4,2,1,60,0,0
164245,-100,4,2,1,60,0,0
164339,-100,4,2,1,60,0,0
165745,-100,4,2,1,60,0,0
165839,-100,4,2,1,60,0,0
168839,-100,4,2,1,40,0,0
174839,-111.111111111111,4,2,1,60,0,0
179339,-111.111111111111,4,2,1,70,0,0
181214,-90.9090909090909,4,2,1,80,0,1
192839,-90.9090909090909,4,2,1,76,0,0
204089,-90.9090909090909,4,2,1,56,0,0

[Colours]
Combo1 : 255,176,176
Combo2 : 151,203,255
Combo3 : 179,179,255

[HitObjects]
70,81,839,6,0,P|100:91|131:102,1,62.9999980773926,2|0,3:2|0:0,0:0:0:0:
201,153,1214,2,0,P|243:144|281:139,1,62.9999980773926,2|0,0:0|0:0,0:0:0:0:
338,95,1589,2,0,P|353:60|362:30,2,62.9999980773926,2|0|2,0:0|0:0|0:0,0:0:0:0:
348,182,2151,1,2,0:0:0:0:
418,129,2339,6,0,P|457:124|495:122,1,62.9999980773926,2|2,0:0|0:0,0:0:0:0:
450,205,2714,2,0,P|489:200|527:198,1,62.9999980773926,2|2,0:0|0:0,0:0:0:0:
492,284,3089,1,0,0:0:0:0:
492,284,3464,2,0,P|487:309|483:340,3,31.4999990386963,2|2|2|2,0:0|0:0|0:0|0:0,0:0:0:0:
452,343,3839,6,0,P|411:334|369:322,1,62.9999980773926,2|0,0:0|0:0,0:0:0:0:
318,277,4214,2,0,P|272:285|241:294,1,62.9999980773926,2|0,0:0|0:0,0:0:0:0:
175,252,4589,2,0,P|160:224|138:197,2,62.9999980773926,2|0|2,0:0|0:0|0:0,0:0:0:0:
238,190,5151,6,0,P|248:150|275:64,1,125.999996154785,2|2,0:0|0:0,0:0:0:0:
344,17,5714,1,2,0:0:0:0:
409,76,5901,2,0,P|441:87|485:94,1,62.9999980773926,2|0,0:0|0:0,0:0:0:0:
501,175,6276,1,2,0:0:0:0:
420,211,6464,2,0,P|389:205|367:195,3,31.4999990386963,2|2|2|2,0:0|0:0|0:0|0:0,0:0:0:0:
348,222,6839,6,0,P|333:260|322:298,1,62.9999980773926,10|0,0:1|0:0,0:0:0:0:
244,248,7214,2,0,P|235:212|223:180,1,62.9999980773926,10|2,0:1|0:0,0:0:0:0:
144,153,7589,2,0,P|114:158|72:169,1,62.9999980773926,10|0,0:1|0:0,0:0:0:0:
55,81,7964,2,0,P|86:75|116:68,1,62.9999980773926,10|0,0:1|0:0,0:0:0:0:
187,15,8339,6,0,P|227:26|258:44,1,62.9999980773926,10|2,0:1|0:0,0:0:0:0:
318,86,8714,2,0,P|366:76|397:58,1,62.9999980773926,10|2,0:1|0:0,0:0:0:0:
451,119,9089,2,0,P|438:161|433:193,1,62.9999980773926,8|2,0:1|0:0,0:0:0:0:
352,212,9464,1,10,0:1:0:0:
422,265,9651,6,0,P|361:256|301:306,1,125.999996154785,2|10,0:0|0:1,0:0:0:0:
261,364,10214,1,10,0:1:0:0:
184,320,10401,1,10,0:1:0:0:
234,247,10589,2,0,P|251:219|263:188,2,62.9999980773926,10|10|10,0:1|0:1|0:1,0:0:0:0:
146,234,11151,1,10,0:1:0:0:
103,156,11339,5,8,0:1:0:0:
107,131,11432,1,0,3:3:0:0:
111,106,11526,1,0,3:3:0:0:
115,81,11620,1,0,3:3:0:0:
121,56,11714,2,0,L|128:23,3,31.4999990386963,0|0|0|0,3:3|3:3|3:3|3:3,0:0:0:0:
127,25,12276,2,0,P|92:33|57:39,2,62.9999980773926,2|2|2,0:0|0:0|0:0,0:0:0:0:
244,0,12839,6,0,P|248:40|226:89,1,70,6|2,3:1|0:0,0:0:0:0:
173,130,13214,2,0,P|169:170|191:219,1,70,10|2,0:0|0:0,0:0:0:0:
260,235,13589,2,0,P|299:226|333:216,1,70,2|0,3:2|0:0,0:0:0:0:
352,129,13964,2,0,P|313:138|279:148,1,70,10|0,0:0|0:0,0:0:0:0:
173,130,14339,6,0,P|133:120|84:111,1,70,2|0,3:2|0:0,0:0:0:0:
118,204,14714,2,0,P|78:194|29:185,1,70,10|0,0:0|0:0,0:0:0:0:
157,280,15089,2,0,P|195:273|228:265,1,70,2|0,3:2|0:0,0:0:0:0:
207,355,15464,2,0,P|245:348|278:340,1,70,10|0,0:0|0:0,0:0:0:0:
366,318,15839,5,2,3:2:0:0:
366,318,16026,1,2,0:0:0:0:
304,250,16214,1,10,0:0:0:0:
304,250,16401,1,2,0:0:0:0:
362,180,16589,2,0,P|406:187|454:198,1,70,2|0,3:2|0:0,0:0:0:0:
473,111,16964,2,0,P|438:104|404:98,1,70,10|0,0:0|0:0,0:0:0:0:
294,123,17339,6,0,P|280:76|273:45,1,70,2|2,3:2|0:0,0:0:0:0:
204,112,17714,2,0,P|190:65|183:34,1,70,10|2,0:0|0:0,0:0:0:0:
127,159,18089,2,0,P|115:196|109:234,1,70,2|0,3:2|0:0,0:0:0:0:
36,171,18464,2,0,P|24:208|18:246,1,70,10|0,0:0|0:0,0:0:0:0:
78,307,18839,5,2,3:2:0:0:
78,307,19026,1,2,0:0:0:0:
154,257,19214,1,10,0:0:0:0:
154,257,19401,1,2,0:0:0:0:
228,309,19589,2,0,P|239:345|246:380,2,70,2|2|10,3:2|0:0|0:0,0:0:0:0:
234,218,20151,1,0,0:0:0:0:
317,295,20339,6,0,P|354:308|394:317,1,70,2|0,3:2|0:0,0:0:0:0:
373,224,20714,2,0,P|410:237|450:246,1,70,10|0,0:0|0:0,0:0:0:0:
380,140,21089,2,0,P|338:150|301:164,1,70,2|0,3:2|0:0,0:0:0:0:
324,68,21464,2,0,P|282:78|245:92,1,70,10|0,0:0|0:0,0:0:0:0:
173,49,21839,6,0,P|140:42|93:36,1,70,2|2,3:2|0:0,0:0:0:0:
31,92,22214,2,0,P|24:125|18:172,1,70,10|2,0:0|0:0,0:0:0:0:
76,232,22589,2,0,P|109:239|156:245,1,70,2|2,3:2|0:0,0:0:0:0:
219,191,22964,2,0,P|226:158|232:111,1,70,10|2,0:0|0:0,0:0:0:0:
245,32,23339,6,0,L|288:49,3,35,0|0|0|0,3:2|3:2|3:2|3:2,0:0:0:0:
319,26,23714,2,0,L|363:12,3,35,8|0|0|0,0:0|3:2|3:2|3:2,0:0:0:0:
391,39,24089,6,0,L|379:93,7,35,0|0|0|0|8|0|0|0,3:2|3:2|3:2|3:2|0:0|3:2|3:2|3:2,0:0:0:0:
370,116,24839,5,6,3:2:0:0:
370,116,25589,2,0,P|423:112|456:70,2,94.499997116089,2|2|2,3:2|3:2|3:2,0:0:0:0:
330,197,27089,2,0,P|274:197|240:237,2,94.499997116089,2|2|2,3:2|3:2|3:2,0:0:0:0:
404,269,28589,2,0,P|421:234|436:178,2,94.499997116089,2|2|2,3:2|3:2|3:2,0:0:0:0:
404,269,29714,5,2,3:2:0:0:
323,303,30089,1,2,3:2:0:0:
245,259,30464,2,0,P|212:254|136:249,1,94.499997116089,10|0,3:1|0:0,0:0:0:0:
110,249,30839,5,2,3:2:0:0:
110,249,31589,2,0,P|54:238|27:208,2,94.499997116089,2|2|2,3:2|3:2|3:2,0:0:0:0:
161,169,33089,2,0,P|206:167|241:129,2,94.499997116089,2|2|2,3:2|3:2|3:2,0:0:0:0:
97,99,34589,2,0,P|84:56|64:3,2,94.499997116089,2|2|2,3:2|3:2|3:2,0:0:0:0:
97,99,35714,5,2,3:2:0:0:
175,59,36089,1,2,3:2:0:0:
244,113,36464,2,0,P|278:123|339:95,1,94.499997116089,2|0,3:2|0:0,0:0:0:0:
366,80,36839,6,0,P|402:90|432:100,1,62.9999980773926,6|2,3:2|0:0,0:0:0:0:
502,142,37214,1,10,0:0:0:0:
480,227,37401,1,2,0:0:0:0:
393,245,37589,2,0,P|349:236|306:217,1,62.9999980773926,2|0,3:2|0:0,0:0:0:0:
294,217,37870,1,2,0:0:0:0:
294,217,37964,1,8,0:0:0:0:
227,274,38151,6,0,P|177:264|92:253,1,125.999996154785,2|2,0:0|0:0,0:0:0:0:
33,199,38714,1,10,0:0:0:0:
51,112,38901,1,2,0:0:0:0:
125,159,39089,2,0,P|167:151|206:129,1,62.9999980773926,2|0,3:2|0:0,0:0:0:0:
223,120,39370,1,2,0:0:0:0:
223,120,39464,1,8,0:0:0:0:
185,40,39651,6,0,P|231:33|305:83,1,125.999996154785,2|2,0:0|0:0,0:0:0:0:
318,109,40120,1,0,0:0:0:0:
318,109,40214,2,0,P|300:142|300:183,1,62.9999980773926,10|0,0:0|0:0,0:0:0:0:
360,229,40589,2,0,L|429:219,1,62.9999980773926,2|0,3:2|0:0,0:0:0:0:
512,204,40964,1,8,0:0:0:0:
486,303,41151,6,0,L|342:324,1,125.999996154785,2|0,0:0|0:0,0:0:0:0:
318,330,41620,1,0,0:0:0:0:
318,330,41714,2,0,L|326:268,1,62.9999980773926,10|0,0:0|0:0,0:0:0:0:
238,277,42089,2,0,L|246:215,1,62.9999980773926,2|0,3:2|0:0,0:0:0:0:
180,155,42464,2,0,P|132:158|100:211,1,94.499997116089,10|0,0:0|0:0,0:0:0:0:
79,228,42839,6,0,P|69:171|64:148,1,62.9999980773926,6|2,3:2|0:0,0:0:0:0:
46,80,43214,1,10,0:0:0:0:
134,53,43401,1,2,0:0:0:0:
134,53,43495,1,2,0:0:0:0:
134,53,43589,2,0,P|168:43|223:33,1,62.9999980773926,2|0,3:2|0:0,0:0:0:0:
274,84,43964,1,8,0:0:0:0:
350,38,44151,6,0,P|366:78|318:167,1,125.999996154785,2|2,0:0|0:0,0:0:0:0:
252,174,44714,1,10,0:0:0:0:
246,261,44901,1,0,0:0:0:0:
182,319,45089,2,0,P|138:309|101:303,1,62.9999980773926,2|0,3:2|0:0,0:0:0:0:
76,307,45370,1,2,0:0:0:0:
76,307,45464,1,8,0:0:0:0:
19,236,45651,6,0,P|37:194|125:192,1,125.999996154785,2|2,0:0|0:0,0:0:0:0:
150,210,46120,1,0,0:0:0:0:
150,210,46214,1,10,0:0:0:0:
228,250,46401,1,2,0:0:0:0:
299,198,46589,2,0,P|311:153|321:108,1,62.9999980773926,2|0,3:2|0:0,0:0:0:0:
320,93,46870,1,2,0:0:0:0:
320,93,46964,1,8,0:0:0:0:
378,27,47151,1,2,0:0:0:0:
445,83,47339,6,0,L|437:129,3,31.4999990386963,0|0|0|0,3:0|3:0|3:0|3:0,0:0:0:0:
433,153,47714,2,0,P|441:198|452:233,1,62.9999980773926,8|0,0:0|0:0,0:0:0:0:
492,289,48089,2,0,P|482:331|469:366,1,62.9999980773926,2|0,3:2|0:0,0:0:0:0:
389,368,48464,2,0,P|350:354|315:351,1,62.9999980773926,10|0,0:0|0:0,0:0:0:0:
246,277,48839,6,0,P|255:216|288:105,1,168,6|0,3:1|3:2,0:0:0:0:
324,39,49589,1,8,0:0:0:0:
324,39,50151,1,0,3:2:0:0:
247,2,50339,1,0,0:0:0:0:
195,67,50526,2,0,P|151:86|119:88,1,56,0|0,3:2|0:0,0:0:0:0:
61,65,50901,1,0,3:2:0:0:
61,65,50995,1,0,3:2:0:0:
61,65,51089,2,0,P|61:123|95:161,1,112,8|0,0:0|0:0,0:0:0:0:
174,189,51651,1,0,0:0:0:0:
249,151,51839,6,0,P|321:168|377:188,2,112,0|0|8,3:2|0:0|0:0,0:0:0:0:
174,189,52776,1,0,0:0:0:0:
182,272,52964,1,0,0:0:0:0:
112,319,53151,2,0,P|57:305|46:246,1,112,0|0,3:2|3:2,0:0:0:0:
83,182,53714,2,0,P|92:150|97:123,1,56,0|0,0:0|3:2,0:0:0:0:
93,85,53995,1,0,3:2:0:0:
93,85,54089,2,0,P|134:92|215:109,1,112,8|0,0:0|0:0,0:0:0:0:
280,139,54651,1,0,0:0:0:0:
364,71,54839,6,0,P|376:38|385:-4,1,62.9999980773926,6|0,3:2|0:0,0:0:0:0:
451,66,55214,2,0,P|458:116|471:145,1,62.9999980773926,2|2,3:2|0:0,0:0:0:0:
491,167,55495,1,8,0:1:0:0:
491,167,55589,2,0,P|460:203|386:205,1,125.999996154785,0|0,3:2|3:2,0:0:0:0:
303,171,56151,1,2,0:0:0:0:
237,229,56339,6,0,P|192:222|148:213,1,62.9999980773926,2|2,3:2|0:0,0:0:0:0:
97,176,56714,1,10,3:1:0:0:
37,240,56901,1,2,0:0:0:0:
37,240,56995,1,8,0:1:0:0:
37,240,57089,2,0,P|36:301|108:315,1,125.999996154785,2|8,3:2|3:1,0:0:0:0:
167,282,57651,1,2,0:0:0:0:
238,333,57839,6,0,P|284:326|310:318,1,62.9999980773926,2|10,3:2|0:1,0:0:0:0:
352,250,58214,1,10,3:1:0:0:
352,250,58401,1,8,0:1:0:0:
283,194,58589,2,0,P|270:158|262:113,1,62.9999980773926,2|8,3:2|0:1,0:0:0:0:
324,68,58964,1,2,3:2:0:0:
351,73,59057,1,0,0:0:0:0:
378,81,59151,1,10,0:1:0:0:
405,89,59245,1,0,0:0:0:0:
431,100,59339,6,0,L|444:137,3,31.4999990386963,2|8|8|8,3:2|0:1|0:1|0:1,0:0:0:0:
474,158,59714,2,0,L|455:186,3,31.4999990386963,2|8|8|8,3:2|0:1|0:1|0:1,0:0:0:0:
426,216,60089,1,2,0:0:0:0:
426,216,60464,2,0,P|431:280|468:291,1,94.499997116089,8|0,0:0|0:0,0:0:0:0:
495,300,60839,6,0,P|447:317|402:338,1,77.0000023498536,6|0,3:1|0:0,0:0:0:0:
339,382,61214,2,0,P|298:368|243:355,1,77.0000023498536,10|0,0:0|0:0,0:0:0:0:
195,287,61589,2,0,P|207:235|220:192,1,77.0000023498536,2|2,3:2|0:0,0:0:0:0:
258,190,61870,2,0,P|298:203|337:213,1,77.0000023498536,0|0,0:0|0:0,0:0:0:0:
376,189,62151,6,0,P|393:147|293:133,1,154.000004699707,2|2,0:0|0:0,0:0:0:0:
258,190,62714,1,10,0:0:0:0:
178,129,62901,2,0,B|123:138|123:138|87:170|87:170|27:180,1,154.000004699707,2|2,0:0|0:0,0:0:0:0:
0,184,63370,1,0,0:0:0:0:
0,184,63464,1,10,0:0:0:0:
20,281,63651,6,0,P|82:277|105:257,1,77.0000023498536,2|0,0:0|3:2,0:0:0:0:
181,222,64026,1,2,0:0:0:0:
181,222,64120,1,0,0:0:0:0:
181,222,64214,1,10,0:0:0:0:
228,309,64401,2,0,P|260:333|316:338,1,77.0000023498536,2|0,0:0|3:2,0:0:0:0:
387,298,64776,1,2,0:0:0:0:
301,244,64964,1,10,0:0:0:0:
368,170,65151,6,0,P|357:127|323:15,1,154.000004699707,2|2,0:0|0:0,0:0:0:0:
225,7,65714,1,10,0:0:0:0:
254,102,65901,1,2,0:0:0:0:
170,158,66089,2,0,P|116:149|75:140,1,77.0000023498536,2|0,3:2|0:0,0:0:0:0:
0,121,66464,1,10,0:0:0:0:
0,121,66651,1,2,0:0:0:0:
20,242,66839,6,0,P|71:235|115:219,1,77.0000023498536,2|0,3:2|0:0,0:0:0:0:
170,158,67214,2,0,P|186:116|205:76,1,77.0000023498536,10|0,0:0|0:0,0:0:0:0:
294,54,67589,2,0,P|331:70|396:86,1,77.0000023498536,2|0,3:2|0:0,0:0:0:0:
404,113,67870,2,0,P|387:161|371:189,1,77.0000023498536,2|0,0:0|0:0,0:0:0:0:
338,218,68151,1,2,0:0:0:0:
401,295,68339,5,2,3:2:0:0:
401,295,68526,1,2,0:0:0:0:
323,359,68714,1,10,0:0:0:0:
261,280,68901,2,0,B|185:297|208:368|133:380,1,154.000004699707,2|2,0:0|0:0,0:0:0:0:
96,377,69370,1,0,0:0:0:0:
96,377,69464,1,10,0:0:0:0:
15,317,69651,6,0,P|27:265|39:218,1,77.0000023498536,2|0,0:0|3:2,0:0:0:0:
113,182,70026,1,2,0:0:0:0:
113,182,70120,1,0,0:0:0:0:
113,182,70213,1,10,0:0:0:0:
43,109,70401,2,0,P|124:130|205:140,1,154.000004699707,2|2,0:0|0:0,0:0:0:0:
290,111,70964,1,10,0:0:0:0:
348,191,71151,1,2,0:0:0:0:
272,257,71339,6,0,L|281:310,3,38.5000011749268,0|0|0|0,3:2|3:2|3:2|3:2,0:0:0:0:
314,330,71714,2,0,L|373:318,3,38.5000011749268,8|0|0|0,0:0|3:2|3:2|3:2,0:0:0:0:
388,288,72089,6,0,L|440:303,7,38.5000011749268,0|0|0|0|8|0|0|0,3:2|3:2|3:2|3:2|0:0|3:2|3:2|3:2,0:0:0:0:
467,272,72839,5,0,0:0:0:0:
467,272,73214,2,0,P|456:231|446:162,1,77.0000023498536,6|0,3:1|0:0,0:0:0:0:
360,151,73589,2,0,P|306:170|266:189,1,77.0000023498536,2|0,3:2|0:0,0:0:0:0:
242,199,73870,1,2,0:0:0:0:
242,199,73964,1,8,0:0:0:0:
176,123,74151,6,0,P|92:142|85:210,1,154.000004699707,2|2,0:0|0:0,0:0:0:0:
166,253,74714,1,10,0:0:0:0:
143,350,74901,2,0,B|200:341|200:341|238:310|238:310|293:300,1,154.000004699707,2|2,0:0|0:0,0:0:0:0:
335,301,75370,1,0,0:0:0:0:
335,301,75464,1,10,0:0:0:0:
372,208,75651,6,0,P|318:196|293:192,1,77.0000023498536,2|0,0:0|3:2,0:0:0:0:
226,120,76026,1,2,0:0:0:0:
226,120,76120,1,0,0:0:0:0:
226,120,76214,1,10,0:0:0:0:
305,60,76401,2,0,P|342:66|380:75,1,77.0000023498536,2|0,0:0|3:2,0:0:0:0:
477,100,76776,1,2,0:0:0:0:
420,182,76964,1,10,0:0:0:0:
469,268,77151,6,0,P|411:283|333:229,1,154.000004699707,2|2,0:0|0:0,0:0:0:0:
264,163,77714,1,10,0:0:0:0:
230,258,77901,1,2,0:0:0:0:
156,189,78089,2,0,P|141:149|129:108,1,77.0000023498536,2|0,3:2|0:0,0:0:0:0:
165,21,78464,1,10,0:0:0:0:
165,21,78651,1,2,0:0:0:0:
236,122,78839,6,0,P|276:114|319:101,1,77.0000023498536,2|0,3:2|0:0,0:0:0:0:
378,29,79214,1,10,0:0:0:0:
451,96,79401,1,2,0:0:0:0:
426,193,79589,2,0,P|442:248|459:293,2,77.0000023498536,2|2|10,3:2|0:0|0:0,0:0:0:0:
347,255,80151,6,0,P|294:242|192:228,1,154.000004699707,2|2,0:0|0:0,0:0:0:0:
98,256,80714,1,10,0:0:0:0:
22,190,80901,2,0,P|17:129|109:118,1,154.000004699707,2|2,0:0|0:0,0:0:0:0:
138,130,81370,1,0,0:0:0:0:
138,130,81464,1,10,0:0:0:0:
202,53,81651,6,0,P|254:40|291:27,1,77.0000023498536,2|0,0:0|3:2,0:0:0:0:
374,11,82026,1,2,0:0:0:0:
334,103,82214,1,10,0:0:0:0:
334,103,82401,1,2,0:0:0:0:
422,151,82589,2,0,P|475:168|522:187,2,77.0000023498536,2|2|10,3:2|0:0|0:0,0:0:0:0:
332,196,83151,1,2,0:0:0:0:
407,261,83339,6,0,L|414:311,3,38.5000011749268,0|0|0|0,3:2|3:2|3:2|3:2,0:0:0:0:
370,326,83714,2,0,L|329:315,3,38.5000011749268,8|0|0|0,0:0|3:2|3:2|3:2,0:0:0:0:
285,299,84089,6,0,L|231:318,7,38.5000011749268,0|0|0|0|8|0|0|0,3:2|3:2|3:2|3:2|0:0|3:2|3:2|3:2,0:0:0:0:
205,285,84839,6,0,P|213:233|219:204,1,70,6|2,3:2|0:0,0:0:0:0:
276,146,85214,2,0,P|268:94|262:65,1,70,10|2,0:0|0:0,0:0:0:0:
182,37,85589,2,0,P|143:46|109:56,1,70,2|0,3:2|0:0,0:0:0:0:
59,127,85964,2,0,P|92:136|126:144,1,70,10|0,0:0|0:0,0:0:0:0:
216,215,86339,6,0,P|225:174|241:127,1,70,2|0,3:2|0:0,0:0:0:0:
307,201,86714,2,0,P|316:160|332:113,1,70,10|0,0:0|0:0,0:0:0:0:
394,233,87089,2,0,P|407:269|417:301,1,70,2|0,3:2|0:0,0:0:0:0:
483,236,87464,2,0,P|496:272|506:304,1,70,10|0,0:0|0:0,0:0:0:0:
458,381,87839,5,2,3:2:0:0:
458,381,88026,1,2,0:0:0:0:
386,322,88214,1,10,0:0:0:0:
386,322,88401,1,2,0:0:0:0:
307,368,88589,2,0,P|263:361|215:350,1,70,2|0,3:2|0:0,0:0:0:0:
180,284,88964,2,0,P|215:277|249:271,1,70,10|0,0:0|0:0,0:0:0:0:
324,188,89339,6,0,P|338:141|345:110,1,70,2|2,3:2|0:0,0:0:0:0:
414,177,89714,2,0,P|428:130|435:99,1,70,10|2,0:0|0:0,0:0:0:0:
351,40,90089,2,0,P|339:77|333:115,1,70,2|0,3:2|0:0,0:0:0:0:
260,52,90464,2,0,P|248:89|242:127,1,70,10|0,0:0|0:0,0:0:0:0:
218,210,90839,5,2,3:2:0:0:
218,210,91026,1,2,0:0:0:0:
136,159,91214,1,10,0:0:0:0:
136,159,91401,1,2,0:0:0:0:
81,231,91589,2,0,P|36:248|-13:259,2,70,2|2|10,3:2|0:0|0:0,0:0:0:0:
155,282,92151,1,0,0:0:0:0:
232,202,92339,6,0,P|271:212|309:224,1,70,2|0,3:2|0:0,0:0:0:0:
288,131,92714,2,0,P|326:139|365:153,1,70,10|0,0:0|0:0,0:0:0:0:
456,219,93089,2,0,P|421:226|388:237,1,70,2|0,3:2|0:0,0:0:0:0:
512,291,93464,2,0,P|477:298|444:309,1,70,10|0,0:0|0:0,0:0:0:0:
353,374,93839,6,0,P|318:369|284:362,1,70,2|2,3:2|0:0,0:0:0:0:
226,288,94214,2,0,P|230:253|237:219,1,70,10|2,0:0|0:0,0:0:0:0:
312,167,94589,2,0,P|346:171|380:178,1,70,2|2,3:2|0:0,0:0:0:0:
438,250,94964,2,0,P|433:284|426:318,1,70,10|2,0:0|0:0,0:0:0:0:
353,374,95339,6,0,L|305:388,3,35,2|0|0|0,3:2|3:2|3:2|3:2,0:0:0:0:
280,360,95714,2,0,L|236:346,3,35,8|0|0|0,0:0|3:2|3:2|3:2,0:0:0:0:
222,310,96089,6,0,L|231:253,7,35,0|0|0|0|8|0|0|0,3:2|3:2|3:2|3:2|0:0|3:2|3:2|3:2,0:0:0:0:
234,230,96839,5,6,3:2:0:0:
234,230,97589,2,0,P|291:221|356:214,2,94.499997116089,0|0|0,0:0|0:0|0:0,0:0:0:0:
234,230,98526,1,0,0:0:0:0:
215,145,98714,2,0,P|206:100|199:66,1,62.9999980773926,0|0,0:0|0:0,0:0:0:0:
120,49,99089,6,0,P|105:108|92:166,2,94.499997116089,0|0|0,0:0|0:0|0:0,0:0:0:0:
128,57,100026,1,0,0:0:0:0:
128,57,100120,1,0,0:0:0:0:
128,57,100214,2,0,P|76:75|45:89,1,62.9999980773926,0|0,0:0|0:0,0:0:0:0:
43,162,100589,2,0,P|93:176|164:188,2,94.499997116089,0|0|0,0:0|0:0|0:0,0:0:0:0:
43,162,101526,2,0,L|52:114,1,31.4999990386963,0|0,0:0|0:0,0:0:0:0:
58,85,101714,5,0,0:0:0:0:
246,86,102089,1,0,0:0:0:0:
434,88,102464,2,0,P|437:135|373:156,1,94.499997116089,0|0,0:0|0:0,0:0:0:0:
367,190,102839,6,0,P|376:241|384:272,1,70,2|2,3:2|0:0,0:0:0:0:
309,326,103214,2,0,P|272:321|237:315,1,70,10|2,0:0|0:0,0:0:0:0:
177,239,103589,1,2,3:2:0:0:
108,302,103776,1,0,0:0:0:0:
108,302,103870,1,2,0:0:0:0:
108,302,103964,1,8,0:0:0:0:
31,241,104151,6,0,P|51:184|81:100,1,140,2|2,0:0|0:0,0:0:0:0:
132,26,104714,1,10,0:0:0:0:
201,109,104901,1,2,0:0:0:0:
201,109,104995,1,2,0:0:0:0:
201,109,105089,2,0,P|241:102|272:91,1,70,2|0,3:2|0:0,0:0:0:0:
358,52,105464,1,8,0:0:0:0:
447,91,105651,6,0,P|473:154|427:232,1,140,2|2,0:0|0:0,0:0:0:0:
416,257,106120,1,0,0:0:0:0:
416,257,106214,1,10,0:0:0:0:
348,186,106401,1,2,0:0:0:0:
272,248,106589,2,0,P|216:237|177:231,1,70,2|0,3:2|0:0,0:0:0:0:
159,225,106870,1,2,0:0:0:0:
159,225,106964,1,8,0:0:0:0:
81,284,107151,1,2,0:0:0:0:
151,352,107339,6,0,L|198:341,3,35,0|0|0|0,3:0|3:0|3:0|3:0,0:0:0:0:
224,373,107714,2,0,P|265:378|298:386,1,70,10|0,0:0|0:0,0:0:0:0:
386,353,108089,2,0,P|383:310|341:287,1,70,2|0,3:2|0:0,0:0:0:0:
267,280,108464,2,0,P|278:231|300:190,1,70,10|0,0:0|0:0,0:0:0:0:
382,149,108839,6,0,P|469:167|422:234,1,188.999994232178,6|2,3:1|3:2,0:0:0:0:
354,267,109589,1,10,0:0:0:0:
354,267,110151,2,0,P|314:261|279:258,1,62.9999980773926,2|0,3:2|0:0,0:0:0:0:
210,318,110526,1,0,3:2:0:0:
210,318,110620,1,0,3:2:0:0:
210,318,110714,1,0,0:0:0:0:
140,245,110901,1,0,3:2:0:0:
219,192,111089,2,0,P|235:144|249:57,1,125.999996154785,8|0,0:0|0:0,0:0:0:0:
170,16,111651,6,0,P|136:27|100:40,1,62.9999980773926,0|0,0:0|3:2,0:0:0:0:
37,96,112026,1,0,0:0:0:0:
37,96,112214,2,0,P|46:130|54:166,1,62.9999980773926,0|0,0:0|3:2,0:0:0:0:
87,244,112589,1,8,0:0:0:0:
152,176,112776,1,0,0:0:0:0:
199,257,112964,1,0,0:0:0:0:
261,186,113151,6,0,P|279:153|291:126,1,62.9999980773926,0|0,3:2|0:0,0:0:0:0:
355,62,113526,1,0,3:2:0:0:
355,62,113620,1,0,3:2:0:0:
355,62,113714,2,0,P|393:69|435:81,1,62.9999980773926,0|0,3:0|3:2,0:0:0:0:
473,150,114089,2,0,P|450:209|429:276,1,125.999996154785,8|0,0:0|0:0,0:0:0:0:
357,325,114651,1,0,0:0:0:0:
261,254,114839,5,8,3:1:0:0:
261,254,115026,1,8,0:1:0:0:
324,188,115214,1,8,0:1:0:0:
324,188,115401,1,8,0:1:0:0:
271,113,115589,1,0,3:1:0:0:
138,39,116339,5,8,3:1:0:0:
138,39,116526,1,8,0:1:0:0:
75,105,116714,1,8,0:1:0:0:
75,105,116901,1,8,0:1:0:0:
128,180,117089,1,0,3:1:0:0:
128,180,117839,6,0,P|140:215|146:253,1,70,0|8,3:1|0:1,0:0:0:0:
131,337,118214,1,0,3:1:0:0:
219,357,118401,1,8,0:1:0:0:
242,268,118589,2,0,P|260:224|278:200,1,70,0|8,3:1|0:1,0:0:0:0:
347,153,118964,1,0,3:1:0:0:
343,128,119057,1,0,0:0:0:0:
337,104,119151,1,8,0:1:0:0:
332,79,119245,1,0,0:0:0:0:
326,55,119339,6,0,L|284:37,3,35,0|8|8|8,3:1|0:1|0:1|0:1,0:0:0:0:
253,63,119714,2,0,L|213:73,3,35,0|8|8|8,3:1|0:1|0:1|0:1,0:0:0:0:
178,51,120089,1,2,0:0:0:0:
178,51,120464,2,0,P|191:84|208:157,1,105,8|0,0:0|0:0,0:0:0:0:
212,201,120839,6,0,P|257:194|299:179,1,77.0000023498536,6|0,3:1|0:0,0:0:0:0:
373,134,121214,2,0,P|417:144|457:158,1,77.0000023498536,10|0,0:0|0:0,0:0:0:0:
503,237,121589,2,0,P|491:289|478:332,1,77.0000023498536,2|2,3:2|0:0,0:0:0:0:
440,334,121870,2,0,P|400:321|361:311,1,77.0000023498536,0|0,0:0|0:0,0:0:0:0:
327,280,122151,6,0,B|256:293|276:368|204:369,1,154.000004699707,2|2,0:0|0:0,0:0:0:0:
113,339,122714,1,10,0:0:0:0:
192,278,122901,2,0,P|201:203|219:113,1,154.000004699707,2|2,0:0|0:0,0:0:0:0:
229,80,123370,1,0,0:0:0:0:
229,80,123464,1,10,0:0:0:0:
313,26,123651,6,0,P|328:65|325:109,1,77.0000023498536,2|0,0:0|3:2,0:0:0:0:
313,205,124026,1,2,0:0:0:0:
313,205,124120,1,0,0:0:0:0:
313,205,124214,1,10,0:0:0:0:
294,303,124401,2,0,P|337:305|389:270,1,77.0000023498536,2|0,0:0|3:2,0:0:0:0:
429,212,124776,1,2,0:0:0:0:
410,113,124964,1,10,0:0:0:0:
476,38,125151,6,0,P|389:71|308:91,1,154.000004699707,2|2,0:0|0:0,0:0:0:0:
231,105,125714,1,10,0:0:0:0:
243,5,125901,1,2,0:0:0:0:
154,53,126089,2,0,P|118:47|77:40,1,77.0000023498536,2|0,3:2|0:0,0:0:0:0:
51,136,126464,2,0,P|87:142|128:149,1,77.0000023498536,10|0,0:0|0:0,0:0:0:0:
188,227,126839,6,0,P|173:264|174:314,1,77.0000023498536,2|0,3:2|0:0,0:0:0:0:
234,378,127214,1,10,0:0:0:0:
278,288,127401,1,0,0:0:0:0:
366,338,127589,2,0,P|418:326|454:307,1,77.0000023498536,2|0,3:2|0:0,0:0:0:0:
460,270,127870,2,0,P|442:233|434:193,1,77.0000023498536,2|0,0:0|0:0,0:0:0:0:
452,151,128151,6,0,P|425:101|318:113,1,154.000004699707,2|2,0:0|0:0,0:0:0:0:
253,155,128714,1,10,0:0:0:0:
182,83,128901,2,0,P|203:144|220:250,1,154.000004699707,2|2,0:0|0:0,0:0:0:0:
215,286,129370,1,0,0:0:0:0:
215,286,129464,1,10,0:0:0:0:
119,315,129651,1,2,0:0:0:0:
203,368,129839,6,0,P|248:376|282:381,1,77.0000023498536,0|2,3:2|0:0,0:0:0:0:
374,348,130214,1,10,0:0:0:0:
300,279,130401,1,2,0:0:0:0:
388,230,130589,2,0,P|405:190|418:152,2,77.0000023498536,2|2|10,3:2|0:0|0:0,0:0:0:0:
322,154,131151,1,2,0:0:0:0:
237,208,131339,6,0,L|193:218,3,38.5000011749268,0|0|0|0,3:2|3:2|3:2|3:2,0:0:0:0:
154,193,131714,2,0,L|97:183,3,38.5000011749268,8|0|0|0,0:0|3:2|3:2|3:2,0:0:0:0:
86,145,132089,6,0,L|97:96,7,38.5000011749268,0|0|0|0|8|0|0|0,3:2|3:2|3:2|3:2|0:0|3:2|3:2|3:2,0:0:0:0:
108,57,132839,5,0,0:0:0:0:
108,57,133214,2,0,P|150:70|196:93,1,77.0000023498536,6|0,3:1|0:0,0:0:0:0:
265,136,133589,2,0,P|285:77|295:58,1,77.0000023498536,2|0,3:2|0:0,0:0:0:0:
321,34,133870,1,2,0:0:0:0:
321,34,133964,1,8,0:0:0:0:
400,95,134151,6,0,P|413:168|339:186,1,154.000004699707,2|2,0:0|0:0,0:0:0:0:
265,136,134714,1,10,0:0:0:0:
235,222,134901,2,0,P|250:293|332:301,1,154.000004699707,2|2,0:0|0:0,0:0:0:0:
371,289,135370,1,0,0:0:0:0:
371,289,135464,1,10,0:0:0:0:
453,344,135651,6,0,P|464:308|478:269,1,77.0000023498536,2|0,0:0|3:2,0:0:0:0:
512,182,136026,1,2,0:0:0:0:
512,182,136120,1,0,0:0:0:0:
512,182,136214,1,10,0:0:0:0:
414,204,136401,2,0,P|377:198|339:189,1,77.0000023498536,2|0,0:0|3:2,0:0:0:0:
250,140,136776,1,2,0:0:0:0:
275,43,136964,1,10,0:0:0:0:
180,9,137151,6,0,P|161:78|148:175,1,154.000004699707,2|2,0:0|0:0,0:0:0:0:
190,250,137714,1,10,0:0:0:0:
284,218,137901,1,2,0:0:0:0:
316,313,138089,2,0,P|362:330|402:340,1,77.0000023498536,2|2,3:2|0:0,0:0:0:0:
481,294,138464,1,10,0:0:0:0:
481,294,138651,1,2,0:0:0:0:
402,200,138839,6,0,P|413:157|426:116,1,77.0000023498536,2|0,3:2|0:0,0:0:0:0:
447,28,139214,1,10,0:0:0:0:
350,3,139401,1,2,0:0:0:0:
322,99,139589,2,0,P|276:118|242:130,2,77.0000023498536,2|2|10,3:2|0:0|0:0,0:0:0:0:
422,125,140151,6,0,P|405:195|395:233,1,77.0000023498536,2|2,0:0|3:2,0:0:0:0:
361,291,140526,1,2,0:0:0:0:
265,260,140714,1,10,0:0:0:0:
204,339,140901,2,0,P|149:323|42:298,1,154.000004699707,2|2,0:0|0:0,0:0:0:0:
9,295,141370,1,0,0:0:0:0:
9,295,141464,1,10,0:0:0:0:
10,195,141651,6,0,P|56:184|106:176,1,77.0000023498536,2|0,0:0|3:2,0:0:0:0:
183,156,142026,1,2,0:0:0:0:
163,57,142214,1,10,0:0:0:0:
251,11,142401,2,0,P|329:21|333:110,1,154.000004699707,2|2,0:0|0:0,0:0:0:0:
284,164,142964,1,10,0:0:0:0:
305,261,143151,1,2,0:0:0:0:
391,311,143339,6,0,L|433:304,3,38.5000011749268,0|0|0|0,3:2|3:2|3:2|3:2,0:0:0:0:
469,274,143714,2,0,L|477:233,3,38.5000011749268,8|0|0|0,0:0|3:2|3:2|3:2,0:0:0:0:
452,193,144089,6,0,L|445:146,7,38.5000011749268,0|0|0|0|8|0|0|0,3:2|3:2|3:2|3:2|0:0|3:2|3:0|3:0,0:0:0:0:
461,107,144839,6,0,P|402:124|312:153,1,154.000004699707,6|8,3:2|0:0,0:0:0:0:
215,137,145401,1,2,0:0:0:0:
215,137,145495,1,2,0:0:0:0:
215,137,145589,2,0,P|151:111|181:13,1,154.000004699707,2|8,3:2|0:0,0:0:0:0:
246,4,146151,1,2,0:0:0:0:
246,4,146245,1,2,0:0:0:0:
246,4,146339,6,0,P|290:17|336:23,1,77.0000023498536,2|0,3:2|0:0,0:0:0:0:
389,95,146714,2,0,P|379:140|364:187,1,77.0000023498536,10|0,0:0|0:0,0:0:0:0:
288,228,147089,2,0,P|323:258|378:264,1,77.0000023498536,2|0,3:2|0:0,0:0:0:0:
420,339,147464,2,0,P|341:354|275:372,1,115.50000352478,10|0,0:0|0:0,0:0:0:0:
260,381,147839,5,2,3:2:0:0:
218,289,148026,1,2,0:0:0:0:
180,195,148214,2,0,L|188:153,2,38.5000011749268,10|2|2,0:0|0:0|0:0,0:0:0:0:
86,231,148589,1,2,3:2:0:0:
133,330,148776,1,2,0:0:0:0:
133,330,148870,1,2,0:0:0:0:
133,330,148964,1,10,0:0:0:0:
218,289,149151,1,2,0:0:0:0:
297,350,149339,6,0,P|342:358|401:365,1,77.0000023498536,2|2,3:2|0:0,0:0:0:0:
416,337,149620,1,2,0:0:0:0:
416,337,149714,2,0,P|409:294|400:252,1,77.0000023498536,10|2,0:0|0:0,0:0:0:0:
370,166,150089,1,2,3:2:0:0:
468,181,150276,1,2,0:0:0:0:
484,81,150464,1,10,0:0:0:0:
385,62,150651,1,2,0:0:0:0:
295,108,150839,6,0,L|248:98,3,38.5000011749268,2|2|2|2,3:2|0:0|0:0|0:0,0:0:0:0:
209,113,151214,1,10,0:0:0:0:
120,148,151401,1,2,0:0:0:0:
120,148,151495,1,2,0:0:0:0:
120,148,151589,2,0,L|58:137,3,38.5000011749268,2|2|2|2,3:2|0:0|0:0|0:0,0:0:0:0:
32,133,151964,1,10,0:0:0:0:
50,34,152151,1,2,0:0:0:0:
149,46,152339,6,0,P|190:40|233:29,1,77.0000023498536,2|2,3:2|0:0,0:0:0:0:
306,89,152714,2,0,P|297:142|281:193,1,77.0000023498536,10|2,0:0|0:0,0:0:0:0:
236,248,153089,2,0,P|189:245|159:259,1,77.0000023498536,2|0,3:2|0:0,0:0:0:0:
181,355,153464,2,0,P|228:358|258:344,1,77.0000023498536,10|0,0:0|0:0,0:0:0:0:
339,256,153839,6,0,B|431:269|364:328|466:358,1,154.000004699707,2|8,3:2|0:0,0:0:0:0:
488,260,154401,1,2,0:0:0:0:
488,260,154495,1,2,0:0:0:0:
488,260,154589,2,0,P|475:207|438:87,1,154.000004699707,2|8,3:2|0:0,0:0:0:0:
386,31,155151,1,2,0:0:0:0:
335,117,155339,6,0,L|284:106,3,38.5000011749268,2|0|0|0,3:2|3:2|3:2|3:2,0:0:0:0:
251,130,155714,2,0,L|240:176,3,38.5000011749268,8|0|0|0,0:0|3:2|3:2|3:2,0:0:0:0:
267,210,156089,6,0,L|322:223,7,38.5000011749268,0|0|0|0|8|0|0|0,3:2|3:2|3:2|3:2|0:0|3:0|3:0|3:0,0:0:0:0:
353,206,156839,5,6,3:2:0:0:
68,123,162839,6,0,P|52:89|46:48,1,70,6|0,3:2|0:0,0:0:0:0:
134,32,163214,2,0,P|149:63|155:97,1,70,0|0,3:2|0:0,0:0:0:0:
216,165,163589,2,0,P|255:179|308:189,1,70,0|0,3:2|0:0,0:0:0:0:
355,130,163964,2,0,P|372:180|347:245,1,105,0|0,3:2|0:0,0:0:0:0:
333,267,164339,6,0,P|381:255|423:272,1,70,0|0,3:2|0:0,0:0:0:0:
412,349,164714,2,0,P|364:361|322:344,1,70,0|0,3:2|0:0,0:0:0:0:
262,317,165089,2,0,P|221:304|175:308,1,70,0|0,3:2|0:0,0:0:0:0:
132,370,165464,2,0,P|107:325|121:257,1,105,0|0,3:2|0:0,0:0:0:0:
131,232,165839,5,0,3:2:0:0:
131,232,166026,1,8,0:1:0:0:
168,148,166214,1,0,3:2:0:0:
168,148,166401,1,8,0:1:0:0:
242,200,166589,1,0,3:2:0:0:
329,177,166776,1,8,0:1:0:0:
417,154,166964,2,0,P|426:111|438:38,1,105,0|0,3:2|0:0,0:0:0:0:
400,22,167339,6,0,L|354:34,3,35,0|8|8|8,3:2|0:1|0:1|0:1,0:0:0:0:
326,52,167714,2,0,L|286:29,3,35,0|8|8|8,3:2|0:1|0:1|0:1,0:0:0:0:
250,12,168089,6,0,L|240:77,7,35,0|8|8|8|0|8|8|8,3:2|0:1|0:1|0:1|3:2|0:1|0:1|0:1,0:0:0:0:
237,91,168839,5,6,3:1:0:0:
79,77,174839,6,0,P|86:107|92:141,1,62.9999980773926,2|0,3:2|0:0,0:0:0:0:
174,170,175214,2,0,P|186:126|190:96,1,62.9999980773926,10|2,0:0|0:0,0:0:0:0:
266,67,175589,2,0,P|273:97|279:131,1,62.9999980773926,2|2,3:2|0:0,0:0:0:0:
342,189,175964,1,8,0:0:0:0:
405,128,176151,6,0,P|432:170|399:261,1,125.999996154785,2|2,0:0|0:0,0:0:0:0:
384,269,176620,1,0,0:0:0:0:
384,269,176714,1,10,0:0:0:0:
287,257,176901,2,0,P|228:277|148:309,1,125.999996154785,2|2,0:0|0:0,0:0:0:0:
82,318,177464,1,10,0:0:0:0:
30,247,177651,6,0,P|34:182|112:171,1,125.999996154785,2|2,0:0|0:0,0:0:0:0:
127,171,178120,1,0,0:0:0:0:
127,171,178214,1,10,0:0:0:0:
178,99,178401,2,0,P|218:108|295:50,1,125.999996154785,2|2,0:0|0:0,0:0:0:0:
357,12,178964,1,10,0:0:0:0:
424,68,179151,1,2,0:0:0:0:
358,127,179339,6,0,L|352:169,3,31.4999990386963,0|0|0|0,3:2|3:2|3:2|3:2,0:0:0:0:
376,196,179714,2,0,L|383:231,3,31.4999990386963,8|0|0|0,0:0|3:2|3:2|3:2,0:0:0:0:
363,267,180089,6,0,L|355:308,7,31.4999990386963,0|0|0|0|8|0|0|0,3:2|3:2|3:2|3:2|0:0|3:2|3:2|3:2,0:0:0:0:
373,336,180839,5,0,0:0:0:0:
373,336,181214,2,0,P|324:350|281:365,1,77.0000023498536,6|0,3:1|0:0,0:0:0:0:
218,298,181589,2,0,P|232:255|249:215,1,77.0000023498536,2|0,3:2|0:0,0:0:0:0:
233,180,181870,2,0,P|192:165|150:152,1,77.0000023498536,2|0,0:0|0:0,0:0:0:0:
113,154,182151,1,2,0:0:0:0:
116,61,182339,6,0,P|71:78|31:93,2,77.0000023498536,2|2|10,3:2|0:0|0:0,0:0:0:0:
205,83,182901,2,0,B|262:74|262:74|300:43|300:43|355:33,1,154.000004699707,2|2,0:0|0:0,0:0:0:0:
396,32,183370,1,0,0:0:0:0:
396,32,183464,1,10,0:0:0:0:
455,112,183651,6,0,P|446:160|434:194,1,77.0000023498536,2|0,0:0|3:2,0:0:0:0:
361,251,184026,1,2,0:0:0:0:
361,251,184120,1,0,0:0:0:0:
361,251,184214,1,10,0:0:0:0:
382,348,184401,2,0,P|332:336|299:330,1,77.0000023498536,2|0,0:0|3:2,0:0:0:0:
250,248,184776,1,2,0:0:0:0:
277,151,184964,1,10,0:0:0:0:
210,76,185151,6,0,P|150:82|130:174,1,154.000004699707,2|2,0:0|0:0,0:0:0:0:
158,256,185714,1,10,0:0:0:0:
62,283,185901,1,2,0:0:0:0:
31,187,186089,2,0,P|20:158|-13:100,2,77.0000023498536,2|2|10,3:2|0:0|0:0,0:0:0:0:
62,283,186651,1,2,0:0:0:0:
158,256,186839,5,2,3:2:0:0:
245,303,187026,1,2,0:0:0:0:
310,226,187214,2,0,P|356:210|406:207,1,77.0000023498536,10|2,0:0|0:0,0:0:0:0:
463,145,187589,2,0,P|471:106|488:66,2,77.0000023498536,2|2|10,3:2|0:0|0:0,0:0:0:0:
365,121,188151,6,0,P|312:108|210:94,1,154.000004699707,2|2,0:0|0:0,0:0:0:0:
113,104,188714,1,10,0:0:0:0:
31,46,188901,2,0,P|16:124|83:187,1,154.000004699707,2|2,0:0|0:0,0:0:0:0:
110,200,189370,1,0,0:0:0:0:
110,200,189464,1,10,0:0:0:0:
99,299,189651,6,0,P|151:286|188:273,1,77.0000023498536,2|0,0:0|3:2,0:0:0:0:
260,229,190026,1,2,0:0:0:0:
234,136,190214,1,10,0:0:0:0:
234,136,190401,1,2,0:0:0:0:
330,164,190589,2,0,P|367:172|416:177,2,77.0000023498536,2|2|10,3:2|0:0|0:0,0:0:0:0:
303,67,191151,1,2,0:0:0:0:
234,136,191339,6,0,L|195:141,3,38.5000011749268,0|0|0|0,3:2|3:2|3:2|3:2,0:0:0:0:
148,159,191714,2,0,L|91:143,3,38.5000011749268,8|0|0|0,0:0|3:2|3:2|3:2,0:0:0:0:
70,118,192089,6,0,L|62:80,7,38.5000011749268,0|0|0|0|8|0|0|0,3:2|3:2|3:2|3:2|0:0|3:2|3:2|3:2,0:0:0:0:
88,42,192839,6,0,P|133:46|176:56,1,77.0000023498536,6|2,3:2|0:0,0:0:0:0:
253,102,193214,2,0,P|298:98|342:86,1,77.0000023498536,10|2,0:0|0:0,0:0:0:0:
417,42,193589,2,0,P|447:76|437:130,1,77.0000023498536,2|0,3:2|0:0,0:0:0:0:
359,153,193964,2,0,P|329:121|335:76,1,77.0000023498536,10|0,0:0|0:0,0:0:0:0:
442,195,194339,6,0,P|453:235|458:278,1,77.0000023498536,2|0,3:2|0:0,0:0:0:0:
359,249,194714,2,0,P|369:288|373:333,1,77.0000023498536,10|0,0:0|0:0,0:0:0:0:
263,269,195089,2,0,P|266:234|276:192,1,77.0000023498536,2|0,3:2|0:0,0:0:0:0:
179,223,195464,2,0,P|185:182|196:142,1,77.0000023498536,10|0,0:0|0:0,0:0:0:0:
242,61,195839,5,2,3:2:0:0:
242,61,196026,1,2,0:0:0:0:
324,127,196214,1,10,0:0:0:0:
324,127,196401,1,2,0:0:0:0:
401,63,196589,2,0,P|415:110|422:152,1,77.0000023498536,2|0,3:2|0:0,0:0:0:0:
367,222,196964,2,0,P|323:212|279:203,1,77.0000023498536,10|0,0:0|0:0,0:0:0:0:
174,178,197339,6,0,P|160:131|155:95,1,77.0000023498536,2|2,3:2|0:0,0:0:0:0:
254,122,197714,2,0,P|242:85|237:47,1,77.0000023498536,10|2,0:0|0:0,0:0:0:0:
353,0,198089,2,0,P|346:34|330:76,1,77.0000023498536,2|0,3:2|0:0,0:0:0:0:
430,56,198464,2,0,P|423:90|406:131,1,77.0000023498536,10|0,0:0|0:0,0:0:0:0:
367,222,198839,5,2,3:2:0:0:
367,222,199026,1,2,0:0:0:0:
467,197,199214,1,10,0:0:0:0:
467,197,199401,1,2,0:0:0:0:
434,291,199589,2,0,P|426:326|419:370,2,77.0000023498536,2|2|10,3:2|0:0|0:0,0:0:0:0:
367,222,200151,1,0,0:0:0:0:
283,312,200339,6,0,P|244:322|202:335,1,77.0000023498536,2|0,3:2|0:0,0:0:0:0:
220,232,200714,2,0,P|182:240|140:256,1,77.0000023498536,10|0,0:0|0:0,0:0:0:0:
72,145,201089,2,0,P|107:152|149:166,1,77.0000023498536,2|0,3:2|0:0,0:0:0:0:
134,65,201464,2,0,P|169:72|209:85,1,77.0000023498536,10|0,0:0|0:0,0:0:0:0:
298,128,201839,6,0,P|337:122|374:115,1,77.0000023498536,2|2,3:2|0:0,0:0:0:0:
453,177,202214,2,0,P|457:215|465:252,1,77.0000023498536,10|2,0:0|0:0,0:0:0:0:
393,322,202589,2,0,P|352:326|311:335,1,77.0000023498536,2|2,3:2|0:0,0:0:0:0:
235,275,202964,2,0,P|228:236|220:199,1,77.0000023498536,10|2,0:0|0:0,0:0:0:0:
112,148,203339,5,0,3:2:0:0:
107,174,203432,1,0,3:2:0:0:
99,201,203526,1,0,3:2:0:0:
94,228,203620,1,0,3:2:0:0:
90,255,203714,2,0,L|101:301,3,38.5000011749268,8|0|0|0,0:0|3:2|3:2|3:2,0:0:0:0:
141,318,204089,6,0,L|186:306,7,38.5000011749268,0|0|0|0|8|0|0|0,3:2|3:2|3:2|3:2|0:0|3:2|3:2|3:2,0:0:0:0:
