osu file format v14

[General]
AudioFilename: audio.mp3
AudioLeadIn: 0
PreviewTime: 60651
Countdown: 0
SampleSet: Soft
StackLeniency: 0.4
Mode: 0
LetterboxInBreaks: 0
WidescreenStoryboard: 1

[Editor]
DistanceSpacing: 0.4
BeatDivisor: 4
GridSize: 16
TimelineZoom: 1.2

[Metadata]
Title:Digital Life Hacker
TitleUnicode:Digital Life Hacker
Artist:wotoha
ArtistUnicode:をとは
Creator:climbx3145
Version:Easy
Source:
Tags:Neko Hacker jelly girl electronic Japanese pop j-pop jpop 海月ねう mitukineu featured artist fa Kuse KuBsNia_ZhoYL_
BeatmapID:3121384
BeatmapSetID:1516617

[Difficulty]
HPDrainRate:2
CircleSize:3
OverallDifficulty:2
ApproachRate:3
SliderMultiplier:1
SliderTickRate:1

[Events]
//Background and Video events
0,0,"bg.jpg",0,0
Video,-360,"Video.mp4"
//Break Periods
2,97039,101399
2,157039,161399
2,169039,173399
//Storyboard Layer 0 (Background)
//Storyboard Layer 1 (Fail)
//Storyboard Layer 2 (Pass)
//Storyboard Layer 3 (Foreground)
//Storyboard Layer 4 (Overlay)
//Storyboard Sound Samples

[TimingPoints]
839,375,4,2,1,50,1,0
839,-100,4,2,1,50,0,0
9839,-100,4,2,1,50,0,0
12276,-100,4,2,1,50,0,0
12370,-100,4,2,1,50,0,0
12464,-100,4,2,1,50,0,0
12557,-100,4,2,1,50,0,0
12651,-100,4,2,1,50,0,0
12745,-100,4,2,1,50,0,0
12839,-100,4,2,1,70,0,0
13589,-100,4,2,1,70,0,0
13964,-100,4,2,1,70,0,0
14339,-100,4,2,1,70,0,0
15839,-100,4,2,1,70,0,0
16589,-100,4,2,1,70,0,0
16964,-100,4,2,1,70,0,0
18089,-100,4,2,1,70,0,0
18839,-100,4,2,1,70,0,0
19964,-100,4,2,1,70,0,0
20339,-100,4,2,1,70,0,0
21839,-100,4,2,1,70,0,0
24089,-100,4,2,1,70,0,0
24839,-100,4,2,1,50,0,0
25589,-100,4,2,1,50,0,0
30839,-100,4,2,1,50,0,0
31589,-100,4,2,1,50,0,0
36839,-100,4,2,1,60,0,0
41714,-100,4,2,1,60,0,0
42839,-100,4,2,1,60,0,0
47714,-100,4,2,1,60,0,0
48839,-100,4,2,1,50,0,0
54839,-100,4,2,1,60,0,0
57839,-100,4,2,1,60,0,0
60464,-100,4,2,1,60,0,0
60839,-100,4,2,1,80,0,1
72839,-100,4,2,1,60,0,0
73214,-100,4,2,1,80,0,1
73589,-100,4,2,1,80,0,1
84839,-100,4,2,1,70,0,0
85589,-100,4,2,1,70,0,0
85964,-100,4,2,1,70,0,0
86339,-100,4,2,1,70,0,0
87839,-100,4,2,1,70,0,0
88589,-100,4,2,1,70,0,0
88964,-100,4,2,1,70,0,0
90089,-100,4,2,1,70,0,0
90839,-100,4,2,1,70,0,0
92339,-100,4,2,1,70,0,0
93839,-100,4,2,1,70,0,0
96839,-100,4,2,1,40,0,0
102839,-100,4,2,1,60,0,0
107339,-100,4,2,1,60,0,0
108839,-100,4,2,1,50,0,0
114839,-100,4,2,1,60,0,0
117839,-100,4,2,1,60,0,0
120464,-100,4,2,1,60,0,0
120839,-100,4,2,1,80,0,1
132839,-100,4,2,1,60,0,0
133214,-100,4,2,1,80,0,1
133589,-100,4,2,1,80,0,1
144839,-100,4,2,1,70,0,0
146339,-100,4,2,1,70,0,0
147089,-100,4,2,1,70,0,0
147839,-100,4,2,1,70,0,0
155339,-100,4,2,1,70,0,0
155714,-100,4,2,1,70,0,0
156089,-100,4,2,1,70,0,0
156839,-100,4,2,1,60,0,0
162839,-100,4,2,1,60,0,0
167714,-100,4,2,1,60,0,0
168089,-100,4,2,1,60,0,0
168839,-100,4,2,1,40,0,0
174839,-100,4,2,1,60,0,0
177839,-100,4,2,1,60,0,0
179339,-100,4,2,1,70,0,0
181214,-100,4,2,1,80,0,1
181589,-100,4,2,1,80,0,1
184026,-100,4,2,1,80,0,1
184776,-100,4,2,1,80,0,1
192839,-100,4,2,1,76,0,0
193589,-100,4,2,1,76,0,0
193964,-100,4,2,1,76,0,0
194339,-100,4,2,1,76,0,0
196589,-100,4,2,1,76,0,0
196964,-100,4,2,1,76,0,0
197339,-100,4,2,1,76,0,0
198839,-100,4,2,1,76,0,0
200339,-100,4,2,1,76,0,0
204089,-100,4,2,1,56,0,0

[Colours]
Combo1 : 255,176,176
Combo2 : 151,203,255
Combo3 : 179,179,255

[HitObjects]
116,81,12839,6,0,P|206:70|224:159,1,200,6|2,3:1|3:2,0:0:0:0:
149,225,13964,1,10,0:0:0:0:
101,312,14339,2,0,B|225:363|216:220|388:285,1,300,2|10,3:2|0:0,0:0:0:0:
475,239,15839,6,0,P|495:146|424:83,1,200,2|2,3:2|3:2,0:0:0:0:
333,126,16964,1,10,0:0:0:0:
249,71,17339,2,0,B|199:98|145:94|145:94|178:210|178:210|176:255|151:283,1,300,2|10,3:2|0:0,0:0:0:0:
97,359,18839,6,0,P|48:361|4:338,2,100,2|10|2,3:2|0:0|3:2,0:0:0:0:
156,276,19964,1,10,0:0:0:0:
233,339,20339,2,0,B|359:314|313:170|471:174,1,300,2|10,3:2|0:0,0:0:0:0:
479,74,21839,6,0,P|430:68|392:36,1,100,2|10,3:2|0:0,0:0:0:0:
295,11,22589,1,2,3:2:0:0:
226,84,22964,1,10,0:0:0:0:
308,140,23339,2,0,B|303:210|275:231|275:231|304:259|307:324,1,200,0|0,3:2|3:2,0:0:0:0:
226,383,24464,1,8,0:0:0:0:
132,348,24839,5,6,3:2:0:0:
29,176,25589,2,0,P|3:107|65:66,1,150,2|2,3:2|3:2,0:0:0:0:
298,4,27089,2,0,B|364:32|364:32|441:15,1,150,2|2,3:2|3:2,0:0:0:0:
506,256,28589,2,0,P|494:323|425:320,1,150,2|2,3:2|3:2,0:0:0:0:
288,258,29714,2,0,P|238:264|188:269,2,100,2|2|10,3:2|3:2|3:1,0:0:0:0:
342,173,30839,5,2,3:2:0:0:
212,20,31589,2,0,B|135:37|135:37|69:9,1,150,2|2,3:2|3:2,0:0:0:0:
18,254,33089,2,0,P|18:325|81:356,1,150,2|2,3:2|3:2,0:0:0:0:
313,260,34589,2,0,P|290:188|269:116,1,150,2|2,3:2|3:2,0:0:0:0:
379,14,35714,1,2,3:2:0:0:
468,58,36089,1,2,3:2:0:0:
486,156,36464,1,2,3:2:0:0:
391,191,36839,6,0,P|393:240|421:280,1,100,6|10,3:2|0:0,0:0:0:0:
457,373,37589,2,0,P|384:377|320:339,1,150,2|2,3:2|0:0,0:0:0:0:
268,254,38526,2,0,B|291:201|291:201|269:111,2,150,2|2|2,0:0|3:2|0:0,0:0:0:0:
153,350,40214,6,0,P|103:347|63:318,1,100,10|2,0:0|3:2,0:0:0:0:
43,220,40964,2,0,P|56:171|67:123,1,100,8|0,0:0|3:2,0:0:0:0:
72,23,41714,1,10,0:0:0:0:
169,0,42089,1,2,3:2:0:0:
259,43,42464,1,10,0:0:0:0:
197,122,42839,6,0,P|192:170|225:205,1,100,6|10,3:2|0:0,0:0:0:0:
324,223,43589,2,0,P|335:295|298:359,1,150,2|2,3:2|0:0,0:0:0:0:
198,359,44526,2,0,B|98:373|98:373|69:332,2,150,2|2|2,0:0|3:2|0:0,0:0:0:0:
304,253,46214,6,0,P|350:253|383:301,1,100,10|2,0:0|3:2,0:0:0:0:
472,334,46964,2,0,P|480:284|490:235,1,100,8|4,0:0|0:3,0:0:0:0:
507,137,47714,1,8,0:0:0:0:
407,139,48089,1,0,3:2:0:0:
354,54,48464,1,8,0:0:0:0:
265,101,48839,6,0,B|226:124|179:98|179:98|143:47|76:62,1,200,6|8,3:1|0:0,0:0:0:0:
15,194,50151,2,0,B|65:227|55:283|55:283|101:279|145:292|145:292|156:263|172:244,1,250,0|8,3:2|0:0,0:0:0:0:
249,59,51839,2,0,P|356:37|425:113,1,200,0|8,3:2|0:0,0:0:0:0:
459,237,53151,2,0,B|422:287|421:373|421:373|353:376|330:330,1,250,0|8,3:2|0:0,0:0:0:0:
198,180,54839,6,0,P|148:188|99:193,1,100,6|2,3:2|3:2,0:0:0:0:
14,140,55589,1,0,3:2:0:0:
33,41,55964,1,0,3:2:0:0:
131,22,56339,2,0,P|180:30|229:35,1,100,2|10,3:2|3:1,0:0:0:0:
329,15,57089,1,2,3:2:0:0:
399,86,57464,1,8,0:1:0:0:
480,145,57839,6,0,P|455:188|458:237,1,100,2|10,3:2|3:1,0:0:0:0:
499,328,58589,1,2,3:2:0:0:
413,379,58964,1,2,3:2:0:0:
333,317,59339,2,0,P|283:321|234:330,1,100,2|2,3:2|3:2,0:0:0:0:
136,355,60089,1,2,0:0:0:0:
83,269,60464,5,8,0:0:0:0:
16,194,60839,6,0,P|9:145|37:105,1,100,6|10,3:1|0:0,0:0:0:0:
135,123,61589,1,2,3:2:0:0:
257,36,62151,2,0,P|329:55|394:22,1,150,2|10,0:0|0:0,0:0:0:0:
476,80,63089,2,0,P|463:128|455:177,1,100,0|10,3:2|0:0,0:0:0:0:
493,270,63839,6,0,P|487:318|445:343,1,100,0|10,3:2|0:0,0:0:0:0:
359,292,64589,2,0,P|309:300|261:312,1,100,0|10,3:2|0:0,0:0:0:0:
213,328,65151,2,0,P|163:315|161:223,1,150,2|10,0:0|0:0,0:0:0:0:
210,144,66089,1,2,3:2:0:0:
302,182,66464,1,10,0:0:0:0:
390,138,66839,6,0,P|416:96|408:47,1,100,2|10,3:2|0:0,0:0:0:0:
316,9,67589,2,0,P|267:21|218:29,1,100,2|10,3:2|0:0,0:0:0:0:
147,101,68339,2,0,P|98:88|49:80,1,100,2|10,3:2|0:0,0:0:0:0:
5,102,68901,2,0,P|2:173|68:200,1,150,2|10,0:0|0:0,0:0:0:0:
168,203,69839,6,0,P|155:251|147:300,1,100,0|10,3:2|0:0,0:0:0:0:
216,372,70589,1,2,3:2:0:0:
315,373,70964,1,10,0:0:0:0:
381,298,71339,2,0,B|388:262|388:262|371:200,2,100,0|8|0,3:2|0:0|3:2,0:0:0:0:
315,373,72464,1,8,0:0:0:0:
121,320,73214,5,6,3:1:0:0:
191,247,73589,2,0,P|200:200|176:157,1,100,2|10,3:2|0:0,0:0:0:0:
150,115,74151,2,0,P|222:97|294:76,1,150,2|10,0:0|0:0,0:0:0:0:
394,60,75089,2,0,P|386:110|378:159,1,100,0|10,3:2|0:0,0:0:0:0:
442,237,75839,6,0,P|441:285|403:316,1,100,0|10,3:2|0:0,0:0:0:0:
321,373,76589,2,0,P|272:360|223:352,1,100,0|10,3:2|0:0,0:0:0:0:
175,335,77151,2,0,P|147:270|188:211,1,150,2|10,0:0|0:0,0:0:0:0:
288,208,78089,1,2,3:2:0:0:
325,115,78464,1,10,0:0:0:0:
241,60,78839,6,0,P|191:58|148:33,1,100,2|10,3:2|0:0,0:0:0:0:
50,19,79589,2,0,P|37:67|29:116,1,100,2|10,3:2|0:0,0:0:0:0:
21,166,80151,2,0,P|76:205|169:180,1,150,2|10,0:0|0:0,0:0:0:0:
253,196,81089,2,0,P|265:244|273:293,1,100,0|10,3:2|0:0,0:0:0:0:
342,364,81839,6,0,P|391:369|433:343,1,100,0|10,3:2|0:0,0:0:0:0:
483,256,82589,1,2,3:2:0:0:
408,189,82964,1,10,0:0:0:0:
481,121,83339,2,0,B|493:94|493:94|480:17,2,100,0|8|0,3:2|0:0|3:2,0:0:0:0:
408,189,84464,1,8,0:0:0:0:
322,137,84839,6,0,B|308:102|309:73|309:73|250:101|177:94,1,200,6|2,3:2|3:2,0:0:0:0:
90,46,85964,1,10,0:0:0:0:
12,109,86339,2,0,B|50:164|20:222|20:222|22:253|45:282|45:282|103:310|164:263,1,300,2|10,3:2|0:0,0:0:0:0:
230,206,87839,6,0,P|322:235|364:322,1,200,2|2,3:2|3:2,0:0:0:0:
445,382,88964,1,10,0:0:0:0:
485,289,89339,2,0,B|486:246|514:220|514:220|491:166|507:99|507:99|450:119|392:88,1,300,2|10,3:2|0:0,0:0:0:0:
312,122,90839,6,0,P|310:73|333:29,2,100,2|10|2,3:2|0:0|3:2,0:0:0:0:
366,205,91964,1,10,0:0:0:0:
310,288,92339,2,0,B|246:324|177:302|177:302|168:247|199:208|199:208|191:165|156:140,1,300,2|10,3:2|0:0,0:0:0:0:
115,69,93839,6,0,P|164:63|202:31,1,100,2|10,3:2|0:0,0:0:0:0:
298,5,94589,1,2,3:2:0:0:
374,69,94964,1,10,0:0:0:0:
294,128,95339,2,0,B|271:167|278:206|278:206|285:225|283:240|283:240|300:281|278:323,1,200,2|0,3:2|3:2,0:0:0:0:
360,379,96464,1,8,0:0:0:0:
452,342,96839,5,6,3:2:0:0:
146,95,102839,6,0,P|181:128|229:123,1,100,6|10,3:2|0:0,0:0:0:0:
325,96,103589,2,0,P|362:159|351:232,1,150,2|2,3:2|0:0,0:0:0:0:
259,270,104526,2,0,B|159:256|159:256|130:297,2,150,2|2|2,0:0|3:2|0:0,0:0:0:0:
378,360,106214,6,0,P|427:351|475:339,1,100,10|2,0:0|3:2,0:0:0:0:
492,240,106964,2,0,P|460:202|465:153,1,100,8|4,0:0|0:3,0:0:0:0:
497,59,107714,1,10,0:0:0:0:
409,9,108089,1,2,3:2:0:0:
335,76,108464,1,10,0:0:0:0:
244,33,108839,6,0,B|204:57|164:45|164:45|126:90|177:168,1,200,6|10,3:1|0:0,0:0:0:0:
298,231,110151,2,0,B|331:181|387:191|387:191|383:145|396:101|396:101|367:90|348:74,1,250,2|8,3:2|0:0,0:0:0:0:
167,160,111839,2,0,B|161:188|136:209|136:209|177:269|161:353,1,200,0|8,3:2|0:0,0:0:0:0:
311,366,113151,2,0,B|342:380|373:376|373:376|401:343|444:337|444:337|421:286|422:231,1,250,0|8,3:2|0:0,0:0:0:0:
358,46,114839,6,0,P|309:46|271:77,1,100,8|8,3:1|0:1,0:0:0:0:
230,169,115589,1,0,3:1:0:0:
137,346,116339,2,0,P|88:345|50:314,1,100,8|8,3:1|0:1,0:0:0:0:
9,223,117089,1,0,3:1:0:0:
68,32,117839,6,0,P|116:43|165:54,1,100,0|0,3:1|3:1,0:0:0:0:
239,122,118589,1,0,3:1:0:0:
325,71,118964,1,0,3:1:0:0:
411,120,119339,2,0,P|422:167|397:209,1,100,0|0,3:1|3:1,0:0:0:0:
301,241,120089,1,2,0:0:0:0:
207,206,120464,5,8,0:0:0:0:
108,225,120839,6,0,P|118:273|129:322,1,100,6|10,3:1|0:0,0:0:0:0:
213,379,121589,1,2,3:2:0:0:
362,370,122151,2,0,B|392:365|411:342|411:342|416:288|421:237,1,150,2|10,0:0|0:0,0:0:0:0:
482,171,123089,2,0,P|490:122|467:79,1,100,0|10,3:2|0:0,0:0:0:0:
376,38,123839,6,0,P|332:60|284:52,1,100,0|10,3:2|0:0,0:0:0:0:
190,16,124589,2,0,P|141:28|92:35,1,100,0|10,3:2|0:0,0:0:0:0:
44,49,125151,2,0,P|38:120|95:164,1,150,2|10,0:0|0:0,0:0:0:0:
188,126,126089,1,2,3:2:0:0:
281,162,126464,1,10,0:0:0:0:
232,249,126839,6,0,P|244:297|251:346,1,100,2|10,3:2|0:0,0:0:0:0:
158,383,127589,2,0,P|109:375|76:338,1,100,2|10,3:2|0:0,0:0:0:0:
29,250,128339,2,0,P|42:201|50:152,1,100,2|10,3:2|0:0,0:0:0:0:
57,103,128901,2,0,P|131:99|201:71,1,150,2|10,0:0|0:0,0:0:0:0:
275,5,129839,6,0,P|298:49|296:99,1,100,0|10,3:2|0:0,0:0:0:0:
225,169,130589,1,2,3:2:0:0:
275,255,130964,1,10,0:0:0:0:
210,331,131339,2,0,B|174:338|174:338|112:321,2,100,0|8|0,3:2|0:0|3:2,0:0:0:0:
298,377,132464,1,8,0:0:0:0:
486,310,133214,5,6,3:1:0:0:
419,234,133589,2,0,P|410:187|434:144,1,100,2|10,3:2|0:0,0:0:0:0:
457,98,134151,2,0,P|399:90|323:30,1,150,2|10,0:0|0:0,0:0:0:0:
228,17,135089,2,0,P|205:60|207:110,1,100,0|10,3:2|0:0,0:0:0:0:
283,175,135839,6,0,P|285:224|262:268,1,100,0|10,3:2|0:0,0:0:0:0:
189,337,136589,2,0,P|140:324|91:316,1,100,0|10,3:2|0:0,0:0:0:0:
41,310,137151,2,0,P|81:248|77:174,1,150,2|10,0:0|0:0,0:0:0:0:
19,93,138089,1,2,3:2:0:0:
80,13,138464,1,10,0:0:0:0:
165,64,138839,6,0,P|205:91|253:84,1,100,2|10,3:2|0:0,0:0:0:0:
327,17,139589,2,0,P|375:30|424:38,1,100,2|10,3:2|0:0,0:0:0:0:
474,33,140151,2,0,B|504:69|504:69|491:117|483:172,1,150,2|10,0:0|0:0,0:0:0:0:
396,219,141089,2,0,P|408:267|416:316,1,100,0|10,3:2|0:0,0:0:0:0:
335,377,141839,6,0,P|286:382|244:356,1,100,0|10,3:2|0:0,0:0:0:0:
204,264,142589,1,2,3:2:0:0:
107,290,142964,1,10,0:0:0:0:
39,216,143339,2,0,B|27:189|27:189|40:112,2,100,0|8|0,3:2|0:0|3:2,0:0:0:0:
107,290,144464,1,8,0:0:0:0:
203,265,144839,6,0,B|205:313|245:334|245:334|292:295|368:317,1,200,6|2,3:2|3:2,0:0:0:0:
492,169,146339,2,0,B|500:118|500:118|473:55,1,100,2|10,3:2|0:0,0:0:0:0:
390,30,147089,2,0,B|340:43|340:43|273:41,1,100,2|10,3:2|0:0,0:0:0:0:
191,38,147839,6,0,B|186:77|219:113|219:113|238:190|159:212,1,200,2|2,3:2|3:2,0:0:0:0:
79,172,148964,1,10,0:0:0:0:
15,248,149339,2,0,B|7:284|7:284|41:345,2,100,2|10|2,3:2|0:0|3:2,0:0:0:0:
79,172,150464,1,10,0:0:0:0:
63,73,150839,6,0,B|103:65|103:65|122:68|122:68|171:60,1,100,2|10,3:2|0:0,0:0:0:0:
251,18,151589,2,0,B|291:26|291:26|310:23|310:23|359:31,1,100,2|10,3:2|0:0,0:0:0:0:
449,22,152339,1,2,3:2:0:0:
482,116,152714,1,10,0:0:0:0:
410,186,153089,2,0,P|422:234|435:282,1,100,2|10,3:2|0:0,0:0:0:0:
361,350,153839,6,0,B|335:317|278:324|278:324|232:370|161:340,1,200,2|2,3:2|3:2,0:0:0:0:
95,288,154964,1,8,0:0:0:0:
150,205,155339,2,0,B|162:178|162:178|149:101,2,100,2|8|0,3:2|0:0|3:2,0:0:0:0:
95,288,156464,1,8,0:0:0:0:
176,346,156839,5,6,3:2:0:0:
103,164,162839,6,0,B|196:115|202:200|303:138,1,200,6|0,3:2|3:2,0:0:0:0:
379,88,163964,1,0,3:2:0:0:
471,126,164339,2,0,B|478:180|439:206|439:206|413:263|455:315,1,200,0|0,3:2|3:2,0:0:0:0:
376,376,165464,1,0,3:2:0:0:
286,331,165839,6,0,P|237:342|187:349,1,100,0|0,3:2|3:2,0:0:0:0:
90,371,166589,1,0,3:2:0:0:
40,283,166964,1,0,3:2:0:0:
115,216,167339,2,0,P|127:168|110:122,2,100,0|0|0,3:2|3:2|3:2,0:0:0:0:
40,283,168464,1,0,3:2:0:0:
90,371,168839,5,6,3:1:0:0:
140,322,174839,6,0,B|200:349|246:330|246:330|280:285|343:294,1,200,2|2,3:2|3:2,0:0:0:0:
420,320,175964,1,8,0:0:0:0:
485,244,176339,2,0,P|475:194|467:145,1,100,0|10,3:2|0:0,0:0:0:0:
504,52,177089,1,0,3:2:0:0:
411,14,177464,1,10,0:0:0:0:
330,73,177839,6,0,P|281:77|238:53,1,100,0|10,3:2|0:0,0:0:0:0:
143,20,178589,2,0,P|94:15|51:39,1,100,0|10,3:2|0:0,0:0:0:0:
49,139,179339,2,0,B|69:204|69:204|63:238,2,100,0|8|0,3:2|0:0|3:2,0:0:0:0:
51,39,180464,1,8,0:0:0:0:
249,11,181214,5,6,3:1:0:0:
322,79,181589,2,0,P|297:121|306:169,1,100,2|8,3:2|0:0,0:0:0:0:
377,239,182339,2,0,B|343:272|343:272|235:259,1,150,2|2,3:2|0:0,0:0:0:0:
143,238,183276,2,0,P|131:190|157:149,1,100,2|2,0:0|0:0,0:0:0:0:
241,95,184026,6,0,P|233:51|183:18,1,100,2|2,0:0|0:0,0:0:0:0:
91,30,184776,2,0,P|59:35|32:40,1,50,2|10,0:0|0:0,0:0:0:0:
7,74,185151,2,0,P|47:136|43:210,1,150,2|10,0:0|0:0,0:0:0:0:
32,309,186089,1,2,3:2:0:0:
116,362,186464,1,10,0:0:0:0:
198,305,186839,6,0,P|238:332|286:325,1,100,2|10,3:2|0:0,0:0:0:0:
348,246,187589,2,0,P|335:198|327:149,1,100,2|10,3:2|0:0,0:0:0:0:
317,99,188151,2,0,B|347:96|377:71|377:71|415:69|462:93,1,150,2|10,0:0|0:0,0:0:0:0:
503,179,189089,2,0,P|495:228|482:276,1,100,0|10,3:2|0:0,0:0:0:0:
411,347,189839,6,0,P|369:321|320:326,1,100,0|10,3:2|0:0,0:0:0:0:
229,369,190589,1,2,3:2:0:0:
138,327,190964,1,10,0:0:0:0:
182,237,191339,2,0,B|193:167|193:167|181:140,2,100,0|8|0,3:2|0:0|3:2,0:0:0:0:
138,327,192464,1,8,0:0:0:0:
226,373,192839,6,0,P|274:376|316:350,1,100,6|10,3:2|0:0,0:0:0:0:
366,263,193589,1,2,3:2:0:0:
322,173,193964,1,10,0:0:0:0:
382,93,194339,2,0,B|360:73|315:71|315:71|199:104|199:104|206:41|157:12,1,300,2|10,3:2|0:0,0:0:0:0:
58,30,195839,6,0,P|30:70|37:118,1,100,2|10,3:2|0:0,0:0:0:0:
107,190,196589,1,2,3:2:0:0:
52,273,196964,1,10,0:0:0:0:
135,327,197339,2,0,B|161:302|201:305|201:305|245:352|317:338|317:338|338:285|309:230,1,300,2|10,3:2|0:0,0:0:0:0:
277,146,198839,6,0,P|227:147|183:124,2,100,2|10|2,3:2|0:0|3:2,0:0:0:0:
321,56,199964,1,10,0:0:0:0:
419,71,200339,2,0,B|445:96|446:136|446:136|410:181|426:259|426:259|475:296|471:344,1,300,2|10,3:2|0:0,0:0:0:0:
373,346,201839,6,0,P|324:340|286:308,1,100,2|10,3:2|0:0,0:0:0:0:
216,236,202589,1,2,3:2:0:0:
263,148,202964,1,10,0:0:0:0:
256,192,203339,12,0,204839,0:0:0:0:
