osu file format v14

[General]
AudioFilename: audio.mp3
AudioLeadIn: 0
PreviewTime: 60464
Countdown: 0
SampleSet: Soft
StackLeniency: 0.7
Mode: 0
LetterboxInBreaks: 0
WidescreenStoryboard: 0

[Editor]
Bookmarks: 96839,102839,168839,174839
DistanceSpacing: 0.8
BeatDivisor: 4
GridSize: 8
TimelineZoom: 1.9

[Metadata]
Title:Digital Life Hacker
TitleUnicode:Digital Life Hacker
Artist:wotoha
ArtistUnicode:をとは
Creator:Yuuma
Version:Insane
Source:
Tags:fa featured artist mappers' guild climbx3145 garden japanese pop jpop j-pop neko hacker electronic 海月ねう mitsuki neu mpg jelly girl
BeatmapID:3090764
BeatmapSetID:1509257

[Difficulty]
HPDrainRate:5
CircleSize:3.8
OverallDifficulty:7
ApproachRate:9
SliderMultiplier:1.8
SliderTickRate:1

[Events]
//Background and Video events
0,0,"aaaaaaaaaaaaaaaaaaaaaaa.jpg",0,0
//Break Periods
2,97039,102239
2,169039,174239
//Storyboard Layer 0 (Background)
//Storyboard Layer 1 (Fail)
//Storyboard Layer 2 (Pass)
//Storyboard Layer 3 (Foreground)
//Storyboard Layer 4 (Overlay)
//Storyboard Sound Samples

[TimingPoints]
839,375,4,2,1,50,1,0
839,-166.666666666667,4,2,1,50,0,0
6839,-142.857142857143,4,2,1,50,0,0
12370,-142.857142857143,4,2,1,5,0,0
12464,-142.857142857143,4,2,1,50,0,0
12557,-142.857142857143,4,2,1,5,0,0
12651,-142.857142857143,4,2,1,50,0,0
12745,-142.857142857143,4,2,1,5,0,0
12839,-100,4,2,1,70,0,0
14339,-83.3333333333333,4,2,1,70,0,0
15839,-100,4,2,1,70,0,0
17339,-83.3333333333333,4,2,1,70,0,0
18839,-100,4,2,1,70,0,0
20339,-83.3333333333333,4,2,1,70,0,0
21839,-100,4,2,1,70,0,0
24839,-142.857142857143,4,2,1,50,0,0
25589,-83.3333333333334,4,2,1,50,0,0
25776,-83.3333333333334,4,2,1,50,0,0
25870,-83.3333333333334,4,2,1,50,0,0
26057,-83.3333333333334,4,2,1,50,0,0
26151,-83.3333333333334,4,2,1,50,0,0
26432,-83.3333333333334,4,2,1,50,0,0
26526,-142.857142857143,4,2,1,50,0,0
27089,-83.3333333333333,4,2,1,50,0,0
27276,-83.3333333333333,4,2,1,50,0,0
27370,-83.3333333333333,4,2,1,50,0,0
27557,-83.3333333333333,4,2,1,50,0,0
27651,-83.3333333333333,4,2,1,50,0,0
27932,-83.3333333333333,4,2,1,50,0,0
28026,-142.857142857143,4,2,1,50,0,0
28589,-100,4,2,1,50,0,0
29714,-66.6666666666667,4,2,1,50,0,0
29995,-66.6666666666667,4,2,1,50,0,0
30089,-200,4,2,1,50,0,0
30370,-200,4,2,1,50,0,0
30464,-133.333333333333,4,2,1,50,0,0
30745,-133.333333333333,4,2,1,50,0,0
30839,-100,4,2,1,50,0,0
31589,-83.3333333333333,4,2,1,50,0,0
31776,-83.3333333333333,4,2,1,50,0,0
31870,-83.3333333333333,4,2,1,50,0,0
32057,-83.3333333333333,4,2,1,50,0,0
32151,-83.3333333333333,4,2,1,50,0,0
32432,-83.3333333333333,4,2,1,50,0,0
32526,-142.857142857143,4,2,1,50,0,0
33089,-83.3333333333334,4,2,1,50,0,0
33276,-83.3333333333334,4,2,1,50,0,0
33370,-83.3333333333334,4,2,1,50,0,0
33557,-83.3333333333334,4,2,1,50,0,0
33651,-83.3333333333334,4,2,1,50,0,0
33932,-83.3333333333334,4,2,1,50,0,0
34026,-142.857142857143,4,2,1,50,0,0
35714,-66.6666666666667,4,2,1,50,0,0
35995,-66.6666666666667,4,2,1,50,0,0
36089,-200,4,2,1,50,0,0
36370,-200,4,2,1,50,0,0
36464,-133.333333333333,4,2,1,50,0,0
36745,-133.333333333333,4,2,1,50,0,0
36839,-100,4,2,1,60,0,0
48089,-83.3333333333333,4,2,1,60,0,0
48464,-71.4285714285714,4,2,1,60,0,0
48839,-200,4,2,1,50,0,0
49589,-100,4,2,1,50,0,0
50339,-133.333333333333,4,2,1,50,0,0
51839,-200,4,2,1,50,0,0
52589,-100,4,2,1,50,0,0
53151,-133.333333333333,4,2,1,50,0,0
54839,-100,4,2,1,60,0,0
60089,-200,4,2,1,60,0,0
60370,-200,4,2,1,60,0,0
60464,-66.6666666666667,4,2,1,60,0,0
60745,-66.6666666666667,4,2,1,60,0,0
60839,-100,4,2,1,80,0,1
61120,-100,4,2,1,80,0,1
61214,-133.333333333333,4,2,1,80,0,1
61495,-133.333333333333,4,2,1,80,0,1
61589,-200,4,2,1,80,0,1
62151,-79.9999999999999,4,2,1,80,0,1
62432,-79.9999999999999,4,2,1,80,0,1
62526,-79.9999999999999,4,2,1,80,0,1
62901,-66.6666666666667,4,2,1,80,0,1
63276,-100,4,2,1,80,0,1
65151,-83.3333333333333,4,2,1,80,0,1
65432,-83.3333333333333,4,2,1,80,0,1
65526,-83.3333333333333,4,2,1,80,0,1
66089,-66.6666666666667,4,2,1,80,0,1
66839,-100,4,2,1,80,0,1
67214,-133.333333333333,4,2,1,80,0,1
67589,-200,4,2,1,80,0,1
68339,-66.6666666666667,4,2,1,80,0,1
68901,-57.1428571428571,4,2,1,80,0,1
69276,-100,4,2,1,80,0,1
72089,-100,4,2,1,60,0,1
72839,-399.999999999997,4,2,1,60,0,1
73120,-399.999999999997,4,2,1,60,0,1
73214,-66.6666666666667,4,2,1,80,0,1
73495,-66.6666666666667,4,2,1,80,0,1
73589,-133.333333333333,4,2,1,80,0,1
73964,-200,4,2,1,80,0,1
74151,-76.9230769230769,4,2,1,80,0,1
74901,-66.6666666666667,4,2,1,80,0,1
75276,-100,4,2,1,80,0,1
77151,-83.3333333333333,4,2,1,80,0,1
78089,-66.6666666666667,4,2,1,80,0,1
78839,-100,4,2,1,80,0,1
79214,-125,4,2,1,80,0,1
79589,-76.9230769230769,4,2,1,80,0,1
80901,-66.6666666666667,4,2,1,80,0,1
81276,-100,4,2,1,80,0,1
84839,-100,4,2,1,70,0,0
86339,-83.3333333333333,4,2,1,70,0,0
87839,-100,4,2,1,70,0,0
89339,-83.3333333333333,4,2,1,70,0,0
92339,-100,4,2,1,70,0,0
96839,-100,4,2,1,40,0,0
102839,-125,4,2,1,60,0,0
108839,-200,4,2,1,50,0,0
109589,-100,4,2,1,50,0,0
110339,-125,4,2,1,50,0,0
111839,-200,4,2,1,50,0,0
112589,-100,4,2,1,50,0,0
113151,-125,4,2,1,50,0,0
114839,-100,4,2,1,60,0,0
120089,-200,4,2,1,60,0,0
120464,-66.6666666666667,4,2,1,60,0,0
120839,-100,4,2,1,80,0,1
121214,-133.333333333333,4,2,1,80,0,1
121589,-200,4,2,1,80,0,1
122151,-79.9999999999999,4,2,1,80,0,1
122901,-66.6666666666667,4,2,1,80,0,1
123276,-100,4,2,1,80,0,1
125151,-83.3333333333333,4,2,1,80,0,1
126089,-66.6666666666667,4,2,1,80,0,1
126464,-333.333333333333,4,2,1,80,0,1
126839,-100,4,2,1,80,0,1
127214,-133.333333333333,4,2,1,80,0,1
127589,-200,4,2,1,80,0,1
128151,-66.6666666666667,4,2,1,80,0,1
128901,-57.1428571428571,4,2,1,80,0,1
129276,-100,4,2,1,80,0,1
132089,-100,4,2,1,60,0,1
132839,-399.999999999997,4,2,1,60,0,1
133214,-66.6666666666667,4,2,1,80,0,1
133589,-133.333333333333,4,2,1,80,0,1
134151,-76.9230769230769,4,2,1,80,0,1
134901,-66.6666666666667,4,2,1,80,0,1
135276,-100,4,2,1,80,0,1
137151,-83.3333333333333,4,2,1,80,0,1
138089,-66.6666666666667,4,2,1,80,0,1
138839,-100,4,2,1,80,0,1
139214,-125,4,2,1,80,0,1
139589,-76.9230769230769,4,2,1,80,0,1
140901,-66.6666666666667,4,2,1,80,0,1
141276,-100,4,2,1,80,0,1
144839,-100,4,2,1,70,0,0
156839,-100,4,2,1,60,0,0
168839,-100,4,2,1,40,0,0
174839,-100,4,2,1,60,0,0
179339,-100,4,2,1,70,0,0
180089,-100,4,2,1,60,0,0
180839,-500,4,2,1,60,0,0
181214,-50,4,2,1,80,0,1
181589,-200,4,2,1,80,0,1
182151,-79.9999999999999,4,2,1,80,0,1
182901,-66.6666666666667,4,2,1,80,0,1
183276,-100,4,2,1,80,0,1
185151,-83.3333333333333,4,2,1,80,0,1
186089,-66.6666666666667,4,2,1,80,0,1
186839,-100,4,2,1,80,0,1
188151,-83.3333333333333,4,2,1,80,0,1
188901,-66.6666666666667,4,2,1,80,0,1
189276,-100,4,2,1,80,0,1
192839,-100,4,2,1,76,0,0
194339,-83.3333333333333,4,2,1,76,0,0
195839,-100,4,2,1,76,0,0
197339,-83.3333333333333,4,2,1,76,0,0
198839,-100,4,2,1,76,0,0
200339,-83.3333333333333,4,2,1,76,0,0
201839,-100,4,2,1,76,0,0
204089,-100,4,2,1,56,0,0

[Colours]
Combo1 : 255,191,255
Combo2 : 164,164,210
Combo3 : 182,249,254

[HitObjects]
106,38,839,6,0,P|69:50|48:64,2,53.9999983520508,6|0|2,3:2|0:0|0:0,0:0:0:0:
201,60,1401,1,0,0:0:0:0:
115,128,1589,2,0,P|97:157|91:182,1,53.9999983520508,2|0,0:0|0:0,0:0:0:0:
203,238,1964,2,0,P|190:214|183:189,1,53.9999983520508,2|2,0:0|0:0,0:0:0:0:
299,107,2339,6,0,L|355:99,1,53.9999983520508,2|2,0:0|0:0,0:0:0:0:
268,184,2714,1,2,0:0:0:0:
291,266,2901,1,2,0:0:0:0:
268,184,3276,5,2,0:0:0:0:
291,266,3464,2,0,L|285:304,3,26.9999991760254,2|2|2|2,0:0|0:0|0:0|0:0,0:0:0:0:
372,265,3839,6,0,P|409:283|432:286,2,53.9999983520508,2|0|2,0:0|0:0|0:0,0:0:0:0:
316,185,4401,1,0,0:0:0:0:
426,198,4589,2,0,P|455:187|481:166,1,53.9999983520508,2|0,0:0|0:0,0:0:0:0:
403,112,4964,1,2,0:0:0:0:
316,185,5151,2,0,L|304:62,1,107.999996704102,2|2,0:0|0:0,0:0:0:0:
403,112,5714,1,2,0:0:0:0:
232,169,5901,2,0,P|137:149|118:149,1,107.999996704102,2|2,0:0|0:0,0:0:0:0:
56,204,6464,2,0,P|36:213|17:214,3,26.9999991760254,2|2|2|2,0:0|0:0|0:0|0:0,0:0:0:0:
8,187,6839,6,0,L|3:113,1,62.9999980773926,10|0,0:1|0:0,0:0:0:0:
109,115,7214,2,0,L|104:53,1,62.9999980773926,10|2,0:1|0:0,0:0:0:0:
228,191,7589,2,0,L|157:201,1,62.9999980773926,10|0,0:1|0:0,0:0:0:0:
322,87,7964,2,0,L|242:95,1,62.9999980773926,10|0,0:1|0:0,0:0:0:0:
402,188,8339,6,0,L|449:139,1,62.9999980773926,10|2,0:1|0:0,0:0:0:0:
396,279,8714,1,10,0:1:0:0:
292,239,8901,2,0,L|219:212,1,62.9999980773926,2|8,0:0|0:1,0:0:0:0:
324,335,9276,5,2,0:0:0:0:
396,279,9464,1,10,0:1:0:0:
478,331,9651,2,0,P|494:293|491:261,1,62.9999980773926,2|8,0:0|0:1,0:0:0:0:
377,146,10026,5,10,0:1:0:0:
396,279,10214,1,10,0:1:0:0:
263,298,10401,1,10,0:1:0:0:
244,165,10589,1,10,0:1:0:0:
377,146,10776,1,10,0:1:0:0:
396,279,10964,2,0,L|407:358,1,62.9999980773926,10|10,0:1|0:1,0:0:0:0:
263,298,11339,5,8,0:1:0:0:
231,301,11432,1,0,3:3:0:0:
201,294,11526,1,0,3:3:0:0:
175,277,11620,1,0,3:3:0:0:
156,252,11714,1,0,3:3:0:0:
147,222,11807,1,0,3:3:0:0:
148,191,11901,2,0,L|154:142,1,31.4999990386963,0|0,3:3|3:3,0:0:0:0:
225,37,12276,5,2,0:0:0:0:
238,209,12464,1,2,0:0:0:0:
236,22,12651,1,2,0:0:0:0:
338,198,12839,6,0,P|375:220|419:214,1,90,6|2,3:1|0:0,0:0:0:0:
441,78,13214,2,0,P|403:55|359:61,1,90,10|2,0:0|0:0,0:0:0:0:
238,209,13589,2,0,B|136:212|182:124|79:124,1,180,2|10,3:2|0:0,0:0:0:0:
78,208,14151,1,0,0:0:0:0:
231,127,14339,6,0,P|220:61|211:17,1,107.999996704102,2|0,3:2|0:0,0:0:0:0:
338,185,14714,2,0,P|349:119|358:75,1,107.999996704102,10|0,0:0|0:0,0:0:0:0:
167,261,15089,2,0,P|158:207|147:154,1,107.999996704102,2|0,3:2|0:0,0:0:0:0:
270,345,15464,2,0,P|278:291|289:238,1,107.999996704102,10|0,0:0|0:0,0:0:0:0:
409,318,15839,6,0,P|461:313|499:269,1,90,2|2,3:2|0:0,0:0:0:0:
445,156,16214,2,0,P|393:161|355:205,1,90,10|2,0:0|0:0,0:0:0:0:
260,315,16589,2,0,B|204:242|302:225|238:146,1,180,2|10,3:2|0:0,0:0:0:0:
332,263,17151,1,0,0:0:0:0:
169,196,17339,5,2,3:2:0:0:
169,196,17526,1,2,0:0:0:0:
312,105,17714,1,10,0:0:0:0:
312,105,17901,1,2,0:0:0:0:
250,272,18089,2,0,L|235:157,1,107.999996704102,2|0,3:2|0:0,0:0:0:0:
414,62,18464,2,0,L|400:169,1,107.999996704102,10|0,0:0|0:0,0:0:0:0:
369,331,18839,6,0,P|334:358|290:358,1,90,2|2,3:2|0:0,0:0:0:0:
245,229,19214,2,0,P|279:201|323:201,1,90,10|2,0:0|0:0,0:0:0:0:
290,358,19589,1,2,3:2:0:0:
200,336,19776,1,2,0:0:0:0:
146,258,19964,2,0,B|134:216|134:216|144:170,1,90,10|0,0:0|0:0,0:0:0:0:
342,41,20339,6,0,L|360:153,1,107.999996704102,2|0,3:2|0:0,0:0:0:0:
217,213,20714,2,0,L|234:96,1,107.999996704102,10|0,0:0|0:0,0:0:0:0:
443,67,21089,2,0,L|461:179,1,107.999996704102,2|0,3:2|0:0,0:0:0:0:
302,279,21464,2,0,L|319:172,1,107.999996704102,10|0,0:0|0:0,0:0:0:0:
206,34,21839,6,0,P|146:29|108:61,1,90,2|2,3:2|0:0,0:0:0:0:
138,182,22214,2,0,P|198:187|236:155,1,90,10|2,0:0|0:0,0:0:0:0:
204,17,22589,2,0,P|144:12|106:44,1,90,2|2,3:2|0:0,0:0:0:0:
140,200,22964,2,0,P|200:205|238:173,1,90,10|2,0:0|0:0,0:0:0:0:
352,83,23339,5,0,3:2:0:0:
385,54,23432,1,0,3:2:0:0:
429,46,23526,1,0,3:2:0:0:
471,63,23620,1,0,3:2:0:0:
498,98,23714,1,8,0:0:0:0:
503,142,23807,1,0,3:2:0:0:
485,182,23901,1,0,3:2:0:0:
449,208,23995,1,0,3:2:0:0:
406,221,24089,2,0,L|311:210,1,90,0|0,3:2|3:2,0:0:0:0:
167,106,24464,2,0,L|262:95,1,90,8|0,0:0|3:2,0:0:0:0:
227,268,24839,6,0,P|192:324|111:317,1,125.999996154785,6|8,3:2|0:1,0:0:0:0:
136,330,25589,2,0,P|136:258|148:220,1,107.999996704102,2|0,3:2|0:0,0:0:0:0:
63,191,25870,2,0,P|154:147|166:148,1,107.999996704102,2|0,3:2|0:0,0:0:0:0:
181,71,26151,2,0,P|223:106|245:224,1,161.999995056153,2|0,3:2|0:0,0:0:0:0:
238,304,26526,5,0,0:0:0:0:
238,304,26714,2,0,P|269:295|302:290,1,62.9999980773926,10|0,0:1|0:0,0:0:0:0:
445,199,27089,2,0,P|409:178|337:169,1,107.999996704102,2|0,3:2|0:0,0:0:0:0:
272,106,27370,2,0,P|326:92|389:100,1,107.999996704102,2|0,3:2|0:0,0:0:0:0:
446,227,27651,2,0,P|344:188|291:198,1,161.999995056153,2|0,3:2|0:0,0:0:0:0:
213,237,28026,5,0,0:0:0:0:
213,237,28214,2,0,L|224:321,1,62.9999980773926,10|0,0:1|0:0,0:0:0:0:
113,278,28589,2,0,P|64:225|80:169,2,135,2|2|2,3:2|3:2|3:2,0:0:0:0:
113,278,29714,6,0,L|124:72,1,202.500007724762,2|0,3:2|0:0,0:0:0:0:
197,42,30089,2,0,P|218:65|266:69,1,67.5,2|0,3:2|0:0,0:0:0:0:
265,153,30464,2,0,P|327:118|332:78,1,101.250003862381,10|0,3:1|0:0,0:0:0:0:
411,45,30839,5,2,3:2:0:0:
447,127,31026,1,0,0:0:0:0:
432,216,31214,1,10,0:1:0:0:
464,123,31401,1,0,0:0:0:0:
411,45,31589,6,0,L|266:29,1,107.999996704102,2|0,3:2|0:0,0:0:0:0:
286,115,31870,2,0,L|141:99,1,107.999996704102,2|0,3:2|0:0,0:0:0:0:
167,186,32151,2,0,L|-16:163,1,161.999995056153,2|0,3:2|0:0,0:0:0:0:
53,92,32526,5,0,0:0:0:0:
53,92,32714,2,0,P|61:123|59:161,1,62.9999980773926,8|0,0:1|0:0,0:0:0:0:
131,227,33089,6,0,P|70:262|26:259,1,107.999996704102,2|0,3:2|0:0,0:0:0:0:
198,285,33370,2,0,P|258:320|278:359,1,107.999996704102,2|0,3:2|0:0,0:0:0:0:
217,199,33651,2,0,P|217:128|291:73,1,161.999995056153,2|0,3:2|0:0,0:0:0:0:
370,101,34026,5,0,0:0:0:0:
370,101,34214,2,0,L|354:190,1,62.9999980773926,8|0,0:1|0:0,0:0:0:0:
342,267,34589,2,0,B|378:258|378:258|392:259|392:259|434:250,2,94.499997116089,2|2|2,3:2|3:2|3:2,0:0:0:0:
342,267,35714,6,0,B|268:280|234:217|234:217|230:262|172:287,1,202.500007724762,2|0,3:2|0:0,0:0:0:0:
123,316,36089,2,0,P|113:263|127:233,1,67.5,2|0,3:2|0:0,0:0:0:0:
54,195,36464,2,0,P|85:169|150:174,1,101.250003862381,2|0,3:2|0:0,0:0:0:0:
228,128,36839,6,0,L|234:217,1,90,6|0,3:2|0:0,0:0:0:0:
276,260,37120,1,0,0:0:0:0:
276,260,37214,1,10,0:0:0:0:
397,140,37401,2,0,P|360:125|335:127,1,45,2|0,0:0|0:0,0:0:0:0:
381,239,37589,2,0,P|447:228|473:206,1,90,2|0,3:2|0:0,0:0:0:0:
491,178,37870,1,2,0:0:0:0:
491,178,37964,2,0,L|494:124,1,45,8|0,0:0|0:0,0:0:0:0:
366,53,38151,2,0,L|373:120,1,45,2|0,0:0|0:0,0:0:0:0:
293,180,38339,6,0,B|260:175|260:175|238:182|238:182|204:177,1,90,0|2,3:2|0:0,0:0:0:0:
366,53,38714,1,10,0:0:0:0:
382,203,38901,1,2,0:0:0:0:
382,203,38995,1,0,0:0:0:0:
382,203,39089,2,0,P|370:257|341:286,1,90,2|0,3:2|0:0,0:0:0:0:
317,295,39370,1,2,0:0:0:0:
317,295,39464,2,0,L|261:288,1,45,8|0,0:0|0:0,0:0:0:0:
221,204,39651,2,0,L|165:197,1,45,2|0,0:0|0:0,0:0:0:0:
97,264,39839,5,0,3:2:0:0:
196,356,40026,1,2,0:0:0:0:
196,356,40120,1,0,0:0:0:0:
196,356,40214,2,0,P|209:297|196:259,1,90,10|0,0:0|0:0,0:0:0:0:
176,198,40495,1,0,0:0:0:0:
176,198,40589,2,0,P|163:139|176:101,1,90,2|0,3:2|0:0,0:0:0:0:
196,38,40870,1,2,0:0:0:0:
196,38,40964,1,8,0:0:0:0:
269,159,41151,1,2,0:0:0:0:
170,111,41339,5,0,3:2:0:0:
300,35,41526,1,0,0:0:0:0:
300,35,41620,1,0,0:0:0:0:
300,35,41714,6,0,P|358:52|400:53,1,90,10|0,0:0|0:0,0:0:0:0:
170,111,42089,2,0,P|111:122|79:146,1,90,2|0,3:2|0:0,0:0:0:0:
260,248,42464,2,0,L|270:144,1,90,10|0,0:0|0:0,0:0:0:0:
76,48,42839,6,0,L|90:174,1,90,6|0,3:2|0:0,0:0:0:0:
63,185,43120,1,0,0:0:0:0:
63,185,43214,1,10,0:0:0:0:
163,271,43401,2,0,P|170:247|165:214,1,45,2|0,0:0|0:0,0:0:0:0:
60,279,43589,2,0,P|69:328|111:365,1,90,2|0,3:2|0:0,0:0:0:0:
141,371,43870,1,2,0:0:0:0:
141,371,43964,2,0,L|185:364,1,45,8|0,0:0|0:0,0:0:0:0:
266,281,44151,2,0,L|318:288,1,45,2|0,0:0|0:0,0:0:0:0:
425,352,44339,6,0,P|445:295|436:258,1,90,0|2,3:2|0:0,0:0:0:0:
280,162,44714,1,10,0:0:0:0:
379,128,44901,1,0,0:0:0:0:
379,128,44995,1,0,0:0:0:0:
379,128,45089,2,0,L|363:250,1,90,2|0,3:2|0:0,0:0:0:0:
356,299,45370,1,2,0:0:0:0:
356,299,45464,2,0,L|311:292,1,45,8|0,0:0|0:0,0:0:0:0:
219,217,45651,2,0,L|174:223,1,45,2|0,0:0|0:0,0:0:0:0:
90,306,45839,5,0,3:2:0:0:
230,377,46026,1,2,0:0:0:0:
230,377,46120,1,0,0:0:0:0:
230,377,46214,2,0,L|235:324,1,45,10|0,0:0|0:0,0:0:0:0:
219,217,46401,2,0,L|215:158,1,45,2|0,0:0|0:0,0:0:0:0:
257,57,46589,2,0,P|309:46|355:74,1,90,2|0,3:2|0:0,0:0:0:0:
409,105,46870,1,2,0:0:0:0:
409,105,46964,1,8,0:0:0:0:
294,185,47151,1,2,0:0:0:0:
162,37,47339,5,4,0:3:0:0:
149,39,47432,1,8,0:3:0:0:
136,41,47526,1,0,3:2:0:0:
123,43,47620,1,0,3:2:0:0:
110,45,47714,6,0,P|97:118|111:143,1,90,8|0,0:0|0:0,0:0:0:0:
294,185,48089,2,0,P|264:140|213:128,1,107.999996704102,0|0,3:2|0:0,0:0:0:0:
51,269,48464,2,0,P|124:264|161:226,1,125.999996154785,8|0,0:0|0:0,0:0:0:0:
272,33,48839,6,0,P|227:34|185:51,1,90,6|0,3:1|0:0,0:0:0:0:
253,152,49401,1,0,3:2:0:0:
317,26,49589,2,0,P|228:19|146:56,1,180,8|0,0:0|0:0,0:0:0:0:
81,122,50151,1,0,3:2:0:0:
108,279,50339,6,0,L|97:212,1,67.5000025749208,0|0,0:0|3:2,0:0:0:0:
175,156,50714,2,0,L|185:222,1,67.5000025749208,0|0,0:0|3:2,0:0:0:0:
211,245,50995,1,0,3:2:0:0:
211,245,51089,1,8,0:0:0:0:
299,289,51276,1,0,0:0:0:0:
392,248,51464,1,0,0:0:0:0:
299,289,51651,1,0,0:0:0:0:
211,245,51839,6,0,L|197:147,1,90,0|0,3:2|0:0,0:0:0:0:
267,76,52401,1,0,3:2:0:0:
194,275,52589,2,0,L|166:97,1,180,8|0,0:0|0:0,0:0:0:0:
267,76,53151,6,0,P|325:60|356:60,1,67.5000025749208,0|0,3:2|0:0,0:0:0:0:
395,133,53526,1,0,3:2:0:0:
263,172,53714,2,0,P|205:156|174:156,1,67.5000025749208,0|0,0:0|3:2,0:0:0:0:
117,209,53995,1,0,3:2:0:0:
117,209,54089,1,8,0:0:0:0:
200,278,54276,1,0,0:0:0:0:
122,352,54464,1,0,0:0:0:0:
223,279,54651,1,0,0:0:0:0:
92,202,54839,6,0,L|0:180,1,90,6|0,3:2|0:0,0:0:0:0:
170,84,55214,2,0,P|241:143|298:129,1,135,2|8,3:2|0:1,0:0:0:0:
347,100,55589,1,0,3:2:0:0:
347,100,55682,2,0,P|389:84|442:84,1,90,8|0,0:1|0:0,0:0:0:0:
501,124,55964,2,0,L|490:236,1,90,0|2,3:2|0:0,0:0:0:0:
302,306,56339,5,2,3:2:0:0:
390,290,56526,1,2,0:0:0:0:
208,218,56714,1,10,3:1:0:0:
296,201,56901,2,0,L|353:192,1,45,2|8,0:0|0:1,0:0:0:0:
211,322,57089,1,2,3:2:0:0:
211,322,57182,2,0,L|122:314,1,90,8|0,0:1|0:0,0:0:0:0:
47,346,57464,2,0,P|37:303|55:263,1,90,8|2,3:1|0:0,0:0:0:0:
169,162,57839,5,2,3:2:0:0:
211,322,58026,1,10,0:1:0:0:
47,346,58214,1,10,3:1:0:0:
211,322,58401,2,0,L|266:313,1,45,8|0,0:1|0:0,0:0:0:0:
119,260,58589,5,2,3:2:0:0:
78,241,58682,1,0,0:0:0:0:
54,204,58776,1,8,0:1:0:0:
53,160,58870,1,0,0:0:0:0:
77,122,58964,2,0,L|182:106,1,90,2|10,3:2|0:1,0:0:0:0:
243,137,59245,1,0,0:0:0:0:
243,137,59339,6,0,L|297:128,3,45,2|8|8|8,3:2|0:1|0:1|0:1,0:0:0:0:
134,197,59714,2,0,L|143:242,1,45,2|8,3:2|0:1,0:0:0:0:
277,252,59901,2,0,L|270:296,1,45,8|8,0:1|0:1,0:0:0:0:
170,377,60089,6,0,P|139:366|95:361,1,67.5,2|0,0:0|0:0,0:0:0:0:
85,337,60464,6,0,P|172:286|289:306,1,202.500007724762,8|0,0:0|0:0,0:0:0:0:
355,336,60839,6,0,P|413:298|406:223,1,135,6|0,3:1|0:0,0:0:0:0:
489,198,61214,2,0,P|455:161|406:157,1,101.250003862381,10|0,0:0|0:0,0:0:0:0:
396,72,61589,2,0,P|350:88|336:106,1,67.5,2|0,3:2|0:0,0:0:0:0:
406,157,61964,1,8,0:0:0:0:
246,62,62151,6,0,B|219:111|236:150|253:139|271:180|246:230,1,168.75,2|0,0:0|0:0,0:0:0:0:
171,184,62526,2,0,L|103:169,1,56.25,2|0,0:0|0:0,0:0:0:0:
322,104,62714,2,0,L|389:92,1,56.25,10|0,0:0|0:0,0:0:0:0:
252,233,62901,2,0,B|278:181|256:131|236:145|215:98|248:39,1,202.500007724762,2|0,0:0|0:0,0:0:0:0:
259,28,63276,5,2,0:0:0:0:
356,40,63464,1,10,0:0:0:0:
449,54,63651,2,0,L|441:181,1,90,2|0,0:0|3:2,0:0:0:0:
259,167,64026,5,2,0:0:0:0:
162,179,64214,1,10,0:0:0:0:
69,193,64401,2,0,L|77:320,1,90,2|0,0:0|3:2,0:0:0:0:
256,351,64776,5,2,0:0:0:0:
292,259,64964,1,10,0:0:0:0:
259,167,65151,2,0,P|174:182|214:269,1,161.999995056153,2|0,0:0|0:0,0:0:0:0:
174,243,65526,1,2,0:0:0:0:
292,259,65714,2,0,L|355:247,1,53.9999983520508,10|0,0:0|0:0,0:0:0:0:
206,137,65901,2,0,L|142:130,1,53.9999983520508,2|0,0:0|0:0,0:0:0:0:
324,57,66089,6,0,B|393:148|281:154|355:265,1,202.500007724762,2|0,3:2|0:0,0:0:0:0:
164,342,66464,2,0,P|169:269|163:259,1,67.5000025749208,10|0,0:0|0:0,0:0:0:0:
152,131,66651,2,0,P|147:204|153:214,1,67.5000025749208,2|0,0:0|0:0,0:0:0:0:
344,247,66839,6,0,L|493:230,1,135,2|0,3:2|0:0,0:0:0:0:
308,167,67214,2,0,L|421:154,1,101.250003862381,10|0,0:0|0:0,0:0:0:0:
272,83,67589,2,0,L|333:76,1,45,2|0,3:2|0:0,0:0:0:0:
334,83,67870,2,0,L|389:76,1,45,2|0,0:0|0:0,0:0:0:0:
395,85,68151,2,0,L|437:79,1,22.5,2|0,0:0|0:0,0:0:0:0:
298,23,68339,6,0,P|277:49|271:82,1,67.5000025749208,2|0,3:2|0:0,0:0:0:0:
161,112,68526,2,0,P|173:142|199:164,1,67.5000025749208,2|0,0:0|0:0,0:0:0:0:
341,236,68714,2,0,P|328:205|302:183,1,67.5000025749208,10|0,0:0|0:0,0:0:0:0:
128,245,68901,2,0,P|161:249|142:112,1,236.250002253056,2|0,0:0|0:0,0:0:0:0:
80,88,69276,5,2,0:0:0:0:
29,169,69464,1,10,0:0:0:0:
57,260,69651,2,0,P|73:314|72:369,1,90,2|0,0:0|3:2,0:0:0:0:
80,88,70026,6,0,L|141:81,1,45,2|0,0:0|0:0,0:0:0:0:
180,163,70214,2,0,L|241:156,1,45,10|0,0:0|0:0,0:0:0:0:
284,235,70401,2,0,L|372:224,1,90,2|2,0:0|3:2,0:0:0:0:
324,93,70776,5,2,0:0:0:0:
224,157,70964,1,10,0:0:0:0:
120,220,71151,1,2,0:0:0:0:
325,341,71339,5,0,3:0:0:0:
342,312,71432,1,0,3:2:0:0:
348,279,71526,1,0,3:2:0:0:
342,246,71620,1,0,3:2:0:0:
324,217,71714,1,8,0:0:0:0:
307,188,71807,1,0,3:2:0:0:
300,155,71901,1,0,3:2:0:0:
306,122,71995,1,0,3:2:0:0:
324,93,72089,6,0,L|351:88,6,22.5,0|0|0|0|0|0|0,3:0|0:0|0:0|0:0|0:0|0:0|0:0,0:0:0:0:
242,58,72464,2,0,L|215:53,2,22.5,8|0|0,0:0|0:0|0:0,0:0:0:0:
189,134,72651,2,0,L|162:129,2,22.5,0|0|0,0:0|0:0|0:0,0:0:0:0:
138,212,72839,6,0,L|103:206,1,33.75,0|0,0:0|0:0,0:0:0:0:
189,134,73214,6,0,L|388:99,1,202.500007724762,6|0,3:1|0:0,0:0:0:0:
446,39,73589,2,0,P|473:98|454:150,1,101.250003862381,2|2,3:2|0:0,0:0:0:0:
431,200,73964,1,10,0:0:0:0:
388,98,74151,6,0,P|337:157|389:262,1,175.499991966248,2|0,0:0|0:0,0:0:0:0:
486,314,74526,2,0,P|449:291|406:291,1,58.4999973220826,2|0,0:0|0:0,0:0:0:0:
306,339,74714,2,0,P|360:326|373:301,1,58.4999973220826,10|0,0:0|0:0,0:0:0:0:
375,79,74901,2,0,P|323:126|364:274,1,202.500007724762,2|0,0:0|0:0,0:0:0:0:
361,244,75276,5,2,0:0:0:0:
446,181,75464,1,10,0:0:0:0:
512,267,75651,2,0,L|501:377,1,90,2|0,0:0|3:2,0:0:0:0:
361,244,76026,5,2,0:0:0:0:
276,307,76214,1,10,0:0:0:0:
210,221,76401,2,0,L|221:111,1,90,2|0,0:0|3:2,0:0:0:0:
361,244,76776,5,2,0:0:0:0:
361,244,76964,1,10,0:0:0:0:
276,307,77151,2,0,P|188:282|77:275,1,161.999995056153,2|0,0:0|0:0,0:0:0:0:
35,286,77526,1,2,0:0:0:0:
51,175,77714,2,0,P|94:156|134:148,1,53.9999983520508,10|0,0:0|0:0,0:0:0:0:
166,85,77901,2,0,P|225:97|262:119,1,53.9999983520508,2|0,0:0|0:0,0:0:0:0:
317,91,78089,6,0,P|293:211|210:220,1,202.500007724762,2|0,3:2|0:0,0:0:0:0:
183,316,78464,2,0,P|149:284|144:246,1,67.5000025749208,10|0,0:0|0:0,0:0:0:0:
50,267,78651,2,0,P|52:233|69:205,1,67.5000025749208,2|0,0:0|0:0,0:0:0:0:
91,107,78839,6,0,B|148:101|155:163|220:144,1,135,2|0,3:2|0:0,0:0:0:0:
236,66,79214,2,0,P|180:46|151:56,1,72,10|2,0:0|0:0,0:0:0:0:
223,230,79589,2,0,P|266:216|285:183,1,58.4999973220826,2|0,3:2|0:0,0:0:0:0:
362,223,79776,2,0,P|360:184|320:141,1,58.4999973220826,2|0,0:0|0:0,0:0:0:0:
422,110,79964,2,0,P|374:84|337:96,1,58.4999973220826,10|0,0:0|0:0,0:0:0:0:
236,66,80151,6,0,B|242:151|242:151|241:159|241:159|248:253,1,175.499991966248,2|0,0:0|0:0,0:0:0:0:
160,120,80526,1,2,0:0:0:0:
327,196,80714,1,10,0:0:0:0:
235,50,80901,2,0,B|241:143|241:143|240:152|240:152|248:255,1,202.500007724762,2|0,0:0|0:0,0:0:0:0:
256,333,81276,5,2,0:0:0:0:
171,363,81464,1,10,0:0:0:0:
83,340,81651,2,0,P|65:274|86:224,1,90,2|0,0:0|3:2,0:0:0:0:
215,183,82026,1,2,0:0:0:0:
304,195,82214,1,10,0:0:0:0:
393,205,82401,1,2,0:0:0:0:
215,183,82589,1,2,3:2:0:0:
67,274,82776,1,2,0:0:0:0:
246,303,82964,2,0,L|343:280,1,90,10|2,0:0|0:0,0:0:0:0:
279,109,83339,5,0,3:2:0:0:
249,75,83432,1,0,3:2:0:0:
207,60,83526,1,0,3:2:0:0:
164,69,83620,1,0,3:2:0:0:
131,99,83714,1,8,0:0:0:0:
117,141,83807,1,0,3:2:0:0:
127,185,83901,2,0,L|136:245,1,45,0|0,3:2|3:2,0:0:0:0:
142,353,84089,6,0,L|291:322,1,135,0|0,3:2|3:2,0:0:0:0:
355,345,84464,2,0,L|409:333,3,45,8|0|0|0,0:0|3:2|3:2|3:2,0:0:0:0:
475,278,84839,6,0,P|499:218|485:181,1,90,6|2,3:2|0:0,0:0:0:0:
365,134,85214,2,0,P|353:80|384:31,1,90,10|2,0:0|0:0,0:0:0:0:
385,235,85589,2,0,P|287:213|176:206,1,180,2|10,3:2|0:0,0:0:0:0:
281,304,86151,1,0,0:0:0:0:
106,243,86339,6,0,P|96:294|124:339,1,107.999996704102,2|0,3:2|0:0,0:0:0:0:
281,304,86714,2,0,P|290:252|262:207,1,107.999996704102,10|0,0:0|0:0,0:0:0:0:
110,313,87089,2,0,P|139:357|191:369,1,107.999996704102,2|0,3:2|0:0,0:0:0:0:
276,233,87464,2,0,P|247:189|195:177,1,107.999996704102,10|0,0:0|0:0,0:0:0:0:
163,361,87839,6,0,P|214:370|256:345,1,90,2|2,3:2|0:0,0:0:0:0:
371,302,88214,2,0,P|437:280|480:275,1,90,10|2,0:0|0:0,0:0:0:0:
372,147,88589,2,0,P|275:172|177:177,1,180,2|10,3:2|0:0,0:0:0:0:
69,143,89151,1,0,0:0:0:0:
166,53,89339,5,2,3:2:0:0:
166,53,89526,1,2,0:0:0:0:
195,177,89714,1,10,0:0:0:0:
195,177,89901,1,2,0:0:0:0:
96,260,90089,2,0,B|62:269|43:279|43:279|27:261|2:247,1,107.999996704102,2|0,3:2|0:0,0:0:0:0:
72,40,90464,2,0,B|102:35|125:21|125:21|136:41|165:52,1,107.999996704102,10|0,0:0|0:0,0:0:0:0:
317,124,90839,6,0,L|307:237,1,107.999996704102,2|2,3:2|0:0,0:0:0:0:
204,284,91214,2,0,L|194:176,1,107.999996704102,10|2,0:0|0:0,0:0:0:0:
256,51,91589,1,2,3:2:0:0:
351,27,91776,1,2,0:0:0:0:
420,111,91964,2,0,P|441:152|425:218,1,107.999996704102,10|0,0:0|0:0,0:0:0:0:
346,326,92339,6,0,P|281:308|216:304,1,90,2|0,3:2|0:0,0:0:0:0:
357,345,92714,2,0,P|292:327|227:323,1,90,10|0,0:0|0:0,0:0:0:0:
197,165,93089,2,0,P|262:183|327:187,1,90,2|0,3:2|0:0,0:0:0:0:
186,146,93464,2,0,P|251:164|316:168,1,90,10|0,0:0|0:0,0:0:0:0:
458,137,93839,6,0,L|448:37,1,90,2|2,3:2|0:0,0:0:0:0:
382,214,94214,2,0,L|390:303,1,90,10|2,0:0|0:0,0:0:0:0:
273,166,94589,2,0,L|263:66,1,90,2|2,3:2|0:0,0:0:0:0:
197,243,94964,2,0,L|205:332,1,90,10|2,0:0|0:0,0:0:0:0:
40,222,95339,5,0,3:2:0:0:
20,194,95432,1,0,3:2:0:0:
14,161,95526,1,0,3:2:0:0:
24,129,95620,1,0,3:2:0:0:
46,104,95714,1,8,0:0:0:0:
77,91,95807,1,0,3:2:0:0:
110,93,95901,1,0,3:2:0:0:
140,109,95995,1,0,3:2:0:0:
164,132,96089,2,0,P|215:146|277:146,1,90,0|0,3:2|3:2,0:0:0:0:
396,123,96464,2,0,P|448:102|491:73,1,90,8|0,0:0|3:2,0:0:0:0:
308,48,96839,5,6,3:2:0:0:
427,50,102839,6,0,P|413:89|408:127,1,72,6|2,3:2|0:0,0:0:0:0:
298,154,103214,2,0,P|339:194|397:224,1,108,10|0,0:0|0:0,0:0:0:0:
398,241,103589,2,0,P|324:255|291:267,1,108,2|2,3:2|0:0,0:0:0:0:
259,288,103964,1,8,0:0:0:0:
162,193,104151,6,0,P|142:277|139:340,1,144,2|2,0:0|0:0,0:0:0:0:
28,161,104714,2,0,L|111:140,1,72,10|2,0:0|0:0,0:0:0:0:
265,57,105089,2,0,L|132:43,1,108,2|2,3:2|0:0,0:0:0:0:
114,41,105464,1,8,0:0:0:0:
183,224,105651,2,0,L|192:138,1,72,2|0,0:0|3:2,0:0:0:0:
350,46,106026,5,2,0:0:0:0:
350,46,106214,2,0,L|360:124,1,72,10|2,0:0|0:0,0:0:0:0:
384,257,106589,2,0,P|342:284|307:281,1,72,2|0,3:2|0:0,0:0:0:0:
246,249,106870,1,2,0:0:0:0:
246,249,106964,2,0,P|182:223|156:233,1,72,8|2,0:0|0:0,0:0:0:0:
80,274,107339,5,4,0:3:0:0:
78,282,107432,1,8,0:3:0:0:
77,291,107526,1,2,3:2:0:0:
76,300,107620,1,0,3:2:0:0:
75,309,107714,1,10,0:0:0:0:
242,364,108089,1,2,3:2:0:0:
384,257,108464,1,10,0:0:0:0:
225,118,108839,6,0,L|232:215,1,90,6|0,3:1|0:0,0:0:0:0:
315,157,109401,1,2,3:2:0:0:
190,74,109589,2,0,L|206:266,1,180,10|0,0:0|0:0,0:0:0:0:
214,357,110151,1,2,3:2:0:0:
342,272,110339,6,0,L|415:285,1,72,0|0,0:0|3:2,0:0:0:0:
440,256,110620,1,0,3:2:0:0:
440,256,110714,2,0,L|428:183,1,72,0|0,0:0|3:2,0:0:0:0:
346,116,111089,1,8,0:0:0:0:
248,174,111276,1,0,0:0:0:0:
346,116,111464,1,0,0:0:0:0:
428,184,111651,1,0,0:0:0:0:
281,277,111839,6,0,P|244:286|192:262,1,90,0|0,3:2|0:0,0:0:0:0:
248,174,112401,1,0,3:2:0:0:
320,285,112589,2,0,P|242:320|152:259,1,180,8|0,0:0|0:0,0:0:0:0:
113,96,113151,6,0,L|122:181,1,72,0|0,3:2|0:0,0:0:0:0:
247,202,113526,2,0,L|290:193,1,36,0|0,3:2|3:2,0:0:0:0:
96,92,113714,2,0,L|105:177,1,72,0|0,0:0|3:2,0:0:0:0:
112,256,113995,1,0,3:2:0:0:
112,256,114089,2,0,P|61:285|26:281,1,72,8|0,0:0|0:0,0:0:0:0:
194,101,114464,2,0,P|245:99|285:124,1,72,0|0,0:0|0:0,0:0:0:0:
407,192,114839,5,8,3:1:0:0:
213,212,115026,1,8,0:1:0:0:
407,192,115214,1,8,0:1:0:0:
213,212,115401,1,8,0:1:0:0:
369,71,115589,1,0,3:1:0:0:
180,306,116339,5,8,3:1:0:0:
149,133,116526,1,8,0:1:0:0:
276,304,116714,1,8,0:1:0:0:
242,121,116901,1,8,0:1:0:0:
180,306,117089,1,0,3:1:0:0:
44,80,117839,5,0,3:1:0:0:
166,219,118026,1,8,0:1:0:0:
260,38,118214,1,0,3:1:0:0:
106,137,118401,1,8,0:1:0:0:
255,267,118589,5,0,3:1:0:0:
265,264,118682,1,0,0:0:0:0:
276,261,118776,1,8,0:1:0:0:
287,258,118870,1,0,0:0:0:0:
298,256,118964,2,0,L|396:234,1,90,0|8,3:1|0:1,0:0:0:0:
260,38,119339,5,0,3:1:0:0:
221,62,119432,1,8,0:1:0:0:
207,103,119526,1,8,0:1:0:0:
222,145,119620,1,8,0:1:0:0:
251,196,119714,5,0,3:1:0:0:
266,237,119807,1,8,0:1:0:0:
252,279,119901,1,8,0:1:0:0:
215,304,119995,1,8,0:1:0:0:
157,295,120089,6,0,P|88:280|76:279,1,67.5,2|0,0:0|0:0,0:0:0:0:
102,365,120464,6,0,P|221:329|308:323,1,202.500007724762,8|0,0:0|0:0,0:0:0:0:
373,355,120839,6,0,B|420:314|420:314|424:242,1,135,6|0,3:1|0:0,0:0:0:0:
373,164,121214,2,0,B|341:202|341:202|337:253,1,101.250003862381,10|0,0:0|0:0,0:0:0:0:
451,296,121589,2,0,L|455:215,1,67.5,2|0,3:2|0:0,0:0:0:0:
458,135,121964,1,8,0:0:0:0:
255,295,122151,6,0,B|251:227|251:227|265:206|265:206|259:124,1,168.75,2|0,0:0|0:0,0:0:0:0:
176,177,122526,2,0,L|108:162,1,56.25,2|0,0:0|0:0,0:0:0:0:
336,260,122714,2,0,L|403:248,1,56.25,10|0,0:0|0:0,0:0:0:0:
261,115,122901,2,0,B|266:201|266:201|249:227|249:227|255:312,1,202.500007724762,2|0,0:0|0:0,0:0:0:0:
176,355,123276,5,2,0:0:0:0:
92,322,123464,1,10,0:0:0:0:
29,259,123651,2,0,P|28:193|42:169,1,90,2|0,0:0|3:2,0:0:0:0:
165,221,124026,5,2,0:0:0:0:
249,188,124214,1,10,0:0:0:0:
312,125,124401,2,0,P|313:59|299:35,1,90,2|0,0:0|3:2,0:0:0:0:
176,118,124776,5,2,0:0:0:0:
165,221,124964,1,10,0:0:0:0:
244,288,125151,2,0,B|324:302|313:224|398:239,1,161.999995056153,2|0,0:0|0:0,0:0:0:0:
414,256,125526,1,2,0:0:0:0:
262,207,125714,2,0,L|255:150,1,53.9999983520508,10|0,0:0|0:0,0:0:0:0:
431,104,125901,2,0,L|428:163,1,53.9999983520508,2|0,0:0|0:0,0:0:0:0:
380,324,126089,6,0,B|269:347|305:239|157:271,1,202.500007724762,2|0,3:2|0:0,0:0:0:0:
118,305,126464,2,0,L|114:354,1,40.4999987640381,10|0,0:0|0:0,0:0:0:0:
195,265,126839,6,0,L|344:248,1,135,2|0,3:2|0:0,0:0:0:0:
399,149,127214,2,0,L|298:160,1,101.250003862381,10|0,0:0|0:0,0:0:0:0:
188,248,127589,2,0,L|249:241,1,45,2|0,3:2|0:0,0:0:0:0:
318,135,127870,2,0,L|273:140,1,45,2|0,0:0|0:0,0:0:0:0:
329,249,128151,6,0,P|427:265|432:161,1,202.500007724762,2|0,0:0|0:0,0:0:0:0:
512,118,128526,2,0,P|473:98|427:103,1,67.5000025749208,2|0,0:0|0:0,0:0:0:0:
416,6,128714,2,0,P|370:45|363:78,1,67.5000025749208,10|0,0:0|0:0,0:0:0:0:
330,277,128901,2,0,P|446:302|445:192,1,236.250002253056,2|0,0:0|0:0,0:0:0:0:
358,146,129276,5,2,0:0:0:0:
266,107,129464,1,10,0:0:0:0:
169,129,129651,1,2,0:0:0:0:
236,317,129839,6,0,L|248:213,1,90,0|2,3:2|0:0,0:0:0:0:
252,210,130120,1,0,0:0:0:0:
252,210,130214,2,0,L|142:231,1,90,10|2,0:0|0:0,0:0:0:0:
50,147,130589,1,2,3:2:0:0:
80,293,130776,1,2,0:0:0:0:
169,129,130964,1,10,0:0:0:0:
79,312,131151,1,2,0:0:0:0:
252,210,131339,5,0,3:2:0:0:
293,194,131432,1,0,3:2:0:0:
337,203,131526,1,0,3:2:0:0:
368,234,131620,1,0,3:2:0:0:
379,277,131714,2,0,L|373:336,3,45,8|0|0|0,0:0|3:2|3:2|3:2,0:0:0:0:
304,360,132089,6,0,L|277:355,6,22.5,0|0|0|0|0|0|0,3:2|0:0|0:0|0:0|0:0|0:0|0:0,0:0:0:0:
202,342,132464,2,0,L|175:337,2,22.5,8|0|0,0:0|0:0|0:0,0:0:0:0:
98,318,132651,2,0,L|71:313,2,22.5,0|0|0,0:0|0:0|0:0,0:0:0:0:
164,255,132839,6,0,L|199:249,1,33.75,0|0,0:0|0:0,0:0:0:0:
278,265,133214,6,0,L|477:230,1,202.500007724762,6|0,3:1|0:0,0:0:0:0:
512,142,133589,2,0,P|458:115|407:124,1,101.250003862381,2|2,3:2|0:0,0:0:0:0:
347,161,133964,1,10,0:0:0:0:
333,74,134151,6,0,P|256:131|308:236,1,175.499991966248,2|0,0:0|0:0,0:0:0:0:
390,281,134526,2,0,P|353:258|310:258,1,58.4999973220826,2|0,0:0|0:0,0:0:0:0:
206,308,134714,2,0,P|260:295|273:270,1,58.4999973220826,10|0,0:0|0:0,0:0:0:0:
347,161,134901,2,0,P|231:144|141:251,1,202.500007724762,2|0,0:0|0:0,0:0:0:0:
95,267,135276,5,2,0:0:0:0:
79,134,135464,1,10,0:0:0:0:
95,267,135651,2,0,L|107:383,1,90,2|0,0:0|3:2,0:0:0:0:
260,183,136026,5,2,0:0:0:0:
244,316,136214,1,10,0:0:0:0:
260,183,136401,2,0,L|272:67,1,90,2|0,0:0|3:2,0:0:0:0:
399,301,136776,5,2,0:0:0:0:
399,301,136964,1,10,0:0:0:0:
397,154,137151,2,0,P|298:143|251:224,1,161.999995056153,2|0,0:0|0:0,0:0:0:0:
224,258,137526,1,2,0:0:0:0:
109,178,137714,2,0,P|124:209|155:230,1,53.9999983520508,10|0,0:0|0:0,0:0:0:0:
80,326,137901,2,0,P|121:321|150:301,1,53.9999983520508,2|0,0:0|0:0,0:0:0:0:
339,314,138089,6,0,P|257:259|209:259,1,135.000005149842,2|2,3:2|0:0,0:0:0:0:
50,205,138464,2,0,P|84:181|117:178,1,67.5000025749208,10|0,0:0|0:0,0:0:0:0:
158,82,138651,2,0,P|192:108|209:144,1,67.5000025749208,2|0,0:0|0:0,0:0:0:0:
306,172,138839,6,0,P|253:253|204:252,1,135,2|0,3:2|0:0,0:0:0:0:
165,351,139214,2,0,L|288:336,1,108,10|0,0:0|0:0,0:0:0:0:
356,361,139589,2,0,L|382:299,1,58.4999973220826,2|0,3:2|0:0,0:0:0:0:
470,276,139776,2,0,L|439:217,1,58.4999973220826,2|0,0:0|0:0,0:0:0:0:
484,140,139964,1,10,0:0:0:0:
343,208,140151,6,0,P|254:174|154:165,1,175.499991966248,2|0,0:0|0:0,0:0:0:0:
166,249,140526,1,2,0:0:0:0:
330,106,140714,1,10,0:0:0:0:
289,315,140901,6,0,P|144:272|49:269,1,202.500007724762,2|0,0:0|0:0,0:0:0:0:
48,180,141276,5,2,0:0:0:0:
127,121,141464,1,10,0:0:0:0:
224,126,141651,2,0,L|237:247,1,90,2|0,0:0|3:2,0:0:0:0:
273,336,142026,1,2,0:0:0:0:
363,319,142214,1,10,0:0:0:0:
451,295,142401,2,0,L|456:195,1,90,2|2,0:0|3:2,0:0:0:0:
369,170,142776,1,2,0:0:0:0:
216,238,142964,2,0,L|206:141,1,90,10|2,0:0|0:0,0:0:0:0:
285,93,143339,5,0,3:2:0:0:
299,76,143432,1,0,3:2:0:0:
317,62,143526,1,0,3:2:0:0:
338,54,143620,1,0,3:2:0:0:
360,51,143714,1,8,0:0:0:0:
383,52,143807,1,0,3:2:0:0:
405,60,143901,2,0,L|457:71,1,45,0|0,3:2|3:2,0:0:0:0:
498,151,144089,6,0,L|491:208,3,45,0|0|0|0,3:2|3:2|3:2|3:2,0:0:0:0:
411,160,144464,2,0,L|398:271,1,90,8|4,0:0|0:3,0:0:0:0:
304,340,144839,6,0,B|205:351|244:262|135:275,1,180,6|8,3:2|0:0,0:0:0:0:
27,227,145401,1,2,0:0:0:0:
27,227,145495,1,2,0:0:0:0:
27,227,145589,2,0,P|98:216|114:110,1,180,2|8,3:2|0:0,0:0:0:0:
201,30,146151,2,0,L|211:90,1,45,2|2,0:0|0:0,0:0:0:0:
325,122,146339,2,0,B|274:130|274:130|248:153|248:153|148:169,3,180,2|10|2|10,3:2|0:0|3:2|0:0,0:0:0:0:
155,167,147839,5,2,3:2:0:0:
214,241,148026,1,2,0:0:0:0:
325,122,148214,2,0,L|336:182,1,45,10|2,0:0|0:0,0:0:0:0:
384,240,148401,2,0,L|379:292,1,45,2|0,0:0|0:0,0:0:0:0:
466,92,148589,5,2,3:2:0:0:
466,92,148776,2,0,L|472:36,1,45,2|2,0:0|0:0,0:0:0:0:
374,28,148964,2,0,L|363:128,1,90,10|2,0:0|0:0,0:0:0:0:
463,214,149339,6,0,P|410:244|360:225,1,90,2|2,3:2|0:0,0:0:0:0:
295,270,149620,1,2,0:0:0:0:
295,270,149714,2,0,P|232:238|181:251,1,90,10|2,0:0|0:0,0:0:0:0:
71,278,150089,1,2,3:2:0:0:
44,146,150276,1,2,0:0:0:0:
186,121,150464,2,0,L|177:228,1,90,10|2,0:0|0:0,0:0:0:0:
212,364,150839,6,0,L|260:355,3,45,2|2|2|2,3:2|0:0|0:0|0:0,0:0:0:0:
330,304,151214,2,0,L|427:286,1,90,10|2,0:0|0:0,0:0:0:0:
499,322,151495,1,2,0:0:0:0:
499,322,151589,2,0,L|506:265,1,45,2|2,3:2|0:0,0:0:0:0:
430,195,151776,2,0,L|438:142,1,45,2|2,0:0|0:0,0:0:0:0:
329,82,151964,2,0,L|310:186,1,90,10|2,0:0|0:0,0:0:0:0:
165,245,152339,5,2,3:2:0:0:
142,89,152526,1,2,0:0:0:0:
303,60,152714,1,10,0:0:0:0:
239,162,152901,1,2,0:0:0:0:
75,28,153089,2,0,P|55:102|76:144,1,90,2|0,3:2|0:0,0:0:0:0:
238,225,153464,2,0,P|168:192|127:207,1,90,10|0,0:0|0:0,0:0:0:0:
49,238,153839,6,0,L|61:362,1,90,2|0,3:2|0:0,0:0:0:0:
71,351,154120,1,0,0:0:0:0:
71,349,154214,1,8,0:0:0:0:
177,275,154401,2,0,L|182:328,1,45,2|2,0:0|0:0,0:0:0:0:
260,350,154589,2,0,P|320:367|362:348,1,90,2|0,3:2|0:0,0:0:0:0:
444,179,154964,2,0,P|387:152|342:160,1,90,8|2,0:0|0:0,0:0:0:0:
248,66,155339,5,2,3:2:0:0:
240,87,155432,1,0,3:2:0:0:
236,109,155526,1,0,3:2:0:0:
233,131,155620,1,0,3:2:0:0:
232,154,155714,2,0,P|233:177|238:212,3,45,8|0|0|0,0:0|3:2|3:2|3:2,0:0:0:0:
263,289,156089,6,0,P|267:210|254:136,1,135,0|0,3:2|3:2,0:0:0:0:
248,66,156464,2,0,L|339:53,1,90,8|0,0:0|0:0,0:0:0:0:
173,216,156839,6,0,L|68:205,1,90,6|0,3:2|0:0,0:0:0:0:
22,118,157214,1,0,3:2:0:0:
22,118,157589,1,0,3:2:0:0:
22,118,157964,1,0,3:2:0:0:
154,18,158339,6,0,L|162:107,1,90,0|0,3:2|0:0,0:0:0:0:
173,216,158714,1,0,3:2:0:0:
173,216,159089,1,0,3:2:0:0:
173,216,159464,1,0,3:2:0:0:
331,348,159839,6,0,L|231:327,1,90,0|0,3:2|0:0,0:0:0:0:
304,237,160214,1,0,3:2:0:0:
304,237,160589,1,0,3:2:0:0:
304,237,160964,1,0,3:2:0:0:
461,136,161339,6,0,L|451:39,1,90,0|0,3:2|0:0,0:0:0:0:
437,227,161714,1,0,3:2:0:0:
437,227,162089,1,0,3:2:0:0:
461,136,162276,1,0,0:0:0:0:
223,181,162464,1,0,3:2:0:0:
302,127,162651,1,0,0:0:0:0:
113,47,162839,6,0,P|81:118|76:142,1,90,6|0,3:2|0:0,0:0:0:0:
7,212,163214,2,0,P|78:244|102:249,1,90,0|0,3:2|0:0,0:0:0:0:
172,318,163589,2,0,P|204:247|209:223,1,90,0|0,3:2|0:0,0:0:0:0:
278,153,163964,2,0,P|207:121|183:116,1,90,0|0,3:2|0:0,0:0:0:0:
172,318,164339,6,0,L|274:302,1,90,0|0,3:2|0:0,0:0:0:0:
366,376,164714,2,0,L|350:274,1,90,0|0,3:2|0:0,0:0:0:0:
424,182,165089,2,0,L|322:198,1,90,0|0,3:2|0:0,0:0:0:0:
230,124,165464,2,0,L|246:226,1,90,0|0,3:2|0:0,0:0:0:0:
366,376,165839,5,0,3:2:0:0:
424,182,166026,1,8,0:1:0:0:
292,288,166214,1,0,3:2:0:0:
317,160,166401,1,8,0:1:0:0:
458,274,166589,5,0,3:2:0:0:
387,78,166776,1,8,0:1:0:0:
292,288,166964,1,0,3:2:0:0:
252,141,167151,1,8,0:1:0:0:
424,182,167339,6,0,L|481:169,3,45,0|8|8|8,3:2|0:1|3:1|3:1,0:0:0:0:
387,78,167714,1,0,3:2:0:0:
345,62,167807,1,8,0:1:0:0:
301,70,167901,1,8,0:1:0:0:
267,99,167995,1,8,0:1:0:0:
252,141,168089,6,0,L|249:183,6,22.5,0|0|0|0|0|0|0,3:2|0:0|0:0|0:0|0:0|0:0|0:0,0:0:0:0:
191,246,168464,2,0,L|194:287,6,22.5,0|0|0|0|0|0|0,3:2|0:0|0:0|0:0|0:0|0:0|0:0,0:0:0:0:
256,351,168839,5,6,3:1:0:0:
227,252,174839,5,2,3:2:0:0:
195,163,175214,1,10,0:0:0:0:
284,131,175589,1,2,3:2:0:0:
316,220,175964,1,8,0:0:0:0:
201,230,176339,5,0,3:2:0:0:
217,137,176714,1,10,0:0:0:0:
310,153,177089,1,0,3:2:0:0:
294,246,177464,1,10,0:0:0:0:
195,163,177839,5,0,3:2:0:0:
284,131,178026,1,2,0:0:0:0:
316,220,178214,1,10,0:0:0:0:
227,252,178401,1,2,0:0:0:0:
217,137,178589,5,0,3:2:0:0:
310,153,178776,1,2,0:0:0:0:
294,246,178964,1,10,0:0:0:0:
201,230,179151,1,2,0:0:0:0:
250,125,179339,5,0,3:2:0:0:
269,98,179432,1,0,3:2:0:0:
299,82,179526,1,0,3:2:0:0:
332,82,179620,1,0,3:2:0:0:
361,98,179714,1,8,0:0:0:0:
382,107,179807,1,0,3:2:0:0:
404,104,179901,1,0,3:2:0:0:
421,90,179995,1,0,3:2:0:0:
428,68,180089,6,0,L|425:34,6,22.5,0|0|0|0|0|0|0,3:2|0:0|0:0|0:0|0:0|0:0|0:0,0:0:0:0:
508,133,180464,2,0,L|509:155,6,22.5,8|0|0|0|0|0|0,0:0|0:0|0:0|0:0|0:0|0:0|0:0,0:0:0:0:
510,22,180839,6,0,L|512:48,1,27,0|0,0:0|0:0,0:0:0:0:
464,143,181214,6,0,B|505:132|505:132|443:130|443:130|411:95|411:95|337:94|337:94|312:108|267:103,1,270,6|0,3:1|0:0,0:0:0:0:
208,120,181589,2,0,P|173:110|134:91,1,67.5,2|2,3:2|0:0,0:0:0:0:
202,27,181964,1,8,0:0:0:0:
263,189,182151,6,0,P|320:196|347:213,1,56.25,2|0,0:0|0:0,0:0:0:0:
176,204,182339,2,0,P|183:147|200:120,1,56.25,2|0,3:2|0:0,0:0:0:0:
279,278,182526,2,0,P|272:335|255:362,1,56.25,2|2,0:0|0:0,0:0:0:0:
192,289,182714,2,0,P|135:282|108:265,1,56.25,10|0,0:0|0:0,0:0:0:0:
342,371,182901,2,0,P|382:271|339:164,1,202.500007724762,2|0,0:0|0:0,0:0:0:0:
293,103,183276,5,2,0:0:0:0:
191,191,183464,1,10,0:0:0:0:
293,103,183651,2,0,L|414:81,1,90,2|0,0:0|3:2,0:0:0:0:
283,268,184026,5,2,0:0:0:0:
184,100,184214,1,10,0:0:0:0:
283,268,184401,2,0,L|404:246,1,90,2|0,0:0|3:2,0:0:0:0:
131,212,184776,5,2,0:0:0:0:
131,212,184964,1,10,0:0:0:0:
210,341,185151,2,0,B|180:254|238:268|221:182,1,161.999995056153,2|0,0:0|0:0,0:0:0:0:
201,108,185526,1,2,0:0:0:0:
311,178,185714,1,10,0:0:0:0:
425,110,185901,1,2,0:0:0:0:
335,22,186089,6,0,P|311:57|310:98,1,67.5000025749208,2|0,3:2|0:0,0:0:0:0:
395,203,186276,2,0,P|360:169|312:165,1,67.5000025749208,2|0,0:0|0:0,0:0:0:0:
202,180,186464,2,0,P|254:161|274:129,1,67.5000025749208,10|0,0:0|0:0,0:0:0:0:
390,89,186651,1,2,0:0:0:0:
194,44,186839,6,0,L|188:108,1,45,2|0,3:2|0:0,0:0:0:0:
97,132,187026,2,0,L|101:87,1,45,2|0,0:0|0:0,0:0:0:0:
202,180,187214,1,10,0:0:0:0:
67,232,187401,1,2,0:0:0:0:
202,180,187589,6,0,L|248:169,1,45,2|0,3:2|0:0,0:0:0:0:
188,294,187776,2,0,L|144:283,1,45,2|0,0:0|0:0,0:0:0:0:
286,274,187964,1,10,0:0:0:0:
355,197,188151,6,0,P|349:117|266:143,1,161.999995056153,2|0,0:0|0:0,0:0:0:0:
372,299,188526,2,0,L|450:279,1,53.9999983520508,2|0,0:0|0:0,0:0:0:0:
258,207,188714,2,0,L|186:187,1,53.9999983520508,10|0,0:0|0:0,0:0:0:0:
371,200,188901,2,0,P|386:123|265:114,1,202.500007724762,2|0,0:0|0:0,0:0:0:0:
187,147,189276,5,2,0:0:0:0:
99,118,189464,1,10,0:0:0:0:
177,57,189651,2,0,L|190:183,1,90,2|0,0:0|3:2,0:0:0:0:
200,262,190026,1,2,0:0:0:0:
200,262,190120,1,0,0:0:0:0:
200,262,190214,5,10,0:0:0:0:
350,231,190401,1,2,0:0:0:0:
203,294,190589,1,2,3:2:0:0:
290,165,190776,1,2,0:0:0:0:
316,328,190964,1,10,0:0:0:0:
462,301,191151,1,2,0:0:0:0:
460,143,191339,5,0,3:2:0:0:
465,121,191432,1,0,3:2:0:0:
462,99,191526,1,0,3:2:0:0:
452,78,191620,1,0,3:2:0:0:
436,63,191714,1,8,0:0:0:0:
415,54,191807,1,0,3:2:0:0:
393,54,191901,2,0,L|329:68,1,45,0|0,3:2|3:2,0:0:0:0:
290,165,192089,6,0,L|227:155,3,45,0|0|0|0,3:2|3:2|3:2|3:2,0:0:0:0:
135,122,192464,2,0,L|128:71,3,45,8|0|0|0,0:0|3:2|3:2|3:2,0:0:0:0:
69,218,192839,6,0,P|71:269|117:304,1,90,6|2,3:2|0:0,0:0:0:0:
272,236,193214,2,0,P|270:185|224:150,1,90,10|2,0:0|0:0,0:0:0:0:
212,350,193589,2,0,B|302:365|292:292|387:310,1,180,2|10,3:2|0:0,0:0:0:0:
484,337,194151,1,0,0:0:0:0:
459,127,194339,6,0,B|440:183|440:183|452:230,1,107.999996704102,2|0,3:2|0:0,0:0:0:0:
332,326,194714,2,0,B|351:270|351:270|338:222,1,107.999996704102,10|0,0:0|0:0,0:0:0:0:
239,113,195089,2,0,B|295:132|295:132|342:119,1,107.999996704102,2|0,3:2|0:0,0:0:0:0:
248,240,195464,2,0,B|192:221|192:221|144:233,1,107.999996704102,10|0,0:0|0:0,0:0:0:0:
18,99,195839,6,0,P|58:143|127:142,1,90,2|2,3:2|0:0,0:0:0:0:
239,113,196214,2,0,P|199:69|130:70,1,90,10|2,0:0|0:0,0:0:0:0:
51,236,196589,2,0,P|159:188|156:116,1,180,2|10,3:2|0:0,0:0:0:0:
93,68,197151,1,0,0:0:0:0:
229,230,197339,6,0,L|352:204,1,107.999996704102,2|2,3:2|0:0,0:0:0:0:
317,301,197714,2,0,L|440:275,1,107.999996704102,10|2,0:0|0:0,0:0:0:0:
422,136,198089,2,0,L|299:110,1,107.999996704102,2|0,3:2|0:0,0:0:0:0:
334,207,198464,2,0,L|211:181,1,107.999996704102,10|0,0:0|0:0,0:0:0:0:
93,68,198839,6,0,P|66:117|85:177,1,90,2|2,3:2|0:0,0:0:0:0:
106,316,199214,2,0,P|115:246|94:211,1,90,10|2,0:0|0:0,0:0:0:0:
24,273,199589,1,2,3:2:0:0:
24,273,199776,1,2,0:0:0:0:
151,125,199964,1,10,0:0:0:0:
151,125,200151,1,0,0:0:0:0:
213,310,200339,6,0,B|242:304|272:317|272:317|292:297|344:292,1,107.999996704102,2|0,3:2|0:0,0:0:0:0:
349,152,200714,2,0,B|320:158|290:145|290:145|270:165|218:170,1,107.999996704102,10|0,0:0|0:0,0:0:0:0:
321,323,201089,2,0,B|350:317|380:330|380:330|400:310|452:305,1,107.999996704102,2|0,3:2|0:0,0:0:0:0:
454,121,201464,2,0,B|425:127|395:114|395:114|375:134|323:139,1,107.999996704102,10|0,0:0|0:0,0:0:0:0:
178,234,201839,5,2,3:2:0:0:
212,59,202026,1,2,0:0:0:0:
281,207,202214,1,10,0:0:0:0:
126,152,202401,1,2,0:0:0:0:
90,313,202589,5,2,3:2:0:0:
213,158,202776,1,2,0:0:0:0:
285,317,202964,1,10,0:0:0:0:
126,244,203151,1,2,0:0:0:0:
281,118,203339,5,0,3:2:0:0:
314,114,203432,1,0,3:2:0:0:
346,124,203526,1,0,3:2:0:0:
371,146,203620,1,0,3:2:0:0:
386,176,203714,1,8,0:0:0:0:
388,210,203807,1,0,3:2:0:0:
376,241,203901,2,0,L|364:301,1,45,0|0,3:2|3:2,0:0:0:0:
275,336,204089,6,0,L|223:332,3,45,0|0|0|0,3:2|3:2|3:2|3:2,0:0:0:0:
152,265,204464,2,0,L|94:274,4,45,8|0|0|0|0,0:0|3:2|3:2|3:2|0:0,0:0:0:0:
