osu file format v14

[General]
AudioFilename: audio.mp3
AudioLeadIn: 0
PreviewTime: 60464
Countdown: 0
SampleSet: Soft
StackLeniency: 0.7
Mode: 0
LetterboxInBreaks: 0
WidescreenStoryboard: 1

[Editor]
Bookmarks: 96839,102839,168839,174839
DistanceSpacing: 0.8
BeatDivisor: 4
GridSize: 8
TimelineZoom: 1.9

[Metadata]
Title:Digital Life Hacker
TitleUnicode:Digital Life Hacker
Artist:wotoha
ArtistUnicode:をとは
Creator:Yuuma
Version:Hard
Source:
Tags:fa featured artist mappers' guild climbx3145 garden japanese pop jpop j-pop neko hacker electronic 海月ねう mitsuki neu mpg jelly girl
BeatmapID:3248577
BeatmapSetID:1509257

[Difficulty]
HPDrainRate:4
CircleSize:3.5
OverallDifficulty:6
ApproachRate:7.5
SliderMultiplier:1.4
SliderTickRate:1

[Events]
//Background and Video events
0,0,"aaaaaaaaaaaaaaaaaaaaaaa.jpg",0,0
//Break Periods
2,97039,102014
2,157039,162014
2,169039,174014
//Storyboard Layer 0 (Background)
//Storyboard Layer 1 (Fail)
//Storyboard Layer 2 (Pass)
//Storyboard Layer 3 (Foreground)
//Storyboard Layer 4 (Overlay)
//Storyboard Sound Samples

[TimingPoints]
839,375,4,2,1,50,1,0
12370,-100,4,2,1,5,0,0
12464,-100,4,2,1,50,0,0
12557,-100,4,2,1,5,0,0
12651,-100,4,2,1,50,0,0
12745,-100,4,2,1,5,0,0
12839,-100,4,2,1,70,0,0
24839,-125,4,2,1,50,0,0
36839,-111.111111111111,4,2,1,60,0,0
48839,-125,4,2,1,50,0,0
54839,-111.111111111111,4,2,1,60,0,0
60839,-90.9090909090908,4,2,1,80,0,1
72089,-90.9090909090908,4,2,1,60,0,1
73214,-90.9090909090908,4,2,1,80,0,1
84839,-100,4,2,1,70,0,0
96839,-100,4,2,1,40,0,0
102839,-111.111111111111,4,2,1,60,0,0
108839,-125,4,2,1,50,0,0
114839,-111.111111111111,4,2,1,60,0,0
120839,-90.9090909090909,4,2,1,80,0,1
132089,-90.9090909090909,4,2,1,60,0,1
133214,-90.9090909090909,4,2,1,80,0,1
144839,-100,4,2,1,70,0,0
156839,-100,4,2,1,60,0,0
168839,-100,4,2,1,40,0,0
174839,-100,4,2,1,60,0,0
179339,-100,4,2,1,70,0,0
180089,-100,4,2,1,60,0,0
181214,-90.9090909090909,4,2,1,80,0,1
192839,-100,4,2,1,76,0,0
204089,-100,4,2,1,56,0,0

[Colours]
Combo1 : 255,191,255
Combo2 : 164,164,210
Combo3 : 182,249,254

[HitObjects]
58,85,839,6,0,L|63:161,1,70,6|0,3:2|0:0,0:0:0:0:
159,177,1214,2,0,L|154:107,1,70,2|0,0:0|0:0,0:0:0:0:
241,60,1589,1,2,0:0:0:0:
241,60,1776,2,0,L|251:215,1,140,0|2,0:0|0:0,0:0:0:0:
295,280,2339,6,0,P|235:292|221:287,2,70,2|2|2,0:0|0:0|0:0,0:0:0:0:
367,225,2901,1,2,0:0:0:0:
497,309,3276,1,0,0:0:0:0:
512,218,3464,2,0,L|508:175,3,35,2|2|2|2,0:0|0:0|0:0|0:0,0:0:0:0:
489,153,3839,6,0,L|399:139,1,70,2|0,0:0|0:0,0:0:0:0:
367,225,4214,2,0,L|277:211,1,70,2|0,0:0|0:0,0:0:0:0:
233,293,4589,2,0,L|143:279,2,70,2|0|2,0:0|0:0|0:0,0:0:0:0:
300,362,5151,2,0,P|336:278|297:221,1,140,2|2,0:0|0:0,0:0:0:0:
257,169,5714,1,2,0:0:0:0:
257,169,5901,2,0,P|221:85|260:28,1,140,2|2,0:0|0:0,0:0:0:0:
337,22,6464,2,0,L|386:29,3,35,2|2|2|2,0:0|0:0|0:0|0:0,0:0:0:0:
405,39,6839,5,10,0:1:0:0:
474,135,7214,1,10,0:1:0:0:
405,232,7589,1,10,0:1:0:0:
291,195,7964,1,10,0:1:0:0:
291,76,8339,1,10,0:1:0:0:
405,39,8714,1,10,0:1:0:0:
474,135,9089,1,8,0:1:0:0:
405,232,9464,1,10,0:1:0:0:
291,195,9839,6,0,L|212:204,1,70,8|10,0:1|0:1,0:0:0:0:
126,184,10214,2,0,L|133:253,1,70,10|10,0:1|0:1,0:0:0:0:
115,349,10589,2,0,L|184:341,1,70,10|10,0:1|0:1,0:0:0:0:
280,360,10964,2,0,L|272:290,1,70,10|10,0:1|0:1,0:0:0:0:
291,195,11339,6,0,L|251:199,7,35,8|0|0|0|0|0|0|0,0:1|3:3|3:3|3:3|3:3|3:3|3:3|3:3,0:0:0:0:
399,245,12276,1,2,0:0:0:0:
443,161,12464,1,2,0:0:0:0:
409,73,12651,1,2,0:0:0:0:
313,90,12839,6,0,P|259:109|219:106,1,70,6|2,3:1|0:0,0:0:0:0:
149,91,13214,2,0,P|113:77|79:43,1,70,10|2,0:0|0:0,0:0:0:0:
16,121,13589,2,0,P|37:180|30:264,1,140,2|10,3:2|0:0,0:0:0:0:
83,340,14151,1,0,0:0:0:0:
155,262,14339,6,0,L|231:272,1,70,2|0,3:2|0:0,0:0:0:0:
284,341,14714,2,0,L|366:331,1,70,10|0,0:0|0:0,0:0:0:0:
460,285,15089,2,0,L|468:208,1,70,2|0,3:2|0:0,0:0:0:0:
396,149,15464,2,0,L|381:67,1,70,10|0,0:0|0:0,0:0:0:0:
278,22,15839,6,0,P|261:62|274:115,1,70,2|2,3:2|0:0,0:0:0:0:
177,135,16214,2,0,P|192:176|228:204,1,70,10|2,0:0|0:0,0:0:0:0:
185,282,16589,2,0,P|241:291|316:237,1,140,2|10,3:2|0:0,0:0:0:0:
390,192,17151,1,0,0:0:0:0:
492,240,17339,6,0,L|503:154,1,70,2|2,3:2|0:0,0:0:0:0:
490,69,17714,1,10,0:0:0:0:
490,69,17901,1,2,0:0:0:0:
397,105,18089,2,0,L|312:88,1,70,2|0,3:2|0:0,0:0:0:0:
247,161,18464,2,0,L|163:142,1,70,10|0,0:0|0:0,0:0:0:0:
97,85,18839,6,0,P|78:114|81:172,1,70,2|2,3:2|0:0,0:0:0:0:
132,225,19214,2,0,P|141:267|126:308,1,70,10|2,0:0|0:0,0:0:0:0:
59,348,19589,2,0,P|19:282|36:207,1,140,2|10,3:2|0:0,0:0:0:0:
82,137,20151,1,0,0:0:0:0:
132,225,20339,6,0,P|177:242|223:246,1,70,2|0,3:2|0:0,0:0:0:0:
208,341,20714,2,0,P|248:323|285:288,1,70,10|0,0:0|0:0,0:0:0:0:
387,313,21089,2,0,P|393:266|393:230,1,70,2|0,3:2|0:0,0:0:0:0:
484,215,21464,2,0,P|453:172|425:152,1,70,10|0,0:0|0:0,0:0:0:0:
336,90,21839,6,0,L|325:174,1,70,2|2,3:2|0:0,0:0:0:0:
239,202,22214,2,0,L|232:112,1,70,10|2,0:0|0:0,0:0:0:0:
151,80,22589,2,0,L|140:164,1,70,2|2,3:2|0:0,0:0:0:0:
54,192,22964,2,0,L|47:102,1,70,10|2,0:0|0:0,0:0:0:0:
107,49,23339,6,0,L|144:43,3,35,0|0|0|0,3:2|3:2|3:2|3:2,0:0:0:0:
151,80,23714,2,0,L|188:74,3,35,8|0|0|0,0:0|3:2|3:2|3:2,0:0:0:0:
201,107,24089,2,0,L|275:92,1,70,0|0,3:2|3:2,0:0:0:0:
330,164,24464,2,0,L|404:149,1,70,8|0,0:0|3:2,0:0:0:0:
472,80,24839,5,6,3:2:0:0:
509,220,25214,1,8,0:1:0:0:
408,323,25589,2,0,P|374:337|310:345,2,84,2|2|2,3:2|3:2|3:2,0:0:0:0:
335,204,26526,5,0,0:0:0:0:
335,204,26714,2,0,P|287:191|261:191,1,56,10|0,0:1|0:0,0:0:0:0:
207,230,27089,2,0,L|214:319,2,84,2|2|2,3:2|3:2|3:2,0:0:0:0:
96,143,28026,5,0,0:0:0:0:
96,143,28214,2,0,L|98:73,1,56,10|0,0:1|0:0,0:0:0:0:
177,40,28589,2,0,L|259:27,2,84,2|2|2,3:2|3:2|3:2,0:0:0:0:
161,243,29714,5,2,3:2:0:0:
280,169,30089,1,2,3:2:0:0:
411,226,30464,1,10,3:1:0:0:
447,57,30839,5,2,3:2:0:0:
310,13,31214,1,10,0:1:0:0:
182,73,31589,2,0,L|192:172,2,84,2|2|2,3:2|3:2|3:2,0:0:0:0:
49,38,32526,5,0,0:0:0:0:
49,38,32714,2,0,P|39:89|40:115,1,56,8|0,0:1|0:0,0:0:0:0:
48,180,33089,2,0,P|89:166|132:162,2,84,2|2|2,3:2|3:2|3:2,0:0:0:0:
124,304,34026,5,0,0:0:0:0:
124,304,34214,2,0,P|171:293|189:284,1,56,8|0,0:1|0:0,0:0:0:0:
258,249,34589,2,0,P|302:235|352:230,2,84,2|2|2,3:2|3:2|3:2,0:0:0:0:
428,363,35714,5,2,3:2:0:0:
505,252,36089,1,2,3:2:0:0:
457,125,36464,1,2,3:2:0:0:
314,53,36839,6,0,P|257:57|213:110,1,125.999996154785,6|10,3:2|0:0,0:0:0:0:
187,192,37401,1,2,0:0:0:0:
259,246,37589,2,0,L|353:229,2,94.499997116089,2|2|2,3:2|0:0|0:0,0:0:0:0:
118,328,38526,1,2,0:0:0:0:
118,328,38714,2,0,P|85:321|52:303,1,62.9999980773926,10|2,0:0|0:0,0:0:0:0:
26,223,39089,2,0,L|15:128,2,94.499997116089,2|2|2,3:2|0:0|0:0,0:0:0:0:
180,152,40026,5,2,0:0:0:0:
180,152,40214,2,0,L|170:80,1,62.9999980773926,10|0,0:0|0:0,0:0:0:0:
242,32,40589,2,0,P|286:15|351:47,1,94.499997116089,2|2,3:2|0:0,0:0:0:0:
351,54,40964,2,0,P|392:80|423:77,1,62.9999980773926,8|2,0:0|0:0,0:0:0:0:
501,61,41339,1,0,3:2:0:0:
501,61,41714,6,0,P|485:117|486:137,1,62.9999980773926,10|0,0:0|0:0,0:0:0:0:
406,176,42089,2,0,P|429:208|476:232,1,62.9999980773926,2|0,3:2|0:0,0:0:0:0:
491,304,42464,2,0,P|436:323|415:338,1,62.9999980773926,10|0,0:0|0:0,0:0:0:0:
335,353,42839,6,0,P|296:361|224:303,1,125.999996154785,6|10,3:2|0:0,0:0:0:0:
189,230,43401,1,2,0:0:0:0:
274,177,43589,2,0,L|277:72,2,94.499997116089,2|2|2,3:2|0:0|0:0,0:0:0:0:
141,83,44526,5,2,0:0:0:0:
141,83,44714,2,0,L|63:94,1,62.9999980773926,10|0,0:0|0:0,0:0:0:0:
35,181,45089,2,0,L|24:278,2,94.499997116089,2|2|2,3:2|0:0|0:0,0:0:0:0:
187,252,46026,5,2,0:0:0:0:
187,252,46214,2,0,P|241:271|271:268,1,62.9999980773926,10|2,0:0|0:0,0:0:0:0:
323,328,46589,2,0,P|369:313|439:311,1,94.499997116089,2|2,3:2|0:0,0:0:0:0:
449,315,46964,2,0,L|457:248,1,62.9999980773926,8|2,0:0|0:0,0:0:0:0:
471,151,47339,6,0,L|463:96,3,31.4999990386963,4|8|0|0,0:3|0:3|3:2|3:2,0:0:0:0:
465,92,47714,2,0,P|427:78|399:62,1,62.9999980773926,8|0,0:0|0:0,0:0:0:0:
336,131,48089,2,0,P|287:144|251:161,1,62.9999980773926,0|0,3:2|0:0,0:0:0:0:
209,72,48464,2,0,P|169:61|137:45,1,62.9999980773926,8|0,0:0|0:0,0:0:0:0:
93,145,48839,6,0,P|46:156|51:263,1,168,6|0,3:1|3:2,0:0:0:0:
120,304,49589,2,0,L|229:283,1,112,8|0,0:0|0:0,0:0:0:0:
315,282,50151,1,2,3:2:0:0:
361,352,50339,6,0,L|369:288,1,56,0|0,0:0|3:2,0:0:0:0:
451,271,50714,2,0,L|443:206,1,56,0|0,0:0|3:2,0:0:0:0:
452,192,50995,1,0,3:2:0:0:
452,192,51089,2,0,B|362:160|389:260|289:235,1,168,8|0,0:0|0:0,0:0:0:0:
221,195,51839,6,0,P|186:132|260:83,1,168,0|0,3:2|3:2,0:0:0:0:
321,30,52589,2,0,P|363:52|437:51,1,112,8|0,0:0|0:0,0:0:0:0:
509,88,53151,6,0,L|496:207,1,112,0|0,3:2|3:2,0:0:0:0:
478,288,53714,1,0,0:0:0:0:
393,258,53901,1,0,3:2:0:0:
393,258,53995,1,0,3:2:0:0:
393,258,54089,2,0,L|319:268,1,56,8|0,0:0|0:0,0:0:0:0:
271,333,54464,2,0,L|206:339,1,56,0|0,0:0|0:0,0:0:0:0:
119,363,54839,6,0,P|94:304|124:240,1,125.999996154785,6|2,3:2|3:2,0:0:0:0:
182,176,55401,1,0,0:0:0:0:
182,176,55495,1,8,0:1:0:0:
182,176,55589,2,0,L|175:133,2,31.4999990386963,0|8|0,3:2|0:1|0:0,0:0:0:0:
275,202,55964,2,0,L|344:191,1,62.9999980773926,0|2,3:2|0:0,0:0:0:0:
426,161,56339,6,0,P|465:102|429:42,1,125.999996154785,2|10,3:2|3:1,0:0:0:0:
358,49,56901,1,2,0:0:0:0:
358,49,56995,1,8,0:1:0:0:
358,49,57089,2,0,L|352:7,2,31.4999990386963,2|8|0,3:2|0:1|0:0,0:0:0:0:
263,69,57464,2,0,L|190:83,1,62.9999980773926,8|2,3:1|0:0,0:0:0:0:
113,105,57839,6,0,P|103:184|106:190,1,62.9999980773926,2|10,3:2|0:1,0:0:0:0:
108,264,58214,1,10,3:1:0:0:
108,264,58401,1,8,0:1:0:0:
197,308,58589,2,0,L|237:299,3,31.4999990386963,2|0|8|0,3:2|0:0|0:1|0:0,0:0:0:0:
257,326,58964,2,0,L|344:309,1,62.9999980773926,2|10,3:2|0:1,0:0:0:0:
427,354,59339,6,0,P|439:295|433:268,1,62.9999980773926,2|8,3:2|0:1,0:0:0:0:
422,258,59620,1,8,0:1:0:0:
422,258,59714,2,0,P|404:205|415:170,1,94.499997116089,2|8,3:2|0:1,0:0:0:0:
437,144,60089,1,2,0:0:0:0:
308,36,60464,5,8,0:0:0:0:
258,196,60839,6,0,P|195:190|121:167,1,115.50000352478,6|0,3:1|0:0,0:0:0:0:
113,158,61214,2,0,L|102:65,1,77.0000023498536,10|0,0:0|0:0,0:0:0:0:
196,10,61589,2,0,P|272:33|342:33,1,115.50000352478,2|0,3:2|0:0,0:0:0:0:
341,29,61964,1,8,0:0:0:0:
431,95,62151,6,0,P|461:144|425:239,1,154.000004699707,2|2,0:0|0:0,0:0:0:0:
347,290,62714,1,10,0:0:0:0:
246,260,62901,2,0,P|208:253|163:254,1,77.0000023498536,2|0,0:0|0:0,0:0:0:0:
64,295,63276,5,2,0:0:0:0:
64,295,63464,1,10,0:0:0:0:
44,197,63651,2,0,L|30:103,1,77.0000023498536,2|0,0:0|3:2,0:0:0:0:
138,79,64026,5,2,0:0:0:0:
138,79,64214,1,10,0:0:0:0:
158,177,64401,2,0,L|172:271,1,77.0000023498536,2|0,0:0|3:2,0:0:0:0:
201,357,64776,5,2,0:0:0:0:
201,357,64964,1,10,0:0:0:0:
310,349,65151,2,0,P|373:298|362:217,1,154.000004699707,2|2,0:0|0:0,0:0:0:0:
321,133,65714,2,0,P|311:94|326:46,1,77.0000023498536,10|2,0:0|0:0,0:0:0:0:
420,53,66089,1,2,3:2:0:0:
370,230,66464,1,10,0:0:0:0:
277,259,66651,1,2,0:0:0:0:
184,220,66839,6,0,P|135:205|63:198,1,115.50000352478,2|0,3:2|0:0,0:0:0:0:
41,201,67214,2,0,L|52:287,1,77.0000023498536,10|0,0:0|0:0,0:0:0:0:
132,349,67589,2,0,P|195:335|246:311,1,115.50000352478,2|2,3:2|0:0,0:0:0:0:
264,294,67964,1,8,0:0:0:0:
369,327,68151,5,2,0:0:0:0:
369,327,68339,2,0,L|376:238,1,77.0000023498536,2|2,3:2|0:0,0:0:0:0:
470,210,68714,1,10,0:0:0:0:
413,126,68901,2,0,L|327:138,1,77.0000023498536,2|0,0:0|0:0,0:0:0:0:
236,208,69276,5,2,0:0:0:0:
236,208,69464,1,10,0:0:0:0:
128,194,69651,2,0,L|36:182,1,77.0000023498536,2|0,0:0|3:2,0:0:0:0:
105,74,70026,5,2,0:0:0:0:
105,74,70214,1,10,0:0:0:0:
208,104,70401,2,0,L|290:83,1,77.0000023498536,2|2,0:0|3:2,0:0:0:0:
390,50,70776,5,2,0:0:0:0:
390,50,70964,2,0,P|405:102|400:144,1,77.0000023498536,10|2,0:0|0:0,0:0:0:0:
389,221,71339,2,0,P|383:251|384:281,3,38.5000011749268,0|0|0|0,3:0|3:2|3:2|3:2,0:0:0:0:
394,297,71714,2,0,P|398:333|395:355,3,38.5000011749268,8|0|0|0,0:0|3:2|3:2|3:2,0:0:0:0:
378,365,72089,2,0,P|294:338|211:337,1,154.000004699707,0|8,3:0|0:0,0:0:0:0:
147,362,72651,1,0,0:0:0:0:
65,340,72839,1,0,0:0:0:0:
65,340,73214,6,0,L|58:237,1,77.0000023498536,6|0,3:1|0:0,0:0:0:0:
0,174,73589,2,0,P|68:146|118:171,1,115.50000352478,2|2,3:2|0:0,0:0:0:0:
134,179,73964,1,10,0:0:0:0:
223,237,74151,6,0,P|302:265|358:223,1,154.000004699707,2|2,0:0|0:0,0:0:0:0:
405,137,74714,1,10,0:0:0:0:
320,84,74901,2,0,P|302:133|317:187,1,77.0000023498536,2|0,0:0|0:0,0:0:0:0:
379,251,75276,5,2,0:0:0:0:
379,251,75464,1,10,0:0:0:0:
342,347,75651,2,0,L|249:335,1,77.0000023498536,2|0,0:0|3:2,0:0:0:0:
192,266,76026,5,2,0:0:0:0:
192,266,76214,1,10,0:0:0:0:
131,350,76401,2,0,L|47:338,1,77.0000023498536,2|0,0:0|3:2,0:0:0:0:
13,236,76776,5,2,0:0:0:0:
13,236,76964,1,10,0:0:0:0:
90,158,77151,2,0,B|166:156|146:219|230:220,1,154.000004699707,2|2,0:0|0:0,0:0:0:0:
322,183,77714,2,0,P|357:169|395:170,1,77.0000023498536,10|2,0:0|0:0,0:0:0:0:
461,255,78089,2,0,B|480:190|480:190|467:88,1,154.000004699707,2|10,3:2|0:0,0:0:0:0:
435,5,78651,1,2,0:0:0:0:
358,70,78839,6,0,P|292:69|215:52,1,115.50000352478,2|0,3:2|0:0,0:0:0:0:
209,41,79214,2,0,P|155:35|109:36,1,77.0000023498536,10|2,0:0|0:0,0:0:0:0:
66,117,79589,2,0,P|69:167|76:211,2,77.0000023498536,2|2|10,3:2|0:0|0:0,0:0:0:0:
175,150,80151,6,0,P|169:236|154:314,1,154.000004699707,2|2,0:0|0:0,0:0:0:0:
70,354,80714,1,10,0:0:0:0:
15,270,80901,2,0,P|60:250|96:246,1,77.0000023498536,2|0,0:0|0:0,0:0:0:0:
198,268,81276,5,2,0:0:0:0:
198,268,81464,1,10,0:0:0:0:
290,228,81651,2,0,L|282:147,1,77.0000023498536,2|0,0:0|3:2,0:0:0:0:
190,114,82026,1,2,0:0:0:0:
268,42,82214,6,0,L|347:45,2,77.0000023498536,10|2|2,0:0|0:0|3:2,0:0:0:0:
168,15,82776,1,2,0:0:0:0:
71,59,82964,2,0,P|59:99|72:156,1,77.0000023498536,10|2,0:0|0:0,0:0:0:0:
27,231,83339,6,0,L|75:240,3,38.5000011749268,0|0|0|0,3:2|3:2|3:2|3:2,0:0:0:0:
83,274,83714,2,0,L|131:283,3,38.5000011749268,8|0|0|0,0:0|3:2|3:2|3:2,0:0:0:0:
147,310,84089,1,0,3:2:0:0:
212,153,84464,2,0,L|206:107,3,38.5000011749268,8|0|0|0,0:0|3:2|3:2|3:2,0:0:0:0:
199,90,84839,6,0,L|289:81,1,70,6|2,3:2|0:0,0:0:0:0:
357,41,85214,2,0,L|441:50,1,70,10|2,0:0|0:0,0:0:0:0:
495,117,85589,2,0,P|514:181|481:260,1,140,2|10,3:2|0:0,0:0:0:0:
422,326,86151,1,0,0:0:0:0:
324,301,86339,6,0,L|308:215,1,70,2|0,3:2|0:0,0:0:0:0:
218,206,86714,2,0,L|205:285,1,70,10|0,0:0|0:0,0:0:0:0:
118,321,87089,2,0,L|110:244,1,70,2|0,3:2|0:0,0:0:0:0:
17,264,87464,2,0,L|32:182,1,70,10|0,0:0|0:0,0:0:0:0:
51,98,87839,6,0,P|90:113|120:111,1,70,2|2,3:2|0:0,0:0:0:0:
190,178,88214,2,0,P|224:166|248:135,1,70,10|2,0:0|0:0,0:0:0:0:
348,160,88589,2,0,P|357:86|318:34,1,140,2|10,3:2|0:0,0:0:0:0:
215,22,89151,1,0,0:0:0:0:
108,42,89339,6,0,L|119:128,1,70,2|2,3:2|0:0,0:0:0:0:
130,218,89714,1,10,0:0:0:0:
130,218,89901,1,2,0:0:0:0:
229,192,90089,2,0,L|220:274,1,70,2|0,3:2|0:0,0:0:0:0:
315,297,90464,2,0,L|306:380,1,70,10|0,0:0|0:0,0:0:0:0:
415,362,90839,6,0,P|464:349|492:313,1,70,2|2,3:2|0:0,0:0:0:0:
485,236,91214,2,0,P|454:210|415:207,1,70,10|2,0:0|0:0,0:0:0:0:
338,258,91589,2,0,P|276:267|212:227,1,140,2|10,3:2|0:0,0:0:0:0:
138,154,92151,1,0,0:0:0:0:
233,125,92339,6,0,L|240:35,1,70,2|0,3:2|0:0,0:0:0:0:
335,95,92714,2,0,L|350:10,1,70,10|0,0:0|0:0,0:0:0:0:
444,88,93089,2,0,L|403:164,1,70,2|0,3:2|0:0,0:0:0:0:
506,189,93464,2,0,L|455:249,1,70,10|0,0:0|0:0,0:0:0:0:
451,333,93839,6,0,L|362:325,1,70,2|2,3:2|0:0,0:0:0:0:
324,246,94214,2,0,L|245:241,1,70,10|2,0:0|0:0,0:0:0:0:
206,321,94589,2,0,L|110:317,1,70,2|2,3:2|0:0,0:0:0:0:
102,224,94964,2,0,L|18:221,1,70,10|2,0:0|0:0,0:0:0:0:
82,123,95339,6,0,L|91:77,3,35,0|0|0|0,3:2|3:2|3:2|3:2,0:0:0:0:
117,95,95714,2,0,L|124:53,3,35,8|0|0|0,0:0|3:2|3:2|3:2,0:0:0:0:
150,58,96089,2,0,P|192:74|238:75,1,70,0|0,3:2|3:2,0:0:0:0:
315,52,96464,2,0,P|353:39|382:39,1,70,8|0,0:0|3:2,0:0:0:0:
483,69,96839,5,6,3:2:0:0:
462,76,102839,6,0,P|421:63|401:67,1,62.9999980773926,6|2,3:2|0:0,0:0:0:0:
328,115,103214,2,0,P|275:132|248:128,1,62.9999980773926,10|0,0:0|0:0,0:0:0:0:
190,168,103589,2,0,L|180:60,2,94.499997116089,2|2|2,3:2|0:0|0:0,0:0:0:0:
161,323,104526,5,2,0:0:0:0:
161,323,104714,2,0,L|241:308,1,62.9999980773926,10|2,0:0|0:0,0:0:0:0:
316,333,105089,2,0,B|357:327|357:327|381:336|381:336|425:329,2,94.499997116089,2|2|2,3:2|0:0|0:0,0:0:0:0:
406,211,106026,5,2,0:0:0:0:
406,211,106214,2,0,P|419:152|413:135,1,62.9999980773926,10|2,0:0|0:0,0:0:0:0:
333,109,106589,2,0,P|293:127|223:126,2,94.499997116089,2|2|2,3:2|0:0|0:0,0:0:0:0:
269,35,107339,6,0,P|219:25|194:29,1,62.9999980773926,4|2,0:3|3:2,0:0:0:0:
127,79,107714,2,0,L|115:152,1,62.9999980773926,10|0,0:0|0:0,0:0:0:0:
195,202,108089,2,0,L|208:279,1,62.9999980773926,2|0,3:2|0:0,0:0:0:0:
120,319,108464,1,10,0:0:0:0:
330,346,108839,6,0,P|417:347|432:279,1,168,6|2,3:1|3:2,0:0:0:0:
345,250,109589,2,0,P|332:169|357:126,1,112,10|0,0:0|0:0,0:0:0:0:
415,94,110151,1,2,3:2:0:0:
479,42,110339,6,0,L|406:37,1,56,0|0,0:0|3:2,0:0:0:0:
386,23,110620,1,0,3:2:0:0:
386,23,110714,2,0,L|327:20,1,56,0|0,0:0|3:2,0:0:0:0:
237,43,111089,2,0,B|275:140|210:112|246:215,1,168,8|0,0:0|0:0,0:0:0:0:
219,292,111839,6,0,P|141:305|103:227,1,168,0|0,3:2|3:2,0:0:0:0:
18,217,112589,2,0,P|62:153|102:153,1,112,8|0,0:0|0:0,0:0:0:0:
178,169,113151,6,0,P|228:203|286:189,1,112,0|0,3:2|3:2,0:0:0:0:
360,163,113714,1,0,0:0:0:0:
446,194,113901,1,0,3:2:0:0:
446,194,113995,1,0,3:2:0:0:
446,194,114089,2,0,L|453:121,1,56,8|0,0:0|0:0,0:0:0:0:
387,76,114464,2,0,L|382:11,1,56,0|0,0:0|0:0,0:0:0:0:
291,52,114839,6,0,P|243:69|216:73,1,62.9999980773926,8|8,3:1|0:1,0:0:0:0:
142,62,115214,2,0,P|101:52|72:37,1,62.9999980773926,8|8,0:1|0:1,0:0:0:0:
9,117,115589,1,0,3:1:0:0:
93,305,116339,6,0,L|154:289,1,62.9999980773926,8|8,3:1|0:1,0:0:0:0:
241,336,116714,2,0,L|311:316,1,62.9999980773926,8|8,0:1|0:1,0:0:0:0:
397,343,117089,1,0,3:1:0:0:
443,117,117839,6,0,P|411:96|373:96,1,62.9999980773926,0|8,3:1|0:1,0:0:0:0:
322,157,118214,2,0,P|282:175|243:169,1,62.9999980773926,0|8,3:1|0:1,0:0:0:0:
178,147,118589,2,0,L|175:107,3,31.4999990386963,0|0|8|0,3:1|0:0|0:1|0:0,0:0:0:0:
143,107,118964,2,0,L|140:67,3,31.4999990386963,0|0|8|0,3:1|0:0|0:1|0:0,0:0:0:0:
101,60,119339,6,0,P|68:59|31:80,1,62.9999980773926,0|8,3:1|0:1,0:0:0:0:
18,171,119714,2,0,P|51:172|88:151,1,62.9999980773926,0|8,3:1|0:1,0:0:0:0:
159,213,120089,1,2,0:0:0:0:
245,31,120464,5,8,0:0:0:0:
298,226,120839,6,0,P|361:220|435:197,1,115.50000352478,6|0,3:1|0:0,0:0:0:0:
443,192,121214,2,0,B|461:155|461:155|454:99,1,77.0000023498536,10|0,0:0|0:0,0:0:0:0:
379,47,121589,2,0,P|314:42|265:82,1,115.50000352478,2|0,3:2|0:0,0:0:0:0:
255,92,121964,1,8,0:0:0:0:
159,44,122151,6,0,L|170:205,1,154.000004699707,2|2,0:0|0:0,0:0:0:0:
179,291,122714,1,10,0:0:0:0:
94,318,122901,2,0,L|87:235,1,77.0000023498536,2|0,0:0|0:0,0:0:0:0:
46,136,123276,5,2,0:0:0:0:
46,136,123464,1,10,0:0:0:0:
136,153,123651,2,0,P|176:164|227:165,1,77.0000023498536,2|0,0:0|3:2,0:0:0:0:
296,92,124026,5,2,0:0:0:0:
296,92,124214,1,10,0:0:0:0:
388,72,124401,2,0,P|431:79|479:97,1,77.0000023498536,2|0,0:0|3:2,0:0:0:0:
399,198,124776,5,2,0:0:0:0:
399,198,124964,1,10,0:0:0:0:
311,141,125151,2,0,P|287:207|330:280,1,154.000004699707,2|2,0:0|0:0,0:0:0:0:
413,323,125714,2,0,P|474:312|496:280,1,77.0000023498536,10|2,0:0|0:0,0:0:0:0:
512,211,126089,1,2,3:2:0:0:
311,141,126464,2,0,L|223:151,1,77.0000023498536,10|0,0:0|0:0,0:0:0:0:
187,236,126839,6,0,L|72:222,1,115.50000352478,2|0,3:2|0:0,0:0:0:0:
37,216,127214,2,0,L|46:139,1,77.0000023498536,10|0,0:0|0:0,0:0:0:0:
116,44,127589,2,0,P|186:66|237:63,1,115.50000352478,2|2,3:2|0:0,0:0:0:0:
262,53,127964,1,8,0:0:0:0:
371,24,128151,6,0,P|420:27|467:128,1,154.000004699707,2|2,0:0|0:0,0:0:0:0:
451,209,128714,1,10,0:0:0:0:
408,305,128901,2,0,L|331:294,1,77.0000023498536,2|0,0:0|0:0,0:0:0:0:
235,250,129276,6,0,L|223:158,2,77.0000023498536,2|10|2,0:0|0:0|0:0,0:0:0:0:
184,344,129839,1,0,3:2:0:0:
184,344,130026,1,2,0:0:0:0:
81,319,130214,2,0,L|68:222,1,77.0000023498536,10|2,0:0|0:0,0:0:0:0:
17,152,130589,2,0,P|61:134|104:142,1,77.0000023498536,2|2,3:2|0:0,0:0:0:0:
188,169,130964,2,0,P|242:180|284:166,1,77.0000023498536,10|2,0:0|0:0,0:0:0:0:
350,135,131339,6,0,L|356:83,3,38.5000011749268,0|0|0|0,3:2|3:2|3:2|3:2,0:0:0:0:
392,96,131714,2,0,L|398:44,3,38.5000011749268,8|0|0|0,0:0|3:2|3:2|3:2,0:0:0:0:
430,49,132089,2,0,P|496:80|483:154,1,154.000004699707,0|8,3:2|0:0,0:0:0:0:
426,229,132651,1,0,0:0:0:0:
482,308,132839,1,0,0:0:0:0:
482,308,133214,6,0,L|397:321,1,77.0000023498536,6|0,3:1|0:0,0:0:0:0:
319,367,133589,2,0,L|196:352,1,115.50000352478,2|2,3:2|0:0,0:0:0:0:
169,346,133964,1,10,0:0:0:0:
254,268,134151,6,0,P|299:182|261:123,1,154.000004699707,2|2,0:0|0:0,0:0:0:0:
198,72,134714,1,10,0:0:0:0:
101,73,134901,2,0,P|84:107|85:145,1,77.0000023498536,2|0,0:0|0:0,0:0:0:0:
133,251,135276,5,2,0:0:0:0:
133,251,135464,1,10,0:0:0:0:
208,189,135651,2,0,L|301:177,1,77.0000023498536,2|0,0:0|3:2,0:0:0:0:
363,260,136026,5,2,0:0:0:0:
363,260,136214,1,10,0:0:0:0:
451,208,136401,2,0,L|439:124,1,77.0000023498536,2|0,0:0|3:2,0:0:0:0:
361,65,136776,5,2,0:0:0:0:
361,65,136964,1,10,0:0:0:0:
265,99,137151,2,0,B|189:97|209:160|125:161,1,154.000004699707,2|2,0:0|0:0,0:0:0:0:
51,91,137714,2,0,P|27:134|37:185,1,77.0000023498536,10|2,0:0|0:0,0:0:0:0:
56,257,138089,2,0,P|81:295|131:301,1,77.0000023498536,2|2,3:2|0:0,0:0:0:0:
203,276,138464,1,10,0:0:0:0:
292,307,138651,1,2,0:0:0:0:
292,307,138839,6,0,B|351:283|351:283|435:289,1,115.50000352478,2|0,3:2|0:0,0:0:0:0:
440,297,139214,2,0,P|446:259|449:215,1,77.0000023498536,10|0,0:0|0:0,0:0:0:0:
359,171,139589,2,0,P|351:131|348:89,2,77.0000023498536,2|2|10,3:2|0:0|0:0,0:0:0:0:
455,122,140151,5,2,0:0:0:0:
455,122,140339,2,0,P|459:71|453:38,1,77.0000023498536,2|2,3:2|0:0,0:0:0:0:
359,7,140714,1,10,0:0:0:0:
272,52,140901,2,0,P|223:63|187:67,1,77.0000023498536,2|0,0:0|0:0,0:0:0:0:
97,41,141276,5,2,0:0:0:0:
97,41,141464,1,10,0:0:0:0:
21,105,141651,2,0,L|28:181,1,77.0000023498536,2|0,0:0|3:2,0:0:0:0:
96,255,142026,1,2,0:0:0:0:
180,195,142214,1,10,0:0:0:0:
180,195,142401,2,0,L|344:176,1,154.000004699707,2|2,0:0|0:0,0:0:0:0:
432,136,142964,2,0,P|444:176|431:233,1,77.0000023498536,10|2,0:0|0:0,0:0:0:0:
404,302,143339,6,0,L|356:311,3,38.5000011749268,0|0|0|0,3:2|3:2|3:2|3:2,0:0:0:0:
341,329,143714,2,0,L|293:338,3,38.5000011749268,8|0|0|0,0:0|3:2|3:2|3:2,0:0:0:0:
279,359,144089,1,0,3:2:0:0:
120,331,144464,1,8,0:0:0:0:
32,195,144839,6,0,P|7:137|46:59,1,140,6|8,3:2|0:0,0:0:0:0:
133,37,145401,1,2,0:0:0:0:
133,37,145495,1,2,0:0:0:0:
133,37,145589,2,0,P|180:57|224:62,1,70,2|0,3:2|0:0,0:0:0:0:
255,151,145964,2,0,P|302:137|332:116,1,70,8|2,0:0|0:0,0:0:0:0:
343,107,146245,1,2,0:0:0:0:
343,107,146339,6,0,P|400:67|474:85,1,140,2|10,3:2|0:0,0:0:0:0:
505,261,147089,2,0,P|448:301|374:283,1,140,2|10,3:2|0:0,0:0:0:0:
216,195,147839,6,0,L|205:110,1,70,2|2,3:2|0:0,0:0:0:0:
118,83,148214,2,0,L|109:152,1,70,10|2,0:0|0:0,0:0:0:0:
54,233,148589,1,2,3:2:0:0:
111,311,148776,1,2,0:0:0:0:
111,311,148870,1,2,0:0:0:0:
111,311,148964,2,0,L|183:298,1,70,10|2,0:0|0:0,0:0:0:0:
266,344,149339,6,0,P|324:348|348:332,1,70,2|2,3:2|0:0,0:0:0:0:
361,328,149620,1,2,0:0:0:0:
361,328,149714,2,0,L|366:246,1,70,10|2,0:0|0:0,0:0:0:0:
289,182,150089,2,0,P|231:186|207:170,1,70,2|2,3:2|0:0,0:0:0:0:
142,123,150464,2,0,L|137:41,1,70,10|2,0:0|0:0,0:0:0:0:
230,19,150839,6,0,L|280:22,3,35,2|2|2|2,3:2|0:0|0:0|0:0,0:0:0:0:
293,41,151214,2,0,L|343:44,3,35,10|0|2|2,0:0|0:0|0:0|0:0,0:0:0:0:
354,65,151589,2,0,L|404:68,3,35,2|2|2|2,3:2|0:0|0:0|0:0,0:0:0:0:
411,91,151964,2,0,L|501:97,1,70,10|2,0:0|0:0,0:0:0:0:
504,194,152339,5,2,3:2:0:0:
504,194,152526,1,2,0:0:0:0:
421,254,152714,2,0,L|332:246,1,70,10|2,0:0|0:0,0:0:0:0:
258,198,153089,2,0,L|254:292,1,70,2|0,3:2|0:0,0:0:0:0:
150,287,153464,2,0,L|152:217,1,70,10|0,0:0|0:0,0:0:0:0:
79,155,153839,6,0,P|64:95|144:41,1,140,2|8,3:2|0:0,0:0:0:0:
218,15,154401,1,2,0:0:0:0:
218,15,154495,1,2,0:0:0:0:
218,15,154589,2,0,P|234:64|231:111,1,70,2|0,3:2|0:0,0:0:0:0:
216,180,154964,2,0,P|206:221|212:272,1,70,8|2,0:0|0:0,0:0:0:0:
249,338,155339,6,0,L|297:328,3,35,2|0|0|0,3:2|3:2|3:2|3:2,0:0:0:0:
313,348,155714,2,0,L|361:338,3,35,8|0|0|0,0:0|3:2|3:2|3:2,0:0:0:0:
383,355,156089,2,0,P|450:345|471:270,1,140,0|8,3:2|0:0,0:0:0:0:
451,194,156651,1,0,0:0:0:0:
353,208,156839,5,6,3:2:0:0:
454,52,162839,6,0,L|376:42,1,70,6|0,3:2|0:0,0:0:0:0:
322,112,163214,2,0,L|244:102,1,70,0|0,3:2|0:0,0:0:0:0:
172,146,163589,1,0,3:2:0:0:
31,58,163964,1,0,3:2:0:0:
12,224,164339,6,0,L|21:311,1,70,0|0,3:2|0:0,0:0:0:0:
113,280,164714,2,0,L|122:367,1,70,0|0,3:2|0:0,0:0:0:0:
213,337,165089,1,0,3:2:0:0:
403,359,165464,1,0,3:2:0:0:
452,159,165839,6,0,P|401:137|370:146,1,70,0|8,3:2|0:1,0:0:0:0:
314,85,166214,2,0,P|292:136|301:167,1,70,0|8,3:2|0:1,0:0:0:0:
240,223,166589,2,0,P|291:245|322:236,1,70,0|8,3:2|0:1,0:0:0:0:
378,297,166964,2,0,P|400:246|391:215,1,70,0|8,3:2|0:1,0:0:0:0:
388,138,167339,6,0,L|382:96,3,35,0|8|8|8,3:2|0:1|3:1|3:1,0:0:0:0:
370,64,167714,2,0,L|336:46,3,35,0|8|8|8,3:2|0:1|0:1|0:1,0:0:0:0:
302,31,168089,2,0,L|219:41,1,70,0|0,3:2|0:0,0:0:0:0:
186,141,168464,2,0,L|104:129,1,70,0|0,3:2|0:0,0:0:0:0:
28,57,168839,5,6,3:1:0:0:
39,64,174839,5,2,3:2:0:0:
225,34,175214,1,10,0:0:0:0:
398,105,175589,1,2,3:2:0:0:
383,286,175964,2,0,L|372:361,1,70,8|0,0:0|0:0,0:0:0:0:
277,365,176339,5,0,3:2:0:0:
222,183,176714,1,10,0:0:0:0:
309,22,177089,1,0,3:2:0:0:
482,99,177464,2,0,L|470:202,1,70,10|0,0:0|0:0,0:0:0:0:
455,263,177839,6,0,P|396:240|369:243,1,70,0|2,3:2|0:0,0:0:0:0:
343,156,178214,2,0,P|291:176|271:212,1,70,10|2,0:0|0:0,0:0:0:0:
198,148,178589,2,0,P|174:187|176:240,1,70,0|2,3:2|0:0,0:0:0:0:
86,257,178964,2,0,P|114:310|149:321,1,70,10|2,0:0|0:0,0:0:0:0:
208,352,179339,6,0,L|254:343,3,35,0|0|0|0,3:2|3:2|3:2|3:2,0:0:0:0:
268,324,179714,2,0,L|314:315,3,35,8|0|0|0,0:0|3:2|3:2|3:2,0:0:0:0:
329,289,180089,2,0,L|405:276,2,70,0|0|8,3:2|0:0|0:0,0:0:0:0:
251,223,180651,1,0,0:0:0:0:
327,147,180839,1,0,0:0:0:0:
327,147,181214,6,0,L|419:132,1,77.0000023498536,6|0,3:1|0:0,0:0:0:0:
476,53,181589,2,0,P|423:23|354:39,1,115.50000352478,2|2,3:2|0:0,0:0:0:0:
340,41,181964,1,8,0:0:0:0:
251,91,182151,5,2,0:0:0:0:
251,91,182339,2,0,P|206:83|163:73,2,77.0000023498536,2|2|10,3:2|0:0|0:0,0:0:0:0:
327,147,182901,2,0,P|343:214|343:256,1,77.0000023498536,2|0,0:0|0:0,0:0:0:0:
325,318,183276,5,2,0:0:0:0:
325,318,183464,1,10,0:0:0:0:
244,263,183651,2,0,L|142:250,1,77.0000023498536,2|0,0:0|3:2,0:0:0:0:
60,286,184026,5,2,0:0:0:0:
60,286,184214,1,10,0:0:0:0:
27,184,184401,2,0,L|106:171,1,77.0000023498536,2|0,0:0|3:2,0:0:0:0:
187,114,184776,5,2,0:0:0:0:
187,114,184964,1,10,0:0:0:0:
268,164,185151,2,0,B|280:249|224:226|250:319,1,154.000004699707,2|2,0:0|0:0,0:0:0:0:
326,357,185714,2,0,P|371:350|407:328,1,77.0000023498536,10|2,0:0|0:0,0:0:0:0:
470,272,186089,2,0,P|483:232|480:169,1,77.0000023498536,2|2,3:2|0:0,0:0:0:0:
512,103,186464,2,0,L|407:95,1,77.0000023498536,10|2,0:0|0:0,0:0:0:0:
353,162,186839,5,2,3:2:0:0:
353,162,187026,1,0,0:0:0:0:
267,94,187214,2,0,L|185:86,1,77.0000023498536,10|0,0:0|0:0,0:0:0:0:
106,152,187589,1,2,3:2:0:0:
106,152,187776,1,0,0:0:0:0:
29,95,187964,1,10,0:0:0:0:
29,95,188151,6,0,L|43:258,1,154.000004699707,2|2,0:0|0:0,0:0:0:0:
77,343,188714,1,10,0:0:0:0:
139,266,188901,2,0,L|222:252,1,77.0000023498536,2|0,0:0|0:0,0:0:0:0:
301,326,189276,5,2,0:0:0:0:
301,326,189464,1,10,0:0:0:0:
376,263,189651,2,0,P|402:205|353:118,1,154.000004699707,2|2,0:0|0:0,0:0:0:0:
290,66,190214,2,0,L|190:59,2,77.0000023498536,10|2|2,0:0|0:0|3:2,0:0:0:0:
243,157,190776,1,2,0:0:0:0:
243,157,190964,2,0,L|142:147,1,77.0000023498536,10|2,0:0|0:0,0:0:0:0:
66,132,191339,6,0,L|72:196,3,38.5000011749268,0|0|0|0,3:2|3:2|3:2|3:2,0:0:0:0:
50,198,191714,2,0,L|56:262,3,38.5000011749268,8|0|0|0,0:0|3:2|3:2|3:2,0:0:0:0:
36,272,192089,1,0,3:2:0:0:
163,351,192464,2,0,L|209:339,3,38.5000011749268,8|0|0|0,0:0|3:2|3:2|3:2,0:0:0:0:
234,356,192839,6,0,P|273:357|320:331,1,70,6|2,3:2|0:0,0:0:0:0:
376,264,193214,2,0,P|382:223|371:185,1,70,10|2,0:0|0:0,0:0:0:0:
273,166,193589,2,0,P|197:208|126:193,1,140,2|10,3:2|0:0,0:0:0:0:
61,148,194151,1,0,0:0:0:0:
115,55,194339,6,0,L|184:64,1,70,2|0,3:2|0:0,0:0:0:0:
249,132,194714,2,0,L|318:140,1,70,10|0,0:0|0:0,0:0:0:0:
416,92,195089,2,0,L|423:161,1,70,2|0,3:2|0:0,0:0:0:0:
495,228,195464,2,0,L|502:297,1,70,10|0,0:0|0:0,0:0:0:0:
416,354,195839,6,0,P|374:348|340:320,1,70,2|2,3:2|0:0,0:0:0:0:
259,354,196214,2,0,P|255:309|269:267,1,70,10|2,0:0|0:0,0:0:0:0:
170,239,196589,2,0,P|214:194|288:190,1,140,2|10,3:2|0:0,0:0:0:0:
382,208,197151,1,0,0:0:0:0:
460,154,197339,6,0,L|449:68,1,70,2|2,3:2|0:0,0:0:0:0:
366,41,197714,1,10,0:0:0:0:
366,41,197901,1,2,0:0:0:0:
290,103,198089,2,0,L|205:86,1,70,2|0,3:2|0:0,0:0:0:0:
123,69,198464,2,0,L|130:170,1,70,10|0,0:0|0:0,0:0:0:0:
55,213,198839,6,0,P|112:245|141:240,1,70,2|2,3:2|0:0,0:0:0:0:
125,341,199214,2,0,P|178:320|198:293,1,70,10|2,0:0|0:0,0:0:0:0:
278,345,199589,2,0,P|281:286|266:254,1,70,2|2,3:2|0:0,0:0:0:0:
238,185,199964,2,0,P|228:139|239:101,1,70,10|0,0:0|0:0,0:0:0:0:
316,35,200339,6,0,L|390:45,1,70,2|0,3:2|0:0,0:0:0:0:
460,106,200714,1,10,0:0:0:0:
382,256,201089,2,0,L|308:246,1,70,2|0,3:2|0:0,0:0:0:0:
238,185,201464,1,10,0:0:0:0:
107,334,201839,6,0,L|97:264,1,70,2|2,3:2|0:0,0:0:0:0:
21,206,202214,2,0,L|28:116,1,70,10|2,0:0|0:0,0:0:0:0:
120,174,202589,2,0,L|189:164,1,70,2|2,3:2|0:0,0:0:0:0:
248,88,202964,2,0,L|338:95,1,70,10|2,0:0|0:0,0:0:0:0:
401,148,203339,6,0,L|407:198,3,35,0|0|0|0,3:2|3:2|3:2|3:2,0:0:0:0:
432,203,203714,2,0,L|438:253,3,35,8|0|0|0,0:0|3:2|3:2|3:2,0:0:0:0:
458,269,204089,1,0,3:2:0:0:
404,352,204276,1,0,3:2:0:0:
311,308,204464,2,0,L|223:298,1,70,8|0,0:0|3:2,0:0:0:0:
