osu file format v14

[General]
AudioFilename: audio.mp3
AudioLeadIn: 0
PreviewTime: 60578
Countdown: 0
SampleSet: Soft
StackLeniency: 0.7
Mode: 3
LetterboxInBreaks: 0
SpecialStyle: 0
WidescreenStoryboard: 1

[Editor]
Bookmarks: 860,6860,12860,24860,36860,48860,54860,60860,72860,78860
DistanceSpacing: 0.8
BeatDivisor: 4
GridSize: 4
TimelineZoom: 1.199999

[Metadata]
Title:Digital Life Hacker (Cut Ver.)
TitleUnicode:Digital Life Hacker (Cut Ver.)
Artist:wotoha
ArtistUnicode:をとは
Creator:fvrex
Version:Hard
Source:
Tags:xtrippin featured artist fa mappers' guild mpg mg priority quest underappreciated artists jelly girl japanese pop jpop j-pop electronic ଳ 海月ねう mitukineu version jellyfish 0108 O108 neko hacker
BeatmapID:4287031
BeatmapSetID:2052537

[Difficulty]
HPDrainRate:7.5
CircleSize:4
OverallDifficulty:7.5
ApproachRate:5
SliderMultiplier:1.4
SliderTickRate:1

[Events]
//Background and Video events
0,0,"49815079_p0.jpg",0,0
//Break Periods
//Storyboard Layer 0 (Background)
//Storyboard Layer 1 (Fail)
//Storyboard Layer 2 (Pass)
//Storyboard Layer 3 (Foreground)
//Storyboard Layer 4 (Overlay)
//Storyboard Sound Samples

[TimingPoints]
860,375,4,2,1,60,1,0
12860,-100,4,2,1,60,0,1
24860,-100,4,2,1,60,0,0
60860,-100,4,2,1,60,0,1
84860,-100,4,2,1,60,0,0

[HitObjects]
64,192,485,5,0,0:0:0:0:
192,192,578,1,0,0:0:0:0:
320,192,672,1,0,0:0:0:0:
448,192,766,1,0,0:0:0:0:
64,192,860,1,0,0:0:0:0:
192,192,860,1,0,0:0:0:0:
320,192,1047,128,0,1235:0:0:0:0:
192,192,1235,1,0,0:0:0:0:
320,192,1422,128,0,1610:0:0:0:0:
448,192,1610,1,0,0:0:0:0:
192,192,1797,128,0,1985:0:0:0:0:
64,192,1985,1,0,0:0:0:0:
192,192,2172,128,0,2360:0:0:0:0:
320,192,2360,1,0,0:0:0:0:
64,192,2547,128,0,2735:0:0:0:0:
448,192,2735,1,0,0:0:0:0:
64,192,2922,128,0,3110:0:0:0:0:
192,192,3110,1,0,0:0:0:0:
448,192,3297,128,0,3485:0:0:0:0:
64,192,3485,1,0,0:0:0:0:
192,192,3578,1,0,0:0:0:0:
320,192,3672,1,0,0:0:0:0:
448,192,3766,1,0,0:0:0:0:
192,192,3860,1,0,0:0:0:0:
64,192,4047,128,0,4235:0:0:0:0:
448,192,4235,1,0,0:0:0:0:
64,192,4422,128,0,4610:0:0:0:0:
320,192,4610,1,0,0:0:0:0:
448,192,4797,128,0,4985:0:0:0:0:
192,192,4985,1,0,0:0:0:0:
448,192,5172,128,0,5360:0:0:0:0:
64,192,5360,1,0,0:0:0:0:
192,192,5547,128,0,5735:0:0:0:0:
448,192,5735,1,0,0:0:0:0:
192,192,5922,128,0,6110:0:0:0:0:
64,192,6110,1,0,0:0:0:0:
320,192,6297,128,0,6485:0:0:0:0:
448,192,6485,1,0,0:0:0:0:
320,192,6578,1,0,0:0:0:0:
192,192,6672,1,0,0:0:0:0:
64,192,6766,1,0,0:0:0:0:
448,192,6860,1,0,0:0:0:0:
320,192,6860,1,0,0:0:0:0:
192,192,7047,128,0,7235:0:0:0:0:
320,192,7235,1,0,0:0:0:0:
192,192,7422,128,0,7610:0:0:0:0:
64,192,7610,1,0,0:0:0:0:
448,192,7610,1,0,0:0:0:0:
320,192,7797,128,0,7985:0:0:0:0:
448,192,7985,1,0,0:0:0:0:
320,192,8172,128,0,8360:0:0:0:0:
192,192,8360,1,0,0:0:0:0:
64,192,8360,1,0,0:0:0:0:
448,192,8547,128,0,8735:0:0:0:0:
64,192,8735,1,0,0:0:0:0:
448,192,8922,128,0,9110:0:0:0:0:
320,192,9110,1,0,0:0:0:0:
192,192,9110,1,0,0:0:0:0:
64,192,9297,128,0,9485:0:0:0:0:
448,192,9485,1,0,0:0:0:0:
64,192,9672,128,0,9860:0:0:0:0:
320,192,9860,1,0,0:0:0:0:
448,192,9860,1,0,0:0:0:0:
192,192,10047,1,0,0:0:0:0:
64,192,10235,1,0,0:0:0:0:
320,192,10235,1,0,0:0:0:0:
448,192,10422,1,0,0:0:0:0:
192,192,10610,1,0,0:0:0:0:
64,192,10610,1,0,0:0:0:0:
320,192,10797,1,0,0:0:0:0:
192,192,10985,1,0,0:0:0:0:
448,192,10985,1,0,0:0:0:0:
64,192,11172,1,0,0:0:0:0:
448,192,11360,1,0,0:0:0:0:
320,192,11453,1,0,0:0:0:0:
192,192,11547,1,0,0:0:0:0:
64,192,11641,1,0,0:0:0:0:
448,192,11735,1,0,0:0:0:0:
64,192,11828,1,0,0:0:0:0:
448,192,11922,1,0,0:0:0:0:
192,192,12297,128,0,12485:0:0:0:0:
320,192,12485,128,0,12672:0:0:0:0:
64,192,12672,128,0,12860:0:0:0:0:
192,192,12860,1,0,0:0:0:0:
448,192,12860,1,0,0:0:0:0:
448,192,13047,1,0,0:0:0:0:
320,192,13235,1,0,0:0:0:0:
64,192,13235,1,0,0:0:0:0:
64,192,13422,1,0,0:0:0:0:
320,192,13610,128,0,13797:0:0:0:0:
448,192,13610,128,0,13797:0:0:0:0:
320,192,13985,128,0,14172:0:0:0:0:
448,192,13985,128,0,14172:0:0:0:0:
320,192,14360,1,0,0:0:0:0:
192,192,14360,128,0,14547:0:0:0:0:
448,192,14547,1,0,0:0:0:0:
192,192,14735,1,0,0:0:0:0:
64,192,14735,128,0,14922:0:0:0:0:
320,192,14922,1,0,0:0:0:0:
64,192,15110,1,0,0:0:0:0:
448,192,15110,128,0,15297:0:0:0:0:
192,192,15297,1,0,0:0:0:0:
448,192,15485,1,0,0:0:0:0:
320,192,15485,128,0,15672:0:0:0:0:
64,192,15672,128,0,15860:0:0:0:0:
192,192,15860,1,0,0:0:0:0:
448,192,15860,1,0,0:0:0:0:
192,192,16047,1,0,0:0:0:0:
64,192,16235,1,0,0:0:0:0:
320,192,16235,1,0,0:0:0:0:
320,192,16422,1,0,0:0:0:0:
64,192,16610,128,0,16797:0:0:0:0:
192,192,16610,128,0,16797:0:0:0:0:
192,192,16985,128,0,17172:0:0:0:0:
64,192,16985,128,0,17172:0:0:0:0:
448,192,17360,128,0,17547:0:0:0:0:
192,192,17360,1,0,0:0:0:0:
64,192,17547,1,0,0:0:0:0:
320,192,17735,128,0,17922:0:0:0:0:
448,192,17735,1,0,0:0:0:0:
192,192,17922,1,0,0:0:0:0:
64,192,18110,128,0,18297:0:0:0:0:
448,192,18110,128,0,18297:0:0:0:0:
448,192,18485,128,0,18672:0:0:0:0:
64,192,18485,128,0,18672:0:0:0:0:
192,192,18672,1,0,0:0:0:0:
320,192,18860,1,0,0:0:0:0:
448,192,18860,1,0,0:0:0:0:
448,192,19047,1,0,0:0:0:0:
192,192,19235,1,0,0:0:0:0:
64,192,19235,1,0,0:0:0:0:
192,192,19422,1,0,0:0:0:0:
448,192,19610,128,0,19985:0:0:0:0:
320,192,19610,1,0,0:0:0:0:
64,192,19797,1,0,0:0:0:0:
192,192,19985,128,0,20172:0:0:0:0:
320,192,19985,128,0,20172:0:0:0:0:
192,192,20360,1,0,0:0:0:0:
64,192,20360,128,0,20547:0:0:0:0:
320,192,20547,1,0,0:0:0:0:
448,192,20735,128,0,20922:0:0:0:0:
192,192,20735,1,0,0:0:0:0:
64,192,20922,1,0,0:0:0:0:
320,192,21110,128,0,21297:0:0:0:0:
448,192,21110,1,0,0:0:0:0:
64,192,21297,1,0,0:0:0:0:
192,192,21485,128,0,21672:0:0:0:0:
320,192,21485,1,0,0:0:0:0:
448,192,21672,1,0,0:0:0:0:
320,192,21860,1,0,0:0:0:0:
64,192,21860,1,0,0:0:0:0:
64,192,22047,1,0,0:0:0:0:
192,192,22235,1,0,0:0:0:0:
448,192,22235,1,0,0:0:0:0:
448,192,22422,1,0,0:0:0:0:
192,192,22610,1,0,0:0:0:0:
64,192,22610,1,0,0:0:0:0:
192,192,22797,1,0,0:0:0:0:
320,192,22985,1,0,0:0:0:0:
448,192,22985,1,0,0:0:0:0:
320,192,23172,1,0,0:0:0:0:
64,192,23360,1,0,0:0:0:0:
448,192,23360,1,0,0:0:0:0:
192,192,23453,1,0,0:0:0:0:
320,192,23547,1,0,0:0:0:0:
448,192,23641,1,0,0:0:0:0:
192,192,23735,1,0,0:0:0:0:
64,192,23735,1,0,0:0:0:0:
448,192,23828,1,0,0:0:0:0:
64,192,23922,1,0,0:0:0:0:
448,192,24110,1,0,0:0:0:0:
320,192,24203,1,0,0:0:0:0:
64,192,24297,1,0,0:0:0:0:
192,192,24391,1,0,0:0:0:0:
320,192,24485,1,0,0:0:0:0:
448,192,24578,1,0,0:0:0:0:
192,192,24672,1,0,0:0:0:0:
64,192,24766,1,0,0:0:0:0:
320,192,24860,1,0,0:0:0:0:
448,192,24860,1,0,0:0:0:0:
192,192,25047,1,0,0:0:0:0:
64,192,25235,1,0,0:0:0:0:
448,192,25235,1,0,0:0:0:0:
192,192,25610,1,0,0:0:0:0:
64,192,25610,1,0,0:0:0:0:
64,192,25891,1,0,0:0:0:0:
448,192,25891,1,0,0:0:0:0:
192,192,25985,1,0,0:0:0:0:
320,192,26172,1,0,0:0:0:0:
448,192,26172,1,0,0:0:0:0:
64,192,26547,1,0,0:0:0:0:
192,192,26735,1,0,0:0:0:0:
448,192,26735,1,0,0:0:0:0:
64,192,26922,1,0,0:0:0:0:
320,192,27110,1,0,0:0:0:0:
448,192,27110,1,0,0:0:0:0:
448,192,27391,1,0,0:0:0:0:
64,192,27391,1,0,0:0:0:0:
320,192,27485,1,0,0:0:0:0:
192,192,27672,1,0,0:0:0:0:
64,192,27672,1,0,0:0:0:0:
320,192,28047,1,0,0:0:0:0:
448,192,28235,1,0,0:0:0:0:
192,192,28235,1,0,0:0:0:0:
64,192,28610,1,0,0:0:0:0:
448,192,28610,1,0,0:0:0:0:
192,192,28891,1,0,0:0:0:0:
64,192,28891,1,0,0:0:0:0:
320,192,28985,1,0,0:0:0:0:
64,192,29172,1,0,0:0:0:0:
448,192,29172,1,0,0:0:0:0:
192,192,29547,1,0,0:0:0:0:
448,192,29735,1,0,0:0:0:0:
64,192,29735,128,0,29922:0:0:0:0:
320,192,29922,1,0,0:0:0:0:
64,192,30110,1,0,0:0:0:0:
192,192,30110,128,0,30297:0:0:0:0:
448,192,30297,1,0,0:0:0:0:
320,192,30485,128,0,30672:0:0:0:0:
192,192,30485,1,0,0:0:0:0:
192,192,30860,1,0,0:0:0:0:
64,192,30860,1,0,0:0:0:0:
320,192,31047,1,0,0:0:0:0:
448,192,31235,1,0,0:0:0:0:
64,192,31235,1,0,0:0:0:0:
192,192,31422,1,0,0:0:0:0:
320,192,31610,1,0,0:0:0:0:
448,192,31610,1,0,0:0:0:0:
448,192,31891,1,0,0:0:0:0:
64,192,31891,1,0,0:0:0:0:
320,192,31985,1,0,0:0:0:0:
192,192,32172,1,0,0:0:0:0:
64,192,32172,1,0,0:0:0:0:
448,192,32547,1,0,0:0:0:0:
320,192,32735,1,0,0:0:0:0:
64,192,32735,1,0,0:0:0:0:
448,192,32922,1,0,0:0:0:0:
192,192,33110,1,0,0:0:0:0:
64,192,33110,1,0,0:0:0:0:
64,192,33391,1,0,0:0:0:0:
448,192,33391,1,0,0:0:0:0:
192,192,33485,1,0,0:0:0:0:
320,192,33672,1,0,0:0:0:0:
448,192,33672,1,0,0:0:0:0:
192,192,34047,1,0,0:0:0:0:
64,192,34235,1,0,0:0:0:0:
320,192,34235,1,0,0:0:0:0:
448,192,34610,1,0,0:0:0:0:
64,192,34610,1,0,0:0:0:0:
320,192,34891,1,0,0:0:0:0:
448,192,34891,1,0,0:0:0:0:
192,192,34985,1,0,0:0:0:0:
448,192,35172,1,0,0:0:0:0:
64,192,35172,1,0,0:0:0:0:
320,192,35547,1,0,0:0:0:0:
64,192,35735,1,0,0:0:0:0:
448,192,35735,128,0,35922:0:0:0:0:
192,192,35922,1,0,0:0:0:0:
448,192,36110,1,0,0:0:0:0:
320,192,36110,128,0,36297:0:0:0:0:
64,192,36297,1,0,0:0:0:0:
192,192,36485,128,0,36672:0:0:0:0:
320,192,36485,1,0,0:0:0:0:
448,192,36860,1,0,0:0:0:0:
64,192,36860,1,0,0:0:0:0:
64,192,37047,1,0,0:0:0:0:
192,192,37141,1,0,0:0:0:0:
320,192,37235,1,0,0:0:0:0:
448,192,37235,1,0,0:0:0:0:
64,192,37422,1,0,0:0:0:0:
320,192,37610,1,0,0:0:0:0:
192,192,37610,1,0,0:0:0:0:
448,192,37891,1,0,0:0:0:0:
192,192,37985,1,0,0:0:0:0:
64,192,37985,1,0,0:0:0:0:
320,192,38172,1,0,0:0:0:0:
64,192,38360,1,0,0:0:0:0:
448,192,38360,1,0,0:0:0:0:
64,192,38547,1,0,0:0:0:0:
320,192,38735,1,0,0:0:0:0:
448,192,38735,1,0,0:0:0:0:
192,192,38922,1,0,0:0:0:0:
320,192,39016,1,0,0:0:0:0:
64,192,39110,1,0,0:0:0:0:
448,192,39110,1,0,0:0:0:0:
192,192,39391,1,0,0:0:0:0:
320,192,39485,1,0,0:0:0:0:
448,192,39485,1,0,0:0:0:0:
64,192,39672,1,0,0:0:0:0:
320,192,39860,1,0,0:0:0:0:
448,192,39860,1,0,0:0:0:0:
448,192,40047,1,0,0:0:0:0:
320,192,40141,1,0,0:0:0:0:
192,192,40235,1,0,0:0:0:0:
64,192,40235,1,0,0:0:0:0:
320,192,40422,1,0,0:0:0:0:
448,192,40610,1,0,0:0:0:0:
192,192,40610,1,0,0:0:0:0:
64,192,40891,1,0,0:0:0:0:
192,192,40985,1,0,0:0:0:0:
320,192,40985,1,0,0:0:0:0:
448,192,41172,1,0,0:0:0:0:
192,192,41360,1,0,0:0:0:0:
64,192,41360,1,0,0:0:0:0:
192,192,41547,1,0,0:0:0:0:
320,192,41641,1,0,0:0:0:0:
64,192,41735,128,0,41922:0:0:0:0:
448,192,41735,1,0,0:0:0:0:
320,192,41922,1,0,0:0:0:0:
192,192,42110,128,0,42297:0:0:0:0:
64,192,42110,1,0,0:0:0:0:
448,192,42297,1,0,0:0:0:0:
320,192,42485,128,0,42672:0:0:0:0:
192,192,42485,1,0,0:0:0:0:
448,192,42860,1,0,0:0:0:0:
64,192,42860,1,0,0:0:0:0:
448,192,43047,1,0,0:0:0:0:
320,192,43141,1,0,0:0:0:0:
192,192,43235,1,0,0:0:0:0:
64,192,43235,1,0,0:0:0:0:
448,192,43422,1,0,0:0:0:0:
64,192,43610,1,0,0:0:0:0:
320,192,43610,1,0,0:0:0:0:
192,192,43891,1,0,0:0:0:0:
320,192,43985,1,0,0:0:0:0:
448,192,43985,1,0,0:0:0:0:
64,192,44172,1,0,0:0:0:0:
320,192,44360,1,0,0:0:0:0:
192,192,44360,1,0,0:0:0:0:
320,192,44547,1,0,0:0:0:0:
64,192,44735,1,0,0:0:0:0:
448,192,44735,1,0,0:0:0:0:
192,192,44922,1,0,0:0:0:0:
64,192,45016,1,0,0:0:0:0:
320,192,45110,1,0,0:0:0:0:
448,192,45110,1,0,0:0:0:0:
448,192,45391,1,0,0:0:0:0:
320,192,45485,1,0,0:0:0:0:
192,192,45485,1,0,0:0:0:0:
64,192,45672,1,0,0:0:0:0:
192,192,45860,1,0,0:0:0:0:
448,192,45860,1,0,0:0:0:0:
192,192,46047,1,0,0:0:0:0:
320,192,46141,1,0,0:0:0:0:
448,192,46235,1,0,0:0:0:0:
64,192,46235,1,0,0:0:0:0:
192,192,46422,1,0,0:0:0:0:
320,192,46610,1,0,0:0:0:0:
448,192,46610,1,0,0:0:0:0:
192,192,46891,1,0,0:0:0:0:
64,192,46985,1,0,0:0:0:0:
448,192,46985,1,0,0:0:0:0:
320,192,47172,1,0,0:0:0:0:
192,192,47360,1,0,0:0:0:0:
64,192,47360,1,0,0:0:0:0:
448,192,47453,1,0,0:0:0:0:
320,192,47547,1,0,0:0:0:0:
448,192,47735,128,0,47922:0:0:0:0:
64,192,47735,1,0,0:0:0:0:
192,192,47922,1,0,0:0:0:0:
320,192,48110,128,0,48297:0:0:0:0:
448,192,48297,1,0,0:0:0:0:
192,192,48485,128,0,48672:0:0:0:0:
64,192,48485,1,0,0:0:0:0:
320,192,48672,1,0,0:0:0:0:
64,192,48860,1,0,0:0:0:0:
448,192,48860,1,0,0:0:0:0:
320,192,49047,128,0,49235:0:0:0:0:
192,192,49235,128,0,49422:0:0:0:0:
448,192,49422,1,0,0:0:0:0:
320,192,49610,1,0,0:0:0:0:
64,192,49610,1,0,0:0:0:0:
448,192,49985,128,0,50172:0:0:0:0:
64,192,50172,1,0,0:0:0:0:
192,192,50172,1,0,0:0:0:0:
320,192,50360,1,0,0:0:0:0:
64,192,50547,128,0,50735:0:0:0:0:
448,192,50547,1,0,0:0:0:0:
320,192,50735,1,0,0:0:0:0:
64,192,50922,1,0,0:0:0:0:
192,192,51016,1,0,0:0:0:0:
320,192,51110,128,0,51297:0:0:0:0:
448,192,51110,1,0,0:0:0:0:
192,192,51297,128,0,51485:0:0:0:0:
448,192,51485,128,0,51672:0:0:0:0:
64,192,51672,1,0,0:0:0:0:
448,192,51860,1,0,0:0:0:0:
320,192,51860,1,0,0:0:0:0:
192,192,52047,128,0,52235:0:0:0:0:
320,192,52235,128,0,52422:0:0:0:0:
64,192,52422,1,0,0:0:0:0:
192,192,52516,1,0,0:0:0:0:
448,192,52610,1,0,0:0:0:0:
320,192,52610,1,0,0:0:0:0:
192,192,52797,1,0,0:0:0:0:
64,192,52985,128,0,53172:0:0:0:0:
448,192,53172,1,0,0:0:0:0:
320,192,53172,1,0,0:0:0:0:
192,192,53360,1,0,0:0:0:0:
448,192,53547,128,0,53735:0:0:0:0:
64,192,53547,1,0,0:0:0:0:
192,192,53735,1,0,0:0:0:0:
448,192,53922,1,0,0:0:0:0:
320,192,54016,1,0,0:0:0:0:
192,192,54110,128,0,54297:0:0:0:0:
64,192,54110,1,0,0:0:0:0:
320,192,54297,128,0,54485:0:0:0:0:
64,192,54485,128,0,54672:0:0:0:0:
448,192,54672,128,0,54860:0:0:0:0:
192,192,54860,1,0,0:0:0:0:
64,192,54860,1,0,0:0:0:0:
320,192,55047,1,0,0:0:0:0:
192,192,55235,1,0,0:0:0:0:
448,192,55235,1,0,0:0:0:0:
64,192,55422,1,0,0:0:0:0:
192,192,55516,1,0,0:0:0:0:
448,192,55610,1,0,0:0:0:0:
320,192,55703,1,0,0:0:0:0:
192,192,55797,1,0,0:0:0:0:
64,192,55985,1,0,0:0:0:0:
448,192,55985,1,0,0:0:0:0:
192,192,56172,1,0,0:0:0:0:
320,192,56360,1,0,0:0:0:0:
448,192,56360,1,0,0:0:0:0:
64,192,56547,1,0,0:0:0:0:
192,192,56735,1,0,0:0:0:0:
320,192,56735,1,0,0:0:0:0:
448,192,56922,1,0,0:0:0:0:
320,192,57016,1,0,0:0:0:0:
64,192,57110,1,0,0:0:0:0:
192,192,57203,1,0,0:0:0:0:
320,192,57297,1,0,0:0:0:0:
448,192,57485,1,0,0:0:0:0:
64,192,57485,1,0,0:0:0:0:
192,192,57672,1,0,0:0:0:0:
448,192,57860,1,0,0:0:0:0:
320,192,57860,1,0,0:0:0:0:
448,192,58047,1,0,0:0:0:0:
192,192,58235,1,0,0:0:0:0:
64,192,58235,1,0,0:0:0:0:
192,192,58422,1,0,0:0:0:0:
320,192,58516,1,0,0:0:0:0:
448,192,58610,1,0,0:0:0:0:
192,192,58703,1,0,0:0:0:0:
64,192,58797,1,0,0:0:0:0:
320,192,58985,1,0,0:0:0:0:
192,192,58985,1,0,0:0:0:0:
320,192,59172,1,0,0:0:0:0:
64,192,59360,1,0,0:0:0:0:
448,192,59360,1,0,0:0:0:0:
192,192,59453,1,0,0:0:0:0:
320,192,59547,1,0,0:0:0:0:
448,192,59641,1,0,0:0:0:0:
64,192,59735,1,0,0:0:0:0:
192,192,59735,1,0,0:0:0:0:
320,192,59922,1,0,0:0:0:0:
192,192,60110,1,0,0:0:0:0:
448,192,60485,128,0,60672:0:0:0:0:
64,192,60485,128,0,60672:0:0:0:0:
192,192,60672,1,0,0:0:0:0:
448,192,60860,1,0,0:0:0:0:
320,192,60860,128,0,61047:0:0:0:0:
64,192,61141,1,0,0:0:0:0:
448,192,61235,1,0,0:0:0:0:
192,192,61235,128,0,61422:0:0:0:0:
320,192,61422,1,0,0:0:0:0:
192,192,61610,1,0,0:0:0:0:
64,192,61610,128,0,61797:0:0:0:0:
448,192,61797,1,0,0:0:0:0:
320,192,61891,1,0,0:0:0:0:
192,192,61985,1,0,0:0:0:0:
64,192,61985,1,0,0:0:0:0:
448,192,62172,128,0,62360:0:0:0:0:
320,192,62360,1,0,0:0:0:0:
64,192,62360,1,0,0:0:0:0:
192,192,62547,1,0,0:0:0:0:
320,192,62735,1,0,0:0:0:0:
448,192,62735,1,0,0:0:0:0:
64,192,62922,128,0,63110:0:0:0:0:
192,192,63110,1,0,0:0:0:0:
320,192,63110,1,0,0:0:0:0:
448,192,63297,128,0,63860:0:0:0:0:
320,192,63485,128,0,63860:0:0:0:0:
192,192,63485,1,0,0:0:0:0:
192,192,63672,128,0,63860:0:0:0:0:
64,192,63860,1,0,0:0:0:0:
192,192,64047,128,0,64610:0:0:0:0:
320,192,64235,128,0,64610:0:0:0:0:
448,192,64235,1,0,0:0:0:0:
448,192,64422,128,0,64610:0:0:0:0:
64,192,64610,1,0,0:0:0:0:
320,192,64797,1,0,0:0:0:0:
192,192,64985,1,0,0:0:0:0:
448,192,64985,1,0,0:0:0:0:
64,192,65172,128,0,65360:0:0:0:0:
320,192,65360,1,0,0:0:0:0:
448,192,65360,1,0,0:0:0:0:
320,192,65547,1,0,0:0:0:0:
64,192,65735,1,0,0:0:0:0:
192,192,65735,1,0,0:0:0:0:
64,192,65922,1,0,0:0:0:0:
320,192,66110,128,0,66297:0:0:0:0:
448,192,66110,1,0,0:0:0:0:
192,192,66297,1,0,0:0:0:0:
64,192,66485,128,0,66672:0:0:0:0:
448,192,66485,1,0,0:0:0:0:
320,192,66672,128,0,66860:0:0:0:0:
64,192,66860,1,0,0:0:0:0:
192,192,66860,128,0,67047:0:0:0:0:
448,192,67141,1,0,0:0:0:0:
320,192,67235,128,0,67422:0:0:0:0:
192,192,67235,1,0,0:0:0:0:
64,192,67422,1,0,0:0:0:0:
448,192,67610,128,0,67797:0:0:0:0:
320,192,67610,1,0,0:0:0:0:
64,192,67797,1,0,0:0:0:0:
192,192,67891,1,0,0:0:0:0:
320,192,67985,1,0,0:0:0:0:
448,192,67985,1,0,0:0:0:0:
64,192,68172,1,0,0:0:0:0:
64,192,68360,1,0,0:0:0:0:
448,192,68360,1,0,0:0:0:0:
448,192,68547,1,0,0:0:0:0:
192,192,68735,1,0,0:0:0:0:
64,192,68735,1,0,0:0:0:0:
320,192,68922,128,0,69110:0:0:0:0:
64,192,69110,1,0,0:0:0:0:
448,192,69110,1,0,0:0:0:0:
192,192,69297,1,0,0:0:0:0:
320,192,69485,1,0,0:0:0:0:
448,192,69485,1,0,0:0:0:0:
64,192,69672,128,0,69860:0:0:0:0:
192,192,69860,1,0,0:0:0:0:
448,192,69860,1,0,0:0:0:0:
448,192,70047,1,0,0:0:0:0:
192,192,70235,5,0,0:0:0:0:
64,192,70235,1,0,0:0:0:0:
448,192,70422,128,0,70610:0:0:0:0:
320,192,70610,1,0,0:0:0:0:
64,192,70610,1,0,0:0:0:0:
64,192,70797,1,0,0:0:0:0:
448,192,70985,1,0,0:0:0:0:
192,192,70985,1,0,0:0:0:0:
320,192,71172,128,0,71360:0:0:0:0:
448,192,71360,5,0,0:0:0:0:
64,192,71360,1,0,0:0:0:0:
320,192,71453,1,0,0:0:0:0:
192,192,71547,1,0,0:0:0:0:
64,192,71641,1,0,0:0:0:0:
448,192,71735,1,0,0:0:0:0:
320,192,71735,1,0,0:0:0:0:
64,192,71828,1,0,0:0:0:0:
448,192,71922,1,0,0:0:0:0:
192,192,72110,128,0,72297:0:0:0:0:
64,192,72110,1,0,0:0:0:0:
320,192,72297,1,0,0:0:0:0:
448,192,72485,1,0,0:0:0:0:
64,192,72485,1,0,0:0:0:0:
192,192,72578,1,0,0:0:0:0:
320,192,72672,1,0,0:0:0:0:
448,192,72766,1,0,0:0:0:0:
64,192,72860,1,0,0:0:0:0:
192,192,72860,1,0,0:0:0:0:
64,192,73047,1,0,0:0:0:0:
448,192,73235,1,0,0:0:0:0:
320,192,73235,1,0,0:0:0:0:
448,192,73422,1,0,0:0:0:0:
64,192,73610,128,0,73797:0:0:0:0:
192,192,73610,128,0,73797:0:0:0:0:
320,192,73797,1,0,0:0:0:0:
64,192,73985,128,0,74172:0:0:0:0:
448,192,73985,128,0,74172:0:0:0:0:
192,192,74360,1,0,0:0:0:0:
320,192,74360,128,0,74547:0:0:0:0:
64,192,74547,1,0,0:0:0:0:
448,192,74735,128,0,74922:0:0:0:0:
320,192,74735,1,0,0:0:0:0:
192,192,74922,1,0,0:0:0:0:
64,192,75110,128,0,75297:0:0:0:0:
448,192,75110,1,0,0:0:0:0:
320,192,75297,1,0,0:0:0:0:
64,192,75485,1,0,0:0:0:0:
192,192,75485,128,0,75672:0:0:0:0:
448,192,75672,128,0,75860:0:0:0:0:
320,192,75860,1,0,0:0:0:0:
64,192,75860,1,0,0:0:0:0:
320,192,76047,1,0,0:0:0:0:
448,192,76235,1,0,0:0:0:0:
192,192,76235,1,0,0:0:0:0:
192,192,76422,1,0,0:0:0:0:
320,192,76610,128,0,76797:0:0:0:0:
448,192,76610,128,0,76797:0:0:0:0:
64,192,76797,1,0,0:0:0:0:
192,192,76985,128,0,77172:0:0:0:0:
320,192,76985,128,0,77172:0:0:0:0:
448,192,77172,128,0,77360:0:0:0:0:
64,192,77360,128,0,77547:0:0:0:0:
320,192,77360,1,0,0:0:0:0:
448,192,77547,1,0,0:0:0:0:
64,192,77735,1,0,0:0:0:0:
192,192,77735,128,0,77922:0:0:0:0:
320,192,77922,1,0,0:0:0:0:
64,192,78110,128,0,78297:0:0:0:0:
448,192,78110,128,0,78297:0:0:0:0:
192,192,78297,1,0,0:0:0:0:
64,192,78485,128,0,78672:0:0:0:0:
448,192,78485,128,0,78672:0:0:0:0:
320,192,78672,128,0,78860:0:0:0:0:
192,192,78860,1,0,0:0:0:0:
64,192,78860,1,0,0:0:0:0:
64,192,79047,1,0,0:0:0:0:
448,192,79235,1,0,0:0:0:0:
320,192,79235,1,0,0:0:0:0:
320,192,79422,1,0,0:0:0:0:
192,192,79610,128,0,79985:0:0:0:0:
64,192,79610,128,0,79797:0:0:0:0:
320,192,79797,128,0,79985:0:0:0:0:
448,192,79985,128,0,80172:0:0:0:0:
64,192,79985,128,0,80172:0:0:0:0:
320,192,80360,1,0,0:0:0:0:
448,192,80360,128,0,80547:0:0:0:0:
192,192,80547,1,0,0:0:0:0:
64,192,80735,128,0,80922:0:0:0:0:
320,192,80735,1,0,0:0:0:0:
448,192,80922,1,0,0:0:0:0:
64,192,81110,1,0,0:0:0:0:
192,192,81110,128,0,81297:0:0:0:0:
448,192,81297,1,0,0:0:0:0:
192,192,81485,1,0,0:0:0:0:
320,192,81485,128,0,81672:0:0:0:0:
64,192,81672,128,0,81860:0:0:0:0:
192,192,81860,1,0,0:0:0:0:
448,192,81860,1,0,0:0:0:0:
448,192,82047,1,0,0:0:0:0:
320,192,82235,1,0,0:0:0:0:
64,192,82235,1,0,0:0:0:0:
64,192,82422,1,0,0:0:0:0:
320,192,82610,1,0,0:0:0:0:
448,192,82610,1,0,0:0:0:0:
320,192,82797,1,0,0:0:0:0:
64,192,82985,1,0,0:0:0:0:
192,192,82985,1,0,0:0:0:0:
192,192,83172,1,0,0:0:0:0:
448,192,83360,1,0,0:0:0:0:
64,192,83360,1,0,0:0:0:0:
320,192,83453,1,0,0:0:0:0:
192,192,83547,1,0,0:0:0:0:
64,192,83641,1,0,0:0:0:0:
320,192,83735,1,0,0:0:0:0:
448,192,83735,1,0,0:0:0:0:
64,192,83828,1,0,0:0:0:0:
448,192,83922,1,0,0:0:0:0:
64,192,84110,1,0,0:0:0:0:
192,192,84203,1,0,0:0:0:0:
448,192,84297,1,0,0:0:0:0:
320,192,84391,1,0,0:0:0:0:
192,192,84485,1,0,0:0:0:0:
64,192,84578,1,0,0:0:0:0:
320,192,84672,1,0,0:0:0:0:
448,192,84766,1,0,0:0:0:0:
