osu file format v14

[General]
AudioFilename: audio.mp3
AudioLeadIn: 0
PreviewTime: 60578
Countdown: 0
SampleSet: Soft
StackLeniency: 0.7
Mode: 3
LetterboxInBreaks: 0
SpecialStyle: 0
WidescreenStoryboard: 1

[Editor]
Bookmarks: 860,6860,12860,24860,36860,48860,54860,60860,72860,78860
DistanceSpacing: 0.8
BeatDivisor: 4
GridSize: 4
TimelineZoom: 1.899999

[Metadata]
Title:Digital Life Hacker (Cut Ver.)
TitleUnicode:Digital Life Hacker (Cut Ver.)
Artist:wotoha
ArtistUnicode:をとは
Creator:fvrex
Version:Easy
Source:
Tags:xtrippin featured artist fa mappers' guild mpg mg priority quest underappreciated artists jelly girl japanese pop jpop j-pop electronic ଳ 海月ねう mitukineu version jellyfish 0108 O108 neko hacker
BeatmapID:4287108
BeatmapSetID:2052537

[Difficulty]
HPDrainRate:6.5
CircleSize:4
OverallDifficulty:6.5
ApproachRate:5
SliderMultiplier:1.4
SliderTickRate:1

[Events]
//Background and Video events
0,0,"49815079_p0.jpg",0,0
//Break Periods
//Storyboard Layer 0 (Background)
//Storyboard Layer 1 (Fail)
//Storyboard Layer 2 (Pass)
//Storyboard Layer 3 (Foreground)
//Storyboard Layer 4 (Overlay)
//Storyboard Sound Samples

[TimingPoints]
860,375,4,2,1,60,1,0
12860,-100,4,2,1,60,0,1
24860,-100,4,2,1,60,0,0
60860,-100,4,2,1,60,0,1
84860,-100,4,2,1,60,0,0

[HitObjects]
192,192,485,128,0,860:0:0:0:0:
64,192,860,1,0,0:0:0:0:
448,192,860,1,0,0:0:0:0:
320,192,1235,1,0,0:0:0:0:
64,192,1610,1,0,0:0:0:0:
448,192,1985,1,0,0:0:0:0:
192,192,2360,1,0,0:0:0:0:
320,192,2735,1,0,0:0:0:0:
64,192,2922,1,0,0:0:0:0:
448,192,3485,128,0,3860:0:0:0:0:
192,192,3860,1,0,0:0:0:0:
320,192,4235,1,0,0:0:0:0:
64,192,4610,1,0,0:0:0:0:
448,192,4985,1,0,0:0:0:0:
192,192,5172,1,0,0:0:0:0:
320,192,5547,1,0,0:0:0:0:
64,192,5735,1,0,0:0:0:0:
448,192,5922,1,0,0:0:0:0:
192,192,6297,1,0,0:0:0:0:
320,192,6485,128,0,6860:0:0:0:0:
64,192,6860,1,0,0:0:0:0:
64,192,7235,1,0,0:0:0:0:
448,192,7610,1,0,0:0:0:0:
448,192,7985,1,0,0:0:0:0:
192,192,8360,1,0,0:0:0:0:
192,192,8735,1,0,0:0:0:0:
320,192,9110,1,0,0:0:0:0:
320,192,9485,1,0,0:0:0:0:
64,192,9860,1,0,0:0:0:0:
448,192,10047,1,0,0:0:0:0:
192,192,10235,1,0,0:0:0:0:
320,192,10610,1,0,0:0:0:0:
64,192,10797,1,0,0:0:0:0:
448,192,10985,1,0,0:0:0:0:
192,192,11360,1,0,0:0:0:0:
320,192,11547,1,0,0:0:0:0:
192,192,11735,1,0,0:0:0:0:
320,192,11922,1,0,0:0:0:0:
64,192,12860,1,0,0:0:0:0:
448,192,12860,1,0,0:0:0:0:
192,192,13235,1,0,0:0:0:0:
320,192,13610,128,0,13985:0:0:0:0:
64,192,13985,1,0,0:0:0:0:
448,192,14360,1,0,0:0:0:0:
448,192,14735,1,0,0:0:0:0:
64,192,15110,1,0,0:0:0:0:
64,192,15485,1,0,0:0:0:0:
320,192,15860,1,0,0:0:0:0:
192,192,16235,1,0,0:0:0:0:
64,192,16610,128,0,16985:0:0:0:0:
320,192,16985,1,0,0:0:0:0:
448,192,17360,1,0,0:0:0:0:
64,192,17735,1,0,0:0:0:0:
448,192,18110,128,0,18485:0:0:0:0:
64,192,18485,1,0,0:0:0:0:
320,192,18860,1,0,0:0:0:0:
192,192,19235,1,0,0:0:0:0:
448,192,19610,128,0,19985:0:0:0:0:
64,192,19985,128,0,20360:0:0:0:0:
320,192,20360,1,0,0:0:0:0:
320,192,20735,1,0,0:0:0:0:
192,192,21110,1,0,0:0:0:0:
192,192,21485,1,0,0:0:0:0:
448,192,21860,1,0,0:0:0:0:
448,192,22235,1,0,0:0:0:0:
64,192,22610,1,0,0:0:0:0:
64,192,22985,1,0,0:0:0:0:
320,192,23360,1,0,0:0:0:0:
192,192,23547,1,0,0:0:0:0:
448,192,23735,1,0,0:0:0:0:
64,192,24110,1,0,0:0:0:0:
320,192,24297,1,0,0:0:0:0:
192,192,24485,1,0,0:0:0:0:
448,192,24860,1,0,0:0:0:0:
64,192,24860,1,0,0:0:0:0:
448,192,25235,1,0,0:0:0:0:
192,192,25610,1,0,0:0:0:0:
320,192,25891,1,0,0:0:0:0:
64,192,26172,1,0,0:0:0:0:
448,192,26735,1,0,0:0:0:0:
64,192,27110,1,0,0:0:0:0:
320,192,27391,1,0,0:0:0:0:
448,192,27672,1,0,0:0:0:0:
192,192,28235,1,0,0:0:0:0:
320,192,28610,1,0,0:0:0:0:
64,192,28891,1,0,0:0:0:0:
448,192,29172,1,0,0:0:0:0:
192,192,29735,128,0,30110:0:0:0:0:
320,192,30110,128,0,30485:0:0:0:0:
448,192,30485,128,0,30860:0:0:0:0:
64,192,30860,1,0,0:0:0:0:
64,192,31235,1,0,0:0:0:0:
320,192,31610,1,0,0:0:0:0:
192,192,31891,1,0,0:0:0:0:
448,192,32172,1,0,0:0:0:0:
64,192,32735,1,0,0:0:0:0:
448,192,33110,1,0,0:0:0:0:
192,192,33391,1,0,0:0:0:0:
64,192,33672,1,0,0:0:0:0:
320,192,34235,1,0,0:0:0:0:
192,192,34610,1,0,0:0:0:0:
448,192,34891,1,0,0:0:0:0:
64,192,35172,1,0,0:0:0:0:
320,192,35735,128,0,36110:0:0:0:0:
192,192,36110,128,0,36485:0:0:0:0:
64,192,36485,128,0,36860:0:0:0:0:
448,192,36860,1,0,0:0:0:0:
192,192,37047,1,0,0:0:0:0:
448,192,37235,1,0,0:0:0:0:
64,192,37610,1,0,0:0:0:0:
320,192,37891,1,0,0:0:0:0:
192,192,38172,1,0,0:0:0:0:
448,192,38547,1,0,0:0:0:0:
64,192,38735,1,0,0:0:0:0:
320,192,39110,1,0,0:0:0:0:
192,192,39391,1,0,0:0:0:0:
448,192,39672,1,0,0:0:0:0:
64,192,40047,1,0,0:0:0:0:
320,192,40235,1,0,0:0:0:0:
192,192,40610,1,0,0:0:0:0:
448,192,40891,1,0,0:0:0:0:
64,192,41172,1,0,0:0:0:0:
320,192,41735,128,0,42110:0:0:0:0:
192,192,42110,128,0,42485:0:0:0:0:
448,192,42485,128,0,42860:0:0:0:0:
64,192,42860,1,0,0:0:0:0:
320,192,43047,1,0,0:0:0:0:
64,192,43235,1,0,0:0:0:0:
448,192,43610,1,0,0:0:0:0:
192,192,43891,1,0,0:0:0:0:
320,192,44172,1,0,0:0:0:0:
64,192,44547,1,0,0:0:0:0:
448,192,44735,1,0,0:0:0:0:
192,192,45110,1,0,0:0:0:0:
320,192,45391,1,0,0:0:0:0:
64,192,45672,1,0,0:0:0:0:
448,192,46047,1,0,0:0:0:0:
192,192,46235,1,0,0:0:0:0:
320,192,46610,1,0,0:0:0:0:
64,192,46891,1,0,0:0:0:0:
448,192,47172,1,0,0:0:0:0:
64,192,47735,128,0,48110:0:0:0:0:
320,192,48110,128,0,48485:0:0:0:0:
192,192,48485,128,0,48860:0:0:0:0:
64,192,48860,1,0,0:0:0:0:
448,192,48860,128,0,49235:0:0:0:0:
192,192,49422,1,0,0:0:0:0:
320,192,49610,1,0,0:0:0:0:
64,192,50172,1,0,0:0:0:0:
320,192,50360,1,0,0:0:0:0:
192,192,50547,1,0,0:0:0:0:
448,192,50735,128,0,51110:0:0:0:0:
64,192,51110,1,0,0:0:0:0:
320,192,51672,1,0,0:0:0:0:
192,192,51860,128,0,52235:0:0:0:0:
448,192,52235,128,0,52610:0:0:0:0:
64,192,52610,1,0,0:0:0:0:
320,192,52797,1,0,0:0:0:0:
192,192,52985,1,0,0:0:0:0:
448,192,53172,128,0,53547:0:0:0:0:
64,192,53547,1,0,0:0:0:0:
320,192,53735,128,0,54110:0:0:0:0:
192,192,54110,1,0,0:0:0:0:
448,192,54485,1,0,0:0:0:0:
64,192,54860,1,0,0:0:0:0:
64,192,55235,1,0,0:0:0:0:
320,192,55610,1,0,0:0:0:0:
192,192,55797,1,0,0:0:0:0:
320,192,55985,1,0,0:0:0:0:
448,192,56360,1,0,0:0:0:0:
448,192,56735,1,0,0:0:0:0:
192,192,57110,1,0,0:0:0:0:
320,192,57297,1,0,0:0:0:0:
192,192,57485,1,0,0:0:0:0:
448,192,57860,128,0,58235:0:0:0:0:
64,192,58235,1,0,0:0:0:0:
320,192,58610,128,0,58985:0:0:0:0:
192,192,58985,128,0,59360:0:0:0:0:
448,192,59360,1,0,0:0:0:0:
64,192,59547,1,0,0:0:0:0:
320,192,59735,128,0,60110:0:0:0:0:
192,192,60110,1,0,0:0:0:0:
320,192,60485,1,0,0:0:0:0:
448,192,60860,1,0,0:0:0:0:
64,192,60860,128,0,61235:0:0:0:0:
320,192,61235,128,0,61610:0:0:0:0:
192,192,61610,1,0,0:0:0:0:
448,192,61891,1,0,0:0:0:0:
64,192,62172,128,0,62547:0:0:0:0:
320,192,62547,1,0,0:0:0:0:
192,192,62735,1,0,0:0:0:0:
448,192,62922,128,0,63297:0:0:0:0:
64,192,63297,1,0,0:0:0:0:
320,192,63485,1,0,0:0:0:0:
192,192,63672,128,0,64047:0:0:0:0:
448,192,64047,1,0,0:0:0:0:
64,192,64235,1,0,0:0:0:0:
320,192,64422,128,0,64797:0:0:0:0:
192,192,64797,1,0,0:0:0:0:
448,192,64985,1,0,0:0:0:0:
64,192,65172,128,0,65547:0:0:0:0:
320,192,65547,1,0,0:0:0:0:
448,192,65735,128,0,66110:0:0:0:0:
192,192,66110,128,0,66485:0:0:0:0:
64,192,66485,1,0,0:0:0:0:
448,192,66860,128,0,67235:0:0:0:0:
192,192,67235,128,0,67610:0:0:0:0:
320,192,67610,1,0,0:0:0:0:
64,192,67891,1,0,0:0:0:0:
448,192,68172,1,0,0:0:0:0:
192,192,68360,128,0,68735:0:0:0:0:
320,192,68735,1,0,0:0:0:0:
64,192,68922,128,0,69297:0:0:0:0:
448,192,69297,1,0,0:0:0:0:
192,192,69485,1,0,0:0:0:0:
320,192,69672,128,0,70047:0:0:0:0:
64,192,70047,1,0,0:0:0:0:
448,192,70235,1,0,0:0:0:0:
192,192,70422,128,0,70797:0:0:0:0:
320,192,70797,1,0,0:0:0:0:
64,192,70985,1,0,0:0:0:0:
320,192,71360,1,0,0:0:0:0:
192,192,71547,1,0,0:0:0:0:
320,192,71735,1,0,0:0:0:0:
64,192,72110,1,0,0:0:0:0:
192,192,72485,1,0,0:0:0:0:
448,192,72860,1,0,0:0:0:0:
64,192,72860,1,0,0:0:0:0:
320,192,73235,1,0,0:0:0:0:
192,192,73610,128,0,73985:0:0:0:0:
448,192,73985,1,0,0:0:0:0:
64,192,74360,1,0,0:0:0:0:
64,192,74735,1,0,0:0:0:0:
448,192,75110,1,0,0:0:0:0:
448,192,75485,1,0,0:0:0:0:
192,192,75860,1,0,0:0:0:0:
320,192,76235,1,0,0:0:0:0:
448,192,76610,128,0,76985:0:0:0:0:
192,192,76985,1,0,0:0:0:0:
64,192,77360,1,0,0:0:0:0:
448,192,77735,1,0,0:0:0:0:
64,192,78110,128,0,78485:0:0:0:0:
448,192,78485,1,0,0:0:0:0:
192,192,78860,1,0,0:0:0:0:
320,192,79235,1,0,0:0:0:0:
64,192,79610,128,0,79985:0:0:0:0:
448,192,79985,128,0,80360:0:0:0:0:
192,192,80360,1,0,0:0:0:0:
192,192,80735,1,0,0:0:0:0:
320,192,81110,1,0,0:0:0:0:
320,192,81485,1,0,0:0:0:0:
64,192,81860,1,0,0:0:0:0:
64,192,82235,1,0,0:0:0:0:
448,192,82610,1,0,0:0:0:0:
448,192,82985,1,0,0:0:0:0:
192,192,83360,1,0,0:0:0:0:
320,192,83547,1,0,0:0:0:0:
64,192,83735,1,0,0:0:0:0:
448,192,84110,1,0,0:0:0:0:
192,192,84297,1,0,0:0:0:0:
320,192,84485,1,0,0:0:0:0:
