osu file format v14

[General]
AudioFilename: audio.mp3
AudioLeadIn: 0
PreviewTime: 60370
Countdown: 0
SampleSet: Normal
StackLeniency: 0.7
Mode: 1
LetterboxInBreaks: 0
WidescreenStoryboard: 1

[Editor]
Bookmarks: 839,6839,12839,24839,36839,48839,54839,60839,66839,78839,84839,96839,102839,108839,114839,120839,126839,138839,150839,156839,162839,168839,174839,186839
DistanceSpacing: 0.8
BeatDivisor: 4
GridSize: 32
TimelineZoom: 1.1

[Metadata]
Title:Digital Life Hacker
TitleUnicode:Digital Life Hacker
Artist:wotoha
ArtistUnicode:をとは
Creator:BlackBN
Version:Muzukashii
Source:
Tags:BlackBq mappers' guild mg mpg featured artist fa electronic japanese jpop j-pop ଳ 海月ねう mitukineu jelly girl ネコハッカー neko hacker nnzn チョモランマ服部 chomolungma 歌衣メイカ meikahaotoko 先端恐怖症 sentankyofusho さえきやひろ saekiyahiro ユニ yuni パリィ paryi irone_osu
BeatmapID:3132494
BeatmapSetID:1522733

[Difficulty]
HPDrainRate:6
CircleSize:2
OverallDifficulty:5
ApproachRate:10
SliderMultiplier:1.4
SliderTickRate:1

[Events]
//Background and Video events
0,0,"bg.jpg",0,-20
Video,-85,"digital.mp4"
//Break Periods
//Storyboard Layer 0 (Background)
//Storyboard Layer 1 (Fail)
//Storyboard Layer 2 (Pass)
//Storyboard Layer 3 (Foreground)
//Storyboard Layer 4 (Overlay)
//Storyboard Sound Samples

[TimingPoints]
839,375,4,1,0,60,1,0
6792,-100,4,1,0,65,0,0
9792,-100,4,1,0,70,0,0
12792,-100,4,1,0,80,0,0
24792,-100,4,1,0,70,0,0
24885,-100,4,1,0,60,0,0
36792,-100,4,1,0,70,0,0
54792,-100,4,1,0,75,0,0
60792,-100,4,1,0,85,0,0
60839,-100,4,1,0,85,0,1
72839,-100,4,1,0,85,0,0
72885,-100,4,1,0,45,0,0
73167,-100,4,1,0,85,0,0
73214,-100,4,1,0,85,0,1
84792,-100,4,1,0,80,0,1
84839,-100,4,1,0,80,0,0
96792,-100,4,1,0,60,0,0
102792,-100,4,1,0,65,0,0
108792,-100,4,1,0,70,0,0
114792,-100,4,1,0,75,0,0
120792,-100,4,1,0,85,0,0
120839,-100,4,1,0,85,0,1
132839,-100,4,1,0,85,0,0
132885,-100,4,1,0,45,0,0
133167,-100,4,1,0,85,0,0
133214,-100,4,1,0,85,0,1
144792,-100,4,1,0,80,0,1
144839,-100,4,1,0,80,0,0
156792,-100,4,1,0,70,0,0
165792,-100,4,1,0,75,0,0
168885,-100,4,1,0,60,0,0
174792,-100,4,1,0,65,0,0
176292,-100,4,1,0,70,0,0
177792,-100,4,1,0,75,0,0
181167,-100,4,1,0,85,0,0
181214,-100,4,1,0,85,0,1
192792,-100,4,1,0,80,0,1
192839,-100,4,1,0,80,0,0

[HitObjects]
384,96,839,5,4,0:0:0:0:
256,192,1589,1,8,0:0:0:0:
256,192,2339,1,8,0:0:0:0:
256,192,2526,1,0,0:0:0:0:
256,192,2901,1,0,0:0:0:0:
256,192,3464,1,0,0:0:0:0:
256,192,3651,1,0,0:0:0:0:
256,192,3839,1,8,0:0:0:0:
256,192,4589,1,0,0:0:0:0:
256,192,5151,1,8,0:0:0:0:
256,192,5526,1,0,0:0:0:0:
256,192,5714,1,8,0:0:0:0:
256,192,5901,1,8,0:0:0:0:
256,192,6276,1,8,0:0:0:0:
256,192,6464,1,0,0:0:0:0:
256,192,6651,1,0,0:0:0:0:
256,192,6839,1,8,0:0:0:0:
256,192,7214,1,0,0:0:0:0:
256,192,7589,1,8,0:0:0:0:
256,192,7964,1,0,0:0:0:0:
256,192,8339,1,8,0:0:0:0:
256,192,8714,1,0,0:0:0:0:
256,192,9089,1,8,0:0:0:0:
256,192,9276,1,0,0:0:0:0:
256,192,9464,1,8,0:0:0:0:
256,192,9839,1,8,0:0:0:0:
256,192,10026,1,8,0:0:0:0:
256,192,10214,1,0,0:0:0:0:
256,192,10589,1,8,0:0:0:0:
256,192,10776,1,0,0:0:0:0:
256,192,10964,1,8,0:0:0:0:
256,192,11151,1,0,0:0:0:0:
256,192,11339,1,0,0:0:0:0:
256,192,11432,1,0,0:0:0:0:
256,192,11526,1,0,0:0:0:0:
256,192,11714,1,8,0:0:0:0:
256,192,11901,1,8,0:0:0:0:
256,192,11995,1,8,0:0:0:0:
384,96,12839,1,12,0:0:0:0:
256,192,13026,1,0,0:0:0:0:
256,192,13214,1,8,0:0:0:0:
256,192,13307,1,8,0:0:0:0:
256,192,13401,1,8,0:0:0:0:
256,192,13589,1,0,0:0:0:0:
256,192,13964,1,8,0:0:0:0:
384,96,14339,1,12,0:0:0:0:
384,96,14714,1,12,0:0:0:0:
384,96,15089,1,12,0:0:0:0:
384,96,15464,1,12,0:0:0:0:
256,192,15839,1,8,0:0:0:0:
256,192,16026,1,0,0:0:0:0:
256,192,16214,1,8,0:0:0:0:
256,192,16307,1,8,0:0:0:0:
256,192,16401,1,8,0:0:0:0:
256,192,16589,1,8,0:0:0:0:
256,192,17339,1,8,0:0:0:0:
256,192,17526,1,0,0:0:0:0:
256,192,17714,1,8,0:0:0:0:
256,192,17901,1,8,0:0:0:0:
256,192,18089,1,8,0:0:0:0:
256,192,18464,1,0,0:0:0:0:
256,192,18557,1,0,0:0:0:0:
256,192,18651,1,0,0:0:0:0:
256,192,18839,1,8,0:0:0:0:
256,192,19026,1,0,0:0:0:0:
256,192,19214,1,8,0:0:0:0:
256,192,19307,1,8,0:0:0:0:
256,192,19401,1,8,0:0:0:0:
256,192,19589,1,8,0:0:0:0:
256,192,19776,1,0,0:0:0:0:
256,192,19964,1,8,0:0:0:0:
352,96,20339,1,12,0:0:0:0:
384,96,20714,1,12,0:0:0:0:
384,96,21089,1,12,0:0:0:0:
384,96,21464,1,12,0:0:0:0:
256,192,21839,1,8,0:0:0:0:
256,192,22026,1,0,0:0:0:0:
256,192,22214,1,8,0:0:0:0:
256,192,22401,1,0,0:0:0:0:
256,192,22589,1,8,0:0:0:0:
256,192,22682,1,8,0:0:0:0:
256,192,22776,1,8,0:0:0:0:
256,192,22964,1,0,0:0:0:0:
256,192,23339,1,8,0:0:0:0:
256,192,23432,1,8,0:0:0:0:
256,192,23526,1,8,0:0:0:0:
256,192,23714,1,0,0:0:0:0:
256,192,23901,1,8,0:0:0:0:
256,192,24089,1,0,0:0:0:0:
256,192,24182,1,0,0:0:0:0:
256,192,24276,1,0,0:0:0:0:
256,192,24464,1,8,0:0:0:0:
384,64,24839,1,4,0:0:0:0:
256,192,25214,1,8,0:0:0:0:
256,192,25589,1,0,0:0:0:0:
256,192,25870,1,8,0:0:0:0:
256,192,26151,1,8,0:0:0:0:
256,192,26714,1,8,0:0:0:0:
256,192,27089,1,8,0:0:0:0:
256,192,27370,1,0,0:0:0:0:
256,192,27651,1,0,0:0:0:0:
256,192,28214,1,8,0:0:0:0:
256,192,28589,1,0,0:0:0:0:
256,192,28870,1,8,0:0:0:0:
256,192,29151,1,0,0:0:0:0:
256,192,29714,1,8,0:0:0:0:
256,192,30089,1,0,0:0:0:0:
256,192,30464,1,0,0:0:0:0:
256,192,30839,1,0,0:0:0:0:
256,192,31214,1,8,0:0:0:0:
256,192,31589,1,0,0:0:0:0:
256,192,31870,1,8,0:0:0:0:
256,192,32151,1,0,0:0:0:0:
256,192,32714,1,8,0:0:0:0:
256,192,33089,1,8,0:0:0:0:
256,192,33370,1,0,0:0:0:0:
256,192,33651,1,0,0:0:0:0:
256,192,34214,1,8,0:0:0:0:
256,192,34589,1,0,0:0:0:0:
256,192,34870,1,8,0:0:0:0:
256,192,35151,1,8,0:0:0:0:
256,192,35714,1,8,0:0:0:0:
256,192,36089,1,0,0:0:0:0:
256,192,36464,1,8,0:0:0:0:
352,96,36839,1,4,0:0:0:0:
256,192,37026,1,0,0:0:0:0:
256,192,37214,1,8,0:0:0:0:
256,192,37401,1,8,0:0:0:0:
256,192,37589,1,0,0:0:0:0:
256,192,37870,1,8,0:0:0:0:
256,192,38151,1,8,0:0:0:0:
256,192,38526,1,0,0:0:0:0:
256,192,38714,1,8,0:0:0:0:
256,192,38901,1,8,0:0:0:0:
256,192,39089,1,8,0:0:0:0:
256,192,39370,1,0,0:0:0:0:
256,192,39651,1,8,0:0:0:0:
256,192,40026,1,0,0:0:0:0:
256,192,40214,1,8,0:0:0:0:
256,192,40307,1,8,0:0:0:0:
256,192,40401,1,8,0:0:0:0:
256,192,40589,1,0,0:0:0:0:
256,192,40870,1,8,0:0:0:0:
256,192,41151,1,0,0:0:0:0:
256,192,41714,1,8,0:0:0:0:
256,192,42089,1,8,0:0:0:0:
256,192,42276,1,0,0:0:0:0:
256,192,42464,1,8,0:0:0:0:
256,192,42557,1,8,0:0:0:0:
256,192,42651,1,8,0:0:0:0:
416,64,42839,1,4,0:0:0:0:
256,192,43026,1,0,0:0:0:0:
256,192,43214,1,8,0:0:0:0:
256,192,43401,1,8,0:0:0:0:
256,192,43589,1,0,0:0:0:0:
256,192,43870,1,8,0:0:0:0:
256,192,44151,1,8,0:0:0:0:
256,192,44526,1,0,0:0:0:0:
256,192,44714,1,8,0:0:0:0:
256,192,44901,1,0,0:0:0:0:
256,192,45089,1,8,0:0:0:0:
256,192,45370,1,0,0:0:0:0:
256,192,45651,1,0,0:0:0:0:
256,192,46026,1,0,0:0:0:0:
256,192,46214,1,8,0:0:0:0:
256,192,46401,1,0,0:0:0:0:
256,192,46589,1,8,0:0:0:0:
256,192,46870,1,0,0:0:0:0:
256,192,47151,1,8,0:0:0:0:
256,192,47339,1,0,0:0:0:0:
256,192,47432,1,0,0:0:0:0:
256,192,47526,1,0,0:0:0:0:
256,192,47714,1,8,0:0:0:0:
256,192,48089,1,8,0:0:0:0:
256,192,48276,1,0,0:0:0:0:
256,192,48464,1,8,0:0:0:0:
256,192,48557,1,8,0:0:0:0:
256,192,48651,1,8,0:0:0:0:
384,64,48839,1,4,0:0:0:0:
256,192,49401,1,8,0:0:0:0:
256,192,49589,1,8,0:0:0:0:
256,192,50151,1,8,0:0:0:0:
256,192,50339,1,0,0:0:0:0:
256,192,50526,1,0,0:0:0:0:
256,192,50714,1,8,0:0:0:0:
256,192,51089,1,8,0:0:0:0:
256,192,51276,1,8,0:0:0:0:
256,192,51464,1,0,0:0:0:0:
256,192,51839,1,0,0:0:0:0:
256,192,52214,1,8,0:0:0:0:
256,192,52589,1,8,0:0:0:0:
256,192,52776,1,0,0:0:0:0:
256,192,52964,1,8,0:0:0:0:
256,192,53151,1,0,0:0:0:0:
256,192,53526,1,0,0:0:0:0:
256,192,53714,1,8,0:0:0:0:
256,192,54089,1,8,0:0:0:0:
256,192,54276,1,8,0:0:0:0:
256,192,54464,1,0,0:0:0:0:
256,192,54651,1,0,0:0:0:0:
416,96,54839,1,12,0:0:0:0:
256,192,55214,1,8,0:0:0:0:
256,192,55401,1,0,0:0:0:0:
256,192,55589,1,8,0:0:0:0:
256,192,56151,1,0,0:0:0:0:
256,192,56339,1,0,0:0:0:0:
256,192,56432,1,0,0:0:0:0:
256,192,56526,1,0,0:0:0:0:
256,192,56714,1,8,0:0:0:0:
256,192,56901,1,0,0:0:0:0:
256,192,57089,1,8,0:0:0:0:
256,192,57651,1,0,0:0:0:0:
256,192,57839,1,8,0:0:0:0:
256,192,58026,1,0,0:0:0:0:
256,192,58214,1,8,0:0:0:0:
256,192,58401,1,0,0:0:0:0:
256,192,58589,1,8,0:0:0:0:
256,192,58682,1,8,0:0:0:0:
256,192,58776,1,8,0:0:0:0:
256,192,58964,1,8,0:0:0:0:
256,192,59151,1,0,0:0:0:0:
256,192,59339,1,8,0:0:0:0:
256,192,59714,1,0,0:0:0:0:
256,192,59807,1,0,0:0:0:0:
256,192,59901,1,0,0:0:0:0:
256,192,60089,1,8,0:0:0:0:
448,64,60464,1,12,0:0:0:0:
384,96,60839,1,4,0:0:0:0:
256,192,61214,1,8,0:0:0:0:
256,192,61589,1,0,0:0:0:0:
256,192,61870,1,0,0:0:0:0:
256,192,62151,1,8,0:0:0:0:
256,192,62245,1,8,0:0:0:0:
256,192,62339,1,8,0:0:0:0:
256,192,62526,1,0,0:0:0:0:
256,192,62714,1,8,0:0:0:0:
256,192,62901,1,8,0:0:0:0:
256,192,63276,1,0,0:0:0:0:
256,192,63464,1,0,0:0:0:0:
256,192,63651,1,8,0:0:0:0:
256,192,64026,1,0,0:0:0:0:
256,192,64214,1,0,0:0:0:0:
256,192,64401,1,8,0:0:0:0:
256,192,64964,1,0,0:0:0:0:
256,192,65151,1,8,0:0:0:0:
256,192,65526,1,0,0:0:0:0:
256,192,65714,1,8,0:0:0:0:
256,192,65807,1,8,0:0:0:0:
256,192,65901,1,8,0:0:0:0:
256,192,66089,1,0,0:0:0:0:
256,192,66464,1,8,0:0:0:0:
256,192,66651,1,0,0:0:0:0:
256,192,66839,1,8,0:0:0:0:
256,192,67214,1,8,0:0:0:0:
256,192,67589,1,0,0:0:0:0:
256,192,67870,1,0,0:0:0:0:
256,192,68151,1,8,0:0:0:0:
256,192,68339,1,8,0:0:0:0:
256,192,68432,1,8,0:0:0:0:
256,192,68526,1,8,0:0:0:0:
256,192,68714,1,0,0:0:0:0:
256,192,68901,1,8,0:0:0:0:
256,192,69276,1,0,0:0:0:0:
256,192,69464,1,8,0:0:0:0:
256,192,69651,1,8,0:0:0:0:
256,192,70026,1,8,0:0:0:0:
256,192,70214,1,0,0:0:0:0:
256,192,70401,1,8,0:0:0:0:
256,192,70776,1,0,0:0:0:0:
256,192,70964,1,8,0:0:0:0:
256,192,71151,1,8,0:0:0:0:
256,192,71339,1,0,0:0:0:0:
256,192,71432,1,0,0:0:0:0:
256,192,71526,1,0,0:0:0:0:
256,192,71714,1,8,0:0:0:0:
256,192,71901,1,0,0:0:0:0:
256,192,72089,1,0,0:0:0:0:
256,192,72182,1,0,0:0:0:0:
256,192,72276,1,0,0:0:0:0:
256,192,72464,1,8,0:0:0:0:
256,192,72557,1,8,0:0:0:0:
256,192,72651,1,8,0:0:0:0:
384,64,73214,1,12,0:0:0:0:
256,192,73589,1,8,0:0:0:0:
256,192,73870,1,0,0:0:0:0:
256,192,74151,1,8,0:0:0:0:
256,192,74245,1,8,0:0:0:0:
256,192,74339,1,8,0:0:0:0:
256,192,74526,1,0,0:0:0:0:
256,192,74714,1,8,0:0:0:0:
256,192,74901,1,8,0:0:0:0:
256,192,75276,1,0,0:0:0:0:
256,192,75464,1,8,0:0:0:0:
256,192,75651,1,0,0:0:0:0:
256,192,76026,1,0,0:0:0:0:
256,192,76214,1,8,0:0:0:0:
256,192,76401,1,0,0:0:0:0:
256,192,76964,1,8,0:0:0:0:
256,192,77151,1,8,0:0:0:0:
256,192,77245,1,8,0:0:0:0:
256,192,77339,1,8,0:0:0:0:
256,192,77526,1,0,0:0:0:0:
256,192,77714,1,0,0:0:0:0:
256,192,77901,1,8,0:0:0:0:
256,192,78089,1,0,0:0:0:0:
256,192,78182,1,0,0:0:0:0:
256,192,78276,1,0,0:0:0:0:
256,192,78464,1,8,0:0:0:0:
256,192,78839,1,8,0:0:0:0:
256,192,79214,1,8,0:0:0:0:
256,192,79401,1,8,0:0:0:0:
256,192,79495,1,8,0:0:0:0:
256,192,79589,1,8,0:0:0:0:
256,192,79776,1,0,0:0:0:0:
256,192,79964,1,0,0:0:0:0:
256,192,80151,1,8,0:0:0:0:
256,192,80526,1,0,0:0:0:0:
256,192,80714,1,8,0:0:0:0:
256,192,80901,1,8,0:0:0:0:
256,192,81464,1,8,0:0:0:0:
256,192,81651,1,8,0:0:0:0:
256,192,82026,1,0,0:0:0:0:
256,192,82214,1,8,0:0:0:0:
256,192,82401,1,8,0:0:0:0:
256,192,82589,1,0,0:0:0:0:
256,192,82964,1,8,0:0:0:0:
256,192,83151,1,0,0:0:0:0:
256,192,83339,1,0,0:0:0:0:
256,192,83432,1,0,0:0:0:0:
256,192,83526,1,0,0:0:0:0:
256,192,83714,1,8,0:0:0:0:
256,192,83901,1,0,0:0:0:0:
256,192,84089,1,8,0:0:0:0:
256,192,84182,1,8,0:0:0:0:
256,192,84276,1,8,0:0:0:0:
256,192,84464,1,8,0:0:0:0:
384,96,84839,1,12,0:0:0:0:
256,192,85026,1,0,0:0:0:0:
256,192,85214,1,8,0:0:0:0:
256,192,85307,1,8,0:0:0:0:
256,192,85401,1,8,0:0:0:0:
256,192,85589,1,0,0:0:0:0:
256,192,85964,1,8,0:0:0:0:
384,96,86339,1,12,0:0:0:0:
384,96,86714,1,12,0:0:0:0:
384,96,87089,1,12,0:0:0:0:
384,96,87464,1,12,0:0:0:0:
256,192,87839,1,8,0:0:0:0:
256,192,88026,1,0,0:0:0:0:
256,192,88214,1,8,0:0:0:0:
256,192,88307,1,8,0:0:0:0:
256,192,88401,1,8,0:0:0:0:
256,192,88589,1,8,0:0:0:0:
256,192,89339,1,8,0:0:0:0:
256,192,89526,1,0,0:0:0:0:
256,192,89714,1,8,0:0:0:0:
256,192,89901,1,8,0:0:0:0:
256,192,90089,1,8,0:0:0:0:
256,192,90464,1,0,0:0:0:0:
256,192,90557,1,0,0:0:0:0:
256,192,90651,1,0,0:0:0:0:
256,192,90839,1,8,0:0:0:0:
256,192,91026,1,0,0:0:0:0:
256,192,91214,1,8,0:0:0:0:
256,192,91307,1,8,0:0:0:0:
256,192,91401,1,8,0:0:0:0:
256,192,91589,1,8,0:0:0:0:
256,192,91776,1,0,0:0:0:0:
256,192,91964,1,8,0:0:0:0:
352,96,92339,1,12,0:0:0:0:
384,96,92714,1,12,0:0:0:0:
384,96,93089,1,12,0:0:0:0:
384,96,93464,1,12,0:0:0:0:
256,192,93839,1,8,0:0:0:0:
256,192,94026,1,0,0:0:0:0:
256,192,94214,1,8,0:0:0:0:
256,192,94401,1,0,0:0:0:0:
256,192,94589,1,8,0:0:0:0:
256,192,94682,1,8,0:0:0:0:
256,192,94776,1,8,0:0:0:0:
256,192,94964,1,0,0:0:0:0:
256,192,95339,1,8,0:0:0:0:
256,192,95432,1,8,0:0:0:0:
256,192,95526,1,8,0:0:0:0:
256,192,95714,1,0,0:0:0:0:
256,192,95901,1,8,0:0:0:0:
256,192,96089,1,0,0:0:0:0:
256,192,96182,1,0,0:0:0:0:
256,192,96276,1,0,0:0:0:0:
256,192,96464,1,8,0:0:0:0:
384,64,96839,1,4,0:0:0:0:
256,192,97401,1,0,0:0:0:0:
256,192,97589,1,0,0:0:0:0:
256,192,97870,1,8,0:0:0:0:
256,192,98151,1,0,0:0:0:0:
256,192,98714,1,8,0:0:0:0:
256,192,98901,1,0,0:0:0:0:
256,192,99089,1,8,0:0:0:0:
256,192,99370,1,8,0:0:0:0:
256,192,99651,1,0,0:0:0:0:
256,192,100026,1,8,0:0:0:0:
256,192,100120,1,8,0:0:0:0:
256,192,100214,1,8,0:0:0:0:
256,192,100401,1,0,0:0:0:0:
256,192,100589,1,8,0:0:0:0:
256,192,100870,1,0,0:0:0:0:
256,192,101151,1,0,0:0:0:0:
256,192,101526,1,8,0:0:0:0:
256,192,101620,1,8,0:0:0:0:
256,192,101714,1,8,0:0:0:0:
256,192,102089,1,0,0:0:0:0:
256,192,102464,1,8,0:0:0:0:
416,64,102839,1,4,0:0:0:0:
256,192,103026,1,0,0:0:0:0:
256,192,103214,1,8,0:0:0:0:
256,192,103401,1,0,0:0:0:0:
256,192,103589,1,8,0:0:0:0:
256,192,103870,1,8,0:0:0:0:
256,192,104151,1,8,0:0:0:0:
256,192,104339,1,0,0:0:0:0:
256,192,104432,1,0,0:0:0:0:
256,192,104526,1,0,0:0:0:0:
256,192,104714,1,8,0:0:0:0:
256,192,104901,1,8,0:0:0:0:
256,192,105089,1,0,0:0:0:0:
256,192,105370,1,0,0:0:0:0:
256,192,105651,1,0,0:0:0:0:
256,192,106214,1,8,0:0:0:0:
256,192,106401,1,0,0:0:0:0:
256,192,106589,1,8,0:0:0:0:
256,192,106870,1,0,0:0:0:0:
256,192,107151,1,8,0:0:0:0:
256,192,107339,1,0,0:0:0:0:
256,192,107432,1,0,0:0:0:0:
256,192,107526,1,0,0:0:0:0:
256,192,107714,1,8,0:0:0:0:
256,192,108089,1,8,0:0:0:0:
256,192,108276,1,0,0:0:0:0:
256,192,108464,1,8,0:0:0:0:
256,192,108557,1,8,0:0:0:0:
256,192,108651,1,8,0:0:0:0:
384,96,108839,1,4,0:0:0:0:
256,192,109401,1,8,0:0:0:0:
256,192,109589,1,8,0:0:0:0:
256,192,110151,1,8,0:0:0:0:
256,192,110339,1,0,0:0:0:0:
256,192,110714,1,8,0:0:0:0:
256,192,110901,1,0,0:0:0:0:
256,192,111089,1,8,0:0:0:0:
256,192,111276,1,0,0:0:0:0:
256,192,111464,1,0,0:0:0:0:
256,192,111839,1,0,0:0:0:0:
256,192,112026,1,8,0:0:0:0:
256,192,112214,1,8,0:0:0:0:
256,192,112589,1,8,0:0:0:0:
256,192,112776,1,8,0:0:0:0:
256,192,112964,1,0,0:0:0:0:
256,192,113151,1,0,0:0:0:0:
256,192,113526,1,0,0:0:0:0:
256,192,113714,1,8,0:0:0:0:
256,192,113901,1,0,0:0:0:0:
256,192,114089,1,8,0:0:0:0:
256,192,114276,1,0,0:0:0:0:
256,192,114464,1,0,0:0:0:0:
416,64,114839,1,12,0:0:0:0:
416,64,115026,1,12,0:0:0:0:
416,64,115214,1,4,0:0:0:0:
416,64,115401,1,4,0:0:0:0:
416,64,115589,1,12,0:0:0:0:
384,96,116339,1,4,0:0:0:0:
384,96,116526,1,4,0:0:0:0:
384,96,116714,1,12,0:0:0:0:
384,96,116901,1,4,0:0:0:0:
384,96,117089,1,12,0:0:0:0:
384,96,117839,1,12,0:0:0:0:
256,192,118026,1,0,0:0:0:0:
256,192,118214,1,8,0:0:0:0:
256,192,118401,1,0,0:0:0:0:
256,192,118589,1,8,0:0:0:0:
256,192,118682,1,8,0:0:0:0:
256,192,118776,1,8,0:0:0:0:
256,192,118964,1,8,0:0:0:0:
256,192,119151,1,0,0:0:0:0:
256,192,119339,1,8,0:0:0:0:
256,192,119714,1,0,0:0:0:0:
256,192,119807,1,0,0:0:0:0:
256,192,119901,1,0,0:0:0:0:
256,192,120089,1,8,0:0:0:0:
416,96,120464,1,12,0:0:0:0:
384,96,120839,1,4,0:0:0:0:
256,192,121214,1,8,0:0:0:0:
256,192,121589,1,0,0:0:0:0:
256,192,121870,1,0,0:0:0:0:
256,192,122151,1,8,0:0:0:0:
256,192,122245,1,8,0:0:0:0:
256,192,122339,1,8,0:0:0:0:
256,192,122526,1,0,0:0:0:0:
256,192,122714,1,0,0:0:0:0:
256,192,122901,1,8,0:0:0:0:
256,192,123276,1,0,0:0:0:0:
256,192,123464,1,8,0:0:0:0:
256,192,123651,1,8,0:0:0:0:
256,192,124026,1,0,0:0:0:0:
256,192,124214,1,8,0:0:0:0:
256,192,124401,1,8,0:0:0:0:
256,192,124964,1,0,0:0:0:0:
256,192,125151,1,8,0:0:0:0:
256,192,125526,1,0,0:0:0:0:
256,192,125714,1,8,0:0:0:0:
256,192,125807,1,8,0:0:0:0:
256,192,125901,1,8,0:0:0:0:
256,192,126089,1,0,0:0:0:0:
256,192,126464,1,8,0:0:0:0:
256,192,126839,1,8,0:0:0:0:
256,192,127214,1,8,0:0:0:0:
256,192,127401,1,8,0:0:0:0:
256,192,127589,1,0,0:0:0:0:
256,192,127870,1,0,0:0:0:0:
256,192,128151,1,8,0:0:0:0:
256,192,128245,1,8,0:0:0:0:
256,192,128339,1,8,0:0:0:0:
256,192,128526,1,8,0:0:0:0:
256,192,128714,1,0,0:0:0:0:
256,192,128901,1,8,0:0:0:0:
256,192,129276,1,0,0:0:0:0:
256,192,129464,1,8,0:0:0:0:
256,192,129651,1,0,0:0:0:0:
256,192,129839,1,8,0:0:0:0:
256,192,130026,1,0,0:0:0:0:
256,192,130214,1,8,0:0:0:0:
256,192,130401,1,8,0:0:0:0:
256,192,130589,1,0,0:0:0:0:
256,192,130964,1,8,0:0:0:0:
256,192,131151,1,8,0:0:0:0:
256,192,131339,1,0,0:0:0:0:
256,192,131432,1,0,0:0:0:0:
256,192,131526,1,0,0:0:0:0:
256,192,131714,1,8,0:0:0:0:
256,192,131901,1,0,0:0:0:0:
256,192,132089,1,0,0:0:0:0:
256,192,132182,1,0,0:0:0:0:
256,192,132276,1,0,0:0:0:0:
256,192,132464,1,8,0:0:0:0:
256,192,132557,1,8,0:0:0:0:
256,192,132651,1,8,0:0:0:0:
384,64,133214,1,12,0:0:0:0:
256,192,133589,1,8,0:0:0:0:
256,192,133870,1,0,0:0:0:0:
256,192,134151,1,8,0:0:0:0:
256,192,134245,1,8,0:0:0:0:
256,192,134339,1,8,0:0:0:0:
256,192,134526,1,0,0:0:0:0:
256,192,134714,1,8,0:0:0:0:
256,192,134901,1,8,0:0:0:0:
256,192,135276,1,0,0:0:0:0:
256,192,135464,1,0,0:0:0:0:
256,192,135651,1,8,0:0:0:0:
256,192,136026,1,0,0:0:0:0:
256,192,136214,1,0,0:0:0:0:
256,192,136401,1,8,0:0:0:0:
256,192,136964,1,8,0:0:0:0:
256,192,137151,1,8,0:0:0:0:
256,192,137245,1,8,0:0:0:0:
256,192,137339,1,8,0:0:0:0:
256,192,137526,1,0,0:0:0:0:
256,192,137714,1,8,0:0:0:0:
256,192,137901,1,0,0:0:0:0:
256,192,138089,1,0,0:0:0:0:
256,192,138182,1,0,0:0:0:0:
256,192,138276,1,0,0:0:0:0:
256,192,138464,1,8,0:0:0:0:
256,192,138839,1,8,0:0:0:0:
256,192,139214,1,8,0:0:0:0:
256,192,139401,1,8,0:0:0:0:
256,192,139495,1,8,0:0:0:0:
256,192,139589,1,8,0:0:0:0:
256,192,139776,1,0,0:0:0:0:
256,192,139964,1,0,0:0:0:0:
256,192,140151,1,8,0:0:0:0:
256,192,140339,1,8,0:0:0:0:
256,192,140526,1,0,0:0:0:0:
256,192,140714,1,0,0:0:0:0:
256,192,140901,1,8,0:0:0:0:
256,192,141464,1,8,0:0:0:0:
256,192,141651,1,8,0:0:0:0:
256,192,142026,1,0,0:0:0:0:
256,192,142214,1,8,0:0:0:0:
256,192,142401,1,8,0:0:0:0:
256,192,142776,1,0,0:0:0:0:
256,192,142964,1,8,0:0:0:0:
256,192,143151,1,0,0:0:0:0:
256,192,143339,1,0,0:0:0:0:
256,192,143432,1,0,0:0:0:0:
256,192,143526,1,0,0:0:0:0:
256,192,143714,1,8,0:0:0:0:
256,192,143901,1,0,0:0:0:0:
256,192,144089,1,8,0:0:0:0:
256,192,144182,1,8,0:0:0:0:
256,192,144276,1,8,0:0:0:0:
256,192,144464,1,8,0:0:0:0:
384,96,144839,1,12,0:0:0:0:
256,192,145401,1,0,0:0:0:0:
256,192,145495,1,0,0:0:0:0:
256,192,145589,1,0,0:0:0:0:
256,192,146151,1,8,0:0:0:0:
256,192,146245,1,8,0:0:0:0:
256,192,146339,1,8,0:0:0:0:
256,192,146714,1,8,0:0:0:0:
256,192,147089,1,0,0:0:0:0:
256,192,147276,1,0,0:0:0:0:
256,192,147464,1,8,0:0:0:0:
256,192,147839,1,8,0:0:0:0:
256,192,148026,1,0,0:0:0:0:
256,192,148214,1,8,0:0:0:0:
256,192,148307,1,8,0:0:0:0:
256,192,148401,1,8,0:0:0:0:
256,192,148589,1,0,0:0:0:0:
256,192,148776,1,8,0:0:0:0:
256,192,148964,1,8,0:0:0:0:
256,192,149339,1,8,0:0:0:0:
256,192,149526,1,0,0:0:0:0:
256,192,149714,1,8,0:0:0:0:
256,192,149901,1,8,0:0:0:0:
256,192,150089,1,0,0:0:0:0:
256,192,150839,1,0,0:0:0:0:
256,192,151026,1,0,0:0:0:0:
256,192,151120,1,0,0:0:0:0:
256,192,151214,1,0,0:0:0:0:
256,192,151401,1,8,0:0:0:0:
256,192,151589,1,8,0:0:0:0:
256,192,151682,1,8,0:0:0:0:
256,192,151776,1,8,0:0:0:0:
256,192,151964,1,0,0:0:0:0:
256,192,152339,1,0,0:0:0:0:
256,192,152526,1,8,0:0:0:0:
256,192,152714,1,0,0:0:0:0:
256,192,152901,1,8,0:0:0:0:
256,192,153089,1,0,0:0:0:0:
256,192,153182,1,0,0:0:0:0:
256,192,153276,1,0,0:0:0:0:
256,192,153464,1,8,0:0:0:0:
256,192,153839,1,8,0:0:0:0:
256,192,154401,1,8,0:0:0:0:
256,192,154495,1,8,0:0:0:0:
256,192,154589,1,8,0:0:0:0:
256,192,154964,1,0,0:0:0:0:
256,192,155151,1,8,0:0:0:0:
256,192,155339,1,8,0:0:0:0:
256,192,155432,1,8,0:0:0:0:
256,192,155526,1,8,0:0:0:0:
256,192,155714,1,0,0:0:0:0:
256,192,155901,1,8,0:0:0:0:
256,192,156089,1,0,0:0:0:0:
256,192,156182,1,0,0:0:0:0:
256,192,156276,1,0,0:0:0:0:
256,192,156464,1,8,0:0:0:0:
256,192,156651,1,0,0:0:0:0:
416,32,156839,1,12,0:0:0:0:
256,192,157214,1,0,0:0:0:0:
256,192,157589,1,0,0:0:0:0:
256,192,157776,1,8,0:0:0:0:
256,192,157964,1,8,0:0:0:0:
256,192,158057,1,8,0:0:0:0:
256,192,158151,1,8,0:0:0:0:
256,192,158339,1,0,0:0:0:0:
256,192,158714,1,0,0:0:0:0:
256,192,159089,1,8,0:0:0:0:
256,192,159276,1,0,0:0:0:0:
256,192,159464,1,0,0:0:0:0:
256,192,159557,1,0,0:0:0:0:
256,192,159651,1,0,0:0:0:0:
256,192,159839,1,0,0:0:0:0:
256,192,160214,1,8,0:0:0:0:
256,192,160589,1,0,0:0:0:0:
256,192,160776,1,8,0:0:0:0:
256,192,160964,1,0,0:0:0:0:
256,192,161057,1,0,0:0:0:0:
256,192,161151,1,0,0:0:0:0:
256,192,161339,1,8,0:0:0:0:
256,192,161526,1,8,0:0:0:0:
256,192,162089,1,0,0:0:0:0:
256,192,162276,1,8,0:0:0:0:
256,192,162464,1,8,0:0:0:0:
416,64,162839,1,12,0:0:0:0:
256,192,163026,1,0,0:0:0:0:
256,192,163214,1,0,0:0:0:0:
256,192,163307,1,0,0:0:0:0:
256,192,163401,1,0,0:0:0:0:
256,192,163589,1,8,0:0:0:0:
256,192,163964,1,0,0:0:0:0:
256,192,164339,1,8,0:0:0:0:
256,192,164526,1,0,0:0:0:0:
256,192,164714,1,8,0:0:0:0:
256,192,164901,1,8,0:0:0:0:
256,192,164995,1,8,0:0:0:0:
256,192,165089,1,8,0:0:0:0:
256,192,165276,1,0,0:0:0:0:
256,192,165464,1,8,0:0:0:0:
256,192,165839,1,8,0:0:0:0:
256,192,166026,1,8,0:0:0:0:
256,192,166214,1,0,0:0:0:0:
256,192,166401,1,0,0:0:0:0:
256,192,166589,1,8,0:0:0:0:
256,192,166682,1,8,0:0:0:0:
256,192,166776,1,8,0:0:0:0:
256,192,166964,1,8,0:0:0:0:
256,192,167339,1,8,0:0:0:0:
256,192,167526,1,0,0:0:0:0:
256,192,167620,1,0,0:0:0:0:
256,192,167714,1,0,0:0:0:0:
256,192,167901,1,0,0:0:0:0:
256,192,168089,1,8,0:0:0:0:
256,192,168276,1,8,0:0:0:0:
256,192,168464,1,8,0:0:0:0:
256,192,168557,1,8,0:0:0:0:
256,192,168651,1,8,0:0:0:0:
384,96,168839,1,4,0:0:0:0:
256,192,169589,1,0,0:0:0:0:
256,192,170151,1,8,0:0:0:0:
256,192,170526,1,0,0:0:0:0:
256,192,170714,1,0,0:0:0:0:
256,192,170901,1,8,0:0:0:0:
256,192,171276,1,0,0:0:0:0:
256,192,171464,1,8,0:0:0:0:
256,192,171651,1,8,0:0:0:0:
256,192,171839,1,0,0:0:0:0:
256,192,172214,1,0,0:0:0:0:
256,192,172401,1,0,0:0:0:0:
256,192,172589,1,8,0:0:0:0:
256,192,172870,1,8,0:0:0:0:
256,192,173151,1,8,0:0:0:0:
256,192,173526,1,8,0:0:0:0:
256,192,173714,1,0,0:0:0:0:
256,192,173901,1,8,0:0:0:0:
256,192,174089,1,0,0:0:0:0:
256,192,174276,1,0,0:0:0:0:
256,192,174464,1,8,0:0:0:0:
256,192,174839,1,0,0:0:0:0:
256,192,175214,1,8,0:0:0:0:
256,192,175589,1,0,0:0:0:0:
256,192,175964,1,8,0:0:0:0:
256,192,176339,1,0,0:0:0:0:
256,192,176714,1,8,0:0:0:0:
256,192,177464,1,8,0:0:0:0:
256,192,177839,1,0,0:0:0:0:
256,192,178214,1,8,0:0:0:0:
256,192,178401,1,0,0:0:0:0:
256,192,178589,1,8,0:0:0:0:
256,192,178964,1,8,0:0:0:0:
256,192,179151,1,0,0:0:0:0:
256,192,179339,1,8,0:0:0:0:
256,192,179432,1,8,0:0:0:0:
256,192,179526,1,8,0:0:0:0:
256,192,179714,1,0,0:0:0:0:
256,192,179901,1,8,0:0:0:0:
256,192,180089,1,0,0:0:0:0:
256,192,180182,1,0,0:0:0:0:
256,192,180276,1,0,0:0:0:0:
256,192,180464,1,8,0:0:0:0:
256,192,180557,1,8,0:0:0:0:
256,192,180651,1,8,0:0:0:0:
384,96,181214,1,12,0:0:0:0:
256,192,181589,1,0,0:0:0:0:
256,192,181870,1,0,0:0:0:0:
256,192,182151,1,8,0:0:0:0:
256,192,182245,1,8,0:0:0:0:
256,192,182339,1,8,0:0:0:0:
256,192,182526,1,8,0:0:0:0:
256,192,182714,1,0,0:0:0:0:
256,192,182901,1,8,0:0:0:0:
256,192,183276,1,0,0:0:0:0:
256,192,183464,1,0,0:0:0:0:
256,192,183651,1,8,0:0:0:0:
256,192,184026,1,0,0:0:0:0:
256,192,184214,1,8,0:0:0:0:
256,192,184401,1,8,0:0:0:0:
256,192,184964,1,8,0:0:0:0:
256,192,185151,1,8,0:0:0:0:
256,192,185526,1,0,0:0:0:0:
256,192,185714,1,8,0:0:0:0:
256,192,185807,1,8,0:0:0:0:
256,192,185901,1,8,0:0:0:0:
256,192,186089,1,0,0:0:0:0:
256,192,186276,1,0,0:0:0:0:
256,192,186464,1,8,0:0:0:0:
256,192,186839,1,8,0:0:0:0:
256,192,187026,1,0,0:0:0:0:
256,192,187214,1,8,0:0:0:0:
256,192,187307,1,8,0:0:0:0:
256,192,187401,1,8,0:0:0:0:
256,192,187589,1,8,0:0:0:0:
256,192,187776,1,0,0:0:0:0:
256,192,187964,1,0,0:0:0:0:
256,192,188151,1,8,0:0:0:0:
256,192,188526,1,8,0:0:0:0:
256,192,188714,1,0,0:0:0:0:
256,192,188901,1,8,0:0:0:0:
256,192,189464,1,8,0:0:0:0:
256,192,189651,1,8,0:0:0:0:
256,192,190026,1,8,0:0:0:0:
256,192,190214,1,0,0:0:0:0:
256,192,190401,1,8,0:0:0:0:
256,192,190589,1,0,0:0:0:0:
256,192,190964,1,8,0:0:0:0:
256,192,191151,1,8,0:0:0:0:
256,192,191339,1,0,0:0:0:0:
256,192,191432,1,0,0:0:0:0:
256,192,191526,1,0,0:0:0:0:
256,192,191714,1,8,0:0:0:0:
256,192,191901,1,0,0:0:0:0:
256,192,192089,1,0,0:0:0:0:
256,192,192182,1,0,0:0:0:0:
256,192,192276,1,0,0:0:0:0:
256,192,192464,1,8,0:0:0:0:
256,192,192557,1,8,0:0:0:0:
256,192,192651,5,8,0:0:0:0:
384,96,192839,1,12,0:0:0:0:
256,192,193026,1,0,0:0:0:0:
256,192,193214,1,8,0:0:0:0:
256,192,193307,1,8,0:0:0:0:
256,192,193401,1,8,0:0:0:0:
256,192,193589,1,0,0:0:0:0:
256,192,193964,1,8,0:0:0:0:
384,96,194339,1,12,0:0:0:0:
384,96,194714,1,12,0:0:0:0:
384,96,195089,1,12,0:0:0:0:
384,96,195464,1,12,0:0:0:0:
256,192,195839,1,8,0:0:0:0:
256,192,196026,1,0,0:0:0:0:
256,192,196214,1,8,0:0:0:0:
256,192,196307,1,8,0:0:0:0:
256,192,196401,1,8,0:0:0:0:
256,192,196589,1,8,0:0:0:0:
256,192,197339,1,8,0:0:0:0:
256,192,197526,1,0,0:0:0:0:
256,192,197714,1,8,0:0:0:0:
256,192,197901,1,8,0:0:0:0:
256,192,198089,1,8,0:0:0:0:
256,192,198464,1,0,0:0:0:0:
256,192,198557,1,0,0:0:0:0:
256,192,198651,1,0,0:0:0:0:
256,192,198839,1,8,0:0:0:0:
256,192,199026,1,0,0:0:0:0:
256,192,199214,1,8,0:0:0:0:
256,192,199307,1,8,0:0:0:0:
256,192,199401,1,8,0:0:0:0:
256,192,199589,1,8,0:0:0:0:
256,192,199776,1,8,0:0:0:0:
256,192,199964,1,8,0:0:0:0:
352,96,200339,1,12,0:0:0:0:
384,96,200714,1,12,0:0:0:0:
384,96,201089,1,12,0:0:0:0:
384,96,201464,1,12,0:0:0:0:
256,192,201839,1,8,0:0:0:0:
256,192,202026,1,0,0:0:0:0:
256,192,202214,1,8,0:0:0:0:
256,192,202401,1,0,0:0:0:0:
256,192,202589,1,8,0:0:0:0:
256,192,202682,1,8,0:0:0:0:
256,192,202776,1,8,0:0:0:0:
256,192,202964,1,0,0:0:0:0:
256,192,203339,1,8,0:0:0:0:
256,192,203526,1,8,0:0:0:0:
256,192,203620,1,8,0:0:0:0:
256,192,203714,1,8,0:0:0:0:
256,192,203901,1,0,0:0:0:0:
256,192,204089,1,0,0:0:0:0:
256,192,204182,1,0,0:0:0:0:
256,192,204276,1,0,0:0:0:0:
256,192,204464,1,8,0:0:0:0:
256,192,204651,1,0,0:0:0:0:
