osu file format v14

[General]
AudioFilename: audio.mp3
AudioLeadIn: 0
PreviewTime: 60370
Countdown: 0
SampleSet: Normal
StackLeniency: 0.7
Mode: 1
LetterboxInBreaks: 0
WidescreenStoryboard: 1

[Editor]
Bookmarks: 839,6839,12839,24839,36839,48839,54839,60839
DistanceSpacing: 0.8
BeatDivisor: 4
GridSize: 32
TimelineZoom: 1.8

[Metadata]
Title:Digital Life Hacker
TitleUnicode:Digital Life Hacker
Artist:wotoha
ArtistUnicode:をとは
Creator:BlackBN
Version:Irone's Oni
Source:
Tags:BlackBq mappers' guild mg mpg featured artist fa electronic japanese jpop j-pop ଳ 海月ねう mitukineu jelly girl ネコハッカー neko hacker nnzn チョモランマ服部 chomolungma 歌衣メイカ meikahaotoko 先端恐怖症 sentankyofusho さえきやひろ saekiyahiro ユニ yuni パリィ paryi irone_osu
BeatmapID:3119398
BeatmapSetID:1522733

[Difficulty]
HPDrainRate:5.5
CircleSize:2
OverallDifficulty:5.5
ApproachRate:2
SliderMultiplier:1.4
SliderTickRate:1

[Events]
//Background and Video events
0,0,"bg.jpg",0,-20
Video,-85,"digital.mp4"
//Break Periods
//Storyboard Layer 0 (Background)
//Storyboard Layer 1 (Fail)
//Storyboard Layer 2 (Pass)
//Storyboard Layer 3 (Foreground)
//Storyboard Layer 4 (Overlay)
//Storyboard Sound Samples

[TimingPoints]
839,375,4,1,0,60,1,0
932,-100,4,1,0,60,0,0
6792,-100,4,1,0,65,0,0
9792,-100,4,1,0,70,0,0
12792,-100,4,1,0,80,0,0
24792,-100,4,1,0,70,0,0
24885,-100,4,1,0,60,0,0
36792,-100,4,1,0,70,0,0
54792,-100,4,1,0,75,0,0
60792,-100,4,1,0,85,0,0
60839,-100,4,1,0,85,0,1
72839,-100,4,1,0,85,0,0
72885,-100,4,1,0,45,0,0
73167,-100,4,1,0,85,0,0
73214,-100,4,1,0,85,0,1
84792,-100,4,1,0,80,0,1
84839,-100,4,1,0,80,0,0
96792,-100,4,1,0,60,0,0
102792,-100,4,1,0,65,0,0
108792,-100,4,1,0,70,0,0
114792,-100,4,1,0,75,0,0
120792,-100,4,1,0,85,0,0
120839,-100,4,1,0,85,0,1
132839,-100,4,1,0,85,0,0
132885,-100,4,1,0,45,0,0
133167,-100,4,1,0,85,0,0
133214,-100,4,1,0,85,0,1
144792,-100,4,1,0,80,0,1
144839,-100,4,1,0,80,0,0
156792,-100,4,1,0,70,0,0
165792,-100,4,1,0,75,0,0
168885,-100,4,1,0,60,0,0
174792,-100,4,1,0,65,0,0
176292,-100,4,1,0,70,0,0
177792,-100,4,1,0,75,0,0
181167,-100,4,1,0,85,0,0
181214,-100,4,1,0,85,0,1
192792,-100,4,1,0,80,0,1
192839,-100,4,1,0,80,0,0

[HitObjects]
257,188,839,5,6,0:0:0:0:
257,188,1589,1,0,0:0:0:0:
257,188,2151,1,0,0:0:0:0:
257,188,2339,1,2,0:0:0:0:
257,188,2714,1,2,0:0:0:0:
257,188,3089,1,0,0:0:0:0:
257,188,3839,1,2,0:0:0:0:
257,188,4589,1,0,0:0:0:0:
257,188,5151,1,2,0:0:0:0:
257,188,5339,1,0,0:0:0:0:
257,188,5714,1,2,0:0:0:0:
257,188,6089,1,0,0:0:0:0:
257,188,6839,1,2,0:0:0:0:
257,188,7214,1,2,0:0:0:0:
257,188,7589,1,2,0:0:0:0:
257,188,7964,1,2,0:0:0:0:
257,188,8339,1,2,0:0:0:0:
257,188,8714,1,2,0:0:0:0:
257,188,9089,1,2,0:0:0:0:
257,188,9464,1,2,0:0:0:0:
257,188,9839,1,2,0:0:0:0:
257,188,10026,1,2,0:0:0:0:
257,188,10214,1,0,0:0:0:0:
257,188,10401,1,2,0:0:0:0:
257,188,10589,1,0,0:0:0:0:
257,188,10776,1,0,0:0:0:0:
257,188,10964,1,2,0:0:0:0:
257,188,11151,1,0,0:0:0:0:
257,188,11339,1,0,0:0:0:0:
257,188,11432,1,0,0:0:0:0:
257,188,11526,1,2,0:0:0:0:
257,188,11714,1,0,0:0:0:0:
257,188,11807,1,0,0:0:0:0:
257,188,11901,1,2,0:0:0:0:
257,188,11995,1,2,0:0:0:0:
257,188,12089,1,0,0:0:0:0:
257,188,12839,1,6,0:0:0:0:
257,188,13026,1,0,0:0:0:0:
257,188,13214,1,2,0:0:0:0:
257,188,13401,1,0,0:0:0:0:
257,188,13589,1,2,0:0:0:0:
257,188,13776,1,2,0:0:0:0:
257,188,13870,1,0,0:0:0:0:
257,188,13964,1,2,0:0:0:0:
257,188,14151,1,0,0:0:0:0:
257,188,14339,1,2,0:0:0:0:
257,188,14526,1,0,0:0:0:0:
257,188,14620,1,0,0:0:0:0:
257,188,14714,1,2,0:0:0:0:
257,188,14901,1,0,0:0:0:0:
257,188,14995,1,0,0:0:0:0:
257,188,15089,1,2,0:0:0:0:
257,188,15276,1,0,0:0:0:0:
257,188,15464,1,2,0:0:0:0:
257,188,15839,1,2,0:0:0:0:
257,188,16026,1,0,0:0:0:0:
257,188,16214,1,2,0:0:0:0:
257,188,16401,1,0,0:0:0:0:
257,188,16589,1,2,0:0:0:0:
257,188,16776,1,0,0:0:0:0:
257,188,16870,1,0,0:0:0:0:
257,188,16964,1,2,0:0:0:0:
257,188,17151,1,0,0:0:0:0:
257,188,17339,1,2,0:0:0:0:
257,188,17526,1,2,0:0:0:0:
257,188,17620,1,0,0:0:0:0:
257,188,17714,1,2,0:0:0:0:
257,188,17901,1,2,0:0:0:0:
257,188,17995,1,0,0:0:0:0:
257,188,18089,1,2,0:0:0:0:
257,188,18276,1,0,0:0:0:0:
257,188,18464,1,2,0:0:0:0:
257,188,18839,1,2,0:0:0:0:
257,188,19026,1,0,0:0:0:0:
257,188,19214,1,2,0:0:0:0:
257,188,19401,1,0,0:0:0:0:
257,188,19589,1,2,0:0:0:0:
253,182,19682,1,2,0:0:0:0:
253,182,19776,1,0,0:0:0:0:
253,182,19964,1,2,0:0:0:0:
253,182,20151,1,0,0:0:0:0:
253,182,20339,1,2,0:0:0:0:
253,182,20526,1,0,0:0:0:0:
253,182,20620,1,0,0:0:0:0:
253,182,20714,1,2,0:0:0:0:
253,182,20901,1,0,0:0:0:0:
253,182,20995,1,0,0:0:0:0:
253,182,21089,1,2,0:0:0:0:
253,182,21276,1,0,0:0:0:0:
253,182,21464,1,2,0:0:0:0:
253,182,21839,1,2,0:0:0:0:
253,182,22026,1,2,0:0:0:0:
253,182,22214,1,0,0:0:0:0:
253,182,22401,1,0,0:0:0:0:
253,182,22589,1,2,0:0:0:0:
253,182,22776,1,0,0:0:0:0:
253,182,22870,1,0,0:0:0:0:
253,182,22964,1,2,0:0:0:0:
253,182,23151,1,0,0:0:0:0:
253,182,23339,1,2,0:0:0:0:
253,182,23432,1,2,0:0:0:0:
253,182,23526,1,0,0:0:0:0:
253,182,23620,1,0,0:0:0:0:
253,182,23714,1,2,0:0:0:0:
253,182,23901,1,0,0:0:0:0:
253,182,24089,1,2,0:0:0:0:
253,182,24276,1,0,0:0:0:0:
253,182,24370,1,0,0:0:0:0:
253,182,24464,1,2,0:0:0:0:
253,182,24651,1,0,0:0:0:0:
253,182,24839,1,6,0:0:0:0:
253,182,25214,1,2,0:0:0:0:
253,182,25589,1,0,0:0:0:0:
253,182,25870,1,2,0:0:0:0:
253,182,26151,1,2,0:0:0:0:
253,182,26526,1,0,0:0:0:0:
253,182,26714,1,2,0:0:0:0:
253,182,27089,1,2,0:0:0:0:
253,182,27370,1,0,0:0:0:0:
253,182,27651,1,0,0:0:0:0:
253,182,28026,1,0,0:0:0:0:
253,182,28214,1,2,0:0:0:0:
253,182,28589,1,2,0:0:0:0:
253,182,28870,1,2,0:0:0:0:
253,182,29151,1,0,0:0:0:0:
253,182,29714,1,2,0:0:0:0:
253,182,30089,1,0,0:0:0:0:
253,182,30464,1,2,0:0:0:0:
253,182,30839,1,2,0:0:0:0:
253,182,31214,1,2,0:0:0:0:
253,182,31589,1,0,0:0:0:0:
253,182,31870,1,2,0:0:0:0:
253,182,32151,1,2,0:0:0:0:
253,182,32526,1,0,0:0:0:0:
253,182,32714,1,2,0:0:0:0:
253,182,33089,1,2,0:0:0:0:
253,182,33370,1,0,0:0:0:0:
253,182,33651,1,0,0:0:0:0:
253,182,34026,1,0,0:0:0:0:
253,182,34214,1,2,0:0:0:0:
253,182,34589,1,0,0:0:0:0:
253,182,34870,1,2,0:0:0:0:
253,182,35151,1,2,0:0:0:0:
253,182,35714,1,2,0:0:0:0:
253,182,36089,1,0,0:0:0:0:
253,182,36464,1,2,0:0:0:0:
253,182,36839,1,6,0:0:0:0:
253,182,37214,1,2,0:0:0:0:
253,182,37401,1,0,0:0:0:0:
253,182,37589,1,2,0:0:0:0:
253,182,37682,1,2,0:0:0:0:
253,182,37870,1,0,0:0:0:0:
253,182,37964,1,2,0:0:0:0:
253,182,38151,1,0,0:0:0:0:
253,182,38245,1,0,0:0:0:0:
253,182,38339,1,0,0:0:0:0:
253,182,38620,1,0,0:0:0:0:
253,182,38714,1,2,0:0:0:0:
253,182,38901,1,0,0:0:0:0:
253,182,39089,1,2,0:0:0:0:
253,182,39276,1,0,0:0:0:0:
253,182,39370,1,0,0:0:0:0:
253,182,39464,1,2,0:0:0:0:
253,182,39651,1,2,0:0:0:0:
253,182,39839,1,0,0:0:0:0:
253,182,40120,1,0,0:0:0:0:
253,182,40214,1,2,0:0:0:0:
253,182,40401,1,0,0:0:0:0:
253,182,40589,1,2,0:0:0:0:
253,182,40682,1,0,0:0:0:0:
253,182,40870,1,0,0:0:0:0:
253,182,40964,1,2,0:0:0:0:
253,182,41151,1,0,0:0:0:0:
253,182,41339,1,2,0:0:0:0:
253,182,41620,1,0,0:0:0:0:
253,182,41714,1,2,0:0:0:0:
253,182,41901,1,0,0:0:0:0:
253,182,42089,1,2,0:0:0:0:
253,182,42182,1,0,0:0:0:0:
253,182,42276,1,2,0:0:0:0:
253,182,42464,1,2,0:0:0:0:
253,182,42651,1,0,0:0:0:0:
253,182,42839,1,6,0:0:0:0:
253,182,43214,1,2,0:0:0:0:
253,182,43401,1,0,0:0:0:0:
253,182,43589,1,2,0:0:0:0:
253,182,43682,1,0,0:0:0:0:
253,182,43870,1,0,0:0:0:0:
253,182,43964,1,2,0:0:0:0:
253,182,44151,1,0,0:0:0:0:
253,182,44245,1,0,0:0:0:0:
253,182,44339,1,0,0:0:0:0:
253,182,44620,1,0,0:0:0:0:
253,182,44714,1,2,0:0:0:0:
253,182,44901,1,0,0:0:0:0:
253,182,45089,1,2,0:0:0:0:
253,182,45276,1,0,0:0:0:0:
253,182,45370,1,0,0:0:0:0:
253,182,45464,1,2,0:0:0:0:
253,182,45651,1,2,0:0:0:0:
253,182,45839,1,0,0:0:0:0:
253,182,46120,1,0,0:0:0:0:
253,182,46214,1,2,0:0:0:0:
253,182,46401,1,2,0:0:0:0:
253,182,46589,1,2,0:0:0:0:
253,182,46682,1,0,0:0:0:0:
253,182,46776,1,0,0:0:0:0:
253,182,46964,1,2,0:0:0:0:
253,182,47151,1,2,0:0:0:0:
253,182,47339,1,0,0:0:0:0:
253,182,47432,1,0,0:0:0:0:
253,182,47620,1,2,0:0:0:0:
253,182,47714,1,0,0:0:0:0:
253,182,47901,1,0,0:0:0:0:
253,182,47995,1,0,0:0:0:0:
253,182,48089,1,2,0:0:0:0:
253,182,48276,1,0,0:0:0:0:
253,182,48464,1,2,0:0:0:0:
253,182,48557,1,2,0:0:0:0:
253,182,48651,1,0,0:0:0:0:
253,182,48839,1,2,0:0:0:0:
253,182,49401,1,2,0:0:0:0:
253,182,49589,1,2,0:0:0:0:
253,182,50151,1,2,0:0:0:0:
253,182,50339,1,0,0:0:0:0:
253,182,50526,1,0,0:0:0:0:
253,182,50714,1,2,0:0:0:0:
253,182,51089,1,2,0:0:0:0:
253,182,51651,1,0,0:0:0:0:
253,182,51839,1,2,0:0:0:0:
253,182,52214,1,0,0:0:0:0:
253,182,52589,1,2,0:0:0:0:
253,182,52776,1,0,0:0:0:0:
253,182,52964,1,2,0:0:0:0:
253,182,53151,1,2,0:0:0:0:
253,182,53526,1,0,0:0:0:0:
253,182,53714,1,2,0:0:0:0:
253,182,54089,1,2,0:0:0:0:
253,182,54839,1,2,0:0:0:0:
253,182,55120,1,0,0:0:0:0:
253,182,55214,1,2,0:0:0:0:
253,182,55495,1,2,0:0:0:0:
253,182,55589,1,0,0:0:0:0:
253,182,55682,1,2,0:0:0:0:
253,182,55776,1,2,0:0:0:0:
253,182,55964,1,2,0:0:0:0:
253,182,56339,1,0,0:0:0:0:
253,182,56526,1,0,0:0:0:0:
253,182,56714,1,2,0:0:0:0:
253,182,56995,1,2,0:0:0:0:
253,182,57089,1,0,0:0:0:0:
253,182,57182,1,2,0:0:0:0:
253,182,57276,1,0,0:0:0:0:
253,182,57464,1,2,0:0:0:0:
253,182,57839,1,0,0:0:0:0:
253,182,58026,1,0,0:0:0:0:
253,182,58214,1,2,0:0:0:0:
253,182,58401,1,0,0:0:0:0:
253,182,58589,1,2,0:0:0:0:
253,182,58682,1,2,0:0:0:0:
253,182,58776,1,0,0:0:0:0:
253,182,58964,1,2,0:0:0:0:
253,182,59151,1,0,0:0:0:0:
253,182,59245,1,0,0:0:0:0:
253,182,59339,1,2,0:0:0:0:
253,182,59526,1,0,0:0:0:0:
253,182,59714,1,2,0:0:0:0:
253,182,59807,1,0,0:0:0:0:
253,182,59901,1,0,0:0:0:0:
253,182,59995,1,0,0:0:0:0:
253,182,60089,1,2,0:0:0:0:
253,182,60464,1,4,0:0:0:0:
253,182,60839,1,6,0:0:0:0:
253,182,61214,1,2,0:0:0:0:
253,182,61401,1,0,0:0:0:0:
253,182,61589,1,2,0:0:0:0:
253,182,61682,1,0,0:0:0:0:
253,182,61870,1,0,0:0:0:0:
253,182,61964,1,2,0:0:0:0:
253,182,62151,1,2,0:0:0:0:
253,182,62339,1,0,0:0:0:0:
253,182,62526,1,0,0:0:0:0:
253,182,62620,1,2,0:0:0:0:
253,182,62714,1,2,0:0:0:0:
253,182,62901,1,2,0:0:0:0:
253,182,63089,1,0,0:0:0:0:
253,182,63276,1,2,0:0:0:0:
253,182,63370,1,0,0:0:0:0:
253,182,63464,1,2,0:0:0:0:
253,182,63651,1,0,0:0:0:0:
253,182,63839,1,0,0:0:0:0:
253,182,64026,1,2,0:0:0:0:
253,182,64120,1,0,0:0:0:0:
253,182,64214,1,2,0:0:0:0:
253,182,64401,1,2,0:0:0:0:
253,182,64589,1,0,0:0:0:0:
253,182,64776,1,2,0:0:0:0:
253,182,64870,1,2,0:0:0:0:
253,182,64964,1,0,0:0:0:0:
253,182,65151,1,2,0:0:0:0:
253,182,65339,1,0,0:0:0:0:
253,182,65526,1,0,0:0:0:0:
253,182,65620,1,0,0:0:0:0:
253,182,65714,1,2,0:0:0:0:
253,182,65901,1,0,0:0:0:0:
253,182,66089,1,2,0:0:0:0:
253,182,66276,1,0,0:0:0:0:
253,182,66370,1,0,0:0:0:0:
253,182,66464,1,2,0:0:0:0:
253,182,66651,1,0,0:0:0:0:
253,182,66839,1,2,0:0:0:0:
253,182,67214,1,2,0:0:0:0:
253,182,67401,1,0,0:0:0:0:
253,182,67589,1,2,0:0:0:0:
253,182,67682,1,2,0:0:0:0:
253,182,67870,1,0,0:0:0:0:
253,182,67964,1,0,0:0:0:0:
253,182,68151,1,2,0:0:0:0:
253,182,68339,1,2,0:0:0:0:
253,182,68432,1,0,0:0:0:0:
253,182,68526,1,2,0:0:0:0:
253,182,68714,1,2,0:0:0:0:
253,182,68901,1,0,0:0:0:0:
253,182,68995,1,0,0:0:0:0:
253,182,69089,1,2,0:0:0:0:
253,182,69276,1,0,0:0:0:0:
253,182,69464,1,2,0:0:0:0:
253,182,69651,1,0,0:0:0:0:
253,182,69839,1,2,0:0:0:0:
253,182,70026,1,0,0:0:0:0:
253,182,70120,1,2,0:0:0:0:
253,182,70214,1,2,0:0:0:0:
253,182,70401,1,2,0:0:0:0:
253,182,70589,1,0,0:0:0:0:
253,182,70776,1,0,0:0:0:0:
253,182,70870,1,0,0:0:0:0:
253,182,70964,1,2,0:0:0:0:
253,182,71151,1,2,0:0:0:0:
253,182,71339,1,0,0:0:0:0:
253,182,71432,1,0,0:0:0:0:
253,182,71526,1,0,0:0:0:0:
253,182,71714,1,2,0:0:0:0:
253,182,71901,1,0,0:0:0:0:
253,182,72089,1,2,0:0:0:0:
253,182,72182,1,2,0:0:0:0:
253,182,72276,1,0,0:0:0:0:
253,182,72464,1,2,0:0:0:0:
253,182,72651,1,0,0:0:0:0:
253,182,72745,1,0,0:0:0:0:
253,182,72839,1,2,0:0:0:0:
253,182,73214,1,6,0:0:0:0:
253,182,73589,1,2,0:0:0:0:
253,182,73776,1,0,0:0:0:0:
253,182,73870,1,0,0:0:0:0:
253,182,73964,1,2,0:0:0:0:
253,182,74151,1,2,0:0:0:0:
253,182,74339,1,0,0:0:0:0:
253,182,74526,1,2,0:0:0:0:
253,182,74714,1,2,0:0:0:0:
253,182,74901,1,0,0:0:0:0:
253,182,74995,1,2,0:0:0:0:
253,182,75089,1,2,0:0:0:0:
253,182,75276,1,0,0:0:0:0:
253,182,75464,1,2,0:0:0:0:
253,182,75651,1,2,0:0:0:0:
253,182,75745,1,0,0:0:0:0:
253,182,75839,1,0,0:0:0:0:
253,182,76026,1,0,0:0:0:0:
253,182,76214,1,2,0:0:0:0:
253,182,76401,1,2,0:0:0:0:
253,182,76495,1,0,0:0:0:0:
253,182,76589,1,2,0:0:0:0:
253,182,76776,1,2,0:0:0:0:
253,182,76964,1,0,0:0:0:0:
253,182,77151,1,2,0:0:0:0:
253,182,77245,1,2,0:0:0:0:
253,182,77339,1,0,0:0:0:0:
253,182,77526,1,2,0:0:0:0:
253,182,77714,1,0,0:0:0:0:
253,182,77901,1,0,0:0:0:0:
253,182,77995,1,0,0:0:0:0:
253,182,78089,1,2,0:0:0:0:
253,182,78276,1,0,0:0:0:0:
253,182,78464,1,2,0:0:0:0:
253,182,78557,1,2,0:0:0:0:
253,182,78651,1,0,0:0:0:0:
253,182,78839,1,2,0:0:0:0:
253,182,79214,1,2,0:0:0:0:
253,182,79401,1,0,0:0:0:0:
253,182,79589,1,2,0:0:0:0:
253,182,79682,1,0,0:0:0:0:
253,182,79776,1,0,0:0:0:0:
253,182,79964,1,2,0:0:0:0:
253,182,80151,1,2,0:0:0:0:
253,182,80245,1,0,0:0:0:0:
253,182,80339,1,2,0:0:0:0:
253,182,80526,1,0,0:0:0:0:
253,182,80714,1,2,0:0:0:0:
253,182,80901,1,0,0:0:0:0:
253,182,80995,1,2,0:0:0:0:
253,182,81089,1,2,0:0:0:0:
253,182,81276,1,0,0:0:0:0:
253,182,81464,1,2,0:0:0:0:
253,182,81557,1,0,0:0:0:0:
253,182,81651,1,2,0:0:0:0:
253,182,81839,1,0,0:0:0:0:
253,182,82026,1,0,0:0:0:0:
253,182,82214,1,2,0:0:0:0:
253,182,82401,1,2,0:0:0:0:
253,182,82589,1,0,0:0:0:0:
253,182,82682,1,0,0:0:0:0:
253,182,82776,1,2,0:0:0:0:
253,182,82964,1,2,0:0:0:0:
253,182,83151,1,0,0:0:0:0:
253,182,83245,1,2,0:0:0:0:
253,182,83339,1,2,0:0:0:0:
253,182,83526,1,2,0:0:0:0:
253,182,83714,1,0,0:0:0:0:
253,182,83807,1,0,0:0:0:0:
253,182,83901,1,0,0:0:0:0:
253,182,83995,1,0,0:0:0:0:
253,182,84089,1,2,0:0:0:0:
253,182,84276,1,0,0:0:0:0:
253,182,84464,1,2,0:0:0:0:
253,182,84839,1,6,0:0:0:0:
257,188,85026,1,0,0:0:0:0:
257,188,85214,1,2,0:0:0:0:
257,188,85401,1,0,0:0:0:0:
257,188,85589,1,2,0:0:0:0:
257,188,85776,1,2,0:0:0:0:
257,188,85870,1,0,0:0:0:0:
257,188,85964,1,2,0:0:0:0:
257,188,86151,1,0,0:0:0:0:
257,188,86339,1,2,0:0:0:0:
257,188,86526,1,0,0:0:0:0:
257,188,86620,1,0,0:0:0:0:
257,188,86714,1,2,0:0:0:0:
257,188,86901,1,0,0:0:0:0:
257,188,86995,1,0,0:0:0:0:
257,188,87089,1,2,0:0:0:0:
257,188,87276,1,0,0:0:0:0:
257,188,87464,1,2,0:0:0:0:
257,188,87839,1,2,0:0:0:0:
257,188,88026,1,0,0:0:0:0:
257,188,88214,1,2,0:0:0:0:
257,188,88401,1,0,0:0:0:0:
257,188,88589,1,2,0:0:0:0:
257,188,88776,1,0,0:0:0:0:
257,188,88870,1,0,0:0:0:0:
257,188,88964,1,2,0:0:0:0:
257,188,89151,1,0,0:0:0:0:
257,188,89339,1,2,0:0:0:0:
257,188,89526,1,2,0:0:0:0:
257,188,89620,1,0,0:0:0:0:
257,188,89714,1,2,0:0:0:0:
257,188,89901,1,2,0:0:0:0:
257,188,89995,1,0,0:0:0:0:
257,188,90089,1,2,0:0:0:0:
257,188,90276,1,0,0:0:0:0:
257,188,90464,1,2,0:0:0:0:
257,188,90839,1,2,0:0:0:0:
257,188,91026,1,0,0:0:0:0:
257,188,91214,1,2,0:0:0:0:
257,188,91401,1,0,0:0:0:0:
257,188,91589,1,2,0:0:0:0:
253,182,91682,1,2,0:0:0:0:
253,182,91776,1,0,0:0:0:0:
253,182,91964,1,2,0:0:0:0:
253,182,92151,1,0,0:0:0:0:
253,182,92339,1,2,0:0:0:0:
253,182,92526,1,0,0:0:0:0:
253,182,92620,1,0,0:0:0:0:
253,182,92714,1,2,0:0:0:0:
253,182,92901,1,0,0:0:0:0:
253,182,92995,1,0,0:0:0:0:
253,182,93089,1,2,0:0:0:0:
253,182,93276,1,0,0:0:0:0:
253,182,93464,1,2,0:0:0:0:
253,182,93839,1,2,0:0:0:0:
253,182,94026,1,2,0:0:0:0:
253,182,94214,1,0,0:0:0:0:
253,182,94401,1,0,0:0:0:0:
253,182,94589,1,2,0:0:0:0:
253,182,94776,1,0,0:0:0:0:
253,182,94870,1,0,0:0:0:0:
253,182,94964,1,2,0:0:0:0:
253,182,95151,1,0,0:0:0:0:
253,182,95339,1,2,0:0:0:0:
253,182,95432,1,2,0:0:0:0:
253,182,95526,1,0,0:0:0:0:
253,182,95620,1,0,0:0:0:0:
253,182,95714,1,2,0:0:0:0:
253,182,95901,1,0,0:0:0:0:
253,182,96089,1,2,0:0:0:0:
253,182,96182,1,0,0:0:0:0:
253,182,96370,1,0,0:0:0:0:
253,182,96464,1,2,0:0:0:0:
253,182,96651,1,0,0:0:0:0:
253,182,96839,1,6,0:0:0:0:
253,182,97214,1,2,0:0:0:0:
253,182,97589,1,0,0:0:0:0:
253,182,97870,1,2,0:0:0:0:
253,182,98151,1,2,0:0:0:0:
253,182,98714,1,2,0:0:0:0:
253,182,99089,1,2,0:0:0:0:
253,182,99370,1,0,0:0:0:0:
253,182,99651,1,0,0:0:0:0:
253,182,100214,1,2,0:0:0:0:
253,182,100589,1,2,0:0:0:0:
253,182,100870,1,2,0:0:0:0:
253,182,101151,1,0,0:0:0:0:
253,182,101714,1,2,0:0:0:0:
253,182,102089,1,0,0:0:0:0:
253,182,102464,1,2,0:0:0:0:
253,182,102839,1,2,0:0:0:0:
253,182,103214,1,2,0:0:0:0:
253,182,103401,1,0,0:0:0:0:
253,182,103589,1,2,0:0:0:0:
253,182,103682,1,0,0:0:0:0:
253,182,103870,1,2,0:0:0:0:
253,182,103964,1,2,0:0:0:0:
253,182,104151,1,0,0:0:0:0:
253,182,104526,1,0,0:0:0:0:
253,182,104714,1,2,0:0:0:0:
253,182,104901,1,0,0:0:0:0:
253,182,104995,1,0,0:0:0:0:
253,182,105089,1,2,0:0:0:0:
253,182,105182,1,0,0:0:0:0:
253,182,105370,1,0,0:0:0:0:
253,182,105464,1,2,0:0:0:0:
253,182,105651,1,0,0:0:0:0:
253,182,106026,1,0,0:0:0:0:
253,182,106214,1,2,0:0:0:0:
253,182,106401,1,2,0:0:0:0:
253,182,106589,1,0,0:0:0:0:
253,182,106682,1,0,0:0:0:0:
253,182,106870,1,2,0:0:0:0:
253,182,106964,1,2,0:0:0:0:
253,182,107151,1,2,0:0:0:0:
253,182,107339,1,0,0:0:0:0:
253,182,107432,1,0,0:0:0:0:
253,182,107526,1,2,0:0:0:0:
253,182,107714,1,2,0:0:0:0:
253,182,107901,1,2,0:0:0:0:
253,182,108089,1,0,0:0:0:0:
253,182,108276,1,0,0:0:0:0:
253,182,108370,1,0,0:0:0:0:
253,182,108464,1,2,0:0:0:0:
253,182,108651,1,0,0:0:0:0:
253,182,108839,1,6,0:0:0:0:
253,182,109214,1,0,0:0:0:0:
253,182,109401,1,2,0:0:0:0:
253,182,109589,1,2,0:0:0:0:
253,182,109964,1,0,0:0:0:0:
253,182,110151,1,2,0:0:0:0:
253,182,110339,1,0,0:0:0:0:
253,182,110526,1,2,0:0:0:0:
253,182,110620,1,0,0:0:0:0:
253,182,110714,1,2,0:0:0:0:
253,182,110901,1,0,0:0:0:0:
253,182,111089,1,2,0:0:0:0:
253,182,111464,1,0,0:0:0:0:
253,182,111651,1,0,0:0:0:0:
253,182,111839,1,2,0:0:0:0:
253,182,112214,1,0,0:0:0:0:
253,182,112401,1,2,0:0:0:0:
253,182,112589,1,2,0:0:0:0:
253,182,112776,1,0,0:0:0:0:
253,182,112964,1,0,0:0:0:0:
253,182,113151,1,2,0:0:0:0:
253,182,113339,1,0,0:0:0:0:
253,182,113526,1,2,0:0:0:0:
253,182,113620,1,0,0:0:0:0:
253,182,113714,1,2,0:0:0:0:
253,182,113901,1,0,0:0:0:0:
253,182,114089,1,2,0:0:0:0:
253,182,114276,1,2,0:0:0:0:
253,182,114464,1,0,0:0:0:0:
253,182,114839,1,2,0:0:0:0:
253,182,115026,1,2,0:0:0:0:
253,182,115214,1,0,0:0:0:0:
253,182,115401,1,0,0:0:0:0:
253,182,115589,1,2,0:0:0:0:
253,182,116151,1,0,0:0:0:0:
253,182,116339,1,2,0:0:0:0:
253,182,116526,1,0,0:0:0:0:
253,182,116714,1,0,0:0:0:0:
253,182,116901,1,2,0:0:0:0:
253,182,117089,1,2,0:0:0:0:
253,182,117651,1,0,0:0:0:0:
253,182,117839,1,2,0:0:0:0:
253,182,118026,1,2,0:0:0:0:
253,182,118214,1,0,0:0:0:0:
253,182,118307,1,2,0:0:0:0:
253,182,118401,1,0,0:0:0:0:
253,182,118589,1,2,0:0:0:0:
253,182,118682,1,2,0:0:0:0:
253,182,118776,1,0,0:0:0:0:
253,182,118870,1,0,0:0:0:0:
253,182,118964,1,2,0:0:0:0:
253,182,119151,1,0,0:0:0:0:
253,182,119339,1,2,0:0:0:0:
253,182,119432,1,0,0:0:0:0:
253,182,119620,1,0,0:0:0:0:
253,182,119714,1,2,0:0:0:0:
253,182,119901,1,0,0:0:0:0:
253,182,120089,1,2,0:0:0:0:
253,182,120464,1,4,0:0:0:0:
253,182,120839,1,6,0:0:0:0:
253,182,121214,1,2,0:0:0:0:
253,182,121401,1,0,0:0:0:0:
253,182,121589,1,2,0:0:0:0:
253,182,121682,1,0,0:0:0:0:
253,182,121870,1,0,0:0:0:0:
253,182,121964,1,2,0:0:0:0:
253,182,122151,1,2,0:0:0:0:
253,182,122339,1,0,0:0:0:0:
253,182,122526,1,0,0:0:0:0:
253,182,122620,1,2,0:0:0:0:
253,182,122714,1,2,0:0:0:0:
253,182,122901,1,2,0:0:0:0:
253,182,123089,1,0,0:0:0:0:
253,182,123276,1,2,0:0:0:0:
253,182,123370,1,0,0:0:0:0:
253,182,123464,1,2,0:0:0:0:
253,182,123651,1,0,0:0:0:0:
253,182,123839,1,0,0:0:0:0:
253,182,124026,1,2,0:0:0:0:
253,182,124120,1,0,0:0:0:0:
253,182,124214,1,2,0:0:0:0:
253,182,124401,1,2,0:0:0:0:
253,182,124589,1,0,0:0:0:0:
253,182,124776,1,2,0:0:0:0:
253,182,124870,1,2,0:0:0:0:
253,182,124964,1,0,0:0:0:0:
253,182,125151,1,2,0:0:0:0:
253,182,125339,1,0,0:0:0:0:
253,182,125526,1,0,0:0:0:0:
253,182,125620,1,0,0:0:0:0:
253,182,125714,1,2,0:0:0:0:
253,182,125901,1,0,0:0:0:0:
253,182,126089,1,2,0:0:0:0:
253,182,126276,1,0,0:0:0:0:
253,182,126370,1,0,0:0:0:0:
253,182,126464,1,2,0:0:0:0:
253,182,126651,1,0,0:0:0:0:
253,182,126839,1,2,0:0:0:0:
253,182,127214,1,2,0:0:0:0:
253,182,127401,1,0,0:0:0:0:
253,182,127589,1,2,0:0:0:0:
253,182,127682,1,2,0:0:0:0:
253,182,127870,1,0,0:0:0:0:
253,182,127964,1,0,0:0:0:0:
253,182,128151,1,2,0:0:0:0:
253,182,128339,1,0,0:0:0:0:
253,182,128432,1,0,0:0:0:0:
253,182,128526,1,2,0:0:0:0:
253,182,128714,1,2,0:0:0:0:
253,182,128901,1,2,0:0:0:0:
253,182,128995,1,2,0:0:0:0:
253,182,129089,1,0,0:0:0:0:
253,182,129276,1,0,0:0:0:0:
253,182,129464,1,2,0:0:0:0:
253,182,129651,1,0,0:0:0:0:
253,182,129839,1,2,0:0:0:0:
253,182,130026,1,0,0:0:0:0:
253,182,130120,1,2,0:0:0:0:
253,182,130214,1,2,0:0:0:0:
253,182,130401,1,2,0:0:0:0:
253,182,130589,1,0,0:0:0:0:
253,182,130776,1,0,0:0:0:0:
253,182,130870,1,0,0:0:0:0:
253,182,130964,1,2,0:0:0:0:
253,182,131151,1,2,0:0:0:0:
253,182,131339,1,0,0:0:0:0:
253,182,131432,1,0,0:0:0:0:
253,182,131526,1,0,0:0:0:0:
253,182,131714,1,2,0:0:0:0:
253,182,131901,1,0,0:0:0:0:
253,182,132089,1,2,0:0:0:0:
253,182,132182,1,2,0:0:0:0:
253,182,132276,1,0,0:0:0:0:
253,182,132464,1,2,0:0:0:0:
253,182,132651,1,0,0:0:0:0:
253,182,132745,1,0,0:0:0:0:
253,182,132839,1,2,0:0:0:0:
253,182,133214,1,6,0:0:0:0:
253,182,133589,1,2,0:0:0:0:
253,182,133776,1,0,0:0:0:0:
253,182,133870,1,0,0:0:0:0:
253,182,133964,1,2,0:0:0:0:
253,182,134151,1,2,0:0:0:0:
253,182,134339,1,0,0:0:0:0:
253,182,134526,1,2,0:0:0:0:
253,182,134714,1,2,0:0:0:0:
253,182,134901,1,0,0:0:0:0:
253,182,134995,1,2,0:0:0:0:
253,182,135089,1,2,0:0:0:0:
253,182,135276,1,0,0:0:0:0:
253,182,135464,1,2,0:0:0:0:
253,182,135651,1,2,0:0:0:0:
253,182,135745,1,0,0:0:0:0:
253,182,135839,1,0,0:0:0:0:
253,182,136026,1,0,0:0:0:0:
253,182,136214,1,2,0:0:0:0:
253,182,136401,1,2,0:0:0:0:
253,182,136495,1,0,0:0:0:0:
253,182,136589,1,2,0:0:0:0:
253,182,136776,1,2,0:0:0:0:
253,182,136964,1,0,0:0:0:0:
253,182,137151,1,2,0:0:0:0:
253,182,137245,1,2,0:0:0:0:
253,182,137339,1,0,0:0:0:0:
253,182,137526,1,2,0:0:0:0:
253,182,137714,1,0,0:0:0:0:
253,182,137901,1,0,0:0:0:0:
253,182,137995,1,0,0:0:0:0:
253,182,138089,1,2,0:0:0:0:
253,182,138276,1,0,0:0:0:0:
253,182,138464,1,2,0:0:0:0:
253,182,138557,1,2,0:0:0:0:
253,182,138651,1,0,0:0:0:0:
253,182,138839,1,2,0:0:0:0:
253,182,139214,1,2,0:0:0:0:
253,182,139401,1,0,0:0:0:0:
253,182,139589,1,2,0:0:0:0:
253,182,139682,1,0,0:0:0:0:
253,182,139776,1,0,0:0:0:0:
253,182,139964,1,2,0:0:0:0:
253,182,140151,1,2,0:0:0:0:
253,182,140245,1,0,0:0:0:0:
253,182,140339,1,2,0:0:0:0:
253,182,140526,1,0,0:0:0:0:
253,182,140714,1,2,0:0:0:0:
253,182,140901,1,0,0:0:0:0:
253,182,140995,1,2,0:0:0:0:
253,182,141089,1,2,0:0:0:0:
253,182,141276,1,0,0:0:0:0:
253,182,141464,1,2,0:0:0:0:
253,182,141557,1,0,0:0:0:0:
253,182,141651,1,2,0:0:0:0:
253,182,141839,1,0,0:0:0:0:
253,182,142026,1,0,0:0:0:0:
253,182,142214,1,2,0:0:0:0:
253,182,142401,1,2,0:0:0:0:
253,182,142589,1,0,0:0:0:0:
253,182,142682,1,0,0:0:0:0:
253,182,142776,1,2,0:0:0:0:
253,182,142964,1,2,0:0:0:0:
253,182,143151,1,0,0:0:0:0:
253,182,143245,1,2,0:0:0:0:
253,182,143339,1,2,0:0:0:0:
253,182,143526,1,2,0:0:0:0:
253,182,143714,1,0,0:0:0:0:
253,182,143807,1,0,0:0:0:0:
253,182,143901,1,0,0:0:0:0:
253,182,143995,1,0,0:0:0:0:
253,182,144089,1,2,0:0:0:0:
253,182,144276,1,0,0:0:0:0:
253,182,144464,1,2,0:0:0:0:
253,182,144839,1,4,0:0:0:0:
253,182,145120,1,0,0:0:0:0:
253,182,145214,1,2,0:0:0:0:
253,182,145401,1,0,0:0:0:0:
253,182,145589,1,2,0:0:0:0:
253,182,145870,1,0,0:0:0:0:
253,182,145964,1,2,0:0:0:0:
253,182,146151,1,0,0:0:0:0:
253,182,146245,1,2,0:0:0:0:
253,182,146339,1,2,0:0:0:0:
253,182,146620,1,0,0:0:0:0:
253,182,146714,1,2,0:0:0:0:
253,182,146901,1,0,0:0:0:0:
253,182,147089,1,2,0:0:0:0:
253,182,147276,1,0,0:0:0:0:
253,182,147370,1,0,0:0:0:0:
253,182,147464,1,2,0:0:0:0:
253,182,147651,1,0,0:0:0:0:
253,182,147839,1,2,0:0:0:0:
253,182,148026,1,0,0:0:0:0:
253,182,148214,1,2,0:0:0:0:
253,182,148307,1,0,0:0:0:0:
253,182,148401,1,2,0:0:0:0:
253,182,148589,1,0,0:0:0:0:
253,182,148776,1,2,0:0:0:0:
253,182,148870,1,0,0:0:0:0:
253,182,148964,1,2,0:0:0:0:
253,182,149151,1,0,0:0:0:0:
253,182,149339,1,2,0:0:0:0:
253,182,149526,1,2,0:0:0:0:
253,182,149620,1,2,0:0:0:0:
253,182,149714,1,0,0:0:0:0:
253,182,149901,1,0,0:0:0:0:
253,182,150089,1,2,0:0:0:0:
253,182,150276,1,0,0:0:0:0:
253,182,150464,1,2,0:0:0:0:
253,182,150839,1,2,0:0:0:0:
253,182,151026,1,0,0:0:0:0:
253,182,151120,1,2,0:0:0:0:
253,182,151214,1,2,0:0:0:0:
253,182,151401,1,0,0:0:0:0:
253,182,151495,1,2,0:0:0:0:
253,182,151682,1,2,0:0:0:0:
253,182,151776,1,0,0:0:0:0:
253,182,151964,1,2,0:0:0:0:
253,182,152151,1,0,0:0:0:0:
253,182,152339,1,2,0:0:0:0:
253,182,152526,1,0,0:0:0:0:
253,182,152620,1,0,0:0:0:0:
253,182,152714,1,2,0:0:0:0:
253,182,152901,1,0,0:0:0:0:
253,182,153089,1,2,0:0:0:0:
253,182,153182,1,2,0:0:0:0:
253,182,153276,1,0,0:0:0:0:
253,182,153464,1,2,0:0:0:0:
253,182,153651,1,0,0:0:0:0:
253,182,153839,1,2,0:0:0:0:
253,182,154214,1,2,0:0:0:0:
253,182,154401,1,2,0:0:0:0:
253,182,154495,1,0,0:0:0:0:
253,182,154589,1,2,0:0:0:0:
253,182,154776,1,0,0:0:0:0:
253,182,154964,1,2,0:0:0:0:
253,182,155151,1,0,0:0:0:0:
253,182,155339,1,2,0:0:0:0:
253,182,155432,1,2,0:0:0:0:
253,182,155526,1,0,0:0:0:0:
253,182,155620,1,0,0:0:0:0:
253,182,155714,1,2,0:0:0:0:
253,182,155901,1,0,0:0:0:0:
253,182,156089,1,2,0:0:0:0:
253,182,156276,1,0,0:0:0:0:
253,182,156370,1,0,0:0:0:0:
253,182,156464,1,2,0:0:0:0:
253,182,156651,1,0,0:0:0:0:
253,182,156839,1,6,0:0:0:0:
253,182,157214,1,2,0:0:0:0:
253,182,157589,1,0,0:0:0:0:
253,182,157776,1,0,0:0:0:0:
253,182,157964,1,2,0:0:0:0:
253,182,158339,1,0,0:0:0:0:
253,182,158714,1,2,0:0:0:0:
253,182,158901,1,2,0:0:0:0:
253,182,159089,1,0,0:0:0:0:
253,182,159276,1,0,0:0:0:0:
253,182,159464,1,2,0:0:0:0:
253,182,159839,1,0,0:0:0:0:
253,182,160214,1,2,0:0:0:0:
253,182,160589,1,0,0:0:0:0:
253,182,160776,1,0,0:0:0:0:
253,182,160964,1,2,0:0:0:0:
253,182,161339,1,0,0:0:0:0:
253,182,161714,1,2,0:0:0:0:
253,182,162089,1,0,0:0:0:0:
253,182,162276,1,2,0:0:0:0:
253,182,162464,1,2,0:0:0:0:
253,182,162651,1,0,0:0:0:0:
253,182,162839,1,0,0:0:0:0:
253,182,163120,1,0,0:0:0:0:
253,182,163214,1,2,0:0:0:0:
253,182,163401,1,0,0:0:0:0:
253,182,163589,1,2,0:0:0:0:
253,182,163776,1,0,0:0:0:0:
253,182,163870,1,0,0:0:0:0:
253,182,163964,1,2,0:0:0:0:
253,182,164151,1,0,0:0:0:0:
253,182,164339,1,2,0:0:0:0:
253,182,164620,1,0,0:0:0:0:
253,182,164714,1,2,0:0:0:0:
253,182,164901,1,0,0:0:0:0:
253,182,164995,1,0,0:0:0:0:
253,182,165089,1,2,0:0:0:0:
253,182,165276,1,0,0:0:0:0:
253,182,165464,1,2,0:0:0:0:
253,182,165839,1,2,0:0:0:0:
253,182,166026,1,2,0:0:0:0:
253,182,166214,1,0,0:0:0:0:
253,182,166401,1,0,0:0:0:0:
253,182,166589,1,2,0:0:0:0:
253,182,166776,1,0,0:0:0:0:
253,182,166964,1,2,0:0:0:0:
253,182,167151,1,0,0:0:0:0:
253,182,167339,1,2,0:0:0:0:
253,182,167526,1,0,0:0:0:0:
253,182,167620,1,0,0:0:0:0:
253,182,167714,1,2,0:0:0:0:
253,182,167901,1,0,0:0:0:0:
253,182,168089,1,2,0:0:0:0:
253,182,168182,1,2,0:0:0:0:
253,182,168276,1,0,0:0:0:0:
253,182,168370,1,0,0:0:0:0:
253,182,168464,1,2,0:0:0:0:
253,182,168651,1,0,0:0:0:0:
253,182,168839,1,2,0:0:0:0:
256,200,169214,1,2,0:0:0:0:
256,200,169401,1,2,0:0:0:0:
256,200,169589,1,0,0:0:0:0:
256,200,169776,1,2,0:0:0:0:
256,200,170151,1,0,0:0:0:0:
256,200,170526,1,2,0:0:0:0:
256,200,170714,1,0,0:0:0:0:
256,200,170901,1,2,0:0:0:0:
256,200,171276,1,0,0:0:0:0:
256,200,171464,1,0,0:0:0:0:
256,200,171651,1,2,0:0:0:0:
256,200,172026,1,0,0:0:0:0:
256,200,172214,1,2,0:0:0:0:
256,200,172401,1,2,0:0:0:0:
256,200,172776,1,0,0:0:0:0:
256,200,172964,1,2,0:0:0:0:
256,200,173151,1,0,0:0:0:0:
256,200,173526,1,2,0:0:0:0:
256,200,173714,1,2,0:0:0:0:
256,200,173901,1,0,0:0:0:0:
256,200,174089,1,0,0:0:0:0:
256,200,174276,1,2,0:0:0:0:
256,200,174464,1,2,0:0:0:0:
256,200,174651,1,0,0:0:0:0:
256,200,174839,1,2,0:0:0:0:
256,200,175214,1,2,0:0:0:0:
256,200,175401,1,2,0:0:0:0:
256,200,175589,1,0,0:0:0:0:
256,200,175776,1,0,0:0:0:0:
256,200,175964,1,0,0:0:0:0:
256,200,176151,1,2,0:0:0:0:
256,200,176526,1,0,0:0:0:0:
256,200,176714,1,2,0:0:0:0:
256,200,176901,1,2,0:0:0:0:
256,200,177089,1,0,0:0:0:0:
256,200,177276,1,2,0:0:0:0:
256,200,177464,1,2,0:0:0:0:
256,200,177651,1,2,0:0:0:0:
256,200,177839,1,0,0:0:0:0:
256,200,178026,1,0,0:0:0:0:
256,200,178214,1,2,0:0:0:0:
256,200,178401,1,0,0:0:0:0:
256,200,178589,1,2,0:0:0:0:
256,200,178776,1,2,0:0:0:0:
256,200,178964,1,0,0:0:0:0:
256,200,179151,1,2,0:0:0:0:
256,200,179339,1,0,0:0:0:0:
256,200,179432,1,0,0:0:0:0:
256,200,179526,1,2,0:0:0:0:
256,200,179714,1,2,0:0:0:0:
256,200,179901,1,0,0:0:0:0:
256,200,179995,1,2,0:0:0:0:
256,200,180182,1,2,0:0:0:0:
256,200,180276,1,0,0:0:0:0:
256,200,180464,1,2,0:0:0:0:
256,200,180557,1,0,0:0:0:0:
256,200,180651,1,0,0:0:0:0:
256,200,180745,1,0,0:0:0:0:
256,200,180839,1,2,0:0:0:0:
256,200,181214,1,6,0:0:0:0:
256,200,181589,1,2,0:0:0:0:
256,200,181682,1,0,0:0:0:0:
256,200,181870,1,0,0:0:0:0:
256,200,181964,1,2,0:0:0:0:
256,200,182151,1,0,0:0:0:0:
256,200,182339,1,2,0:0:0:0:
256,200,182432,1,2,0:0:0:0:
256,200,182526,1,0,0:0:0:0:
256,200,182714,1,2,0:0:0:0:
256,200,182901,1,0,0:0:0:0:
256,200,182995,1,2,0:0:0:0:
256,200,183089,1,2,0:0:0:0:
256,200,183276,1,0,0:0:0:0:
256,200,183464,1,2,0:0:0:0:
256,200,183651,1,2,0:0:0:0:
256,200,183745,1,2,0:0:0:0:
256,200,183839,1,0,0:0:0:0:
256,200,184026,1,0,0:0:0:0:
256,200,184214,1,2,0:0:0:0:
256,200,184401,1,2,0:0:0:0:
256,200,184495,1,0,0:0:0:0:
256,200,184589,1,2,0:0:0:0:
256,200,184776,1,0,0:0:0:0:
256,200,184964,1,2,0:0:0:0:
256,200,185151,1,2,0:0:0:0:
256,200,185339,1,0,0:0:0:0:
256,200,185526,1,2,0:0:0:0:
256,200,185620,1,2,0:0:0:0:
256,200,185714,1,0,0:0:0:0:
256,200,185901,1,2,0:0:0:0:
256,200,186089,1,0,0:0:0:0:
256,200,186276,1,2,0:0:0:0:
256,200,186370,1,0,0:0:0:0:
256,200,186464,1,2,0:0:0:0:
256,200,186651,1,0,0:0:0:0:
256,200,186839,1,2,0:0:0:0:
256,200,187214,1,2,0:0:0:0:
256,200,187401,1,0,0:0:0:0:
256,200,187589,1,2,0:0:0:0:
256,200,187682,1,0,0:0:0:0:
256,200,187776,1,0,0:0:0:0:
256,200,187964,1,2,0:0:0:0:
256,200,188151,1,2,0:0:0:0:
256,200,188339,1,0,0:0:0:0:
256,200,188526,1,2,0:0:0:0:
256,200,188620,1,0,0:0:0:0:
256,200,188714,1,2,0:0:0:0:
256,200,188901,1,2,0:0:0:0:
256,200,189089,1,0,0:0:0:0:
256,200,189276,1,2,0:0:0:0:
256,200,189464,1,2,0:0:0:0:
256,200,189557,1,0,0:0:0:0:
256,200,189651,1,0,0:0:0:0:
256,200,189839,1,0,0:0:0:0:
256,200,190026,1,2,0:0:0:0:
256,200,190120,1,2,0:0:0:0:
256,200,190214,1,2,0:0:0:0:
256,200,190401,1,0,0:0:0:0:
256,200,190589,1,2,0:0:0:0:
256,200,190682,1,2,0:0:0:0:
256,200,190776,1,0,0:0:0:0:
256,200,190870,1,0,0:0:0:0:
256,200,190964,1,2,0:0:0:0:
256,200,191151,1,0,0:0:0:0:
256,200,191339,1,0,0:0:0:0:
256,200,191432,1,0,0:0:0:0:
256,200,191526,1,0,0:0:0:0:
256,200,191620,1,0,0:0:0:0:
256,200,191714,1,2,0:0:0:0:
256,200,191901,1,0,0:0:0:0:
256,200,192089,1,2,0:0:0:0:
256,200,192276,1,0,0:0:0:0:
256,200,192370,1,0,0:0:0:0:
256,200,192464,1,2,0:0:0:0:
256,200,192839,1,6,0:0:0:0:
257,188,193026,1,0,0:0:0:0:
257,188,193214,1,2,0:0:0:0:
257,188,193401,1,0,0:0:0:0:
257,188,193589,1,2,0:0:0:0:
257,188,193776,1,2,0:0:0:0:
257,188,193870,1,0,0:0:0:0:
257,188,193964,1,2,0:0:0:0:
257,188,194151,1,0,0:0:0:0:
257,188,194339,1,2,0:0:0:0:
257,188,194526,1,0,0:0:0:0:
257,188,194620,1,0,0:0:0:0:
257,188,194714,1,2,0:0:0:0:
257,188,194901,1,0,0:0:0:0:
257,188,194995,1,0,0:0:0:0:
257,188,195089,1,2,0:0:0:0:
257,188,195276,1,0,0:0:0:0:
257,188,195464,1,2,0:0:0:0:
257,188,195839,1,2,0:0:0:0:
257,188,196026,1,0,0:0:0:0:
257,188,196214,1,2,0:0:0:0:
257,188,196401,1,0,0:0:0:0:
257,188,196589,1,2,0:0:0:0:
257,188,196776,1,0,0:0:0:0:
257,188,196870,1,0,0:0:0:0:
257,188,196964,1,2,0:0:0:0:
257,188,197151,1,0,0:0:0:0:
257,188,197339,1,2,0:0:0:0:
257,188,197526,1,2,0:0:0:0:
257,188,197620,1,0,0:0:0:0:
257,188,197714,1,2,0:0:0:0:
257,188,197901,1,2,0:0:0:0:
257,188,197995,1,0,0:0:0:0:
257,188,198089,1,2,0:0:0:0:
257,188,198276,1,0,0:0:0:0:
257,188,198464,1,2,0:0:0:0:
257,188,198839,1,2,0:0:0:0:
257,188,199026,1,0,0:0:0:0:
257,188,199214,1,2,0:0:0:0:
257,188,199401,1,0,0:0:0:0:
257,188,199589,1,2,0:0:0:0:
253,182,199682,1,2,0:0:0:0:
253,182,199776,1,0,0:0:0:0:
253,182,199964,1,2,0:0:0:0:
253,182,200151,1,0,0:0:0:0:
253,182,200339,1,2,0:0:0:0:
253,182,200526,1,0,0:0:0:0:
253,182,200620,1,0,0:0:0:0:
253,182,200714,1,2,0:0:0:0:
253,182,200901,1,0,0:0:0:0:
253,182,200995,1,0,0:0:0:0:
253,182,201089,1,2,0:0:0:0:
253,182,201276,1,0,0:0:0:0:
253,182,201464,1,2,0:0:0:0:
253,182,201839,1,2,0:0:0:0:
253,182,202026,1,2,0:0:0:0:
253,182,202214,1,0,0:0:0:0:
253,182,202401,1,0,0:0:0:0:
253,182,202589,1,2,0:0:0:0:
253,182,202776,1,0,0:0:0:0:
253,182,202870,1,0,0:0:0:0:
253,182,202964,1,2,0:0:0:0:
253,182,203151,1,0,0:0:0:0:
253,182,203339,1,2,0:0:0:0:
253,182,203432,1,2,0:0:0:0:
253,182,203526,1,0,0:0:0:0:
253,182,203620,1,0,0:0:0:0:
253,182,203714,1,2,0:0:0:0:
253,182,203901,1,0,0:0:0:0:
253,182,204089,1,2,0:0:0:0:
253,182,204276,1,0,0:0:0:0:
253,182,204370,1,0,0:0:0:0:
253,182,204464,1,2,0:0:0:0:
253,182,204651,1,0,0:0:0:0:
