osu file format v14

[General]
AudioFilename: audio.mp3
AudioLeadIn: 0
PreviewTime: 60370
Countdown: 0
SampleSet: Normal
StackLeniency: 0.7
Mode: 1
LetterboxInBreaks: 0
WidescreenStoryboard: 0

[Editor]
Bookmarks: 839,6839,12839,24839,36839,48839,54839,60839,66839,78839,84839,96839,102839,108839,114839,120839,126839,138839,150839,156839,162839,168839,174839,186839
DistanceSpacing: 0.8
BeatDivisor: 4
GridSize: 32
TimelineZoom: 1.3

[Metadata]
Title:Digital Life Hacker
TitleUnicode:Digital Life Hacker
Artist:wotoha
ArtistUnicode:をとは
Creator:BlackBN
Version:Digital Oni
Source:
Tags:BlackBq mappers' guild mg mpg featured artist fa electronic japanese jpop j-pop ଳ 海月ねう mitukineu jelly girl ネコハッカー neko hacker nnzn チョモランマ服部 chomolungma 歌衣メイカ meikahaotoko 先端恐怖症 sentankyofusho さえきやひろ saekiyahiro ユニ yuni パリィ paryi irone_osu
BeatmapID:3116122
BeatmapSetID:1522733

[Difficulty]
HPDrainRate:6
CircleSize:2
OverallDifficulty:6
ApproachRate:10
SliderMultiplier:1.4
SliderTickRate:1

[Events]
//Background and Video events
0,0,"bg.jpg",0,-20
Video,-85,"digital.mp4"
//Break Periods
//Storyboard Layer 0 (Background)
//Storyboard Layer 1 (Fail)
//Storyboard Layer 2 (Pass)
//Storyboard Layer 3 (Foreground)
//Storyboard Layer 4 (Overlay)
//Storyboard Sound Samples

[TimingPoints]
839,375,4,1,0,60,1,0
839,-111.111111111111,4,1,0,60,0,0
6464,-109.89010989011,4,1,0,60,0,0
6557,-108.695652173913,4,1,0,60,0,0
6651,-107.52688172043,4,1,0,60,0,0
6792,-105.263157894737,4,1,0,65,0,0
9089,-104.166666666667,4,1,0,65,0,0
9276,-103.092783505155,4,1,0,65,0,0
9464,-102.040816326531,4,1,0,65,0,0
9792,-100,4,1,0,70,0,0
10026,-99.5670823260463,4,1,0,70,0,0
10214,-99.1378968490011,4,1,0,70,0,0
10307,-98.9246886345425,4,1,0,70,0,0
10401,-98.7124929543958,4,1,0,70,0,0
10589,-98.2906276937775,4,1,0,70,0,0
10776,-97.8723529198748,4,1,0,70,0,0
10964,-97.4576229890838,4,1,0,70,0,0
11057,-97.2515732873268,4,1,0,70,0,0
11151,-97.0463930281871,4,1,0,70,0,0
11339,-96.6386189181693,4,1,0,70,0,0
11432,-96.4360142223834,4,1,0,70,0,0
11526,-96.2343498888493,4,1,0,70,0,0
11620,-96.0334350007299,4,1,0,70,0,0
11714,-95.8333572916727,4,1,0,70,0,0
11807,-95.634111539977,4,1,0,70,0,0
11901,-95.4356925672774,4,1,0,70,0,0
11995,-95.2380952380952,4,1,0,70,0,0
12792,-100,4,1,0,80,0,0
14339,-95.2380952380952,4,1,0,80,0,0
15839,-100,4,1,0,80,0,0
20339,-95.2380952380952,4,1,0,80,0,0
21839,-100,4,1,0,80,0,0
22026,-100.627310654621,4,1,0,80,0,0
22120,-100.943926658181,4,1,0,80,0,0
22214,-101.262541365748,4,1,0,80,0,0
22401,-101.905739229328,4,1,0,80,0,0
22589,-102.557265413075,4,1,0,80,0,0
22682,-102.886162634215,4,1,0,80,0,0
22776,-103.217176163851,4,1,0,80,0,0
22870,-103.550326494179,4,1,0,80,0,0
22964,-103.885634382821,4,1,0,80,0,0
23151,-104.562697884906,4,1,0,80,0,0
23339,-105.248755433467,4,1,0,80,0,0
23432,-105.595171344005,4,1,0,80,0,0
23526,-105.943875172689,4,1,0,80,0,0
23620,-106.29488966059,4,1,0,80,0,0
23714,-106.648237851166,4,1,0,80,0,0
23807,-107.003943095303,4,1,0,80,0,0
23901,-107.36191379053,4,1,0,80,0,0
23995,-107.722403674627,4,1,0,80,0,0
24089,-108.085322553624,4,1,0,80,0,0
24182,-108.450695060505,4,1,0,80,0,0
24276,-108.81854616246,4,1,0,80,0,0
24370,-109.188901166574,4,1,0,80,0,0
24464,-109.561785725633,4,1,0,80,0,0
24557,-109.937225844043,4,1,0,80,0,0
24651,-110.315126189473,4,1,0,80,0,0
24792,-100,4,1,0,70,0,0
24839,-111.079021615978,4,1,0,70,0,0
24885,-111.111111111111,4,1,0,60,0,0
35714,-111.111111111111,4,1,0,60,0,0
36089,-107.16930499634,4,1,0,60,0,0
36276,-105.301398929085,4,1,0,60,0,0
36464,-103.497490703338,4,1,0,60,0,0
36792,-100,4,1,0,70,0,0
47339,-100,4,1,0,70,0,0
47432,-100.311869602594,4,1,0,70,0,0
47526,-100.625690543801,4,1,0,70,0,0
47620,-100.941379303383,4,1,0,70,0,0
47714,-101.259157625068,4,1,0,70,0,0
47901,-101.900754778891,4,1,0,70,0,0
47995,-102.224612006485,4,1,0,70,0,0
48089,-102.550429173546,4,1,0,70,0,0
48182,-102.87843575396,4,1,0,70,0,0
48276,-103.208547319055,4,1,0,70,0,0
48370,-103.540784197191,4,1,0,70,0,0
48464,-103.875166979331,4,1,0,70,0,0
48557,-104.211716523289,4,1,0,70,0,0
48651,-104.550344650211,4,1,0,70,0,0
48839,-105.23446765566,4,1,0,70,0,0
54276,-103.896103896104,4,1,0,70,0,0
54464,-102.564102564103,4,1,0,70,0,0
54651,-101.26582278481,4,1,0,70,0,0
54792,-100,4,1,0,75,0,0
55120,-99.2039872066538,4,1,0,75,0,0
55214,-98.9415235807333,4,1,0,75,0,0
55401,-98.4205470607688,4,1,0,75,0,0
55495,-98.1622071575955,4,1,0,75,0,0
55589,-97.9051240604779,4,1,0,75,0,0
55682,-97.6494793818007,4,1,0,75,0,0
55870,-97.1419856404717,4,1,0,75,0,0
55964,-96.8903056404692,4,1,0,75,0,0
56151,-96.3907449462332,4,1,0,75,0,0
56339,-95.8963092387463,4,1,0,75,0,0
56432,-95.6509429269954,4,1,0,75,0,0
56526,-95.4068290300083,4,1,0,75,0,0
56714,-94.9224104217213,4,1,0,75,0,0
56901,-94.4428861368232,4,1,0,75,0,0
56995,-94.2048918716251,4,1,0,75,0,0
57089,-93.9681823734484,4,1,0,75,0,0
57182,-93.7325715999681,4,1,0,75,0,0
57370,-93.2649638971325,4,1,0,75,0,0
57464,-93.0328619978435,4,1,0,75,0,0
57651,-92.5721924242621,4,1,0,75,0,0
57839,-92.1160625541758,4,1,0,75,0,0
58026,-91.6644056113283,4,1,0,75,0,0
58120,-91.4401921707079,4,1,0,75,0,0
58214,-91.2171561227236,4,1,0,75,0,0
58401,-90.7742498869861,4,1,0,75,0,0
58495,-90.5543647656589,4,1,0,75,0,0
58589,-90.335542338462,4,1,0,75,0,0
58682,-90.1178561322498,4,1,0,75,0,0
58776,-89.9011357210476,4,1,0,75,0,0
58870,-89.6855356065029,4,1,0,75,0,0
58964,-89.4708870680569,4,1,0,75,0,0
59151,-89.0447369662992,4,1,0,75,0,0
59339,-88.6226271291586,4,1,0,75,0,0
59432,-88.4130303124074,4,1,0,75,0,0
59526,-88.2044225697476,4,1,0,75,0,0
59620,-87.9968743510231,4,1,0,75,0,0
59714,-87.79022350513,4,1,0,75,0,0
59807,-87.5846176887646,4,1,0,75,0,0
59901,-87.379896332491,4,1,0,75,0,0
59995,-87.1761297808479,4,1,0,75,0,0
60089,-86.9733870133078,4,1,0,75,0,0
60792,-90.9090909090909,4,1,0,85,0,0
60839,-90.9090909090909,4,1,0,85,0,1
71339,-90.9090909090909,4,1,0,85,0,1
71432,-90.3980951313394,4,1,0,85,0,1
71526,-89.8928926184451,4,1,0,85,0,1
71620,-89.3932256025774,4,1,0,85,0,1
71714,-88.8991616809054,4,1,0,85,0,1
71807,-88.4104508225708,4,1,0,85,0,1
71901,-87.9270838279232,4,1,0,85,0,1
71995,-87.4490499972454,4,1,0,85,0,1
72089,-86.9761102717917,4,1,0,85,0,1
72151,-86.6636738811286,4,1,0,85,0,1
72214,-86.3534741297944,4,1,0,85,0,1
72276,-86.0454870862933,4,1,0,85,0,1
72370,-85.5875672076372,4,1,0,85,0,1
72464,-85.1345679548378,4,1,0,85,0,1
72526,-84.8351991421465,4,1,0,85,0,1
72589,-84.5378568976974,4,1,0,85,0,1
72651,-84.2426626746877,4,1,0,85,0,1
72745,-83.8037517263573,4,1,0,85,0,1
72839,-83.3693210902706,4,1,0,85,0,0
72885,-100,4,1,0,45,0,0
73167,-100,4,1,0,85,0,0
73214,-83.3333333333333,4,1,0,85,0,1
73401,-90.9090909090909,4,1,0,85,0,1
83339,-90.9090909090909,4,1,0,85,0,1
83432,-91.4258965680547,4,1,0,85,0,1
83526,-91.9485272144654,4,1,0,85,0,1
83620,-92.477252907716,4,1,0,85,0,1
83714,-93.0120078502135,4,1,0,85,0,1
83807,-93.5530707859955,4,1,0,85,0,1
83901,-94.100465420902,4,1,0,85,0,1
83995,-94.6542139582783,4,1,0,85,0,1
84089,-95.2146089678832,4,1,0,85,0,1
84182,-95.7816790719905,4,1,0,85,0,1
84276,-96.3554514060187,4,1,0,85,0,1
84370,-96.9362334069402,4,1,0,85,0,1
84464,-97.5239640760726,4,1,0,85,0,1
84557,-98.1189613911699,4,1,0,85,0,1
84651,-98.7212634742184,4,1,0,85,0,1
84792,-100,4,1,0,80,0,1
84839,-100,4,1,0,80,0,0
86339,-95.2380952380952,4,1,0,80,0,0
87839,-100,4,1,0,80,0,0
92339,-95.2380952380952,4,1,0,80,0,0
93839,-100,4,1,0,80,0,0
94026,-100.627310654621,4,1,0,80,0,0
94120,-100.943926658181,4,1,0,80,0,0
94214,-101.262541365748,4,1,0,80,0,0
94401,-101.905739229328,4,1,0,80,0,0
94589,-102.557265413075,4,1,0,80,0,0
94682,-102.886162634215,4,1,0,80,0,0
94776,-103.217176163851,4,1,0,80,0,0
94870,-103.550326494179,4,1,0,80,0,0
94964,-103.885634382821,4,1,0,80,0,0
95151,-104.562697884906,4,1,0,80,0,0
95339,-105.248755433467,4,1,0,80,0,0
95432,-105.595171344005,4,1,0,80,0,0
95526,-105.943875172689,4,1,0,80,0,0
95620,-106.29488966059,4,1,0,80,0,0
95714,-106.648237851166,4,1,0,80,0,0
95807,-107.003943095303,4,1,0,80,0,0
95901,-107.36191379053,4,1,0,80,0,0
95995,-107.722403674627,4,1,0,80,0,0
96089,-108.085322553624,4,1,0,80,0,0
96182,-108.450695060505,4,1,0,80,0,0
96276,-108.81854616246,4,1,0,80,0,0
96370,-109.188901166574,4,1,0,80,0,0
96464,-109.561785725633,4,1,0,80,0,0
96557,-109.937225844043,4,1,0,80,0,0
96651,-110.315126189473,4,1,0,80,0,0
96792,-100,4,1,0,60,0,0
96839,-111.079021615978,4,1,0,60,0,0
101714,-111.111111111111,4,1,0,60,0,0
102089,-107.16930499634,4,1,0,60,0,0
102464,-103.497490703338,4,1,0,60,0,0
102792,-100,4,1,0,65,0,0
107339,-100,4,1,0,65,0,0
107432,-100.311869602594,4,1,0,65,0,0
107526,-100.625690543801,4,1,0,65,0,0
107714,-101.259157625068,4,1,0,65,0,0
107807,-101.578943091413,4,1,0,65,0,0
107901,-101.900754778891,4,1,0,65,0,0
108089,-102.550429173546,4,1,0,65,0,0
108182,-102.87843575396,4,1,0,65,0,0
108276,-103.208547319055,4,1,0,65,0,0
108370,-103.540784197191,4,1,0,65,0,0
108464,-103.875166979331,4,1,0,65,0,0
108557,-104.211716523289,4,1,0,65,0,0
108651,-104.550344650211,4,1,0,65,0,0
108792,-105.263157894737,4,1,0,70,0,0
114792,-100,4,1,0,75,0,0
115026,-98.0392156862745,4,1,0,75,0,0
115214,-96.1538461538461,4,1,0,75,0,0
115401,-94.3396226415094,4,1,0,75,0,0
115589,-92.5925925925926,4,1,0,75,0,0
116339,-99.009900990099,4,1,0,75,0,0
116526,-97.0873786407767,4,1,0,75,0,0
116714,-95.2380952380952,4,1,0,75,0,0
116901,-93.4579439252336,4,1,0,75,0,0
117089,-91.743119266055,4,1,0,75,0,0
117839,-95.2380952380952,4,1,0,75,0,0
118026,-94.4908079342042,4,1,0,75,0,0
118214,-93.755068633398,4,1,0,75,0,0
118401,-93.0307848170038,4,1,0,75,0,0
118589,-92.3175205729595,4,1,0,75,0,0
118682,-91.9650165077205,4,1,0,75,0,0
118776,-91.6151941967271,4,1,0,75,0,0
118964,-90.9233906787158,4,1,0,75,0,0
119151,-90.2420381705773,4,1,0,75,0,0
119339,-89.5707411799691,4,1,0,75,0,0
119432,-89.2388638821761,4,1,0,75,0,0
119526,-88.909436847627,4,1,0,75,0,0
119620,-88.582354572134,4,1,0,75,0,0
119714,-88.2577479270461,4,1,0,75,0,0
119807,-87.9355116132033,4,1,0,75,0,0
119901,-87.6156197622287,4,1,0,75,0,0
119995,-87.2979706713738,4,1,0,75,0,0
120089,-86.9826921839093,4,1,0,75,0,0
120792,-90.9090909090909,4,1,0,85,0,0
120839,-90.9090909090909,4,1,0,85,0,1
131339,-90.9090909090909,4,1,0,85,0,1
131432,-90.3980951313394,4,1,0,85,0,1
131526,-89.8928926184451,4,1,0,85,0,1
131620,-89.3932256025774,4,1,0,85,0,1
131714,-88.8991616809054,4,1,0,85,0,1
131807,-88.4104508225708,4,1,0,85,0,1
131901,-87.9270838279232,4,1,0,85,0,1
131995,-87.4490499972454,4,1,0,85,0,1
132089,-86.9761102717917,4,1,0,85,0,1
132151,-86.6636738811286,4,1,0,85,0,1
132214,-86.3534741297944,4,1,0,85,0,1
132276,-86.0454870862933,4,1,0,85,0,1
132370,-85.5875672076372,4,1,0,85,0,1
132464,-85.1345679548378,4,1,0,85,0,1
132526,-84.8351991421465,4,1,0,85,0,1
132589,-84.5378568976974,4,1,0,85,0,1
132651,-84.2426626746877,4,1,0,85,0,1
132745,-83.8037517263573,4,1,0,85,0,1
132839,-83.3693210902706,4,1,0,85,0,0
132885,-100,4,1,0,45,0,0
133167,-83.3333333333333,4,1,0,85,0,0
133214,-83.3333333333333,4,1,0,85,0,1
133401,-90.9090909090909,4,1,0,85,0,1
143339,-90.9090909090909,4,1,0,85,0,1
143432,-91.4258965680547,4,1,0,85,0,1
143526,-91.9485272144654,4,1,0,85,0,1
143620,-92.477252907716,4,1,0,85,0,1
143714,-93.0120078502135,4,1,0,85,0,1
143807,-93.5530707859955,4,1,0,85,0,1
143901,-94.100465420902,4,1,0,85,0,1
143995,-94.6542139582783,4,1,0,85,0,1
144089,-95.2146089678832,4,1,0,85,0,1
144182,-95.7816790719905,4,1,0,85,0,1
144276,-96.3554514060187,4,1,0,85,0,1
144370,-96.9362334069402,4,1,0,85,0,1
144464,-97.5239640760726,4,1,0,85,0,1
144557,-98.1189613911699,4,1,0,85,0,1
144651,-98.7212634742184,4,1,0,85,0,1
144792,-100,4,1,0,80,0,1
144839,-100,4,1,0,80,0,0
155339,-100,4,1,0,80,0,0
155432,-100.311869602594,4,1,0,80,0,0
155526,-100.625690543801,4,1,0,80,0,0
155620,-100.941379303383,4,1,0,80,0,0
155714,-101.259157625068,4,1,0,80,0,0
155807,-101.578943091413,4,1,0,80,0,0
155901,-101.900754778891,4,1,0,80,0,0
155995,-102.224612006485,4,1,0,80,0,0
156089,-102.550429173546,4,1,0,80,0,0
156276,-103.208547319055,4,1,0,80,0,0
156464,-103.875166979331,4,1,0,80,0,0
156557,-104.211716523289,4,1,0,80,0,0
156651,-104.550344650211,4,1,0,80,0,0
156745,-104.891290666353,4,1,0,80,0,0
156792,-105.263157894737,4,1,0,70,0,0
162464,-104.166666666667,4,1,0,70,0,0
162557,-103.092783505155,4,1,0,70,0,0
162651,-102.040816326531,4,1,0,70,0,0
162839,-100,4,1,0,70,0,0
163026,-99.6892685499299,4,1,0,70,0,0
163214,-99.3804621986536,4,1,0,70,0,0
163401,-99.0735631113458,4,1,0,70,0,0
163495,-98.9208722051144,4,1,0,70,0,0
163589,-98.7685536728074,4,1,0,70,0,0
163682,-98.6168007526434,4,1,0,70,0,0
163870,-98.3145929333437,4,1,0,70,0,0
163964,-98.1642307212813,4,1,0,70,0,0
164339,-97.5671627956895,4,1,0,70,0,0
164432,-97.4189815040322,4,1,0,70,0,0
164620,-97.12415380581,4,1,0,70,0,0
164714,-96.9773140969133,4,1,0,70,0,0
164901,-96.6850561643491,4,1,0,70,0,0
164995,-96.5396333810883,4,1,0,70,0,0
165089,-96.3945544788284,4,1,0,70,0,0
165182,-96.2500036093751,4,1,0,70,0,0
165370,-95.9621064833918,4,1,0,70,0,0
165464,-95.8188487173689,4,1,0,70,0,0
165792,-95.2380952380952,4,1,0,75,0,0
167339,-95.2380952380952,4,1,0,75,0,0
167432,-96.0915714239041,4,1,0,75,0,0
167526,-96.9605767990793,4,1,0,75,0,0
167620,-97.8453476004896,4,1,0,75,0,0
167714,-98.7465117794714,4,1,0,75,0,0
167807,-99.6643305347589,4,1,0,75,0,0
167901,-100.599472255169,4,1,0,75,0,0
167995,-101.552225770908,4,1,0,75,0,0
168089,-102.523198436726,4,1,0,75,0,0
168182,-103.513025043941,4,1,0,75,0,0
168276,-104.522041608134,4,1,0,75,0,0
168339,-105.205793051789,4,1,0,75,0,0
168401,-105.898437044968,4,1,0,75,0,0
168464,-106.600375446522,4,1,0,75,0,0
168557,-107.67090602914,4,1,0,75,0,0
168651,-108.763037969177,4,1,0,75,0,0
168839,-111.015267929798,4,1,0,75,0,0
168885,-111.111111111111,4,1,0,60,0,0
174792,-105.263157894737,4,1,0,65,0,0
175214,-103.897831028879,4,1,0,65,0,0
175589,-102.567574081995,4,1,0,65,0,0
175964,-101.27084786992,4,1,0,65,0,0
176292,-100.006500422527,4,1,0,70,0,0
176714,-98.7733339654827,4,1,0,70,0,0
177089,-97.5703042827509,4,1,0,70,0,0
177464,-96.3961341294369,4,1,0,70,0,0
177792,-95.2498880813815,4,1,0,75,0,0
178026,-94.6869271440908,4,1,0,75,0,0
178214,-94.1305817081688,4,1,0,75,0,0
178401,-93.5807358440421,4,1,0,75,0,0
178589,-93.0373628745568,4,1,0,75,0,0
178776,-92.5001780628428,4,1,0,75,0,0
178964,-91.9691609009667,4,1,0,75,0,0
179151,-91.4442057750674,4,1,0,75,0,0
179339,-90.9252094689513,4,1,0,75,0,0
179432,-90.6679142571668,4,1,0,75,0,0
179526,-90.4120710964362,4,1,0,75,0,0
179620,-90.1576677293251,4,1,0,75,0,0
179714,-89.9046920359727,4,1,0,75,0,0
179807,-89.6531320321675,4,1,0,75,0,0
179901,-89.4029758674547,4,1,0,75,0,0
179995,-89.1542913080807,4,1,0,75,0,0
180089,-88.9069073554463,4,1,0,75,0,0
180151,-88.7427197691269,4,1,0,75,0,0
180214,-88.5791374872225,4,1,0,75,0,0
180276,-88.4162353427986,4,1,0,75,0,0
180370,-88.1729247400001,4,1,0,75,0,0
180464,-87.9309495839107,4,1,0,75,0,0
180526,-87.7703436296723,4,1,0,75,0,0
180589,-87.6104000553698,4,1,0,75,0,0
180651,-87.4509618731297,4,1,0,75,0,0
180745,-87.2129277467057,4,1,0,75,0,0
180839,-86.976185920295,4,1,0,75,0,0
181167,-86.9565217391304,4,1,0,85,0,0
181214,-86.9565217391304,4,1,0,85,0,1
181401,-90.9090909090909,4,1,0,85,0,1
191339,-90.9090909090909,4,1,0,85,0,1
191432,-91.4258965680547,4,1,0,85,0,1
191526,-91.9485272144654,4,1,0,85,0,1
191620,-92.477252907716,4,1,0,85,0,1
191714,-93.0120078502135,4,1,0,85,0,1
191807,-93.5530707859955,4,1,0,85,0,1
191901,-94.100465420902,4,1,0,85,0,1
191995,-94.6542139582783,4,1,0,85,0,1
192089,-95.2146089678832,4,1,0,85,0,1
192182,-95.7816790719905,4,1,0,85,0,1
192276,-96.3554514060187,4,1,0,85,0,1
192370,-96.9362334069402,4,1,0,85,0,1
192464,-97.5239640760726,4,1,0,85,0,1
192557,-98.1189613911699,4,1,0,85,0,1
192651,-98.7212634742184,4,1,0,85,0,1
192792,-100,4,1,0,80,0,1
192839,-100,4,1,0,80,0,0
194339,-95.2380952380952,4,1,0,80,0,0
195839,-100,4,1,0,80,0,0
200339,-95.2380952380952,4,1,0,80,0,0
201839,-100,4,1,0,80,0,0
203339,-100,4,1,0,80,0,0
203432,-99.2907660580474,4,1,0,80,0,0
203526,-98.5915215235151,4,1,0,80,0,0
203620,-97.9020568243118,4,1,0,80,0,0
203714,-97.2222627314984,4,1,0,80,0,0
203807,-96.5517507728968,4,1,0,80,0,0
203901,-95.8904240945786,4,1,0,80,0,0
203995,-95.2380952380952,4,1,0,80,0,0
204089,-94.594581811543,4,1,0,80,0,0
204182,-93.9597063195419,4,1,0,80,0,0
204276,-93.3332960000149,4,1,0,80,0,0
204370,-92.7152686285836,4,1,0,80,0,0
204464,-92.1052873961283,4,1,0,80,0,0
204557,-91.5032799350693,4,1,0,80,0,0
204651,-90.9090909090909,4,1,0,80,0,0

[HitObjects]
384,96,839,5,4,0:0:0:0:
256,192,1589,1,8,0:0:0:0:
256,192,2339,1,8,0:0:0:0:
256,192,2526,1,0,0:0:0:0:
256,192,2901,1,0,0:0:0:0:
256,192,3464,1,0,0:0:0:0:
256,192,3557,1,0,0:0:0:0:
256,192,3651,1,0,0:0:0:0:
256,192,3839,1,8,0:0:0:0:
256,192,4589,1,0,0:0:0:0:
256,192,5151,1,8,0:0:0:0:
256,192,5526,1,0,0:0:0:0:
256,192,5714,1,8,0:0:0:0:
256,192,5901,1,8,0:0:0:0:
256,192,6276,1,0,0:0:0:0:
256,192,6464,1,8,0:0:0:0:
256,192,6557,1,8,0:0:0:0:
256,192,6651,1,0,0:0:0:0:
256,192,6839,1,8,0:0:0:0:
256,192,7214,1,0,0:0:0:0:
256,192,7589,1,8,0:0:0:0:
256,192,7776,1,8,0:0:0:0:
256,192,7964,1,0,0:0:0:0:
256,192,8339,1,8,0:0:0:0:
256,192,8714,1,0,0:0:0:0:
256,192,9089,1,8,0:0:0:0:
256,192,9276,1,0,0:0:0:0:
256,192,9464,1,8,0:0:0:0:
256,192,9839,1,8,0:0:0:0:
256,192,10026,1,0,0:0:0:0:
256,192,10214,1,8,0:0:0:0:
256,192,10307,1,8,0:0:0:0:
256,192,10401,1,0,0:0:0:0:
256,192,10589,1,8,0:0:0:0:
256,192,10776,1,0,0:0:0:0:
256,192,10964,1,8,0:0:0:0:
256,192,11057,1,0,0:0:0:0:
256,192,11151,1,8,0:0:0:0:
256,192,11339,1,0,0:0:0:0:
256,192,11432,1,0,0:0:0:0:
256,192,11526,1,8,0:0:0:0:
256,192,11620,1,8,0:0:0:0:
256,192,11714,1,0,0:0:0:0:
256,192,11807,1,0,0:0:0:0:
256,192,11901,1,8,0:0:0:0:
256,192,11995,1,8,0:0:0:0:
384,96,12839,1,12,0:0:0:0:
256,192,13026,1,0,0:0:0:0:
256,192,13214,1,0,0:0:0:0:
256,192,13307,1,8,0:0:0:0:
256,192,13401,1,0,0:0:0:0:
256,192,13589,1,8,0:0:0:0:
256,192,13776,1,0,0:0:0:0:
256,192,13964,1,8,0:0:0:0:
256,192,14057,1,8,0:0:0:0:
256,192,14151,1,0,0:0:0:0:
384,96,14339,1,12,0:0:0:0:
384,96,14714,1,12,0:0:0:0:
384,96,15089,1,12,0:0:0:0:
384,96,15464,1,12,0:0:0:0:
256,192,15839,1,8,0:0:0:0:
256,192,16026,1,0,0:0:0:0:
256,192,16214,1,8,0:0:0:0:
256,192,16307,1,0,0:0:0:0:
256,192,16401,1,0,0:0:0:0:
256,192,16589,1,8,0:0:0:0:
256,192,16776,1,0,0:0:0:0:
256,192,16964,1,8,0:0:0:0:
256,192,17057,1,0,0:0:0:0:
256,192,17151,1,8,0:0:0:0:
256,192,17339,1,8,0:0:0:0:
256,192,17526,1,0,0:0:0:0:
256,192,17620,1,0,0:0:0:0:
256,192,17714,1,8,0:0:0:0:
256,192,17901,1,0,0:0:0:0:
256,192,17995,1,0,0:0:0:0:
256,192,18089,1,8,0:0:0:0:
256,192,18276,1,0,0:0:0:0:
256,192,18464,1,8,0:0:0:0:
256,192,18557,1,0,0:0:0:0:
256,192,18651,1,0,0:0:0:0:
256,192,18745,1,0,0:0:0:0:
256,192,18839,1,8,0:0:0:0:
256,192,19026,1,0,0:0:0:0:
256,192,19214,1,8,0:0:0:0:
256,192,19307,1,8,0:0:0:0:
256,192,19401,1,0,0:0:0:0:
256,192,19589,1,8,0:0:0:0:
256,192,19682,1,8,0:0:0:0:
256,192,19776,1,0,0:0:0:0:
256,192,19870,1,0,0:0:0:0:
256,192,19964,1,8,0:0:0:0:
256,192,20151,1,0,0:0:0:0:
352,96,20339,1,12,0:0:0:0:
384,96,20714,1,12,0:0:0:0:
384,96,21089,1,12,0:0:0:0:
384,96,21464,1,12,0:0:0:0:
256,192,21839,1,8,0:0:0:0:
256,192,22026,1,0,0:0:0:0:
256,192,22120,1,0,0:0:0:0:
256,192,22214,1,8,0:0:0:0:
256,192,22401,1,0,0:0:0:0:
256,192,22589,1,8,0:0:0:0:
256,192,22682,1,8,0:0:0:0:
256,192,22776,1,0,0:0:0:0:
256,192,22870,1,0,0:0:0:0:
256,192,22964,1,8,0:0:0:0:
256,192,23151,1,0,0:0:0:0:
256,192,23339,1,8,0:0:0:0:
256,192,23432,1,8,0:0:0:0:
256,192,23526,1,0,0:0:0:0:
256,192,23620,1,0,0:0:0:0:
256,192,23714,1,8,0:0:0:0:
256,192,23807,1,0,0:0:0:0:
256,192,23901,1,8,0:0:0:0:
256,192,23995,1,8,0:0:0:0:
256,192,24089,1,0,0:0:0:0:
256,192,24182,1,0,0:0:0:0:
256,192,24276,1,8,0:0:0:0:
256,192,24370,1,0,0:0:0:0:
256,192,24464,1,8,0:0:0:0:
256,192,24557,1,8,0:0:0:0:
256,192,24651,1,0,0:0:0:0:
384,64,24839,1,4,0:0:0:0:
256,192,25214,1,8,0:0:0:0:
256,192,25589,1,0,0:0:0:0:
256,192,25870,1,8,0:0:0:0:
256,192,26151,1,8,0:0:0:0:
256,192,26714,1,8,0:0:0:0:
256,192,27089,1,8,0:0:0:0:
256,192,27370,1,0,0:0:0:0:
256,192,27651,1,0,0:0:0:0:
256,192,28214,1,8,0:0:0:0:
256,192,28589,1,0,0:0:0:0:
256,192,28870,1,8,0:0:0:0:
256,192,29151,1,0,0:0:0:0:
256,192,29714,1,8,0:0:0:0:
256,192,30089,1,0,0:0:0:0:
256,192,30464,1,0,0:0:0:0:
256,192,30839,1,0,0:0:0:0:
256,192,31214,1,8,0:0:0:0:
256,192,31589,1,0,0:0:0:0:
256,192,31870,1,8,0:0:0:0:
256,192,32151,1,0,0:0:0:0:
256,192,32714,1,8,0:0:0:0:
256,192,33089,1,8,0:0:0:0:
256,192,33370,1,0,0:0:0:0:
256,192,33651,1,0,0:0:0:0:
256,192,34214,1,8,0:0:0:0:
256,192,34589,1,0,0:0:0:0:
256,192,34870,1,8,0:0:0:0:
256,192,35151,1,8,0:0:0:0:
256,192,35714,1,8,0:0:0:0:
256,192,36089,1,0,0:0:0:0:
256,192,36276,1,0,0:0:0:0:
256,192,36464,1,8,0:0:0:0:
352,96,36839,1,4,0:0:0:0:
256,192,37026,1,0,0:0:0:0:
256,192,37120,1,0,0:0:0:0:
256,192,37214,1,8,0:0:0:0:
256,192,37401,1,8,0:0:0:0:
256,192,37589,1,0,0:0:0:0:
256,192,37682,1,8,0:0:0:0:
256,192,37870,1,8,0:0:0:0:
256,192,37964,1,8,0:0:0:0:
256,192,38151,1,8,0:0:0:0:
256,192,38245,1,0,0:0:0:0:
256,192,38339,1,0,0:0:0:0:
256,192,38526,1,0,0:0:0:0:
256,192,38620,1,0,0:0:0:0:
256,192,38714,1,8,0:0:0:0:
256,192,38807,1,0,0:0:0:0:
256,192,38901,1,8,0:0:0:0:
256,192,39089,1,8,0:0:0:0:
256,192,39182,1,0,0:0:0:0:
256,192,39370,1,0,0:0:0:0:
256,192,39464,1,8,0:0:0:0:
256,192,39651,1,8,0:0:0:0:
256,192,39745,1,0,0:0:0:0:
256,192,39839,1,0,0:0:0:0:
256,192,39932,1,8,0:0:0:0:
256,192,40026,1,8,0:0:0:0:
256,192,40120,1,0,0:0:0:0:
256,192,40214,1,8,0:0:0:0:
256,192,40401,1,0,0:0:0:0:
256,192,40589,1,8,0:0:0:0:
256,192,40682,1,8,0:0:0:0:
256,192,40870,1,0,0:0:0:0:
256,192,40964,1,8,0:0:0:0:
256,192,41151,1,0,0:0:0:0:
256,192,41339,1,0,0:0:0:0:
256,192,41432,1,8,0:0:0:0:
256,192,41526,1,0,0:0:0:0:
256,192,41620,1,0,0:0:0:0:
256,192,41714,1,8,0:0:0:0:
256,192,41807,1,8,0:0:0:0:
256,192,41995,1,8,0:0:0:0:
256,192,42089,1,0,0:0:0:0:
256,192,42276,1,0,0:0:0:0:
256,192,42370,1,8,0:0:0:0:
256,192,42464,1,0,0:0:0:0:
256,192,42557,1,0,0:0:0:0:
256,192,42651,1,8,0:0:0:0:
416,64,42839,1,4,0:0:0:0:
256,192,43026,1,0,0:0:0:0:
256,192,43120,1,0,0:0:0:0:
256,192,43214,1,8,0:0:0:0:
256,192,43401,1,0,0:0:0:0:
256,192,43589,1,8,0:0:0:0:
256,192,43682,1,0,0:0:0:0:
256,192,43870,1,8,0:0:0:0:
256,192,43964,1,8,0:0:0:0:
256,192,44151,1,8,0:0:0:0:
256,192,44245,1,0,0:0:0:0:
256,192,44339,1,8,0:0:0:0:
256,192,44526,1,0,0:0:0:0:
256,192,44620,1,0,0:0:0:0:
256,192,44714,1,8,0:0:0:0:
256,192,44807,1,8,0:0:0:0:
256,192,44901,1,0,0:0:0:0:
256,192,45089,1,8,0:0:0:0:
256,192,45182,1,0,0:0:0:0:
256,192,45370,1,0,0:0:0:0:
256,192,45464,1,8,0:0:0:0:
256,192,45651,1,0,0:0:0:0:
256,192,45839,1,0,0:0:0:0:
256,192,45932,1,8,0:0:0:0:
256,192,46026,1,8,0:0:0:0:
256,192,46120,1,0,0:0:0:0:
256,192,46214,1,8,0:0:0:0:
256,192,46307,1,8,0:0:0:0:
256,192,46401,1,0,0:0:0:0:
256,192,46589,1,8,0:0:0:0:
256,192,46682,1,8,0:0:0:0:
256,192,46870,1,0,0:0:0:0:
256,192,46964,1,8,0:0:0:0:
256,192,47151,1,8,0:0:0:0:
256,192,47339,1,0,0:0:0:0:
256,192,47432,1,0,0:0:0:0:
256,192,47526,1,8,0:0:0:0:
256,192,47620,1,0,0:0:0:0:
256,192,47714,1,8,0:0:0:0:
256,192,47901,1,0,0:0:0:0:
256,192,47995,1,0,0:0:0:0:
256,192,48089,1,8,0:0:0:0:
256,192,48182,1,8,0:0:0:0:
256,192,48276,1,0,0:0:0:0:
256,192,48370,1,0,0:0:0:0:
256,192,48464,1,8,0:0:0:0:
256,192,48557,1,0,0:0:0:0:
256,192,48651,1,8,0:0:0:0:
384,64,48839,1,4,0:0:0:0:
256,192,49401,1,8,0:0:0:0:
256,192,49589,1,8,0:0:0:0:
256,192,49964,1,0,0:0:0:0:
256,192,50151,1,8,0:0:0:0:
256,192,50339,1,0,0:0:0:0:
256,192,50526,1,0,0:0:0:0:
256,192,50714,1,8,0:0:0:0:
256,192,50901,1,0,0:0:0:0:
256,192,50995,1,0,0:0:0:0:
256,192,51089,1,8,0:0:0:0:
256,192,51276,1,8,0:0:0:0:
256,192,51464,1,0,0:0:0:0:
256,192,51651,1,0,0:0:0:0:
256,192,51839,1,0,0:0:0:0:
256,192,52214,1,8,0:0:0:0:
256,192,52401,1,0,0:0:0:0:
256,192,52495,1,0,0:0:0:0:
256,192,52589,1,8,0:0:0:0:
256,192,52776,1,0,0:0:0:0:
256,192,52964,1,8,0:0:0:0:
256,192,53151,1,0,0:0:0:0:
256,192,53526,1,0,0:0:0:0:
256,192,53714,1,8,0:0:0:0:
256,192,53901,1,0,0:0:0:0:
256,192,53995,1,0,0:0:0:0:
256,192,54089,1,8,0:0:0:0:
256,192,54276,1,8,0:0:0:0:
256,192,54464,1,0,0:0:0:0:
256,192,54651,1,0,0:0:0:0:
416,96,54839,1,12,0:0:0:0:
256,192,55120,1,0,0:0:0:0:
256,192,55214,1,8,0:0:0:0:
256,192,55401,1,0,0:0:0:0:
256,192,55495,1,8,0:0:0:0:
256,192,55589,1,8,0:0:0:0:
256,192,55682,1,0,0:0:0:0:
256,192,55870,1,0,0:0:0:0:
256,192,55964,1,8,0:0:0:0:
256,192,56151,1,0,0:0:0:0:
256,192,56339,1,8,0:0:0:0:
256,192,56432,1,0,0:0:0:0:
256,192,56526,1,8,0:0:0:0:
256,192,56714,1,8,0:0:0:0:
256,192,56901,1,8,0:0:0:0:
256,192,56995,1,0,0:0:0:0:
256,192,57089,1,0,0:0:0:0:
256,192,57182,1,8,0:0:0:0:
256,192,57370,1,8,0:0:0:0:
256,192,57464,1,0,0:0:0:0:
256,192,57651,1,0,0:0:0:0:
256,192,57839,1,8,0:0:0:0:
256,192,58026,1,0,0:0:0:0:
256,192,58120,1,0,0:0:0:0:
256,192,58214,1,8,0:0:0:0:
256,192,58401,1,0,0:0:0:0:
256,192,58495,1,0,0:0:0:0:
256,192,58589,1,8,0:0:0:0:
256,192,58682,1,8,0:0:0:0:
256,192,58776,1,0,0:0:0:0:
256,192,58870,1,0,0:0:0:0:
256,192,58964,1,8,0:0:0:0:
256,192,59151,1,8,0:0:0:0:
256,192,59339,1,8,0:0:0:0:
256,192,59432,1,0,0:0:0:0:
256,192,59526,1,8,0:0:0:0:
256,192,59620,1,8,0:0:0:0:
256,192,59714,1,0,0:0:0:0:
256,192,59807,1,0,0:0:0:0:
256,192,59901,1,8,0:0:0:0:
256,192,59995,1,0,0:0:0:0:
256,192,60089,1,8,0:0:0:0:
448,64,60464,1,12,0:0:0:0:
384,96,60839,1,4,0:0:0:0:
256,192,61026,1,0,0:0:0:0:
256,192,61120,1,0,0:0:0:0:
256,192,61214,1,8,0:0:0:0:
256,192,61401,1,0,0:0:0:0:
256,192,61589,1,8,0:0:0:0:
256,192,61682,1,0,0:0:0:0:
256,192,61870,1,0,0:0:0:0:
256,192,61964,1,8,0:0:0:0:
256,192,62151,1,8,0:0:0:0:
256,192,62245,1,8,0:0:0:0:
256,192,62339,1,0,0:0:0:0:
256,192,62432,1,0,0:0:0:0:
256,192,62526,1,8,0:0:0:0:
256,192,62620,1,0,0:0:0:0:
256,192,62714,1,8,0:0:0:0:
256,192,62901,1,8,0:0:0:0:
256,192,63089,1,0,0:0:0:0:
256,192,63182,1,8,0:0:0:0:
256,192,63276,1,0,0:0:0:0:
256,192,63464,1,8,0:0:0:0:
256,192,63651,1,0,0:0:0:0:
256,192,63839,1,8,0:0:0:0:
256,192,63932,1,8,0:0:0:0:
256,192,64026,1,0,0:0:0:0:
256,192,64120,1,0,0:0:0:0:
256,192,64214,1,8,0:0:0:0:
256,192,64401,1,0,0:0:0:0:
256,192,64589,1,8,0:0:0:0:
256,192,64682,1,0,0:0:0:0:
256,192,64776,1,0,0:0:0:0:
256,192,64964,1,8,0:0:0:0:
256,192,65151,1,8,0:0:0:0:
256,192,65245,1,0,0:0:0:0:
256,192,65339,1,8,0:0:0:0:
256,192,65432,1,8,0:0:0:0:
256,192,65526,1,0,0:0:0:0:
256,192,65714,1,8,0:0:0:0:
256,192,65807,1,0,0:0:0:0:
256,192,65901,1,8,0:0:0:0:
256,192,66089,1,0,0:0:0:0:
256,192,66182,1,0,0:0:0:0:
256,192,66276,1,8,0:0:0:0:
256,192,66464,1,8,0:0:0:0:
256,192,66557,1,8,0:0:0:0:
256,192,66651,1,0,0:0:0:0:
256,192,66839,1,8,0:0:0:0:
256,192,67026,1,0,0:0:0:0:
256,192,67120,1,0,0:0:0:0:
256,192,67214,1,8,0:0:0:0:
256,192,67401,1,0,0:0:0:0:
256,192,67589,1,8,0:0:0:0:
256,192,67682,1,0,0:0:0:0:
256,192,67870,1,0,0:0:0:0:
256,192,67964,1,8,0:0:0:0:
256,192,68151,1,8,0:0:0:0:
256,192,68245,1,0,0:0:0:0:
256,192,68339,1,8,0:0:0:0:
256,192,68432,1,8,0:0:0:0:
256,192,68526,1,0,0:0:0:0:
256,192,68620,1,0,0:0:0:0:
256,192,68714,1,8,0:0:0:0:
256,192,68807,1,0,0:0:0:0:
256,192,68901,1,8,0:0:0:0:
256,192,69089,1,0,0:0:0:0:
256,192,69276,1,0,0:0:0:0:
256,192,69370,1,0,0:0:0:0:
256,192,69464,1,8,0:0:0:0:
256,192,69651,1,8,0:0:0:0:
256,192,69839,1,0,0:0:0:0:
256,192,69932,1,8,0:0:0:0:
256,192,70026,1,0,0:0:0:0:
256,192,70120,1,0,0:0:0:0:
256,192,70214,1,8,0:0:0:0:
256,192,70307,1,0,0:0:0:0:
256,192,70401,1,8,0:0:0:0:
256,192,70495,1,8,0:0:0:0:
256,192,70589,1,0,0:0:0:0:
256,192,70776,1,0,0:0:0:0:
256,192,70870,1,0,0:0:0:0:
256,192,70964,1,8,0:0:0:0:
256,192,71151,1,0,0:0:0:0:
256,192,71339,1,8,0:0:0:0:
256,192,71432,1,8,0:0:0:0:
256,192,71526,1,0,0:0:0:0:
256,192,71620,1,0,0:0:0:0:
256,192,71714,1,8,0:0:0:0:
256,192,71807,1,8,0:0:0:0:
256,192,71901,1,0,0:0:0:0:
256,192,71995,1,8,0:0:0:0:
256,192,72089,1,0,0:0:0:0:
256,192,72151,1,0,0:0:0:0:
256,192,72214,1,0,0:0:0:0:
256,192,72276,1,8,0:0:0:0:
256,192,72370,1,0,0:0:0:0:
256,192,72464,1,8,0:0:0:0:
256,192,72526,1,8,0:0:0:0:
256,192,72589,1,8,0:0:0:0:
256,192,72651,1,0,0:0:0:0:
256,192,72745,1,8,0:0:0:0:
256,192,72839,1,0,0:0:0:0:
384,64,73214,1,12,0:0:0:0:
256,192,73401,1,0,0:0:0:0:
256,192,73589,1,8,0:0:0:0:
256,192,73682,1,0,0:0:0:0:
256,192,73870,1,0,0:0:0:0:
256,192,73964,1,8,0:0:0:0:
256,192,74151,1,8,0:0:0:0:
256,192,74245,1,0,0:0:0:0:
256,192,74339,1,8,0:0:0:0:
256,192,74432,1,8,0:0:0:0:
256,192,74526,1,0,0:0:0:0:
256,192,74620,1,0,0:0:0:0:
256,192,74714,1,8,0:0:0:0:
256,192,74901,1,8,0:0:0:0:
256,192,75089,1,0,0:0:0:0:
256,192,75182,1,0,0:0:0:0:
256,192,75276,1,8,0:0:0:0:
256,192,75464,1,8,0:0:0:0:
256,192,75651,1,0,0:0:0:0:
256,192,75839,1,0,0:0:0:0:
256,192,75932,1,8,0:0:0:0:
256,192,76026,1,0,0:0:0:0:
256,192,76120,1,0,0:0:0:0:
256,192,76214,1,8,0:0:0:0:
256,192,76401,1,0,0:0:0:0:
256,192,76589,1,8,0:0:0:0:
256,192,76682,1,8,0:0:0:0:
256,192,76776,1,0,0:0:0:0:
256,192,76964,1,8,0:0:0:0:
256,192,77151,1,8,0:0:0:0:
256,192,77245,1,8,0:0:0:0:
256,192,77339,1,0,0:0:0:0:
256,192,77432,1,0,0:0:0:0:
256,192,77526,1,8,0:0:0:0:
256,192,77714,1,8,0:0:0:0:
256,192,77807,1,0,0:0:0:0:
256,192,77901,1,8,0:0:0:0:
256,192,78089,1,0,0:0:0:0:
256,192,78182,1,8,0:0:0:0:
256,192,78276,1,0,0:0:0:0:
256,192,78370,1,0,0:0:0:0:
256,192,78464,1,8,0:0:0:0:
256,192,78557,1,8,0:0:0:0:
256,192,78651,1,0,0:0:0:0:
256,192,78839,1,8,0:0:0:0:
256,192,79026,1,0,0:0:0:0:
256,192,79120,1,0,0:0:0:0:
256,192,79214,1,8,0:0:0:0:
256,192,79401,1,8,0:0:0:0:
256,192,79589,1,8,0:0:0:0:
256,192,79682,1,0,0:0:0:0:
256,192,79776,1,0,0:0:0:0:
256,192,79870,1,8,0:0:0:0:
256,192,79964,1,8,0:0:0:0:
256,192,80057,1,0,0:0:0:0:
256,192,80151,1,8,0:0:0:0:
256,192,80339,1,0,0:0:0:0:
256,192,80526,1,8,0:0:0:0:
256,192,80620,1,0,0:0:0:0:
256,192,80714,1,8,0:0:0:0:
256,192,80901,1,8,0:0:0:0:
256,192,80995,1,8,0:0:0:0:
256,192,81089,1,0,0:0:0:0:
256,192,81276,1,0,0:0:0:0:
256,192,81464,1,8,0:0:0:0:
256,192,81651,1,8,0:0:0:0:
256,192,81745,1,0,0:0:0:0:
256,192,81839,1,8,0:0:0:0:
256,192,81932,1,8,0:0:0:0:
256,192,82026,1,0,0:0:0:0:
256,192,82214,1,8,0:0:0:0:
256,192,82307,1,0,0:0:0:0:
256,192,82401,1,8,0:0:0:0:
256,192,82495,1,0,0:0:0:0:
256,192,82589,1,8,0:0:0:0:
256,192,82682,1,8,0:0:0:0:
256,192,82776,1,0,0:0:0:0:
256,192,82870,1,0,0:0:0:0:
256,192,82964,1,8,0:0:0:0:
256,192,83151,1,0,0:0:0:0:
256,192,83339,1,8,0:0:0:0:
256,192,83432,1,8,0:0:0:0:
256,192,83526,1,0,0:0:0:0:
256,192,83620,1,0,0:0:0:0:
256,192,83714,1,8,0:0:0:0:
256,192,83807,1,0,0:0:0:0:
256,192,83901,1,8,0:0:0:0:
256,192,83995,1,0,0:0:0:0:
256,192,84089,1,8,0:0:0:0:
256,192,84182,1,8,0:0:0:0:
256,192,84276,1,0,0:0:0:0:
256,192,84370,1,0,0:0:0:0:
256,192,84464,1,8,0:0:0:0:
256,192,84557,1,0,0:0:0:0:
256,192,84651,1,8,0:0:0:0:
416,64,84839,1,12,0:0:0:0:
256,192,85026,1,0,0:0:0:0:
256,192,85214,1,0,0:0:0:0:
256,192,85307,1,8,0:0:0:0:
256,192,85401,1,0,0:0:0:0:
256,192,85589,1,8,0:0:0:0:
256,192,85776,1,0,0:0:0:0:
256,192,85964,1,8,0:0:0:0:
256,192,86057,1,8,0:0:0:0:
256,192,86151,1,0,0:0:0:0:
384,96,86339,1,12,0:0:0:0:
384,96,86714,1,12,0:0:0:0:
384,96,87089,1,12,0:0:0:0:
384,96,87464,1,12,0:0:0:0:
256,192,87839,1,8,0:0:0:0:
256,192,88026,1,0,0:0:0:0:
256,192,88214,1,8,0:0:0:0:
256,192,88307,1,0,0:0:0:0:
256,192,88401,1,0,0:0:0:0:
256,192,88589,1,8,0:0:0:0:
256,192,88776,1,0,0:0:0:0:
256,192,88964,1,8,0:0:0:0:
256,192,89057,1,0,0:0:0:0:
256,192,89151,1,8,0:0:0:0:
256,192,89339,1,8,0:0:0:0:
256,192,89526,1,0,0:0:0:0:
256,192,89620,1,0,0:0:0:0:
256,192,89714,1,8,0:0:0:0:
256,192,89901,1,0,0:0:0:0:
256,192,89995,1,0,0:0:0:0:
256,192,90089,1,8,0:0:0:0:
256,192,90276,1,0,0:0:0:0:
256,192,90464,1,8,0:0:0:0:
256,192,90557,1,0,0:0:0:0:
256,192,90651,1,0,0:0:0:0:
256,192,90745,1,0,0:0:0:0:
256,192,90839,1,8,0:0:0:0:
256,192,91026,1,0,0:0:0:0:
256,192,91214,1,8,0:0:0:0:
256,192,91307,1,8,0:0:0:0:
256,192,91401,1,0,0:0:0:0:
256,192,91589,1,8,0:0:0:0:
256,192,91682,1,8,0:0:0:0:
256,192,91776,1,0,0:0:0:0:
256,192,91870,1,0,0:0:0:0:
256,192,91964,1,8,0:0:0:0:
256,192,92151,1,0,0:0:0:0:
352,96,92339,1,12,0:0:0:0:
384,96,92714,1,12,0:0:0:0:
384,96,93089,1,12,0:0:0:0:
384,96,93464,1,12,0:0:0:0:
256,192,93839,1,8,0:0:0:0:
256,192,94026,1,0,0:0:0:0:
256,192,94120,1,0,0:0:0:0:
256,192,94214,1,8,0:0:0:0:
256,192,94401,1,0,0:0:0:0:
256,192,94589,1,8,0:0:0:0:
256,192,94682,1,8,0:0:0:0:
256,192,94776,1,0,0:0:0:0:
256,192,94870,1,0,0:0:0:0:
256,192,94964,1,8,0:0:0:0:
256,192,95151,1,0,0:0:0:0:
256,192,95339,1,8,0:0:0:0:
256,192,95432,1,8,0:0:0:0:
256,192,95526,1,0,0:0:0:0:
256,192,95620,1,0,0:0:0:0:
256,192,95714,1,8,0:0:0:0:
256,192,95807,1,0,0:0:0:0:
256,192,95901,1,8,0:0:0:0:
256,192,95995,1,8,0:0:0:0:
256,192,96089,1,0,0:0:0:0:
256,192,96182,1,0,0:0:0:0:
256,192,96276,1,8,0:0:0:0:
256,192,96370,1,0,0:0:0:0:
256,192,96464,1,8,0:0:0:0:
256,192,96557,1,8,0:0:0:0:
256,192,96651,1,0,0:0:0:0:
384,64,96839,1,4,0:0:0:0:
256,192,97401,1,0,0:0:0:0:
256,192,97589,1,0,0:0:0:0:
256,192,97870,1,8,0:0:0:0:
256,192,98151,1,0,0:0:0:0:
256,192,98526,1,0,0:0:0:0:
256,192,98714,1,8,0:0:0:0:
256,192,98901,1,0,0:0:0:0:
256,192,99089,1,8,0:0:0:0:
256,192,99370,1,8,0:0:0:0:
256,192,99651,1,0,0:0:0:0:
256,192,100026,1,8,0:0:0:0:
256,192,100120,1,0,0:0:0:0:
256,192,100214,1,8,0:0:0:0:
256,192,100401,1,0,0:0:0:0:
256,192,100589,1,8,0:0:0:0:
256,192,100870,1,0,0:0:0:0:
256,192,101151,1,0,0:0:0:0:
256,192,101526,1,8,0:0:0:0:
256,192,101620,1,0,0:0:0:0:
256,192,101714,1,8,0:0:0:0:
256,192,102089,1,0,0:0:0:0:
256,192,102464,1,8,0:0:0:0:
416,64,102839,1,4,0:0:0:0:
256,192,103026,1,0,0:0:0:0:
256,192,103214,1,8,0:0:0:0:
256,192,103307,1,0,0:0:0:0:
256,192,103401,1,8,0:0:0:0:
256,192,103589,1,0,0:0:0:0:
256,192,103682,1,8,0:0:0:0:
256,192,103870,1,8,0:0:0:0:
256,192,103964,1,0,0:0:0:0:
256,192,104151,1,8,0:0:0:0:
256,192,104339,1,0,0:0:0:0:
256,192,104432,1,8,0:0:0:0:
256,192,104526,1,0,0:0:0:0:
256,192,104714,1,8,0:0:0:0:
256,192,104901,1,8,0:0:0:0:
256,192,104995,1,0,0:0:0:0:
256,192,105089,1,0,0:0:0:0:
256,192,105182,1,8,0:0:0:0:
256,192,105370,1,0,0:0:0:0:
256,192,105464,1,8,0:0:0:0:
256,192,105651,1,0,0:0:0:0:
256,192,105839,1,8,0:0:0:0:
256,192,105932,1,8,0:0:0:0:
256,192,106026,1,0,0:0:0:0:
256,192,106120,1,0,0:0:0:0:
256,192,106214,1,8,0:0:0:0:
256,192,106401,1,0,0:0:0:0:
256,192,106589,1,8,0:0:0:0:
256,192,106682,1,0,0:0:0:0:
256,192,106870,1,0,0:0:0:0:
256,192,106964,1,8,0:0:0:0:
256,192,107151,1,8,0:0:0:0:
256,192,107339,1,0,0:0:0:0:
256,192,107432,1,0,0:0:0:0:
256,192,107526,1,0,0:0:0:0:
256,192,107714,1,8,0:0:0:0:
256,192,107807,1,0,0:0:0:0:
256,192,107901,1,0,0:0:0:0:
256,192,108089,1,8,0:0:0:0:
256,192,108182,1,0,0:0:0:0:
256,192,108276,1,8,0:0:0:0:
256,192,108370,1,8,0:0:0:0:
256,192,108464,1,0,0:0:0:0:
256,192,108557,1,0,0:0:0:0:
256,192,108651,1,8,0:0:0:0:
384,96,108839,1,4,0:0:0:0:
256,192,109401,1,8,0:0:0:0:
256,192,109589,1,8,0:0:0:0:
256,192,109964,1,0,0:0:0:0:
256,192,110151,1,8,0:0:0:0:
256,192,110339,1,0,0:0:0:0:
256,192,110526,1,0,0:0:0:0:
256,192,110620,1,0,0:0:0:0:
256,192,110714,1,8,0:0:0:0:
256,192,110901,1,8,0:0:0:0:
256,192,111089,1,8,0:0:0:0:
256,192,111276,1,0,0:0:0:0:
256,192,111464,1,0,0:0:0:0:
256,192,111839,1,8,0:0:0:0:
256,192,112026,1,0,0:0:0:0:
256,192,112214,1,8,0:0:0:0:
256,192,112401,1,0,0:0:0:0:
256,192,112495,1,0,0:0:0:0:
256,192,112589,1,8,0:0:0:0:
256,192,112776,1,0,0:0:0:0:
256,192,112964,1,8,0:0:0:0:
256,192,113151,1,0,0:0:0:0:
256,192,113526,1,0,0:0:0:0:
256,192,113620,1,0,0:0:0:0:
256,192,113714,1,8,0:0:0:0:
256,192,113901,1,0,0:0:0:0:
256,192,114089,1,8,0:0:0:0:
256,192,114276,1,0,0:0:0:0:
256,192,114464,1,0,0:0:0:0:
256,192,114651,1,0,0:0:0:0:
416,64,114839,1,12,0:0:0:0:
416,64,115026,1,12,0:0:0:0:
416,64,115214,1,4,0:0:0:0:
416,64,115401,1,4,0:0:0:0:
416,64,115589,1,12,0:0:0:0:
384,96,116339,1,4,0:0:0:0:
384,96,116526,1,4,0:0:0:0:
384,96,116714,1,12,0:0:0:0:
384,96,116901,1,4,0:0:0:0:
384,96,117089,1,12,0:0:0:0:
352,96,117839,1,12,0:0:0:0:
256,192,118026,1,0,0:0:0:0:
256,192,118214,1,8,0:0:0:0:
256,192,118401,1,0,0:0:0:0:
256,192,118589,1,8,0:0:0:0:
256,192,118682,1,0,0:0:0:0:
256,192,118776,1,8,0:0:0:0:
256,192,118964,1,0,0:0:0:0:
256,192,119151,1,8,0:0:0:0:
256,192,119339,1,0,0:0:0:0:
256,192,119432,1,0,0:0:0:0:
256,192,119526,1,8,0:0:0:0:
256,192,119620,1,0,0:0:0:0:
256,192,119714,1,8,0:0:0:0:
256,192,119807,1,8,0:0:0:0:
256,192,119901,1,0,0:0:0:0:
256,192,119995,1,0,0:0:0:0:
256,192,120089,1,8,0:0:0:0:
416,96,120464,1,12,0:0:0:0:
416,96,120839,1,4,0:0:0:0:
256,192,121026,1,0,0:0:0:0:
256,192,121120,1,0,0:0:0:0:
256,192,121214,1,8,0:0:0:0:
256,192,121401,1,0,0:0:0:0:
256,192,121589,1,8,0:0:0:0:
256,192,121682,1,0,0:0:0:0:
256,192,121870,1,0,0:0:0:0:
256,192,121964,1,8,0:0:0:0:
256,192,122151,1,8,0:0:0:0:
256,192,122245,1,8,0:0:0:0:
256,192,122339,1,0,0:0:0:0:
256,192,122432,1,8,0:0:0:0:
256,192,122526,1,0,0:0:0:0:
256,192,122620,1,0,0:0:0:0:
256,192,122714,1,8,0:0:0:0:
256,192,122901,1,8,0:0:0:0:
256,192,123089,1,0,0:0:0:0:
256,192,123182,1,8,0:0:0:0:
256,192,123276,1,0,0:0:0:0:
256,192,123464,1,8,0:0:0:0:
256,192,123651,1,0,0:0:0:0:
256,192,123839,1,8,0:0:0:0:
256,192,123932,1,0,0:0:0:0:
256,192,124026,1,0,0:0:0:0:
256,192,124120,1,8,0:0:0:0:
256,192,124214,1,8,0:0:0:0:
256,192,124401,1,8,0:0:0:0:
256,192,124589,1,0,0:0:0:0:
256,192,124682,1,0,0:0:0:0:
256,192,124776,1,8,0:0:0:0:
256,192,124964,1,8,0:0:0:0:
256,192,125151,1,8,0:0:0:0:
256,192,125245,1,8,0:0:0:0:
256,192,125339,1,0,0:0:0:0:
256,192,125432,1,0,0:0:0:0:
256,192,125526,1,8,0:0:0:0:
256,192,125714,1,8,0:0:0:0:
256,192,125807,1,0,0:0:0:0:
256,192,125901,1,8,0:0:0:0:
256,192,126089,1,8,0:0:0:0:
256,192,126182,1,0,0:0:0:0:
256,192,126276,1,0,0:0:0:0:
256,192,126464,1,8,0:0:0:0:
256,192,126557,1,8,0:0:0:0:
256,192,126651,1,0,0:0:0:0:
256,192,126839,1,8,0:0:0:0:
256,192,127026,1,0,0:0:0:0:
256,192,127120,1,0,0:0:0:0:
256,192,127214,1,8,0:0:0:0:
256,192,127401,1,0,0:0:0:0:
256,192,127589,1,8,0:0:0:0:
256,192,127682,1,0,0:0:0:0:
256,192,127870,1,0,0:0:0:0:
256,192,127964,1,8,0:0:0:0:
256,192,128151,1,8,0:0:0:0:
256,192,128245,1,0,0:0:0:0:
256,192,128339,1,8,0:0:0:0:
256,192,128432,1,0,0:0:0:0:
256,192,128526,1,0,0:0:0:0:
256,192,128620,1,8,0:0:0:0:
256,192,128714,1,8,0:0:0:0:
256,192,128807,1,0,0:0:0:0:
256,192,128901,1,8,0:0:0:0:
256,192,129089,1,0,0:0:0:0:
256,192,129276,1,0,0:0:0:0:
256,192,129370,1,0,0:0:0:0:
256,192,129464,1,8,0:0:0:0:
256,192,129651,1,8,0:0:0:0:
256,192,129839,1,8,0:0:0:0:
256,192,129932,1,0,0:0:0:0:
256,192,130026,1,8,0:0:0:0:
256,192,130120,1,0,0:0:0:0:
256,192,130214,1,8,0:0:0:0:
256,192,130307,1,8,0:0:0:0:
256,192,130401,1,0,0:0:0:0:
256,192,130495,1,0,0:0:0:0:
256,192,130589,1,8,0:0:0:0:
256,192,130776,1,0,0:0:0:0:
256,192,130870,1,0,0:0:0:0:
256,192,130964,1,8,0:0:0:0:
256,192,131151,1,0,0:0:0:0:
256,192,131339,1,8,0:0:0:0:
256,192,131432,1,0,0:0:0:0:
256,192,131526,1,0,0:0:0:0:
256,192,131620,1,8,0:0:0:0:
256,192,131714,1,8,0:0:0:0:
256,192,131807,1,0,0:0:0:0:
256,192,131901,1,8,0:0:0:0:
256,192,131995,1,0,0:0:0:0:
256,192,132089,1,8,0:0:0:0:
256,192,132151,1,8,0:0:0:0:
256,192,132214,1,8,0:0:0:0:
256,192,132276,1,0,0:0:0:0:
256,192,132370,1,8,0:0:0:0:
256,192,132464,1,0,0:0:0:0:
256,192,132526,1,0,0:0:0:0:
256,192,132589,1,0,0:0:0:0:
256,192,132651,1,8,0:0:0:0:
256,192,132745,1,0,0:0:0:0:
256,192,132839,1,8,0:0:0:0:
352,96,133214,1,12,0:0:0:0:
256,192,133401,1,0,0:0:0:0:
256,192,133589,1,8,0:0:0:0:
256,192,133682,1,0,0:0:0:0:
256,192,133870,1,0,0:0:0:0:
256,192,133964,1,8,0:0:0:0:
256,192,134151,1,8,0:0:0:0:
256,192,134245,1,8,0:0:0:0:
256,192,134339,1,0,0:0:0:0:
256,192,134432,1,0,0:0:0:0:
256,192,134526,1,8,0:0:0:0:
256,192,134620,1,0,0:0:0:0:
256,192,134714,1,8,0:0:0:0:
256,192,134901,1,8,0:0:0:0:
256,192,135089,1,8,0:0:0:0:
256,192,135182,1,8,0:0:0:0:
256,192,135276,1,0,0:0:0:0:
256,192,135464,1,8,0:0:0:0:
256,192,135651,1,0,0:0:0:0:
256,192,135839,1,0,0:0:0:0:
256,192,135932,1,0,0:0:0:0:
256,192,136026,1,8,0:0:0:0:
256,192,136120,1,0,0:0:0:0:
256,192,136214,1,8,0:0:0:0:
256,192,136401,1,0,0:0:0:0:
256,192,136589,1,8,0:0:0:0:
256,192,136682,1,0,0:0:0:0:
256,192,136776,1,8,0:0:0:0:
256,192,136964,1,8,0:0:0:0:
256,192,137151,1,8,0:0:0:0:
256,192,137245,1,0,0:0:0:0:
256,192,137339,1,8,0:0:0:0:
256,192,137432,1,8,0:0:0:0:
256,192,137526,1,0,0:0:0:0:
256,192,137714,1,8,0:0:0:0:
256,192,137807,1,8,0:0:0:0:
256,192,137901,1,0,0:0:0:0:
256,192,138089,1,8,0:0:0:0:
256,192,138182,1,0,0:0:0:0:
256,192,138276,1,8,0:0:0:0:
256,192,138370,1,0,0:0:0:0:
256,192,138464,1,8,0:0:0:0:
256,192,138557,1,8,0:0:0:0:
256,192,138651,1,0,0:0:0:0:
256,192,138839,1,8,0:0:0:0:
256,192,139026,1,0,0:0:0:0:
256,192,139120,1,0,0:0:0:0:
256,192,139214,1,8,0:0:0:0:
256,192,139401,1,8,0:0:0:0:
256,192,139589,1,0,0:0:0:0:
256,192,139682,1,8,0:0:0:0:
256,192,139776,1,8,0:0:0:0:
256,192,139870,1,0,0:0:0:0:
256,192,139964,1,8,0:0:0:0:
256,192,140057,1,0,0:0:0:0:
256,192,140151,1,8,0:0:0:0:
256,192,140339,1,0,0:0:0:0:
256,192,140526,1,8,0:0:0:0:
256,192,140620,1,0,0:0:0:0:
256,192,140714,1,8,0:0:0:0:
256,192,140901,1,8,0:0:0:0:
256,192,140995,1,0,0:0:0:0:
256,192,141089,1,0,0:0:0:0:
256,192,141276,1,0,0:0:0:0:
256,192,141464,1,8,0:0:0:0:
256,192,141651,1,8,0:0:0:0:
256,192,141745,1,8,0:0:0:0:
256,192,141839,1,0,0:0:0:0:
256,192,141932,1,8,0:0:0:0:
256,192,142026,1,0,0:0:0:0:
256,192,142214,1,8,0:0:0:0:
256,192,142307,1,0,0:0:0:0:
256,192,142401,1,8,0:0:0:0:
256,192,142495,1,0,0:0:0:0:
256,192,142589,1,8,0:0:0:0:
256,192,142682,1,8,0:0:0:0:
256,192,142776,1,0,0:0:0:0:
256,192,142870,1,0,0:0:0:0:
256,192,142964,1,8,0:0:0:0:
256,192,143151,1,0,0:0:0:0:
256,192,143339,1,8,0:0:0:0:
256,192,143432,1,8,0:0:0:0:
256,192,143526,1,0,0:0:0:0:
256,192,143620,1,0,0:0:0:0:
256,192,143714,1,8,0:0:0:0:
256,192,143807,1,0,0:0:0:0:
256,192,143901,1,8,0:0:0:0:
256,192,143995,1,8,0:0:0:0:
256,192,144089,1,0,0:0:0:0:
256,192,144182,1,0,0:0:0:0:
256,192,144276,1,8,0:0:0:0:
256,192,144370,1,8,0:0:0:0:
256,192,144464,1,8,0:0:0:0:
256,192,144557,1,0,0:0:0:0:
256,192,144651,1,8,0:0:0:0:
416,64,144839,1,4,0:0:0:0:
256,192,145026,1,0,0:0:0:0:
256,192,145214,1,8,0:0:0:0:
256,192,145401,1,0,0:0:0:0:
256,192,145495,1,8,0:0:0:0:
256,192,145589,1,0,0:0:0:0:
256,192,145776,1,0,0:0:0:0:
256,192,145964,1,8,0:0:0:0:
256,192,146151,1,0,0:0:0:0:
256,192,146245,1,0,0:0:0:0:
256,192,146339,1,8,0:0:0:0:
256,192,146526,1,8,0:0:0:0:
256,192,146620,1,0,0:0:0:0:
256,192,146714,1,8,0:0:0:0:
256,192,146901,1,8,0:0:0:0:
256,192,147089,1,0,0:0:0:0:
256,192,147276,1,0,0:0:0:0:
256,192,147370,1,0,0:0:0:0:
256,192,147464,1,8,0:0:0:0:
256,192,147557,1,8,0:0:0:0:
256,192,147651,1,0,0:0:0:0:
256,192,147839,1,0,0:0:0:0:
256,192,148026,1,0,0:0:0:0:
256,192,148120,1,0,0:0:0:0:
256,192,148214,1,8,0:0:0:0:
256,192,148307,1,0,0:0:0:0:
256,192,148401,1,8,0:0:0:0:
256,192,148589,1,8,0:0:0:0:
256,192,148776,1,0,0:0:0:0:
256,192,148870,1,8,0:0:0:0:
256,192,148964,1,8,0:0:0:0:
256,192,149151,1,0,0:0:0:0:
256,192,149339,1,8,0:0:0:0:
256,192,149526,1,8,0:0:0:0:
256,192,149620,1,0,0:0:0:0:
256,192,149714,1,8,0:0:0:0:
256,192,149901,1,0,0:0:0:0:
256,192,150089,1,8,0:0:0:0:
256,192,150276,1,0,0:0:0:0:
256,192,150370,1,0,0:0:0:0:
256,192,150464,1,8,0:0:0:0:
256,192,150651,1,0,0:0:0:0:
256,192,150839,1,0,0:0:0:0:
256,192,150932,1,8,0:0:0:0:
256,192,151026,1,0,0:0:0:0:
256,192,151120,1,0,0:0:0:0:
256,192,151214,1,8,0:0:0:0:
256,192,151401,1,8,0:0:0:0:
256,192,151495,1,0,0:0:0:0:
256,192,151589,1,8,0:0:0:0:
256,192,151682,1,0,0:0:0:0:
256,192,151776,1,0,0:0:0:0:
256,192,151870,1,0,0:0:0:0:
256,192,151964,1,8,0:0:0:0:
256,192,152151,1,0,0:0:0:0:
256,192,152245,1,0,0:0:0:0:
256,192,152339,1,8,0:0:0:0:
256,192,152526,1,8,0:0:0:0:
256,192,152620,1,0,0:0:0:0:
256,192,152714,1,8,0:0:0:0:
256,192,152901,1,0,0:0:0:0:
256,192,153089,1,8,0:0:0:0:
256,192,153182,1,8,0:0:0:0:
256,192,153276,1,0,0:0:0:0:
256,192,153370,1,0,0:0:0:0:
256,192,153464,1,8,0:0:0:0:
256,192,153651,1,0,0:0:0:0:
256,192,153839,1,8,0:0:0:0:
256,192,154026,1,8,0:0:0:0:
256,192,154120,1,0,0:0:0:0:
256,192,154214,1,8,0:0:0:0:
256,192,154401,1,0,0:0:0:0:
256,192,154495,1,8,0:0:0:0:
256,192,154589,1,8,0:0:0:0:
256,192,154682,1,0,0:0:0:0:
256,192,154776,1,8,0:0:0:0:
256,192,154870,1,0,0:0:0:0:
256,192,154964,1,8,0:0:0:0:
256,192,155151,1,0,0:0:0:0:
256,192,155339,1,8,0:0:0:0:
256,192,155432,1,0,0:0:0:0:
256,192,155526,1,8,0:0:0:0:
256,192,155620,1,8,0:0:0:0:
256,192,155714,1,0,0:0:0:0:
256,192,155807,1,0,0:0:0:0:
256,192,155901,1,8,0:0:0:0:
256,192,155995,1,0,0:0:0:0:
256,192,156089,1,8,0:0:0:0:
256,192,156276,1,0,0:0:0:0:
256,192,156464,1,8,0:0:0:0:
256,192,156557,1,8,0:0:0:0:
256,192,156651,1,0,0:0:0:0:
352,96,156839,1,12,0:0:0:0:
256,192,157214,1,0,0:0:0:0:
256,192,157495,1,8,0:0:0:0:
256,192,157589,1,0,0:0:0:0:
256,192,157776,1,8,0:0:0:0:
256,192,157870,1,8,0:0:0:0:
256,192,157964,1,0,0:0:0:0:
256,192,158057,1,0,0:0:0:0:
256,192,158151,1,8,0:0:0:0:
256,192,158339,1,0,0:0:0:0:
256,192,158714,1,0,0:0:0:0:
256,192,158807,1,0,0:0:0:0:
256,192,158995,1,8,0:0:0:0:
256,192,159089,1,0,0:0:0:0:
256,192,159182,1,8,0:0:0:0:
256,192,159276,1,0,0:0:0:0:
256,192,159464,1,0,0:0:0:0:
256,192,159557,1,0,0:0:0:0:
256,192,159651,1,0,0:0:0:0:
256,192,159745,1,8,0:0:0:0:
256,192,159839,1,0,0:0:0:0:
256,192,160214,1,8,0:0:0:0:
256,192,160307,1,0,0:0:0:0:
256,192,160401,1,0,0:0:0:0:
256,192,160589,1,0,0:0:0:0:
256,192,160776,1,8,0:0:0:0:
256,192,160870,1,0,0:0:0:0:
256,192,160964,1,8,0:0:0:0:
256,192,161057,1,0,0:0:0:0:
256,192,161151,1,0,0:0:0:0:
256,192,161339,1,8,0:0:0:0:
256,192,161526,1,8,0:0:0:0:
256,192,161714,1,0,0:0:0:0:
256,192,162089,1,0,0:0:0:0:
256,192,162276,1,8,0:0:0:0:
256,192,162464,1,8,0:0:0:0:
256,192,162557,1,8,0:0:0:0:
256,192,162651,1,0,0:0:0:0:
416,64,162839,1,12,0:0:0:0:
256,192,163026,1,0,0:0:0:0:
256,192,163214,1,8,0:0:0:0:
256,192,163401,1,0,0:0:0:0:
256,192,163495,1,0,0:0:0:0:
256,192,163589,1,8,0:0:0:0:
256,192,163682,1,8,0:0:0:0:
256,192,163870,1,0,0:0:0:0:
256,192,163964,1,8,0:0:0:0:
256,192,164339,1,8,0:0:0:0:
256,192,164432,1,0,0:0:0:0:
256,192,164620,1,0,0:0:0:0:
256,192,164714,1,8,0:0:0:0:
256,192,164901,1,8,0:0:0:0:
256,192,164995,1,0,0:0:0:0:
256,192,165089,1,0,0:0:0:0:
256,192,165182,1,8,0:0:0:0:
256,192,165370,1,0,0:0:0:0:
256,192,165464,1,8,0:0:0:0:
256,192,165839,1,8,0:0:0:0:
256,192,166026,1,8,0:0:0:0:
256,192,166214,1,0,0:0:0:0:
256,192,166401,1,0,0:0:0:0:
256,192,166589,1,8,0:0:0:0:
256,192,166682,1,8,0:0:0:0:
256,192,166776,1,0,0:0:0:0:
256,192,166964,1,8,0:0:0:0:
256,192,167151,1,0,0:0:0:0:
256,192,167339,1,8,0:0:0:0:
256,192,167432,1,0,0:0:0:0:
256,192,167526,1,8,0:0:0:0:
256,192,167620,1,8,0:0:0:0:
256,192,167714,1,0,0:0:0:0:
256,192,167807,1,8,0:0:0:0:
256,192,167901,1,0,0:0:0:0:
256,192,167995,1,0,0:0:0:0:
256,192,168089,1,8,0:0:0:0:
256,192,168182,1,0,0:0:0:0:
256,192,168276,1,8,0:0:0:0:
256,192,168339,1,8,0:0:0:0:
256,192,168401,1,8,0:0:0:0:
256,192,168464,1,0,0:0:0:0:
256,192,168557,1,8,0:0:0:0:
256,192,168651,1,0,0:0:0:0:
384,96,168839,1,4,0:0:0:0:
256,192,169589,1,0,0:0:0:0:
256,192,170151,1,8,0:0:0:0:
256,192,170526,1,8,0:0:0:0:
256,192,170620,1,0,0:0:0:0:
256,192,170714,1,0,0:0:0:0:
256,192,170901,1,8,0:0:0:0:
256,192,171276,1,0,0:0:0:0:
256,192,171370,1,8,0:0:0:0:
256,192,171464,1,0,0:0:0:0:
256,192,171651,1,8,0:0:0:0:
256,192,171839,1,0,0:0:0:0:
256,192,172120,1,8,0:0:0:0:
256,192,172214,1,0,0:0:0:0:
256,192,172401,1,0,0:0:0:0:
256,192,172589,1,8,0:0:0:0:
256,192,172870,1,8,0:0:0:0:
256,192,173151,1,8,0:0:0:0:
256,192,173526,1,0,0:0:0:0:
256,192,173620,1,8,0:0:0:0:
256,192,173714,1,0,0:0:0:0:
256,192,173901,1,8,0:0:0:0:
256,192,174089,1,0,0:0:0:0:
256,192,174276,1,0,0:0:0:0:
256,192,174464,1,8,0:0:0:0:
256,192,174839,1,0,0:0:0:0:
256,192,175214,1,8,0:0:0:0:
256,192,175589,1,0,0:0:0:0:
256,192,175964,1,8,0:0:0:0:
256,192,176339,1,0,0:0:0:0:
256,192,176714,1,8,0:0:0:0:
256,192,177089,1,0,0:0:0:0:
256,192,177464,1,8,0:0:0:0:
256,192,177839,1,0,0:0:0:0:
256,192,178026,1,0,0:0:0:0:
256,192,178214,1,8,0:0:0:0:
256,192,178401,1,0,0:0:0:0:
256,192,178589,1,8,0:0:0:0:
256,192,178776,1,0,0:0:0:0:
256,192,178964,1,8,0:0:0:0:
256,192,179151,1,8,0:0:0:0:
256,192,179339,1,0,0:0:0:0:
256,192,179432,1,0,0:0:0:0:
256,192,179526,1,8,0:0:0:0:
256,192,179620,1,8,0:0:0:0:
256,192,179714,1,0,0:0:0:0:
256,192,179807,1,8,0:0:0:0:
256,192,179901,1,0,0:0:0:0:
256,192,179995,1,8,0:0:0:0:
256,192,180089,1,0,0:0:0:0:
256,192,180151,1,0,0:0:0:0:
256,192,180214,1,0,0:0:0:0:
256,192,180276,1,8,0:0:0:0:
256,192,180370,1,0,0:0:0:0:
256,192,180464,1,8,0:0:0:0:
256,192,180526,1,0,0:0:0:0:
256,192,180589,1,0,0:0:0:0:
256,192,180651,1,8,0:0:0:0:
256,192,180745,1,0,0:0:0:0:
256,192,180839,1,8,0:0:0:0:
384,64,181214,1,12,0:0:0:0:
256,192,181401,1,0,0:0:0:0:
256,192,181495,1,8,0:0:0:0:
256,192,181589,1,8,0:0:0:0:
256,192,181776,1,0,0:0:0:0:
256,192,181870,1,0,0:0:0:0:
256,192,181964,1,8,0:0:0:0:
256,192,182151,1,0,0:0:0:0:
256,192,182245,1,8,0:0:0:0:
256,192,182339,1,8,0:0:0:0:
256,192,182432,1,0,0:0:0:0:
256,192,182526,1,8,0:0:0:0:
256,192,182620,1,0,0:0:0:0:
256,192,182714,1,8,0:0:0:0:
256,192,182807,1,8,0:0:0:0:
256,192,182901,1,0,0:0:0:0:
256,192,183089,1,0,0:0:0:0:
256,192,183276,1,8,0:0:0:0:
256,192,183370,1,0,0:0:0:0:
256,192,183464,1,0,0:0:0:0:
256,192,183557,1,8,0:0:0:0:
256,192,183651,1,8,0:0:0:0:
256,192,183839,1,0,0:0:0:0:
256,192,184026,1,8,0:0:0:0:
256,192,184120,1,8,0:0:0:0:
256,192,184214,1,8,0:0:0:0:
256,192,184307,1,0,0:0:0:0:
256,192,184401,1,8,0:0:0:0:
256,192,184589,1,0,0:0:0:0:
256,192,184776,1,0,0:0:0:0:
256,192,184870,1,0,0:0:0:0:
256,192,184964,1,8,0:0:0:0:
256,192,185151,1,8,0:0:0:0:
256,192,185245,1,8,0:0:0:0:
256,192,185339,1,0,0:0:0:0:
256,192,185432,1,0,0:0:0:0:
256,192,185526,1,8,0:0:0:0:
256,192,185714,1,8,0:0:0:0:
256,192,185901,1,0,0:0:0:0:
256,192,186089,1,0,0:0:0:0:
256,192,186182,1,8,0:0:0:0:
256,192,186276,1,0,0:0:0:0:
256,192,186370,1,0,0:0:0:0:
256,192,186464,1,8,0:0:0:0:
256,192,186557,1,0,0:0:0:0:
256,192,186651,1,8,0:0:0:0:
256,192,186839,1,8,0:0:0:0:
256,192,187026,1,0,0:0:0:0:
256,192,187120,1,0,0:0:0:0:
256,192,187214,1,8,0:0:0:0:
256,192,187401,1,0,0:0:0:0:
256,192,187589,1,8,0:0:0:0:
256,192,187682,1,0,0:0:0:0:
256,192,187776,1,0,0:0:0:0:
256,192,187870,1,8,0:0:0:0:
256,192,187964,1,8,0:0:0:0:
256,192,188057,1,0,0:0:0:0:
256,192,188151,1,8,0:0:0:0:
256,192,188339,1,0,0:0:0:0:
256,192,188526,1,0,0:0:0:0:
256,192,188620,1,0,0:0:0:0:
256,192,188714,1,8,0:0:0:0:
256,192,188807,1,0,0:0:0:0:
256,192,188901,1,8,0:0:0:0:
256,192,189089,1,8,0:0:0:0:
256,192,189182,1,8,0:0:0:0:
256,192,189276,1,0,0:0:0:0:
256,192,189464,1,8,0:0:0:0:
256,192,189651,1,0,0:0:0:0:
256,192,189839,1,0,0:0:0:0:
256,192,189932,1,8,0:0:0:0:
256,192,190026,1,0,0:0:0:0:
256,192,190120,1,0,0:0:0:0:
256,192,190214,1,8,0:0:0:0:
256,192,190401,1,0,0:0:0:0:
256,192,190495,1,0,0:0:0:0:
256,192,190589,1,8,0:0:0:0:
256,192,190776,1,0,0:0:0:0:
256,192,190870,1,8,0:0:0:0:
256,192,190964,1,8,0:0:0:0:
256,192,191151,1,0,0:0:0:0:
256,192,191339,1,8,0:0:0:0:
256,192,191432,1,8,0:0:0:0:
256,192,191526,1,0,0:0:0:0:
256,192,191620,1,8,0:0:0:0:
256,192,191714,1,0,0:0:0:0:
256,192,191807,1,8,0:0:0:0:
256,192,191901,1,0,0:0:0:0:
256,192,191995,1,0,0:0:0:0:
256,192,192089,1,8,0:0:0:0:
256,192,192182,1,8,0:0:0:0:
256,192,192276,1,0,0:0:0:0:
256,192,192370,1,8,0:0:0:0:
256,192,192464,1,0,0:0:0:0:
256,192,192557,1,0,0:0:0:0:
256,192,192651,1,8,0:0:0:0:
416,64,192839,1,12,0:0:0:0:
256,192,193026,1,0,0:0:0:0:
256,192,193214,1,8,0:0:0:0:
256,192,193307,1,8,0:0:0:0:
256,192,193401,1,0,0:0:0:0:
256,192,193589,1,8,0:0:0:0:
256,192,193776,1,0,0:0:0:0:
256,192,193964,1,8,0:0:0:0:
256,192,194057,1,8,0:0:0:0:
256,192,194151,1,8,0:0:0:0:
384,96,194339,1,12,0:0:0:0:
384,96,194714,1,12,0:0:0:0:
384,96,195089,1,12,0:0:0:0:
384,96,195464,1,12,0:0:0:0:
256,192,195839,1,8,0:0:0:0:
256,192,196026,1,0,0:0:0:0:
256,192,196214,1,8,0:0:0:0:
256,192,196307,1,8,0:0:0:0:
256,192,196401,1,0,0:0:0:0:
256,192,196589,1,8,0:0:0:0:
256,192,196776,1,0,0:0:0:0:
256,192,196964,1,8,0:0:0:0:
256,192,197057,1,8,0:0:0:0:
256,192,197151,1,8,0:0:0:0:
256,192,197339,1,8,0:0:0:0:
256,192,197526,1,0,0:0:0:0:
256,192,197620,1,0,0:0:0:0:
256,192,197714,1,8,0:0:0:0:
256,192,197901,1,0,0:0:0:0:
256,192,197995,1,0,0:0:0:0:
256,192,198089,1,8,0:0:0:0:
256,192,198276,1,0,0:0:0:0:
256,192,198464,1,8,0:0:0:0:
256,192,198557,1,8,0:0:0:0:
256,192,198651,1,0,0:0:0:0:
256,192,198745,1,0,0:0:0:0:
256,192,198839,1,8,0:0:0:0:
256,192,199026,1,0,0:0:0:0:
256,192,199214,1,8,0:0:0:0:
256,192,199307,1,8,0:0:0:0:
256,192,199401,1,0,0:0:0:0:
256,192,199589,1,8,0:0:0:0:
256,192,199682,1,0,0:0:0:0:
256,192,199776,1,8,0:0:0:0:
256,192,199870,1,0,0:0:0:0:
256,192,199964,1,8,0:0:0:0:
256,192,200151,1,0,0:0:0:0:
352,96,200339,1,12,0:0:0:0:
384,96,200714,1,12,0:0:0:0:
384,96,201089,1,12,0:0:0:0:
384,96,201464,1,12,0:0:0:0:
256,192,201839,1,8,0:0:0:0:
256,192,202026,1,0,0:0:0:0:
256,192,202120,1,0,0:0:0:0:
256,192,202214,1,8,0:0:0:0:
256,192,202401,1,0,0:0:0:0:
256,192,202589,1,8,0:0:0:0:
256,192,202682,1,0,0:0:0:0:
256,192,202776,1,0,0:0:0:0:
256,192,202870,1,8,0:0:0:0:
256,192,202964,1,8,0:0:0:0:
256,192,203151,1,0,0:0:0:0:
256,192,203339,1,8,0:0:0:0:
256,192,203432,1,8,0:0:0:0:
256,192,203526,1,0,0:0:0:0:
256,192,203620,1,0,0:0:0:0:
256,192,203714,1,8,0:0:0:0:
256,192,203807,1,8,0:0:0:0:
256,192,203901,1,8,0:0:0:0:
256,192,203995,1,0,0:0:0:0:
256,192,204089,1,8,0:0:0:0:
256,192,204182,1,0,0:0:0:0:
256,192,204276,1,0,0:0:0:0:
256,192,204370,1,0,0:0:0:0:
256,192,204464,1,8,0:0:0:0:
256,192,204557,1,8,0:0:0:0:
256,192,204651,1,0,0:0:0:0:
