osu file format v14

[General]
AudioFilename: audio.mp3
AudioLeadIn: 0
PreviewTime: 74691
Countdown: 0
SampleSet: Soft
StackLeniency: 0.3
Mode: 0
LetterboxInBreaks: 0
WidescreenStoryboard: 1

[Editor]
DistanceSpacing: 1.2
BeatDivisor: 4
GridSize: 32
TimelineZoom: 1.4

[Metadata]
Title:China Advice (Toccoyaki remix)
TitleUnicode:チャイナアドバイス (Toccoyaki remix)
Artist:wotoha
ArtistUnicode:をとは
Creator:climbx3145
Version:Insane
Source:
Tags:ଳ 海月ねう mitukineu cover やくしまるえつこ 相対性理論 soutaiseiriron シンクロニシティーン japanese jpop pop j-pop
BeatmapID:3241785
BeatmapSetID:1416201

[Difficulty]
HPDrainRate:5
CircleSize:4
OverallDifficulty:8
ApproachRate:9
SliderMultiplier:2.6
SliderTickRate:1

[Events]
//Background and Video events
0,0,"bg.jpg",0,0
Video,-32,"video.mp4"
//Break Periods
2,151170,157812
//Storyboard Layer 0 (Background)
//Storyboard Layer 1 (Fail)
//Storyboard Layer 2 (Pass)
//Storyboard Layer 3 (Foreground)
//Storyboard Layer 4 (Overlay)
//Storyboard Sound Samples

[TimingPoints]
2133,465.116279069767,4,2,1,65,1,0
2133,-111.111111111111,4,2,1,65,0,0
4923,-90.9090909090909,4,2,1,65,0,0
5853,-111.111111111111,4,2,1,65,0,0
8644,-90.9090909090909,4,2,1,65,0,0
9574,-111.111111111111,4,2,1,65,0,0
12365,-90.9090909090909,4,2,1,65,0,0
13295,-111.111111111111,4,2,1,65,0,0
17016,-166.666666666667,4,2,1,40,0,0
31900,-100,4,2,1,60,0,0
32830,-83.3333333333333,4,2,1,60,0,0
33760,-90.9090909090909,4,2,1,60,0,0
34691,-83.3333333333333,4,2,1,60,0,0
39342,-100,4,2,1,60,0,0
40272,-83.3333333333333,4,2,1,60,0,0
41202,-90.9090909090909,4,2,1,60,0,0
42132,-83.3333333333333,4,2,1,60,0,0
46784,-111.111111111111,4,2,1,65,0,0
49574,-90.9090909090909,4,2,1,65,0,0
50505,-111.111111111111,4,2,1,65,0,0
53295,-90.9090909090909,4,2,1,65,0,0
54226,-111.111111111111,4,2,1,65,0,0
57016,-90.9090909090909,4,2,1,65,0,0
57946,-111.111111111111,4,2,1,65,0,0
61667,-100,4,2,1,70,0,0
62598,-76.9230769230769,4,2,1,70,0,0
63528,-90.9090909090909,4,2,1,70,0,0
64458,-76.9230769230769,4,2,1,70,0,0
69109,-100,4,2,1,70,0,0
70039,-76.9230769230769,4,2,1,70,0,0
74691,-125,4,2,1,60,0,0
76551,-83.3333333333333,4,2,1,80,0,1
77946,-66.6666666666667,4,2,1,80,0,1
78877,-55.5555555555556,4,2,1,80,0,1
79807,-76.9230769230769,4,2,1,80,0,1
83993,-83.3333333333333,4,2,1,80,0,1
85388,-66.6666666666667,4,2,1,80,0,1
86319,-55.5555555555556,4,2,1,80,0,1
87249,-76.9230769230769,4,2,1,80,0,1
89574,-76.9230769230769,4,2,1,65,0,0
91435,-111.111111111111,4,2,1,65,0,0
94226,-90.9090909090909,4,2,1,65,0,0
95156,-111.111111111111,4,2,1,65,0,0
97946,-90.9090909090909,4,2,1,65,0,0
98877,-111.111111111111,4,2,1,65,0,0
101667,-90.9090909090909,4,2,1,65,0,0
102598,-111.111111111111,4,2,1,65,0,0
105621,-111.111111111111,4,2,2,60,0,0
106319,-114.942528735632,4,2,2,55,0,0
119342,-125,4,2,2,55,0,0
120272,-125,4,2,1,65,0,0
121202,-83.3333333333333,4,2,1,80,0,1
122598,-66.6666666666667,4,2,1,80,0,1
123528,-55.5555555555556,4,2,1,80,0,1
124458,-76.9230769230769,4,2,1,80,0,1
128644,-83.3333333333333,4,2,1,80,0,1
130039,-66.6666666666667,4,2,1,80,0,1
130970,-55.5555555555556,4,2,1,80,0,1
131900,-76.9230769230769,4,2,1,80,0,1
134226,-90.9090909090909,4,2,1,65,0,1
136086,-142.857142857143,4,2,1,50,0,0
136319,-142.857142857143,4,2,3,50,0,0
143528,-100,4,2,1,60,0,0
150970,-90.9090909090909,4,2,3,50,0,0
158412,-90.9090909090909,4,2,1,55,0,0
160272,-76.9230769230769,4,2,1,55,0,0
162132,-90.9090909090909,4,2,1,55,0,0
164458,-111.111111111111,4,2,2,55,0,0
164923,-90.9090909090909,4,2,2,55,0,0
165853,-200,4,2,2,55,0,0
166319,-83.3333333333333,4,2,1,80,0,1
167249,-66.6666666666667,4,2,1,80,0,1
168179,-55.5555555555556,4,2,1,80,0,1
169109,-76.9230769230769,4,2,1,80,0,1
173295,-83.3333333333333,4,2,1,80,0,1
174923,-71.4285714285714,4,2,1,80,0,1
175621,-62.5,4,2,1,80,0,1
176551,-76.9230769230769,4,2,1,80,0,1
178877,-90.9090909090909,4,2,1,60,0,0
180737,-90.9090909090909,4,2,1,50,0,0
181202,-166.666666666667,4,2,1,40,0,0
186319,-166.666666666667,4,2,1,50,0,0
188179,-90.9090909090909,4,2,1,68,0,0
189574,-76.9230769230769,4,2,1,68,0,0
190505,-66.6666666666667,4,2,1,68,0,0
191435,-90.9090909090909,4,2,1,68,0,0
193760,-83.3333333333333,4,2,1,58,0,0
195156,-83.3333333333333,4,2,2,58,0,0
195621,-83.3333333333333,4,2,1,68,0,0

[Colours]
Combo1 : 255,160,115
Combo2 : 106,181,255
Combo3 : 255,255,125

[HitObjects]
63,95,2134,6,0,L|178:74,1,116.999996429443,6|0,1:2|0:0,0:0:0:0:
268,102,2481,1,0,0:0:0:0:
271,84,2598,2,0,L|281:25,3,58.4999982147217,0|0|0|0,1:2|0:0|0:0|0:0,0:0:0:0:
368,61,3063,2,0,L|378:118,3,58.4999982147217,0|0|0|0,1:2|0:0|0:0|0:0,0:0:0:0:
471,103,3528,2,0,L|460:160,3,58.4999982147217,0|0|0|0,1:2|0:0|0:0|0:0,0:0:0:0:
404,236,3993,5,0,1:2:0:0:
386,232,4109,1,0,0:0:0:0:
368,229,4226,2,0,L|310:218,1,58.4999982147217,2|0,0:0|0:0,0:0:0:0:
235,273,4458,2,0,L|178:283,1,58.4999982147217,2|0,1:2|0:0,0:0:0:0:
153,193,4691,2,0,L|95:183,1,58.4999982147217,2|0,0:0|0:0,0:0:0:0:
42,53,4923,2,0,P|22:81|24:116,1,71.5000021820069,2|0,1:2|0:0,0:0:0:0:
0,301,5156,2,0,P|19:272|17:237,1,71.5000021820069,2|0,0:0|0:0,0:0:0:0:
95,183,5388,2,0,L|165:195,1,71.5000021820069,2|0,1:2|0:0,0:0:0:0:
240,142,5621,2,0,L|310:129,1,71.5000021820069,2|0,0:0|0:0,0:0:0:0:
404,142,5853,6,0,P|407:113|422:88,3,58.4999982147217,2|0|0|0,1:2|0:0|0:0|0:0,0:0:0:0:
347,29,6319,1,0,1:2:0:0:
331,33,6435,1,0,0:0:0:0:
313,36,6551,2,0,P|285:39|258:28,1,58.4999982147217,2|0,0:0|0:0,0:0:0:0:
164,15,6784,2,0,P|173:42|180:70,3,58.4999982147217,2|0|0|0,1:2|0:0|0:0|0:0,0:0:0:0:
238,145,7249,2,0,P|228:172|221:201,3,58.4999982147217,0|0|0|0,1:2|0:0|0:0|0:0,0:0:0:0:
173,282,7714,5,0,1:2:0:0:
157,279,7830,1,0,0:0:0:0:
140,275,7946,2,0,P|112:266|85:258,1,58.4999982147217,2|0,0:0|0:0,0:0:0:0:
197,359,8179,2,0,P|225:350|252:342,1,58.4999982147217,2|0,1:2|0:0,0:0:0:0:
342,369,8412,2,0,P|370:360|397:352,1,58.4999982147217,2|0,0:0|0:0,0:0:0:0:
429,192,8644,6,0,P|404:216|398:251,1,71.5000021820069,2|0,1:2|0:0,0:0:0:0:
482,288,8877,2,0,P|506:263|512:228,1,71.5000021820069,2|0,0:0|0:0,0:0:0:0:
445,107,9109,2,0,P|480:107|508:86,1,71.5000021820069,2|0,1:2|0:0,0:0:0:0:
476,2,9342,2,0,P|440:1|412:22,1,71.5000021820069,2|0,0:0|0:0,0:0:0:0:
334,110,9574,6,0,P|305:99|277:92,3,58.4999982147217,2|0|0|0,1:2|0:0|0:0|0:0,0:0:0:0:
216,22,10039,2,0,P|187:32|159:39,3,58.4999982147217,0|0|0|0,1:2|0:0|0:0|0:0,0:0:0:0:
109,117,10505,2,0,P|119:144|125:172,3,58.4999982147217,0|0|0|0,1:2|0:0|0:0|0:0,0:0:0:0:
209,215,10970,2,0,P|198:242|192:270,3,58.4999982147217,0|0|0|0,1:2|0:0|0:0|0:0,0:0:0:0:
145,352,11435,5,0,1:2:0:0:
127,348,11551,1,0,0:0:0:0:
109,345,11667,2,0,L|51:334,1,58.4999982147217,2|0,0:0|0:0,0:0:0:0:
52,240,11900,2,0,L|109:229,1,58.4999982147217,2|0,1:2|0:0,0:0:0:0:
250,261,12132,2,0,L|192:271,1,58.4999982147217,2|0,0:0|0:0,0:0:0:0:
324,310,12365,6,0,P|337:277|335:242,1,71.5000021820069,2|0,1:2|0:0,0:0:0:0:
278,105,12598,2,0,P|264:137|266:172,1,71.5000021820069,2|0,0:0|0:0,0:0:0:0:
433,168,12830,2,0,L|362:155,1,71.5000021820069,2|0,1:2|0:0,0:0:0:0:
442,266,13063,2,0,L|512:253,1,71.5000021820069,2|0,0:0|0:0,0:0:0:0:
364,376,13295,6,0,P|352:350|346:321,3,58.4999982147217,2|0|0|0,1:2|0:0|0:0|0:0,0:0:0:0:
255,274,13760,1,0,1:2:0:0:
252,291,13877,1,0,0:0:0:0:
249,308,13993,2,0,P|241:335|221:356,1,58.4999982147217,2|0,0:0|0:0,0:0:0:0:
130,382,14226,2,0,P|101:374|72:372,3,58.4999982147217,2|0|0|0,1:2|0:0|0:0|0:0,0:0:0:0:
56,280,14691,2,0,P|29:268|5:251,3,58.4999982147217,0|0|0|0,1:2|0:0|0:0|0:0,0:0:0:0:
74,188,15156,6,0,P|63:160|58:132,3,58.4999982147217,0|0|0|0,1:2|0:0|0:0|0:0,0:0:0:0:
152,133,15621,2,0,P|163:106|180:82,3,58.4999982147217,0|0|0|0,1:2|0:0|0:0|0:0,0:0:0:0:
273,58,16086,5,0,1:2:0:0:
297,41,16202,1,0,0:0:0:0:
314,65,16319,1,0,0:0:0:0:
290,81,16435,1,0,0:0:0:0:
281,114,16551,1,8,0:0:0:0:
302,149,16667,1,8,0:0:0:0:
282,191,16784,2,0,L|292:248,1,58.4999982147217,0|0,1:2|0:0,0:0:0:0:
350,322,17016,6,0,P|387:315|422:331,2,77.999997619629,6|2|2,1:3|0:0|0:0,0:0:0:0:
276,348,17714,1,2,0:0:0:0:
276,348,17946,2,0,P|164:371|66:310,1,233.999992858887,0|0,0:0|0:0,0:0:0:0:
90,236,18877,6,0,P|89:194|76:159,2,77.999997619629,2|2|2,0:0|0:0|0:0,0:0:0:0:
161,277,19574,1,2,0:0:0:0:
161,277,19807,2,0,P|209:196|341:185,1,233.999992858887,0|0,0:0|0:0,0:0:0:0:
403,140,20737,6,0,P|439:152|478:153,2,77.999997619629,2|2|2,0:0|0:0|0:0,0:0:0:0:
365,71,21435,1,2,0:0:0:0:
365,71,21667,2,0,B|268:13|237:115|141:51,1,233.999992858887,0|0,0:0|0:0,0:0:0:0:
89,110,22598,6,0,P|107:144|109:182,2,77.999997619629,2|2|2,0:0|0:0|0:0,0:0:0:0:
10,134,23295,1,2,0:0:0:0:
10,134,23528,2,0,P|12:172|30:206,1,77.999997619629,0|0,0:0|0:0,0:0:0:0:
93,268,23993,2,0,P|131:265|165:247,1,77.999997619629,0|0,0:0|0:0,0:0:0:0:
221,127,24458,5,2,0:0:0:0:
250,207,24691,1,2,0:0:0:0:
306,143,24923,1,2,0:0:0:0:
335,223,25156,1,2,0:0:0:0:
391,158,25388,2,0,L|467:171,1,77.999997619629,0|0,0:0|0:0,0:0:0:0:
509,246,25853,2,0,L|496:322,1,77.999997619629,0|0,0:0|0:0,0:0:0:0:
358,383,26319,5,2,0:0:0:0:
397,306,26551,1,2,0:0:0:0:
311,311,26784,1,2,0:0:0:0:
348,234,27016,1,2,0:0:0:0:
262,239,27249,2,0,L|185:225,2,77.999997619629,0|0|0,0:0|0:0|0:0,0:0:0:0:
311,311,27946,1,0,0:0:0:0:
301,151,28179,5,2,0:0:0:0:
271,70,28412,1,2,0:0:0:0:
216,135,28644,1,2,0:0:0:0:
187,53,28877,1,2,0:0:0:0:
130,116,29109,2,0,L|53:102,1,77.999997619629,0|0,0:0|0:0,0:0:0:0:
1,170,29574,2,0,L|15:247,1,77.999997619629,0|0,0:0|0:0,0:0:0:0:
210,301,30039,5,0,1:2:0:0:
256,192,30156,12,0,31667,0:0:0:0:
226,65,31900,6,0,P|194:120|201:184,1,130,2|0,1:2|0:0,0:0:0:0:
322,324,32365,2,0,P|329:260|297:204,1,130,2|2,1:2|0:0,0:0:0:0:
158,267,32714,1,0,0:0:0:0:
144,274,32830,6,0,P|104:265|79:232,1,77.999997619629,2|0,1:2|0:0,0:0:0:0:
4,178,33063,2,0,P|-9:138|7:100,1,77.999997619629,2|0,0:0|0:0,0:0:0:0:
44,14,33295,2,0,P|108:61|92:140,1,155.999995239258,2|0,1:2|0:0,0:0:0:0:
100,129,33760,6,0,P|134:120|168:108,1,71.5000021820069,2|0,1:2|0:0,0:0:0:0:
318,175,33993,2,0,P|284:162|249:154,1,71.5000021820069,2|0,0:0|0:0,0:0:0:0:
442,156,34226,2,0,P|398:212|378:280,1,143.000004364014,2|0,1:2|0:0,0:0:0:0:
296,328,34574,1,0,0:0:0:0:
318,175,34691,6,0,P|310:134|277:109,1,77.999997619629,2|0,1:2|0:0,0:0:0:0:
221,34,34923,2,0,P|182:20|144:37,1,77.999997619629,2|0,0:0|0:0,0:0:0:0:
57,73,35156,2,0,P|100:135|174:129,1,155.999995239258,2|0,1:2|0:0,0:0:0:0:
318,175,35621,6,0,P|281:155|240:166,1,77.999997619629,2|0,1:2|0:0,0:0:0:0:
146,163,35853,2,0,P|110:184|101:225,1,77.999997619629,2|0,0:0|0:0,0:0:0:0:
75,315,36086,2,0,P|149:318|191:256,1,155.999995239258,2|0,1:2|0:0,0:0:0:0:
342,107,36551,6,0,P|316:139|319:180,1,77.999997619629,2|0,1:2|0:0,0:0:0:0:
301,269,36784,2,0,P|315:306|353:323,1,77.999997619629,2|0,0:0|0:0,0:0:0:0:
438,365,37016,2,0,P|455:291|401:239,1,155.999995239258,2|2,1:2|0:0,0:0:0:0:
263,373,37365,1,0,0:0:0:0:
171,374,37481,6,0,P|137:355|124:319,1,77.999997619629,2|0,1:2|0:0,0:0:0:0:
24,212,37714,2,0,P|62:220|99:229,1,77.999997619629,2|0,0:0|0:0,0:0:0:0:
279,184,37946,1,2,1:2:0:0:
149,55,38179,1,2,0:0:0:0:
279,184,38412,1,2,1:2:0:0:
149,55,38644,6,0,L|155:3,2,51.999998413086,2|2|2,0:0|0:3|0:3,0:0:0:0:
156,71,38877,1,2,1:2:0:0:
263,164,39109,1,0,1:2:0:0:
224,300,39342,6,0,P|287:295|341:329,1,130,2|0,1:2|0:0,0:0:0:0:
138,377,39807,2,0,P|74:381|20:347,1,130,2|2,1:2|0:0,0:0:0:0:
114,190,40156,1,0,0:0:0:0:
123,207,40272,6,0,P|116:248|101:287,1,77.999997619629,2|0,1:2|0:0,0:0:0:0:
266,212,40505,2,0,P|242:247|212:275,1,77.999997619629,2|0,0:0|0:0,0:0:0:0:
244,381,40737,2,0,P|317:334|396:311,1,155.999995239258,2|0,1:2|0:0,0:0:0:0:
382,313,41202,6,0,P|398:281|403:246,1,71.5000021820069,2|0,1:2|0:0,0:0:0:0:
512,154,41435,2,0,P|495:185|490:220,1,71.5000021820069,2|0,0:0|0:0,0:0:0:0:
306,227,41667,2,0,P|296:156|263:93,1,143.000004364014,2|0,1:2|0:0,0:0:0:0:
239,0,42016,1,0,0:0:0:0:
88,86,42132,6,0,P|119:112|121:153,1,77.999997619629,2|0,1:2|0:0,0:0:0:0:
193,212,42365,2,0,P|185:252|150:275,1,77.999997619629,2|0,0:0|0:0,0:0:0:0:
107,357,42598,2,0,P|64:353|91:241,1,155.999995239258,2|0,1:2|0:0,0:0:0:0:
341,143,43063,6,0,P|302:153|283:189,1,77.999997619629,2|0,1:2|0:0,0:0:0:0:
193,212,43296,2,0,P|184:252|205:287,1,77.999997619629,2|0,0:0|0:0,0:0:0:0:
252,362,43529,2,0,P|293:376|315:264,1,155.999995239258,2|0,1:2|0:0,0:0:0:0:
249,59,43993,6,0,P|241:98|207:121,1,77.999997619629,2|0,1:2|0:0,0:0:0:0:
193,212,44226,2,0,P|154:225|116:206,1,77.999997619629,2|0,0:0|0:0,0:0:0:0:
24,210,44459,2,0,P|5:170|116:138,1,155.999995239258,2|0,1:2|0:0,0:0:0:0:
193,212,44807,1,0,0:0:0:0:
207,226,44923,2,0,L|283:212,1,77.999997619629,0|0,1:2|0:0,1:2:0:0:
452,65,45156,5,2,0:0:0:0:
265,60,45388,1,2,1:2:0:0:
356,149,45621,1,2,0:0:0:0:
284,337,45853,1,2,1:2:0:0:
97,355,46086,6,0,L|104:293,2,51.999998413086,2|2|2,0:3|0:3|0:3,0:0:0:0:
101,373,46319,1,2,1:2:0:0:
268,359,46551,1,2,1:2:0:0:
339,141,46784,6,0,P|288:112|231:116,1,116.999996429443,6|0,1:2|0:0,0:0:0:0:
171,187,47132,1,0,0:0:0:0:
153,184,47249,2,0,L|94:174,3,58.4999982147217,0|0|0|0,1:2|0:0|0:0|0:0,0:0:0:0:
24,236,47714,2,0,L|34:293,3,58.4999982147217,0|0|0|0,1:2|0:0|0:0|0:0,0:0:0:0:
122,327,48179,2,0,L|111:384,3,58.4999982147217,0|0|0|0,1:2|0:0|0:0|0:0,0:0:0:0:
210,284,48644,5,0,1:2:0:0:
228,280,48760,1,0,0:0:0:0:
246,277,48877,2,0,L|304:266,1,58.4999982147217,2|0,0:0|0:0,0:0:0:0:
381,318,49109,2,0,L|439:327,1,58.4999982147217,2|0,1:2|0:0,0:0:0:0:
503,258,49342,2,0,L|492:201,1,58.4999982147217,2|0,0:0|0:0,0:0:0:0:
385,72,49574,6,0,P|410:95|419:130,1,71.5000021820069,2|0,1:2|0:0,0:0:0:0:
276,167,49807,2,0,P|310:176|345:186,1,71.5000021820069,2|0,0:0|0:0,0:0:0:0:
201,110,50039,2,0,P|226:86|235:52,1,71.5000021820069,2|0,1:2|0:0,0:0:0:0:
157,1,50272,2,0,P|122:10|87:19,1,71.5000021820069,2|0,0:0|0:0,0:0:0:0:
34,97,50505,6,0,P|44:124|54:151,3,58.4999982147217,2|0|0|0,1:2|0:0|0:0|0:0,0:0:0:0:
40,245,50970,1,0,1:2:0:0:
57,241,51086,1,0,0:0:0:0:
74,238,51202,2,0,P|102:235|129:246,1,58.4999982147217,2|0,0:0|0:0,0:0:0:0:
218,275,51435,2,0,P|207:302|197:329,3,58.4999982147217,2|0|0|0,1:2|0:0|0:0|0:0,0:0:0:0:
291,329,51900,2,0,P|301:356|311:383,3,58.4999982147217,0|0|0|0,1:2|0:0|0:0|0:0,0:0:0:0:
389,328,52365,5,0,1:2:0:0:
396,313,52481,1,0,0:0:0:0:
404,298,52598,2,0,P|413:270|426:244,1,58.4999982147217,2|0,0:0|0:0,0:0:0:0:
370,169,52830,2,0,P|342:179|314:186,1,58.4999982147217,2|0,1:2|0:0,0:0:0:0:
234,235,53063,2,0,P|206:223|178:216,1,58.4999982147217,2|0,0:0|0:0,0:0:0:0:
66,50,53295,6,0,P|41:74|35:109,1,71.5000021820069,2|0,1:2|0:0,0:0:0:0:
119,146,53528,2,0,P|143:121|149:86,1,71.5000021820069,2|0,0:0|0:0,0:0:0:0:
47,200,53760,2,0,P|55:233|82:256,1,71.5000021820069,2|0,1:2|0:0,0:0:0:0:
156,202,53993,2,0,P|146:168|119:146,1,71.5000021820069,2|0,0:0|0:0,0:0:0:0:
175,289,54226,6,0,P|158:313|154:341,3,58.4999982147217,2|0|0|0,1:2|0:0|0:0|0:0,0:0:0:0:
249,338,54691,2,0,P|272:320|300:315,3,58.4999982147217,0|0|0|0,1:2|0:0|0:0|0:0,0:0:0:0:
373,254,55156,2,0,P|396:271|424:276,3,58.4999982147217,0|0|0|0,1:2|0:0|0:0|0:0,0:0:0:0:
431,182,55621,2,0,P|414:157|410:129,3,58.4999982147217,0|0|0|0,1:2|0:0|0:0|0:0,0:0:0:0:
480,46,56086,5,0,1:2:0:0:
462,42,56202,1,0,0:0:0:0:
444,39,56319,2,0,L|386:28,1,58.4999982147217,2|0,0:0|0:0,0:0:0:0:
302,69,56551,2,0,L|245:58,1,58.4999982147217,2|0,1:2|0:0,0:0:0:0:
104,23,56784,2,0,L|162:13,1,58.4999982147217,2|0,0:0|0:0,0:0:0:0:
184,168,57016,6,0,P|180:133|156:107,1,71.5000021820069,2|0,1:2|0:0,0:0:0:0:
24,164,57249,2,0,P|59:170|94:177,1,71.5000021820069,2|0,0:0|0:0,0:0:0:0:
177,309,57481,2,0,P|153:283|149:248,1,71.5000021820069,2|0,1:2|0:0,0:0:0:0:
241,246,57714,2,0,P|276:252|311:258,1,71.5000021820069,2|0,0:0|0:0,0:0:0:0:
394,302,57946,6,0,P|391:273|403:246,3,58.4999982147217,2|0|0|0,1:2|0:0|0:0|0:0,0:0:0:0:
464,176,58412,1,0,1:2:0:0:
468,159,58528,1,0,0:0:0:0:
471,142,58644,2,0,P|474:114|463:87,1,58.4999982147217,2|0,0:0|0:0,0:0:0:0:
388,27,58877,2,0,P|358:24|330:16,3,58.4999982147217,2|0|0|0,1:2|0:0|0:0|0:0,0:0:0:0:
236,13,59342,2,0,P|243:41|246:70,3,58.4999982147217,0|0|0|0,1:2|0:0|0:0|0:0,0:0:0:0:
256,163,59807,6,0,P|285:165|313:173,3,58.4999982147217,0|0|0|0,1:2|0:0|0:0|0:0,0:0:0:0:
403,198,60272,2,0,P|395:226|392:255,3,58.4999982147217,0|0|0|0,1:2|0:0|0:0|0:0,0:0:0:0:
300,332,60737,5,0,1:2:0:0:
317,308,60853,1,0,0:0:0:0:
293,291,60970,1,0,0:0:0:0:
277,315,61086,1,0,0:0:0:0:
244,326,61202,1,8,0:0:0:0:
207,307,61319,1,8,0:0:0:0:
164,326,61435,2,0,L|107:316,1,58.4999982147217,0|0,1:2|0:0,0:0:0:0:
10,239,61667,6,0,P|49:188|52:124,1,130,6|0,1:2|0:0,0:0:0:0:
216,70,62132,1,10,0:0:0:0:
207,100,62249,1,0,0:0:0:0:
217,131,62365,1,0,0:0:0:0:
242,151,62481,1,2,0:0:0:0:
265,165,62598,6,0,P|302:183|344:186,1,84.4999961318971,2|0,1:2|0:0,0:0:0:0:
414,248,62830,2,0,P|448:224|472:189,1,84.4999961318971,2|0,1:2|0:0,0:0:0:0:
475,78,63063,1,10,0:0:0:0:
443,93,63179,1,8,0:0:0:0:
410,92,63295,1,0,1:2:0:0:
410,92,63528,6,0,P|422:58|431:23,1,71.5000021820069,2|0,1:2|0:0,0:0:0:0:
295,94,63760,2,0,P|307:127|316:162,1,71.5000021820069,2|0,0:0|0:0,0:0:0:0:
465,259,63993,1,10,0:0:0:0:
461,237,64109,1,8,0:0:0:0:
460,216,64226,2,0,P|472:183|487:150,1,71.5000021820069,0|0,0:0|0:0,0:0:0:0:
401,331,64458,6,0,P|359:327|321:309,1,84.4999961318971,2|0,1:2|0:0,0:0:0:0:
228,324,64691,2,0,P|209:286|206:244,1,84.4999961318971,2|0,1:2|0:0,0:0:0:0:
325,165,64923,1,10,0:0:0:0:
318,197,65039,1,8,0:0:0:0:
297,222,65156,1,0,0:0:0:0:
297,222,65388,6,0,P|270:189|255:149,1,84.4999961318971,2|0,1:2|0:0,0:0:0:0:
179,94,65621,2,0,P|192:53|220:21,1,84.4999961318971,2|0,0:0|0:0,0:0:0:0:
415,58,65853,1,10,0:0:0:0:
395,86,65970,1,8,0:0:0:0:
362,90,66086,2,0,P|326:76|310:31,1,84.4999961318971,0|0,0:0|0:0,0:0:0:0:
485,136,66319,6,0,P|484:178|470:218,1,84.4999961318971,2|0,1:2|0:0,0:0:0:0:
493,309,66552,2,0,P|456:332|414:338,1,84.4999961318971,2|0,1:2|0:0,0:0:0:0:
289,185,66784,1,10,0:0:0:0:
322,177,66901,1,8,0:0:0:0:
350,195,67017,2,0,P|368:228|351:273,1,84.4999961318971,0|0,1:2|0:0,0:0:0:0:
195,322,67249,6,0,P|235:333|276:343,1,84.4999961318971,2|0,1:2|0:0,0:0:0:0:
136,251,67481,2,0,P|95:261|54:271,1,84.4999961318971,2|0,0:0|0:0,0:0:0:0:
194,169,67714,1,10,0:0:0:0:
228,178,67830,1,8,0:0:0:0:
262,188,67946,1,2,0:0:0:0:
145,73,68179,1,2,1:2:0:0:
84,256,68412,6,0,L|90:313,2,56.3333307545981,2|2|2,1:2|0:3|0:3,0:0:0:0:
75,232,68644,1,10,0:0:0:0:
75,205,68760,1,8,0:0:0:0:
61,173,68877,1,2,0:0:0:0:
76,132,68993,1,8,0:0:0:0:
73,82,69109,6,0,P|136:96|200:105,1,130,2|0,1:2|0:0,0:0:0:0:
415,140,69574,1,10,0:0:0:0:
385,131,69691,1,8,0:0:0:0:
354,141,69807,1,0,0:0:0:0:
334,166,69923,1,2,0:0:0:0:
320,189,70039,6,0,P|302:226|299:268,1,84.4999961318971,2|0,1:2|0:0,0:0:0:0:
224,371,70272,2,0,P|221:329|203:291,1,84.4999961318971,2|0,1:2|0:0,0:0:0:0:
147,187,70505,1,10,0:0:0:0:
181,181,70621,1,8,0:0:0:0:
210,199,70737,1,0,1:2:0:0:
210,199,70970,6,0,P|208:155|230:119,1,84.4999961318971,2|0,1:2|0:0,0:0:0:0:
372,153,71202,2,0,P|334:176|292:175,1,84.4999961318971,2|0,0:0|0:0,0:0:0:0:
205,32,71435,1,10,0:0:0:0:
230,31,71551,1,8,0:0:0:0:
253,39,71667,2,0,P|292:59|312:96,1,84.4999961318971,0|0,0:0|0:0,0:0:0:0:
309,340,71900,6,0,P|337:308|353:270,1,84.4999961318971,2|0,1:2|0:0,0:0:0:0:
432,219,72133,2,0,P|420:178|394:144,1,84.4999961318971,2|0,1:2|0:0,0:0:0:0:
254,165,72365,1,10,0:0:0:0:
281,184,72481,1,8,0:0:0:0:
313,189,72598,1,0,0:0:0:0:
313,189,72830,6,0,P|300:148|275:113,1,84.4999961318971,2|0,1:2|0:0,0:0:0:0:
271,19,73063,2,0,P|229:6|187:12,1,84.4999961318971,2|0,0:0|0:0,0:0:0:0:
109,194,73295,1,10,0:0:0:0:
143,194,73412,1,8,0:0:0:0:
165,168,73528,2,0,P|173:130|145:91,1,84.4999961318971,0|0,0:0|0:0,0:0:0:0:
138,278,73760,6,0,P|174:298|217:305,1,84.4999961318971,2|0,1:2|0:0,0:0:0:0:
285,369,73993,2,0,P|322:348|349:315,1,84.4999961318971,2|0,1:2|0:0,0:0:0:0:
280,131,74225,1,10,0:0:0:0:
255,154,74342,1,8,0:0:0:0:
258,188,74458,2,0,P|277:220|324:228,1,84.4999961318971,0|0,1:0|0:0,0:0:0:0:
440,130,74691,5,6,1:2:0:0:
440,130,75156,2,0,P|369:97|303:56,1,156,2|0,0:0|0:0,0:0:0:0:
216,0,75621,1,2,1:2:0:0:
98,142,75853,1,10,0:0:0:0:
101,161,75970,1,8,0:0:0:0:
105,179,76086,1,10,0:0:0:0:
233,312,76319,1,2,1:2:0:0:
233,312,76551,6,0,P|271:304|309:294,1,77.999997619629,6|0,1:0|0:0,0:0:0:0:
78,360,76784,2,0,P|115:370|153:379,1,77.999997619629,2|0,0:0|0:0,0:0:0:0:
139,95,77016,5,10,0:0:0:0:
107,116,77132,1,0,0:0:0:0:
98,153,77249,1,2,0:0:0:0:
115,187,77365,1,0,0:0:0:0:
148,211,77481,2,0,P|186:206|223:183,1,77.999997619629,2|0,1:2|0:0,0:0:0:0:
332,115,77714,2,0,P|293:110|257:87,1,77.999997619629,0|0,0:0|0:0,0:0:0:0:
452,8,77946,5,10,0:0:0:0:
479,47,78063,1,0,0:0:0:0:
469,94,78179,1,2,0:0:0:0:
430,121,78295,1,0,0:0:0:0:
382,120,78412,2,0,P|343:93|333:47,1,97.50000371933,2|0,1:2|0:0,0:0:0:0:
360,213,78644,2,0,P|400:240|410:286,1,97.50000371933,0|0,0:0|0:0,0:0:0:0:
200,366,78877,5,10,0:0:0:0:
238,300,78993,1,0,0:0:0:0:
225,225,79109,1,2,0:0:0:0:
167,177,79226,1,0,0:0:0:0:
94,163,79342,2,0,P|37:166|-1:209,1,116.999996429443,2|0,1:2|0:0,0:0:0:0:
121,47,79574,2,0,P|177:43|215:0,1,116.999996429443,0|0,0:0|0:0,0:0:0:0:
287,164,79807,5,10,0:0:0:0:
291,122,79923,1,0,0:0:0:0:
319,92,80039,1,2,0:0:0:0:
360,86,80156,1,0,0:0:0:0:
421,135,80272,6,0,P|353:57|375:-6,1,168.999992263794,2|0,1:2|0:0,0:0:0:0:
511,132,80621,1,0,0:0:0:0:
497,213,80737,2,0,P|418:235|339:205,1,168.999992263794,10|0,0:0|0:0,0:0:0:0:
180,219,81086,1,2,0:0:0:0:
246,162,81202,6,0,P|255:204|267:244,1,84.4999961318971,2|0,1:2|0:0,0:0:0:0:
181,28,81435,2,0,P|173:70|161:110,1,84.4999961318971,2|0,0:0|0:0,0:0:0:0:
67,204,81667,2,0,P|64:163|40:129,1,84.4999961318971,10|0,0:0|0:0,0:0:0:0:
139,306,81900,2,0,P|143:265|167:231,1,84.4999961318971,2|0,0:0|0:0,0:0:0:0:
343,303,82132,6,0,B|375:278|375:278|249:302,1,168.999992263794,2|0,1:2|0:0,0:0:0:0:
249,164,82598,1,10,0:0:0:0:
290,141,82714,1,0,0:0:0:0:
338,155,82830,1,0,0:0:0:0:
378,125,82946,1,0,0:0:0:0:
429,127,83063,6,0,P|458:98|462:56,1,84.4999961318971,2|0,1:2|0:0,0:0:0:0:
354,0,83295,2,0,P|324:29|322:70,1,84.4999961318971,2|0,0:0|0:0,0:0:0:0:
214,183,83528,1,10,0:0:0:0:
214,183,83760,1,2,0:0:0:0:
214,183,83993,6,0,P|223:145|237:108,1,77.999997619629,6|0,1:0|0:0,0:0:0:0:
122,1,84226,2,0,P|135:37|144:75,1,77.999997619629,2|0,0:0|0:0,0:0:0:0:
286,240,84458,2,0,P|301:204|343:177,1,77.999997619629,10|0,0:0|0:0,0:0:0:0:
81,163,84691,2,0,P|111:186|126:222,1,77.999997619629,2|0,0:0|0:0,0:0:0:0:
231,318,84923,1,2,1:2:0:0:
255,338,85039,1,0,0:0:0:0:
285,345,85156,2,0,P|324:336|351:310,1,77.999997619629,0|0,0:0|0:0,0:0:0:0:
424,97,85388,5,10,0:0:0:0:
405,140,85505,1,0,0:0:0:0:
360,156,85621,1,2,0:0:0:0:
316,138,85737,1,0,0:0:0:0:
291,96,85853,2,0,P|293:48|326:15,1,97.50000371933,2|0,1:2|0:0,0:0:0:0:
205,142,86086,2,0,P|203:190|169:223,1,97.50000371933,0|0,0:0|0:0,0:0:0:0:
45,39,86319,5,10,0:0:0:0:
67,110,86435,1,0,0:0:0:0:
129,151,86551,1,2,0:0:0:0:
205,142,86667,1,0,0:0:0:0:
270,101,86784,2,0,P|305:56|297:0,1,116.999996429443,2|0,1:2|0:0,0:0:0:0:
321,192,87016,2,0,P|287:236|294:293,1,116.999996429443,0|0,0:0|0:0,0:0:0:0:
502,83,87249,5,10,0:0:0:0:
497,125,87365,1,0,0:0:0:0:
468,155,87481,1,2,0:0:0:0:
427,160,87598,1,0,0:0:0:0:
382,98,87714,6,0,P|427:167|409:248,1,168.999992263794,2|0,1:2|0:0,0:0:0:0:
241,160,88063,1,2,0:0:0:0:
324,188,88179,2,0,P|263:243|184:226,1,168.999992263794,10|0,0:0|0:0,0:0:0:0:
191,39,88528,1,2,0:0:0:0:
263,79,88644,6,0,P|252:121|240:161,1,84.4999961318971,2|0,1:2|0:0,0:0:0:0:
358,24,88877,2,0,P|368:66|380:106,1,84.4999961318971,2|0,0:0|0:0,0:0:0:0:
322,289,89109,2,0,P|346:255|349:214,1,84.4999961318971,10|0,0:0|0:0,0:0:0:0:
460,384,89342,2,0,P|435:350|432:309,1,84.4999961318971,2|0,0:0|0:0,0:0:0:0:
480,110,89574,5,2,1:2:0:0:
480,110,89807,1,2,0:0:0:0:
257,222,90039,1,10,0:0:0:0:
234,37,90272,1,2,0:0:0:0:
456,21,90505,1,10,0:0:0:0:
234,37,90737,1,2,0:0:0:0:
210,42,90853,1,10,0:0:0:0:
185,46,90970,1,10,0:0:0:0:
257,222,91202,1,2,0:0:0:0:
105,382,91435,6,0,P|97:324|59:281,1,116.999996429443,6|0,1:2|0:0,0:0:0:0:
8,216,91784,1,0,0:0:0:0:
15,199,91900,2,0,P|28:173|37:145,3,58.4999982147217,0|0|0|0,1:2|0:0|0:0|0:0,0:0:0:0:
127,119,92365,2,0,P|142:143|162:165,3,58.4999982147217,0|0|0|0,1:2|0:0|0:0|0:0,0:0:0:0:
142,257,92830,2,0,P|112:257|84:264,3,58.4999982147217,0|0|0|0,1:2|0:0|0:0|0:0,0:0:0:0:
170,366,93295,5,0,1:2:0:0:
184,354,93412,1,0,0:0:0:0:
198,344,93528,2,0,P|226:334|255:332,1,58.4999982147217,2|0,0:0|0:0,0:0:0:0:
326,272,93760,2,0,P|353:281|382:283,1,58.4999982147217,2|0,1:2|0:0,0:0:0:0:
261,199,93993,2,0,P|232:208|203:210,1,58.4999982147217,2|0,0:0|0:0,0:0:0:0:
35,117,94226,6,0,B|32:82|32:82|54:53,1,71.5000021820069,2|0,1:2|0:0,0:0:0:0:
178,62,94458,2,0,B|180:96|180:96|158:125,1,71.5000021820069,2|0,0:0|0:0,0:0:0:0:
70,270,94691,2,0,P|90:233|91:193,1,71.5000021820069,2|0,1:2|0:0,0:0:0:0:
183,244,94923,2,0,P|187:279|205:309,1,71.5000021820069,2|0,0:0|0:0,0:0:0:0:
286,359,95156,6,0,P|310:344|339:341,3,58.4999982147217,2|0|0|0,1:2|0:0|0:0|0:0,0:0:0:0:
377,254,95621,1,0,1:2:0:0:
359,257,95737,1,0,0:0:0:0:
342,253,95853,2,0,P|317:239|299:216,1,58.4999982147217,2|0,0:0|0:0,0:0:0:0:
214,256,96086,2,0,P|214:284|203:310,3,58.4999982147217,2|0|0|0,1:2|0:0|0:0|0:0,0:0:0:0:
125,365,96551,2,0,P|97:354|69:348,3,58.4999982147217,0|0|0|0,1:2|0:0|0:0|0:0,0:0:0:0:
22,266,97016,5,0,1:2:0:0:
32,251,97132,1,0,0:0:0:0:
42,236,97249,2,0,P|51:208|59:181,1,58.4999982147217,2|0,0:0|0:0,0:0:0:0:
135,125,97481,2,0,P|126:96|117:69,1,58.4999982147217,2|0,1:2|0:0,0:0:0:0:
5,9,97714,2,0,P|14:37|23:65,1,58.4999982147217,2|0,0:0|0:0,0:0:0:0:
152,223,97946,6,0,P|176:198|211:192,1,71.5000021820069,2|0,1:2|0:0,0:0:0:0:
248,276,98179,2,0,P|223:299|188:305,1,71.5000021820069,2|0,0:0|0:0,0:0:0:0:
346,262,98412,2,0,P|381:262|409:283,1,71.5000021820069,2|0,1:2|0:0,0:0:0:0:
377,367,98644,2,0,P|341:368|313:347,1,71.5000021820069,2|0,0:0|0:0,0:0:0:0:
298,182,98877,5,0,0:0:0:0:
298,182,99342,5,4,1:2:0:0:
268,181,99458,1,0,0:0:0:0:
240,171,99574,1,0,0:0:0:0:
216,153,99691,1,0,0:0:0:0:
205,125,99807,2,0,P|215:97|222:69,3,58.4999982147217,0|0|0|0,1:2|0:0|0:0|0:0,0:0:0:0:
106,137,100272,2,0,P|116:164|123:192,3,58.4999982147217,0|0|0|0,1:2|0:0|0:0|0:0,0:0:0:0:
146,309,100737,5,0,1:2:0:0:
129,314,100853,1,0,0:0:0:0:
111,314,100970,2,0,P|82:309|55:298,1,58.4999982147217,2|0,0:0|0:0,0:0:0:0:
227,375,101202,2,0,P|241:351|238:322,1,58.4999982147217,2|0,1:2|0:0,0:0:0:0:
204,235,101435,2,0,P|200:206|215:181,1,58.4999982147217,2|0,0:0|0:0,0:0:0:0:
361,129,101667,6,0,P|325:133|293:119,1,71.5000021820069,2|0,1:2|0:0,0:0:0:0:
312,21,101900,2,0,P|347:16|379:30,1,71.5000021820069,2|0,0:0|0:0,0:0:0:0:
456,140,102132,2,0,B|452:103|452:103|467:72,1,71.5000021820069,2|0,1:2|0:0,0:0:0:0:
507,212,102365,2,0,B|511:249|511:249|495:279,1,71.5000021820069,2|0,0:0|0:0,0:0:0:0:
402,259,102598,6,0,P|376:247|347:241,3,58.4999982147217,2|0|0|0,1:2|0:0|0:0|0:0,0:0:0:0:
272,183,103063,1,0,1:2:0:0:
254,182,103179,1,0,0:0:0:0:
236,184,103295,2,0,P|207:189|180:202,1,58.4999982147217,2|0,0:0|0:0,0:0:0:0:
109,140,103528,2,0,P|120:112|129:85,3,58.4999982147217,2|0|0|0,1:2|0:0|0:0|0:0,0:0:0:0:
207,33,103993,2,0,P|224:56|244:77,3,58.4999982147217,0|0|0|0,1:2|0:0|0:0|0:0,0:0:0:0:
301,152,104458,2,0,P|281:173|263:196,3,58.4999982147217,0|0|0|0,1:2|0:0|0:0|0:0,0:0:0:0:
218,279,104923,2,0,P|237:300|255:323,3,58.4999982147217,0|0|0|0,1:2|0:0|0:0|0:0,0:0:0:0:
367,371,105388,5,0,1:2:0:0:
372,341,105505,1,0,0:0:0:0:
377,311,105621,2,0,L|387:253,1,58.4999982147217,8|0,0:0|0:0,0:0:0:0:
477,208,105853,2,0,L|487:150,1,58.4999982147217,8|0,0:0|0:0,0:0:0:0:
358,89,106086,2,0,L|368:31,1,58.4999982147217,8|0,1:2|0:0,0:0:0:0:
291,182,106319,6,0,P|225:134|146:154,1,169.650001423759,14|0,1:0|0:0,0:0:0:0:
136,185,106784,2,0,P|151:131|162:76,1,113.100000949173,10|0,0:0|0:0,0:0:0:0:
30,202,107132,1,2,0:0:0:0:
41,190,107249,2,0,P|48:162|54:135,1,56.5500004745865,10|0,0:1|0:0,0:0:0:0:
76,324,107481,2,0,P|83:296|89:269,1,56.5500004745865,2|0,0:0|0:0,0:0:0:0:
278,225,107714,2,0,P|234:259|178:263,1,113.100000949173,10|0,0:0|0:0,0:0:0:0:
353,284,108179,6,0,P|380:288|403:305,1,56.5500004745865,10|0,0:1|0:0,0:0:0:0:
498,155,108412,2,0,P|470:150|447:133,1,56.5500004745865,2|0,0:0|0:0,0:0:0:0:
367,167,108644,2,0,P|403:210|460:232,1,113.100000949173,10|0,0:0|0:0,0:0:0:0:
292,119,109109,6,0,P|273:139|245:145,1,56.5500004745865,10|0,0:1|0:0,0:0:0:0:
201,75,109342,2,0,P|219:54|247:48,1,56.5500004745865,2|0,0:0|0:0,0:0:0:0:
171,203,109574,2,0,P|160:150|112:123,1,113.100000949173,10|0,0:0|0:0,0:0:0:0:
239,273,110039,6,0,P|257:252|285:246,1,56.5500004745865,10|0,0:1|0:0,0:0:0:0:
330,317,110272,2,0,P|311:337|283:343,1,56.5500004745865,2|0,0:0|0:0,0:0:0:0:
360,189,110505,2,0,P|370:242|418:269,1,113.100000949173,10|0,0:0|0:0,0:0:0:0:
292,119,110970,6,0,P|273:139|245:145,1,56.5500004745865,10|0,0:1|0:0,0:0:0:0:
201,75,111202,2,0,P|219:54|247:48,1,56.5500004745865,2|0,0:0|0:0,0:0:0:0:
171,203,111435,2,0,P|160:149|112:122,1,113.100000949173,10|0,0:0|0:0,0:0:0:0:
89,282,111784,1,2,0:0:0:0:
106,278,111900,6,0,P|132:287|155:303,1,56.5500004745865,10|0,0:1|0:0,0:0:0:0:
260,222,112132,2,0,P|247:247|242:274,1,56.5500004745865,2|0,0:0|0:0,0:0:0:0:
326,360,112365,1,10,0:0:0:0:
439,336,112598,1,2,0:0:0:0:
296,367,112830,1,10,0:1:0:0:
465,331,113063,1,2,0:0:0:0:
508,180,113295,1,10,0:0:0:0:
420,47,113528,1,2,0:0:0:0:
285,176,113760,6,0,P|208:145|176:68,1,169.650001423759,10|0,0:1|0:0,0:0:0:0:
182,39,114226,2,0,P|170:94|155:148,1,113.100000949173,10|0,0:0|0:0,0:0:0:0:
305,11,114574,1,2,0:0:0:0:
290,28,114691,2,0,P|283:56|277:83,1,56.5500004745865,10|0,0:1|0:0,0:0:0:0:
375,45,114923,2,0,P|368:72|361:100,1,56.5500004745865,2|0,0:0|0:0,0:0:0:0:
228,206,115156,2,0,P|267:168|320:179,1,113.100000949173,10|0,0:0|0:0,0:0:0:0:
197,295,115621,6,0,P|174:278|146:273,1,56.5500004745865,10|0,0:1|0:0,0:0:0:0:
2,153,115853,2,0,P|29:148|52:131,1,56.5500004745865,2|0,0:0|0:0,0:0:0:0:
119,192,116086,2,0,P|75:226|60:279,1,113.100000949173,10|0,0:0|0:0,0:0:0:0:
187,134,116551,6,0,P|205:154|233:160,1,56.5500004745865,10|0,0:1|0:0,0:0:0:0:
232,63,116784,2,0,P|259:69|278:89,1,56.5500004745865,2|0,0:0|0:0,0:0:0:0:
290,217,117016,2,0,P|334:184|347:130,1,113.100000949173,10|0,0:0|0:0,0:0:0:0:
230,297,117481,6,0,P|211:276|183:270,1,56.5500004745865,10|0,0:1|0:0,0:0:0:0:
185,368,117714,2,0,P|157:361|138:341,1,56.5500004745865,2|0,0:0|0:0,0:0:0:0:
127,214,117946,2,0,P|82:246|69:300,1,113.100000949173,10|0,0:0|0:0,0:0:0:0:
187,134,118412,6,0,P|205:154|233:160,1,56.5500004745865,10|0,0:1|0:0,0:0:0:0:
232,63,118644,2,0,P|259:69|278:89,1,56.5500004745865,2|0,0:0|0:0,0:0:0:0:
290,217,118877,2,0,P|334:184|347:130,1,113.100000949173,10|0,0:0|0:0,0:0:0:0:
101,49,119342,5,4,1:2:0:0:
101,49,119807,2,0,P|119:125|130:202,1,156,2|0,0:0|0:0,0:0:0:0:
84,298,120272,1,2,1:2:0:0:
281,371,120505,1,10,0:0:0:0:
284,352,120622,1,8,0:0:0:0:
288,334,120738,1,10,0:0:0:0:
409,216,120970,1,2,0:0:0:0:
240,82,121202,6,0,P|265:110|303:119,1,77.999997619629,6|0,1:0|0:0,0:0:0:0:
127,18,121435,2,0,P|124:56|145:88,1,77.999997619629,2|0,0:0|0:0,0:0:0:0:
239,269,121667,5,10,0:0:0:0:
243,230,121784,1,0,0:0:0:0:
220,200,121900,1,2,0:0:0:0:
183,191,122016,1,0,0:0:0:0:
144,201,122132,2,0,P|123:233|117:276,1,77.999997619629,2|0,1:2|0:0,0:0:0:0:
51,378,122365,2,0,P|44:339|23:307,1,77.999997619629
5,40,122598,5,10,0:0:0:0:
44,13,122714,1,0,0:0:0:0:
91,23,122830,1,2,0:0:0:0:
118,62,122946,1,0,0:0:0:0:
116,110,123063,2,0,P|97:153|53:171,1,97.50000371933,2|0,1:2|0:0,0:0:0:0:
213,87,123295,2,0,P|232:43|276:25,1,97.50000371933
481,159,123528,5,10,0:0:0:0:
419,112,123644,1,0,0:0:0:0:
343,113,123760,1,2,0:0:0:0:
287,164,123877,1,0,0:0:0:0:
264,235,123993,2,0,P|259:291|296:335,1,116.999996429443,2|0,1:2|0:0,0:0:0:0:
138,184,124226,2,0,P|141:127|104:84,1,116.999996429443
32,288,124458,5,10,0:0:0:0:
69,268,124574,1,0,0:0:0:0:
109,275,124691,1,2,0:0:0:0:
137,306,124807,1,0,0:0:0:0:
151,381,124923,6,0,P|173:275|222:215,1,168.999992263794,2|0,1:2|0:0,0:0:0:0:
361,140,125272,1,0,0:0:0:0:
318,225,125388,2,0,P|272:154|260:71,1,168.999992263794,10|0,0:0|0:0,0:0:0:0:
97,35,125737,1,2,0:0:0:0:
158,99,125853,6,0,P|177:62|183:20,1,84.4999961318971,2|0,1:2|0:0,0:0:0:0:
137,255,126086,2,0,P|168:227|187:189,1,84.4999961318971,2|0,0:0|0:0,0:0:0:0:
48,329,126319,2,0,P|46:287|18:257,1,84.4999961318971,10|0,0:0|0:0,0:0:0:0:
199,384,126551,2,0,P|200:342|228:312,1,84.4999961318971,2|0,0:0|0:0,0:0:0:0:
397,177,126784,6,0,P|354:243|278:219,1,168.999992263794,2|0,1:2|0:0,0:0:0:0:
69,135,127249,1,10,0:0:0:0:
53,87,127365,1,0,0:0:0:0:
78,43,127481,1,0,0:0:0:0:
124,25,127598,1,0,0:0:0:0:
173,35,127714,6,0,P|207:57|219:97,1,84.4999961318971,2|0,1:2|0:0,0:0:0:0:
332,141,127946,2,0,P|302:170|300:211,1,84.4999961318971,2|0,0:0|0:0,0:0:0:0:
405,325,128179,1,10,0:0:0:0:
405,325,128412,1,2,0:0:0:0:
405,325,128644,6,0,P|367:334|330:348,1,77.999997619629,6|0,1:0|0:0,0:0:0:0:
189,384,128877,2,0,P|152:370|114:361,1,77.999997619629,2|0,0:0|0:0,0:0:0:0:
210,240,129109,2,0,P|235:268|243:306,1,77.999997619629,10|0,0:0|0:0,0:0:0:0:
104,247,129342,2,0,P|78:218|70:180,1,77.999997619629,2|0,0:0|0:0,0:0:0:0:
191,49,129574,1,2,1:2:0:0:
208,73,129691,1,0,0:0:0:0:
212,104,129807,2,0,P|198:141|170:165,1,77.999997619629
100,378,130039,5,10,0:0:0:0:
60,361,130156,1,0,0:0:0:0:
44,317,130272,1,2,0:0:0:0:
63,272,130388,1,0,0:0:0:0:
104,247,130505,2,0,P|152:249|185:282,1,97.50000371933,2|0,1:2|0:0,0:0:0:0:
360,318,130737,2,0,P|312:320|278:353,1,97.50000371933
486,232,130970,5,10,0:0:0:0:
511,162,131086,1,0,0:0:0:0:
486,92,131202,1,2,0:0:0:0:
420,53,131319,1,0,0:0:0:0:
343,47,131435,2,0,P|287:61|260:111,1,116.999996429443,2|0,1:2|0:0,0:0:0:0:
71,157,131667,2,0,P|126:171|153:221,1,116.999996429443
230,384,131900,5,10,0:0:0:0:
235,342,132016,1,0,0:0:0:0:
265,312,132132,1,2,0:0:0:0:
306,308,132249,1,0,0:0:0:0:
363,368,132365,6,0,P|335:289|313:207,1,168.999992263794,2|0,1:2|0:0,0:0:0:0:
160,128,132714,1,2,0:0:0:0:
227,193,132830,2,0,P|254:113|276:31,1,168.999992263794,10|0,0:0|0:0,0:0:0:0:
460,32,133179,1,2,0:0:0:0:
394,98,133295,6,0,P|374:61|368:19,1,84.4999961318971,2|0,1:2|0:0,0:0:0:0:
447,236,133528,2,0,P|466:199|472:157,1,84.4999961318971,2|0,0:0|0:0,0:0:0:0:
291,303,133760,2,0,P|337:311|365:348,1,84.4999961318971,10|0,0:0|0:0,0:0:0:0:
156,227,133993,2,0,P|202:218|230:181,1,84.4999961318971,2|0,0:0|0:0,0:0:0:0:
211,21,134226,5,2,1:2:0:0:
211,21,134458,1,2,0:0:0:0:
356,155,134691,1,10,0:0:0:0:
414,33,134923,1,2,0:0:0:0:
217,116,135156,1,0,1:2:0:0:
414,33,135388,1,10,0:0:0:0:
438,38,135505,1,8,0:0:0:0:
463,42,135621,1,10,0:0:0:0:
356,155,135853,1,2,0:0:0:0:
512,139,136086,6,0,P|488:178|482:223,1,90.9999972229005,2|0,1:2|0:0,0:0:0:0:
448,383,136551,2,0,P|442:339|418:300,1,90.9999972229005,8|0,0:1|0:0,0:0:0:0:
256,254,137016,1,8,0:0:0:0:
315,323,137249,1,0,0:0:0:0:
346,237,137481,1,8,0:1:0:0:
230,336,137714,1,0,0:0:0:0:
130,247,137946,6,0,P|122:202|95:166,1,90.9999972229005,8|0,0:0|0:0,0:0:0:0:
204,27,138412,2,0,P|176:62|169:107,1,90.9999972229005,8|0,0:1|0:0,0:0:0:0:
330,185,138877,1,8,0:0:0:0:
316,95,139109,1,0,0:0:0:0:
246,153,139342,1,8,0:1:0:0:
400,130,139574,1,0,0:0:0:0:
342,276,139807,6,0,P|258:240|166:238,1,181.999994445801,8|8,0:0|0:1,0:0:0:0:
85,199,140505,1,0,0:0:0:0:
96,350,140737,1,8,0:0:0:0:
7,364,140970,1,0,0:0:0:0:
38,278,141202,1,8,0:1:0:0:
180,384,141435,1,0,0:0:0:0:
363,357,141667,6,0,P|320:341|283:314,1,90.9999972229005,8|0,0:0|0:0,0:0:0:0:
512,384,142132,2,0,P|477:354|451:317,1,90.9999972229005,8|0,0:1|0:0,0:0:0:0:
466,163,142598,1,0,1:2:0:0:
445,294,142830,1,0,0:0:0:0:
474,128,143063,1,8,0:1:0:0:
442,324,143295,1,0,0:0:0:0:
233,242,143528,6,0,L|104:262,1,130,2|0,1:2|0:0,0:0:0:0:
4,310,143877,1,0,0:0:0:0:
18,297,143993,2,0,L|38:168,1,130,8|0,0:0|0:0,0:0:0:0:
0,68,144342,1,0,0:0:0:0:
13,82,144458,2,0,L|142:102,1,130,0|0,1:2|0:0,0:0:0:0:
248,60,144807,1,0,0:0:0:0:
234,73,144923,2,0,L|214:202,1,130,8|0,0:0|0:0,0:0:0:0:
430,294,145388,6,0,P|369:313|338:368,1,130,0|2,1:2|0:0,0:0:0:0:
236,321,145737,1,0,0:0:0:0:
254,315,145853,2,0,P|274:289|278:258,1,65,10|0,0:0|0:0,0:0:0:0:
342,190,146086,2,0,P|338:158|319:132,1,65,2|0,0:0|0:0,0:0:0:0:
149,116,146319,2,0,P|180:108|211:97,1,65,2|0,1:2|0:0,0:0:0:0:
280,18,146551,2,0,P|310:28|342:36,1,65,2|0,0:0|0:0,0:0:0:0:
453,106,146784,1,10,0:0:0:0:
383,300,147016,1,2,0:0:0:0:
216,370,147249,6,0,P|219:306|178:257,1,130,2|0,1:2|0:0,0:0:0:0:
76,168,147598,1,0,0:0:0:0:
93,177,147714,2,0,P|156:180|205:139,1,130,8|2,0:0|0:0,0:0:0:0:
378,86,148063,1,0,0:0:0:0:
361,95,148179,2,0,P|297:98|248:57,1,130,2|0,1:2|0:0,0:0:0:0:
447,43,148528,1,0,0:0:0:0:
456,60,148644,2,0,P|459:123|418:172,1,130,8|0,0:0|0:0,0:0:0:0:
399,293,148993,1,0,0:0:0:0:
391,275,149109,6,0,P|247:227|200:244,1,195,0|0,1:2|0:0,0:0:0:0:
191,315,149574,2,0,P|216:220|236:125,1,195,10|0,0:0|0:0,0:0:0:0:
206,42,150039,1,10,0:0:0:0:
55,113,150272,1,10,0:0:0:0:
58,132,150389,1,8,0:0:0:0:
62,150,150505,1,10,0:0:0:0:
87,292,150737,1,0,1:2:0:0:
352,112,150970,5,6,0:0:0:0:
192,90,158412,6,0,P|182:124|172:158,1,71.5000021820069,2|0,1:2|0:0,0:0:0:0:
169,60,158644,2,0,P|159:94|149:128,1,71.5000021820069,0|0,1:2|0:0,0:0:0:0:
320,90,159342,6,0,P|329:124|339:158,1,71.5000021820069,0|0,1:2|0:0,0:0:0:0:
343,60,159574,2,0,P|352:94|362:128,1,71.5000021820069,0|0,1:2|0:0,0:0:0:0:
116,311,160272,6,0,P|127:270|139:229,1,84.4999961318971,0|0,1:2|0:0,0:0:0:0:
184,367,160505,2,0,P|195:326|207:285,1,84.4999961318971,0|0,1:2|0:0,0:0:0:0:
396,311,161202,6,0,P|384:270|372:229,1,84.4999961318971,0|0,1:2|0:0,0:0:0:0:
328,367,161435,2,0,P|316:326|304:285,1,84.4999961318971,0|0,1:2|0:0,0:0:0:0:
88,178,162132,6,0,P|122:168|152:138,1,71.5000021820069,0|0,1:2|0:0,0:0:0:0:
112,301,162365,2,0,P|139:277|153:237,1,71.5000021820069,0|0,1:2|0:0,0:0:0:0:
424,178,163063,6,0,P|390:168|360:138,1,71.5000021820069,0|0,1:2|0:0,0:0:0:0:
400,301,163296,2,0,P|373:277|359:237,1,71.5000021820069,0|0,1:2|0:0,0:0:0:0:
126,52,163993,6,0,P|192:119|181:252,1,214.500006546021,0|0,1:2|0:0,0:0:0:0:
162,325,164458,6,0,B|210:332|245:306|245:306|257:309|257:309|289:283|335:290,1,175.499994644165,6|0,1:2|0:0,0:0:0:0:
432,211,164923,2,0,P|419:244|413:279,1,71.5000021820069,6|0,1:2|0:0,0:0:0:0:
512,384,165156,2,0,P|505:348|493:315,1,71.5000021820069,2|0,0:0|0:0,0:0:0:0:
386,115,165388,2,0,P|360:139|339:169,1,71.5000021820069,6|0,1:2|0:0,0:0:0:0:
328,289,165621,1,2,0:0:0:0:
328,289,165853,6,0,L|232:269,1,97.5,0|0,0:0|0:0,0:0:0:0:
98,158,166319,6,0,B|107:196|107:196|96:233,1,77.999997619629,6|0,1:3|0:0,0:0:0:0:
182,37,166551,2,0,B|173:75|173:75|184:112,1,77.999997619629,2|0,0:0|0:0,0:0:0:0:
371,151,166784,1,2,1:2:0:0:
349,128,166900,1,0,0:0:0:0:
341,98,167016,2,0,P|347:58|372:30,1,77.999997619629
512,228,167249,5,10,0:0:0:0:
470,204,167365,1,0,0:0:0:0:
424,220,167481,1,2,0:0:0:0:
400,260,167598,1,0,0:0:0:0:
406,309,167714,2,0,P|436:346|482:352,1,97.50000371933,2|0,1:2|0:0,0:0:0:0:
307,361,167946,2,0,P|259:356|221:385,1,97.50000371933
4,364,168179,5,10,0:0:0:0:
77,359,168295,1,0,0:0:0:0:
132,309,168412,1,2,0:0:0:0:
141,233,168528,1,0,0:0:0:0:
117,160,168644,2,0,P|81:115|25:109,1,116.999996429443,2|0,1:2|0:0,0:0:0:0:
174,0,168877,2,0,P|208:43|265:50,1,116.999996429443
512,183,169109,5,10,0:0:0:0:
471,169,169226,1,0,0:0:0:0:
448,134,169342,1,2,0:0:0:0:
452,93,169458,1,0,0:0:0:0:
494,24,169574,6,0,P|447:95|363:96,1,168.999992263794,2|0,1:2|0:0,0:0:0:0:
197,90,169923,1,0,0:0:0:0:
257,24,170039,2,0,P|285:103|306:185,1,168.999992263794,10|0,0:0|0:0,0:0:0:0:
231,344,170388,1,2,0:0:0:0:
211,251,170505,6,0,P|252:263|293:274,1,84.4999961318971,2|0,1:2|0:0,0:0:0:0:
121,170,170737,2,0,P|163:160|203:148,1,84.4999961318971,2|0,0:0|0:0,0:0:0:0:
460,199,170970,2,0,P|420:211|392:242,1,84.4999961318971,10|0,0:0|0:0,0:0:0:0:
512,97,171202,2,0,P|472:84|444:53,1,84.4999961318971,2|0,0:0|0:0,0:0:0:0:
294,168,171435,6,0,P|352:127|297:38,1,168.999992263794,2|0,1:2|0:0,0:0:0:0:
102,191,171900,1,10,0:0:0:0:
125,232,172016,1,0,0:0:0:0:
111,280,172132,1,0,0:0:0:0:
141,319,172249,1,0,0:0:0:0:
150,376,172365,6,0,P|191:372|220:342,1,84.4999961318971,2|0,1:2|0:0,0:0:0:0:
330,205,172598,2,0,P|300:234|298:275,1,84.4999961318971,2|0,0:0|0:0,0:0:0:0:
421,361,172830,1,10,0:0:0:0:
421,361,173063,1,2,0:0:0:0:
421,361,173295,6,0,P|433:323|455:292,1,77.999997619629,6|0,1:0|0:0,0:0:0:0:
342,161,173528,2,0,P|364:192|375:229,1,77.999997619629,2|0,0:0|0:0,0:0:0:0:
465,125,173760,2,0,P|476:87|498:56,1,77.999997619629,10|0,0:0|0:0,0:0:0:0:
344,0,173993,2,0,P|366:31|377:68,1,77.999997619629,2|0,0:0|0:0,0:0:0:0:
244,148,174226,5,10,0:0:0:0:
214,156,174342,1,0,0:0:0:0:
183,149,174458,2,0,P|152:126|142:89,1,77.999997619629
42,297,174691,5,10,0:0:0:0:
42,297,174923,1,2,0:0:0:0:
283,309,175156,2,0,P|248:337|242:381,1,90.9999972229005,2|0,1:2|0:0,0:0:0:0:
114,211,175388,2,0,P|148:239|154:283,1,90.9999972229005
252,115,175621,5,10,0:0:0:0:
252,115,175853,1,2,0:0:0:0:
431,274,176086,2,0,P|398:235|347:227,1,104,10|0,0:0|0:0,0:0:0:0:
483,41,176319,2,0,P|451:81|400:88,1,104
182,40,176551,5,10,0:0:0:0:
59,174,176784,1,10,0:0:0:0:
43,210,176900,1,8,0:0:0:0:
92,269,177016,6,0,P|173:290|253:319,1,168.999992263794,2|0,1:2|0:0,0:0:0:0:
432,290,177365,1,2,0:0:0:0:
356,338,177481,2,0,P|329:258|336:174,1,168.999992263794,10|0,0:0|0:0,0:0:0:0:
322,0,177830,1,2,0:0:0:0:
388,66,177946,6,0,P|351:86|309:91,1,84.4999961318971,2|0,1:2|0:0,0:0:0:0:
512,189,178179,2,0,P|475:169|433:163,1,84.4999961318971,2|0,0:0|0:0,0:0:0:0:
263,232,178412,2,0,P|309:240|336:276,1,84.4999961318971,10|0,0:0|0:0,0:0:0:0:
136,149,178644,2,0,P|182:140|209:104,1,84.4999961318971,2|0,0:0|0:0,0:0:0:0:
60,88,178877,5,0,1:2:0:0:
38,119,178993,1,8,0:0:0:0:
32,158,179109,1,8,0:0:0:0:
44,194,179225,1,8,0:0:0:0:
73,219,179342,1,2,1:2:0:0:
95,250,179458,1,8,0:0:0:0:
101,289,179574,1,8,0:0:0:0:
89,325,179690,1,8,0:0:0:0:
66,353,179807,6,0,P|30:346|0:328,1,71.5000021820069,2|8,1:2|0:0,0:0:0:0:
212,354,180039,2,0,P|182:374|148:383,1,71.5000021820069,10|8,0:0|0:0,0:0:0:0:
331,268,180272,2,0,P|324:303|306:333,1,71.5000021820069,2|8,1:2|0:0,0:0:0:0:
376,129,180505,2,0,P|396:158|405:192,1,71.5000021820069,10|8,0:0|0:0,0:0:0:0:
432,295,180737,1,2,0:0:0:0:
432,295,180970,1,2,0:0:0:0:
229,260,181202,6,0,P|256:190|263:156,1,77.999997619629,6|2,1:0|0:0,0:0:0:0:
120,234,181667,2,0,P|144:307|139:384,1,155.999995239258,2|2,0:0|0:0,0:0:0:0:
55,366,182365,1,2,0:0:0:0:
226,360,182598,1,2,0:0:0:0:
124,32,183063,5,2,0:0:0:0:
155,136,183295,1,2,0:0:0:0:
316,98,183528,1,2,0:0:0:0:
316,98,183993,5,2,0:0:0:0:
366,167,184226,1,2,0:0:0:0:
327,302,184458,1,2,0:0:0:0:
327,302,184923,2,0,P|279:269|221:266,1,116.999996429443,2|2,0:0|0:0,0:0:0:0:
203,281,185388,5,2,0:0:0:0:
129,339,185621,1,2,0:0:0:0:
23,228,185853,1,2,0:0:0:0:
116,246,186086,1,2,0:0:0:0:
271,190,186319,6,0,P|215:174|179:129,1,116.999996429443,2|0,0:0|0:0,0:0:0:0:
186,102,186784,2,0,P|170:158|151:217,1,116.999996429443,2|0,0:0|0:0,0:0:0:0:
134,245,187249,1,2,1:2:0:0:
232,357,187481,1,10,0:0:0:0:
251,354,187598,1,8,0:0:0:0:
269,350,187714,1,10,1:2:0:0:
411,277,187946,1,2,1:2:0:0:
338,84,188179,6,0,P|326:118|322:153,1,71.5000021820069,6|0,1:0|0:0,0:0:0:0:
218,48,188412,2,0,P|221:83|233:117,1,71.5000021820069,2|0,0:0|0:0,0:0:0:0:
276,267,188644,5,10,0:0:0:0:
265,285,188760,1,0,0:0:0:0:
245,294,188877,1,2,0:0:0:0:
223,293,188993,1,0,0:0:0:0:
202,287,189109,2,0,P|169:271|137:256,1,71.5000021820069,2|0,1:2|0:0,0:0:0:0:
5,210,189342,2,0,P|37:194|69:179,1,71.5000021820069
175,39,189574,5,10,0:0:0:0:
161,70,189691,1,0,0:0:0:0:
170,102,189807,1,2,0:0:0:0:
193,125,189923,1,0,0:0:0:0:
224,135,190039,2,0,P|265:128|304:112,1,84.4999961318971,2|0,1:2|0:0,0:0:0:0:
450,49,190272,2,0,P|408:42|369:26,1,84.4999961318971
331,235,190505,5,10,0:0:0:0:
375,198,190621,1,0,0:0:0:0:
434,197,190737,1,2,0:0:0:0:
480,234,190853,1,0,0:0:0:0:
502,288,190970,2,0,P|482:333|480:383,1,97.50000371933,2|0,1:2|0:0,0:0:0:0:
342,335,191202,2,0,P|331:287|303:248,1,97.50000371933
202,140,191435,5,10,0:0:0:0:
181,147,191551,1,0,0:0:0:0:
160,155,191667,1,2,0:0:0:0:
140,163,191784,1,0,0:0:0:0:
105,186,191900,6,0,P|174:200|228:252,1,143.000004364014,2|0,1:2|0:0,0:0:0:0:
245,355,192249,1,2,0:0:0:0:
167,314,192365,2,0,P|223:272|292:282,1,143.000004364014,10|0,0:0|0:0,0:0:0:0:
442,361,192714,1,2,0:0:0:0:
356,365,192830,6,0,P|364:330|383:300,1,71.5000021820069,2|0,1:2|0:0,0:0:0:0:
442,185,193063,2,0,P|450:220|469:251,1,71.5000021820069,2|0,0:0|0:0,0:0:0:0:
389,87,193295,2,0,P|407:56|416:22,1,71.5000021820069,10|0,0:0|0:0,0:0:0:0:
330,201,193528,2,0,P|322:166|304:136,1,71.5000021820069,2|0,0:0|0:0,0:0:0:0:
122,233,193760,6,0,P|143:167|154:262,1,233.999992858887,2|0,1:2|0:0,0:0:0:0:
54,275,194226,2,0,B|171:218|161:335|275:284,1,233.999992858887,10|0,1:2|0:0,0:0:0:0:
322,354,194691,2,0,P|260:248|243:135,1,233.999992858887,10|0,1:2|0:0,0:0:0:0:
144,94,195156,2,0,B|208:83|244:138|244:138|277:84|352:95,1,233.999992858887,4|0,0:0|0:0,0:0:0:0:
476,283,195621,5,4,0:3:0:0:
