osu file format v14

[General]
AudioFilename: audio.ogg
AudioLeadIn: 0
PreviewTime: 90980
Countdown: 0
SampleSet: Normal
StackLeniency: 0.7
Mode: 1
LetterboxInBreaks: 0
EpilepsyWarning: 1
WidescreenStoryboard: 1

[Editor]
Bookmarks: 380,13180,21180,27580,33980,41980,54780,65980,78780,85180,91580,99380,104380,117580,123580,131580,144380,150780,157180,163580
DistanceSpacing: 0.1
BeatDivisor: 4
GridSize: 32
TimelineZoom: 2.5

[Metadata]
Title:snooze
TitleUnicode:snooze
Artist:wotaku feat. SHIKI
ArtistUnicode:wotaku feat. SHIKI
Creator:gaston_2199
Version:zennan's oni
Source:
Tags:japanese pop jpop j-pop electronic ちふり Lenkon -_Lenkon Zennan
BeatmapID:3791354
BeatmapSetID:1835087

[Difficulty]
HPDrainRate:5
CircleSize:2
OverallDifficulty:5.5
ApproachRate:10
SliderMultiplier:1.4
SliderTickRate:1

[Events]
//Background and Video events
0,0,"BG.jpg",0,-30
Video,-150,"TaikoVideo.mp4"
//Break Periods
2,66180,73376
//Storyboard Layer 0 (Background)
//Storyboard Layer 1 (Fail)
//Storyboard Layer 2 (Pass)
//Storyboard Layer 3 (Foreground)
//Storyboard Layer 4 (Overlay)
//Storyboard Sound Samples

[TimingPoints]
380,400,4,1,0,80,1,0
380,-133.333333333333,4,1,0,80,0,0
575,-133.333333333333,4,1,0,60,0,0
6772,-111.111111111111,4,1,0,70,0,0
6775,-111.064865,4,1,0,70,0,0
7075,-107.34205,4,1,0,70,0,0
7175,-106.15597,4,1,0,70,0,0
7375,-103.86071,4,1,0,70,0,0
7475,-102.749916,4,1,0,70,0,0
7575,-101.66263,4,1,0,70,0,0
7875,-98.53458,4,1,0,70,0,0
7975,-97.53423,4,1,0,70,0,0
8175,-95.59326,4,1,0,70,0,0
8275,-94.65147,4,1,0,70,0,0
8375,-93.72805,4,1,0,70,0,0
8575,-91.93422,4,1,0,70,0,0
8775,-90.20777,4,1,0,70,0,0
9075,-87.73634,4,1,0,70,0,0
9175,-86.94235,4,1,0,70,0,0
9375,-85.39673,4,1,0,70,0,0
9475,-84.64433,4,1,0,70,0,0
9575,-83.90509,4,1,0,70,0,0
9775,-82.46466,4,1,0,70,0,0
9975,-81.07287,4,1,0,80,0,0
10175,-79.72727,4,1,0,80,0,0
10375,-78.42561,4,1,0,80,0,0
10575,-77.165764,4,1,0,80,0,0
10775,-75.94577,4,1,0,80,0,0
10875,-75.35012,4,1,0,80,0,0
10975,-74.76374,4,1,0,80,0,0
11175,-73.617935,4,1,0,80,0,0
11275,-73.05811,4,1,0,80,0,0
11375,-72.50673,4,1,0,80,0,0
11475,-71.963615,4,1,0,80,0,0
11575,-71.42857,4,1,0,80,0,0
13175,-133.333333333333,4,1,0,80,0,0
14780,400,4,1,0,90,1,0
26772,-100,4,1,0,70,0,0
27580,-83.3333333333333,4,1,0,90,0,1
33180,-90.9090909090909,4,1,0,80,0,0
33580,-83.3333333333333,4,1,0,80,0,0
33980,-66.6666666666667,4,1,0,90,0,1
36780,-66.6666666666667,4,1,0,80,0,0
37180,-100,4,1,0,90,0,1
37375,-98.59155,4,1,0,90,0,1
37475,-97.9021,4,1,0,90,0,1
37675,-96.55173,4,1,0,90,0,1
37775,-95.89041,4,1,0,90,0,1
37975,-94.5946,4,1,0,90,0,1
38075,-93.95974,4,1,0,90,0,1
38175,-93.333336,4,1,0,90,0,1
38275,-92.71523,4,1,0,90,0,1
38375,-92.105255,4,1,0,90,0,1
38575,-90.90909,4,1,0,90,0,1
38775,-89.74359,4,1,0,90,0,1
38975,-88.60759,4,1,0,90,0,1
39075,-88.050316,4,1,0,90,0,1
39275,-86.95652,4,1,0,90,0,1
39375,-86.419754,4,1,0,90,0,1
39575,-85.365845,4,1,0,90,0,1
39675,-84.84848,4,1,0,90,0,1
39775,-84.33734,4,1,0,90,0,1
39980,-100,4,1,0,80,0,0
40375,-71.42857,4,1,0,80,0,0
40475,-72.16495,4,1,0,80,0,0
40575,-72.91667,4,1,0,80,0,0
40775,-74.46809,4,1,0,80,0,0
40875,-75.268814,4,1,0,80,0,0
40975,-76.08696,4,1,0,80,0,0
41175,-77.77778,4,1,0,80,0,0
41475,-80.45977,4,1,0,80,0,0
41980,400,4,1,0,80,1,0
41980,-83.33333,4,1,0,80,0,0
42275,-98.7395,4,1,0,80,0,0
42375,-98.326355,4,1,0,80,0,0
42575,-97.510376,4,1,0,80,0,0
42975,-95.918365,4,1,0,80,0,0
43075,-95.52846,4,1,0,80,0,0
43175,-95.14169,4,1,0,80,0,0
43375,-94.37751,4,1,0,80,0,0
43575,-93.6255,4,1,0,80,0,0
43775,-92.885376,4,1,0,80,0,0
43975,-92.15686,4,1,0,80,0,0
44075,-91.796875,4,1,0,80,0,0
44175,-91.43968,4,1,0,80,0,0
44275,-91.08528,4,1,0,80,0,0
44375,-90.73359,4,1,0,80,0,0
44575,-90.03831,4,1,0,80,0,0
44775,-89.35361,4,1,0,80,0,0
44975,-88.679245,4,1,0,80,0,0
45075,-88.34587,4,1,0,80,0,0
45175,-88.01498,4,1,0,80,0,0
45375,-87.360596,4,1,0,80,0,0
45575,-86.71586,4,1,0,80,0,0
45675,-86.397064,4,1,0,80,0,0
45775,-86.08059,4,1,0,80,0,0
45875,-85.766426,4,1,0,80,0,0
45975,-85.45454,4,1,0,80,0,0
46175,-84.83755,4,1,0,80,0,0
46375,-84.22939,4,1,0,80,0,0
46475,-83.92857,4,1,0,80,0,0
46575,-83.6299,4,1,0,80,0,0
46675,-83.33333,4,1,0,80,0,0
46772,-66.6666666666667,4,1,0,90,0,0
48672,-100,4,1,0,80,0,0
48775,-99.52354,4,1,0,80,0,0
48975,-98.611244,4,1,0,80,0,0
49375,-96.8359,4,1,0,80,0,0
49475,-96.40201,4,1,0,80,0,0
49575,-95.971985,4,1,0,80,0,0
49775,-95.12335,4,1,0,80,0,0
49975,-94.28959,4,1,0,80,0,0
50175,-93.47033,4,1,0,80,0,0
50275,-93.06601,4,1,0,80,0,0
50375,-92.66518,4,1,0,80,0,0
50475,-92.26778,4,1,0,80,0,0
50575,-91.87377,4,1,0,80,0,0
50775,-91.09577,4,1,0,80,0,0
50975,-90.33084,4,1,0,80,0,0
51175,-89.57864,4,1,0,80,0,0
51275,-89.20724,4,1,0,80,0,0
51375,-88.83888,4,1,0,80,0,0
51575,-88.09319,4,1,0,80,0,0
51675,-87.751854,4,1,0,80,0,0
51775,-87.3954,4,1,0,80,0,0
51975,-86.69111,4,1,0,80,0,0
52175,-85.99808,4,1,0,80,0,0
52375,-85.31605,4,1,0,80,0,0
52475,-84.97907,4,1,0,80,0,0
52575,-84.644745,4,1,0,80,0,0
52775,-83.983925,4,1,0,80,0,0
52875,-83.657364,4,1,0,80,0,0
52975,-83.33333,4,1,0,80,0,0
53375,-86.73469,4,1,0,80,0,0
53575,-88.541664,4,1,0,80,0,0
53775,-90.42553,4,1,0,80,0,0
53975,-92.3913,4,1,0,80,0,0
54075,-93.40659,4,1,0,80,0,0
54175,-94.44444,4,1,0,80,0,0
54375,-96.590904,4,1,0,80,0,0
54475,-97.70115,4,1,0,80,0,0
54575,-98.837204,4,1,0,80,0,0
54675,-100,4,1,0,80,0,0
54775,-83.3333333333333,4,1,0,80,0,0
54975,-100,4,1,0,80,0,0
55075,-99.55752,4,1,0,80,0,0
55175,-99.11895,4,1,0,80,0,0
55275,-98.68421,4,1,0,80,0,0
55375,-98.25327,4,1,0,80,0,0
55575,-97.4026,4,1,0,80,0,0
55775,-96.56653,4,1,0,80,0,0
55975,-95.74468,4,1,0,80,0,0
56275,-94.53782,4,1,0,80,0,0
56375,-94.14226,4,1,0,80,0,0
56575,-93.360985,4,1,0,80,0,0
56675,-92.975204,4,1,0,80,0,0
56875,-92.21311,4,1,0,80,0,0
57075,-91.46341,4,1,0,80,0,0
57175,-91.09311,4,1,0,80,0,0
57375,-90.36144,4,1,0,80,0,0
57575,-89.64143,4,1,0,80,0,0
57775,-88.9328,4,1,0,80,0,0
57875,-88.58268,4,1,0,80,0,0
57975,-88.2353,4,1,0,80,0,0
58175,-87.548645,4,1,0,80,0,0
58275,-87.209305,4,1,0,80,0,0
58475,-86.53847,4,1,0,80,0,0
58675,-85.87786,4,1,0,80,0,0
58775,-85.55134,4,1,0,80,0,0
58975,-84.90566,4,1,0,80,0,0
59175,-84.26967,4,1,0,80,0,0
59275,-83.95522,4,1,0,80,0,0
59375,-83.64312,4,1,0,80,0,0
59475,-83.33333,4,1,0,80,0,0
59708,-111.111111111111,4,1,0,70,0,0
59775,-110.462074,4,1,0,70,0,0
59875,-109.50735,4,1,0,70,0,0
59975,-108.568985,4,1,0,70,0,0
60175,-106.73968,4,1,0,70,0,0
60275,-105.84795,4,1,0,70,0,0
60375,-104.971,4,1,0,70,0,0
60575,-103.25998,4,1,0,70,0,0
60675,-102.425224,4,1,0,70,0,0
60875,-100.79555,4,1,0,70,0,0
60975,-100,4,1,0,70,0,0
61172,-83.3333333333333,4,1,0,80,0,0
61375,-100,4,1,0,80,0,0
61475,-99.5671,4,1,0,80,0,0
61575,-99.137924,4,1,0,80,0,0
61675,-98.71244,4,1,0,80,0,0
61775,-98.29061,4,1,0,80,0,0
61975,-97.45763,4,1,0,80,0,0
62175,-96.63865,4,1,0,80,0,0
62275,-96.23431,4,1,0,80,0,0
62375,-95.833336,4,1,0,80,0,0
62575,-95.04133,4,1,0,80,0,0
62675,-94.650215,4,1,0,80,0,0
62775,-94.26229,4,1,0,80,0,0
62975,-93.49594,4,1,0,80,0,0
63075,-93.1174,4,1,0,80,0,0
63275,-92.36948,4,1,0,80,0,0
63375,-92,4,1,0,80,0,0
63475,-91.63347,4,1,0,80,0,0
63575,-91.269844,4,1,0,80,0,0
63775,-90.55118,4,1,0,80,0,0
64175,-89.147285,4,1,0,80,0,0
64275,-88.80309,4,1,0,80,0,0
64375,-88.46154,4,1,0,80,0,0
64575,-87.786255,4,1,0,80,0,0
64675,-87.45247,4,1,0,80,0,0
64875,-86.79246,4,1,0,80,0,0
64975,-86.46617,4,1,0,80,0,0
65075,-86.14232,4,1,0,80,0,0
65175,-85.82089,4,1,0,80,0,0
65375,-85.18518,4,1,0,80,0,0
65575,-84.55883,4,1,0,80,0,0
65675,-84.249084,4,1,0,80,0,0
65775,-83.941605,4,1,0,80,0,0
65875,-83.63637,4,1,0,80,0,0
65975,-83.33333,4,1,0,80,0,0
65980,400,4,1,0,80,1,0
65980,-83.3333333333333,4,1,0,80,0,0
66775,-125,4,1,0,50,0,0
78780,-100,4,1,0,70,0,0
85175,-83.3333333333333,4,1,0,80,0,0
85375,-100,4,1,0,80,0,0
85475,-99.5671,4,1,0,80,0,0
85575,-99.137924,4,1,0,80,0,0
85775,-98.290596,4,1,0,80,0,0
85875,-97.87234,4,1,0,80,0,0
85975,-97.45763,4,1,0,80,0,0
86075,-97.04642,4,1,0,80,0,0
86275,-96.23431,4,1,0,80,0,0
86375,-95.833336,4,1,0,80,0,0
86575,-95.04131,4,1,0,80,0,0
86675,-94.6502,4,1,0,80,0,0
86775,-94.26229,4,1,0,80,0,0
86975,-93.49594,4,1,0,80,0,0
87075,-93.1174,4,1,0,80,0,0
87275,-92.36948,4,1,0,80,0,0
87375,-91.99999,4,1,0,80,0,0
87575,-91.26984,4,1,0,80,0,0
87675,-90.90909,4,1,0,80,0,0
87875,-90.19608,4,1,0,80,0,0
87975,-89.84374,4,1,0,80,0,0
88175,-89.147285,4,1,0,80,0,0
88275,-88.80308,4,1,0,80,0,0
88375,-88.46153,4,1,0,80,0,0
88575,-87.786255,4,1,0,80,0,0
88675,-87.45247,4,1,0,80,0,0
88775,-87.121216,4,1,0,80,0,0
88875,-86.79245,4,1,0,80,0,0
88975,-86.46616,4,1,0,80,0,0
89175,-85.820885,4,1,0,80,0,0
89275,-85.501854,4,1,0,80,0,0
89375,-85.18518,4,1,0,80,0,0
89475,-84.87084,4,1,0,80,0,0
89575,-84.55882,4,1,0,80,0,0
89775,-83.9416,4,1,0,80,0,0
89875,-83.63636,4,1,0,80,0,0
89975,-83.33333,4,1,0,80,0,0
91175,-200,4,1,0,70,0,0
91580,-66.6666666666667,4,1,0,90,0,1
91980,-100,4,1,0,80,0,0
92380,-76.9230769230769,4,1,0,90,0,1
92675,-80,4,1,0,90,0,1
92975,-83.3333333333333,4,1,0,90,0,1
93175,-100,4,1,0,90,0,1
93975,-76.9230769230769,4,1,0,90,0,1
94075,-100,4,1,0,90,0,1
94780,-100,4,1,0,80,0,0
95580,-66.666664,4,1,0,90,0,1
95775,-68.57142,4,1,0,90,0,1
95975,-70.588234,4,1,0,90,0,1
96175,-72.727264,4,1,0,90,0,1
96375,-74.99999,4,1,0,90,0,1
96575,-77.41936,4,1,0,90,0,1
96775,-80,4,1,0,90,0,1
96975,-82.75862,4,1,0,90,0,1
97175,-85.71429,4,1,0,90,0,1
97375,-88.888885,4,1,0,90,0,1
97475,-90.56604,4,1,0,90,0,1
97575,-92.307686,4,1,0,90,0,1
97775,-96,4,1,0,90,0,1
97980,-100,4,1,0,80,0,0
98375,-83.3333333333333,4,1,0,80,0,0
98775,-100,4,1,0,80,0,0
99380,-76.9230769230769,4,1,0,90,0,1
99580,-100,4,1,0,90,0,1
100375,-83.3333333333333,4,1,0,90,0,1
100675,-90.9090909090909,4,1,0,90,0,1
100980,-100,4,1,0,90,0,1
101175,-83.3333333333333,4,1,0,90,0,1
101475,-90.9090909090909,4,1,0,90,0,1
101780,-100,4,1,0,90,0,1
101980,-100,4,1,0,80,0,0
102380,-76.9230769230769,4,1,0,90,0,1
102575,-100,4,1,0,90,0,1
102975,-83.3333333333333,4,1,0,90,0,1
103375,-100,4,1,0,90,0,1
103575,-83.3333333333333,4,1,0,90,0,1
103875,-100,4,1,0,90,0,1
103975,-83.3333333333333,4,1,0,90,0,1
104180,-90.9090909090909,4,1,0,80,0,0
104380,-90.9090909090909,4,1,0,90,0,1
110780,-90.90909,4,1,0,80,0,0
110975,-90.14085,4,1,0,80,0,0
111075,-89.761566,4,1,0,80,0,0
111175,-89.385475,4,1,0,80,0,0
111275,-89.01251,4,1,0,80,0,0
111375,-88.64266,4,1,0,80,0,0
111575,-87.91209,4,1,0,80,0,0
111775,-87.19346,4,1,0,80,0,0
111875,-86.83854,4,1,0,80,0,0
112075,-86.137276,4,1,0,80,0,0
112175,-85.790886,4,1,0,80,0,0
112375,-85.106384,4,1,0,80,0,0
112475,-84.76821,4,1,0,80,0,0
112675,-84.09987,4,1,0,80,0,0
112775,-83.76963,4,1,0,80,0,0
112975,-83.11688,4,1,0,80,0,0
113075,-82.794304,4,1,0,80,0,0
113275,-82.15661,4,1,0,80,0,0
113375,-81.84144,4,1,0,80,0,0
113575,-81.21827,4,1,0,80,0,0
113675,-80.91024,4,1,0,80,0,0
113975,-80,4,1,0,80,0,0
114175,-79.404465,4,1,0,80,0,0
114275,-79.11001,4,1,0,80,0,0
114375,-78.81773,4,1,0,80,0,0
114475,-78.52761,4,1,0,80,0,0
114575,-78.23961,4,1,0,80,0,0
114775,-77.6699,4,1,0,80,0,0
114875,-77.38815,4,1,0,80,0,0
115075,-76.83073,4,1,0,80,0,0
115175,-76.55502,4,1,0,80,0,0
115275,-76.28129,4,1,0,80,0,0
115375,-76.00951,4,1,0,80,0,0
115575,-75.471695,4,1,0,80,0,0
115675,-75.20564,4,1,0,80,0,0
115775,-74.94145,4,1,0,80,0,0
115875,-74.679115,4,1,0,80,0,0
115975,-74.4186,4,1,0,80,0,0
116175,-73.903,4,1,0,80,0,0
116375,-73.3945,4,1,0,80,0,0
116475,-73.14286,4,1,0,80,0,0
116575,-72.89294,4,1,0,80,0,0
116675,-72.64472,4,1,0,80,0,0
116775,-72.398186,4,1,0,80,0,0
116975,-71.91011,4,1,0,80,0,0
117175,-71.42857,4,1,0,80,0,0
117580,-76.9230769230769,4,1,0,90,0,1
117775,-90.9090909090909,4,1,0,90,0,1
123575,-76.9230769230769,4,1,0,90,0,1
123775,-90.9090909090909,4,1,0,90,0,1
129980,-90.9090909090909,4,1,0,80,0,0
130175,-66.6666666666667,4,1,0,80,0,0
131580,400,4,1,0,90,1,1
131580,-66.6666666666667,4,1,0,90,0,1
131975,-90.9090909090909,4,1,0,90,0,1
136380,-90.9090909090909,4,1,0,80,0,0
136575,-111.111115,4,1,0,80,0,0
136675,-110.09174,4,1,0,80,0,0
136775,-109.090904,4,1,0,80,0,0
136975,-107.14286,4,1,0,80,0,0
137075,-106.194695,4,1,0,80,0,0
137175,-105.26316,4,1,0,80,0,0
137375,-103.44828,4,1,0,80,0,0
137475,-102.5641,4,1,0,80,0,0
137675,-100.84033,4,1,0,80,0,0
137775,-100,4,1,0,80,0,0
137980,-76.9230769230769,4,1,0,90,0,1
138175,-90.9090909090909,4,1,0,90,0,1
142780,-90.9090909090909,4,1,0,80,0,0
143975,-125,4,1,0,80,0,0
144380,-90.90909,4,1,0,90,0,1
144775,-92.024536,4,1,0,90,0,1
144975,-92.59259,4,1,0,90,0,1
145075,-92.87925,4,1,0,90,0,1
145175,-93.167694,4,1,0,90,0,1
145375,-93.74999,4,1,0,90,0,1
145575,-94.33963,4,1,0,90,0,1
145775,-94.936714,4,1,0,90,0,1
145975,-95.541405,4,1,0,90,0,1
146075,-95.84665,4,1,0,90,0,1
146175,-96.15385,4,1,0,90,0,1
146375,-96.77419,4,1,0,90,0,1
146475,-97.08738,4,1,0,90,0,1
146575,-97.4026,4,1,0,90,0,1
146675,-97.71987,4,1,0,90,0,1
146775,-98.039215,4,1,0,90,0,1
146975,-98.68421,4,1,0,90,0,1
147075,-99.0099,4,1,0,90,0,1
147175,-99.337746,4,1,0,90,0,1
147375,-100,4,1,0,90,0,1
147575,-90.90909,4,1,0,90,0,1
147975,-92.024536,4,1,0,90,0,1
148175,-92.59259,4,1,0,90,0,1
148275,-92.87925,4,1,0,90,0,1
148375,-93.167694,4,1,0,90,0,1
148575,-93.74999,4,1,0,90,0,1
148775,-94.33963,4,1,0,90,0,1
148975,-94.936714,4,1,0,90,0,1
149075,-95.2381,4,1,0,90,0,1
149175,-95.541405,4,1,0,90,0,1
149275,-95.84665,4,1,0,90,0,1
149375,-96.15385,4,1,0,90,0,1
149575,-96.77419,4,1,0,90,0,1
149675,-97.08738,4,1,0,90,0,1
149775,-97.4026,4,1,0,90,0,1
149875,-97.71987,4,1,0,90,0,1
149975,-98.039215,4,1,0,90,0,1
150175,-98.68421,4,1,0,90,0,1
150275,-99.0099,4,1,0,90,0,1
150375,-99.337746,4,1,0,90,0,1
150575,-100,4,1,0,90,0,1
150775,-90.90909,4,1,0,90,0,1
151175,-92.024536,4,1,0,90,0,1
151375,-92.59259,4,1,0,90,0,1
151475,-92.87925,4,1,0,90,0,1
151575,-93.167694,4,1,0,90,0,1
151775,-93.74999,4,1,0,90,0,1
151975,-94.33963,4,1,0,90,0,1
152175,-94.936714,4,1,0,90,0,1
152275,-95.2381,4,1,0,90,0,1
152375,-95.541405,4,1,0,90,0,1
152575,-96.15385,4,1,0,90,0,1
152675,-96.46303,4,1,0,90,0,1
152775,-96.77419,4,1,0,90,0,1
152875,-97.08738,4,1,0,90,0,1
152975,-97.4026,4,1,0,90,0,1
153175,-98.039215,4,1,0,90,0,1
153375,-98.68421,4,1,0,90,0,1
153475,-99.0099,4,1,0,90,0,1
153575,-99.337746,4,1,0,90,0,1
153975,-90.90909,4,1,0,90,0,1
154375,-92.307686,4,1,0,90,0,1
154575,-93.023254,4,1,0,90,0,1
154675,-93.385216,4,1,0,90,0,1
154775,-93.74999,4,1,0,90,0,1
154975,-94.4882,4,1,0,90,0,1
155175,-95.2381,4,1,0,90,0,1
155375,-96,4,1,0,90,0,1
155475,-96.38554,4,1,0,90,0,1
155575,-96.77419,4,1,0,90,0,1
155775,-97.560974,4,1,0,90,0,1
155975,-98.36066,4,1,0,90,0,1
156175,-99.17355,4,1,0,90,0,1
156375,-100,4,1,0,90,0,1
156775,-90.9090909090909,4,1,0,90,0,1
156975,-100,4,1,0,90,0,1
157175,-71.4285714285714,4,1,0,90,0,1
157575,-83.33333,4,1,0,90,0,1
157708,-84.078835,4,1,0,90,0,1
157841,-84.83779,4,1,0,90,0,1
157975,-85.61644,4,1,0,90,0,1
158108,-86.403534,4,1,0,90,0,1
158241,-87.20525,4,1,0,90,0,1
158375,-88.028175,4,1,0,90,0,1
158575,-89.28571,4,1,0,90,0,1
158775,-90.579704,4,1,0,90,0,1
158875,-91.24088,4,1,0,90,0,1
158975,-91.911766,4,1,0,90,0,1
159175,-93.28358,4,1,0,90,0,1
159308,-94.218735,4,1,0,90,0,1
159441,-95.17284,4,1,0,90,0,1
159575,-96.15385,4,1,0,90,0,1
159708,-97.14775,4,1,0,90,0,1
159841,-98.1624,4,1,0,90,0,1
159975,-99.206345,4,1,0,90,0,1
160375,-98.159515,4,1,0,90,0,1
160575,-96.969696,4,1,0,90,0,1
160675,-96.38554,4,1,0,90,0,1
160775,-95.80838,4,1,0,90,0,1
160875,-95.2381,4,1,0,90,0,1
160975,-94.67456,4,1,0,90,0,1
161175,-93.56725,4,1,0,90,0,1
161475,-91.954025,4,1,0,90,0,1
161675,-90.90909,4,1,0,90,0,1
161775,-90.39548,4,1,0,90,0,1
161875,-89.88764,4,1,0,90,0,1
161975,-89.385475,4,1,0,90,0,1
162075,-88.888885,4,1,0,90,0,1
162275,-87.91209,4,1,0,90,0,1
162375,-87.431694,4,1,0,90,0,1
162575,-86.48649,4,1,0,90,0,1
162675,-86.02151,4,1,0,90,0,1
162775,-85.56149,4,1,0,90,0,1
162975,-84.65609,4,1,0,90,0,1
163175,-83.76963,4,1,0,90,0,1
163275,-83.33333,4,1,0,90,0,1
163575,-71.4285714285714,4,1,0,90,0,1
163975,-83.33333,4,1,0,90,0,1
164108,-84.078835,4,1,0,90,0,1
164241,-84.83779,4,1,0,90,0,1
164375,-85.61644,4,1,0,90,0,1
164508,-86.403534,4,1,0,90,0,1
164641,-87.20525,4,1,0,90,0,1
164775,-88.028175,4,1,0,90,0,1
165175,-90.579704,4,1,0,90,0,1
165275,-91.24088,4,1,0,90,0,1
165375,-91.911766,4,1,0,90,0,1
165575,-93.28358,4,1,0,90,0,1
165708,-94.218735,4,1,0,90,0,1
165841,-95.17284,4,1,0,90,0,1
165975,-96.15385,4,1,0,90,0,1
166108,-97.14775,4,1,0,90,0,1
166241,-98.1624,4,1,0,90,0,1
166375,-99.20634,4,1,0,90,0,1
166775,-97.03196,4,1,0,90,0,1
166875,-96.503174,4,1,0,90,0,1
166975,-95.980125,4,1,0,90,0,1
167075,-95.46271,4,1,0,90,0,1
167175,-94.95084,4,1,0,90,0,1
167375,-93.9434,4,1,0,90,0,1
167575,-92.95712,4,1,0,90,0,1
167775,-91.99133,4,1,0,90,0,1
167875,-91.51593,4,1,0,90,0,1
168075,-90.579704,4,1,0,90,0,1
168175,-90.11874,4,1,0,90,0,1
168275,-89.66244,4,1,0,90,0,1
168375,-89.21074,4,1,0,90,0,1
168575,-88.320854,4,1,0,90,0,1
168675,-87.88254,4,1,0,90,0,1
168775,-87.44856,4,1,0,90,0,1
168875,-87.01884,4,1,0,90,0,1
168975,-86.59331,4,1,0,90,0,1
169175,-85.75463,4,1,0,90,0,1
169375,-84.932045,4,1,0,90,0,1
169475,-84.52665,4,1,0,90,0,1
169575,-84.1251,4,1,0,90,0,1
169775,-83.33333,4,1,0,90,0,1
169980,-61.5384615384615,4,1,0,100,0,0

[HitObjects]
255,196,380,5,4,0:0:0:0:
297,232,1980,1,8,0:0:0:0:
265,185,3580,1,8,0:0:0:0:
265,185,5180,1,0,0:0:0:0:
274,211,5980,1,8,0:0:0:0:
274,211,6780,1,4,0:0:0:0:
274,211,7080,1,0,0:0:0:0:
274,211,7180,1,8,0:0:0:0:
274,211,7380,1,8,0:0:0:0:
274,211,7480,1,8,0:0:0:0:
274,211,7580,1,0,0:0:0:0:
274,211,7880,1,0,0:0:0:0:
274,211,7980,1,8,0:0:0:0:
267,210,8180,1,8,0:0:0:0:
263,209,8280,1,0,0:0:0:0:
259,208,8380,1,8,0:0:0:0:
252,207,8580,1,8,0:0:0:0:
252,207,8780,1,0,0:0:0:0:
252,207,9080,1,8,0:0:0:0:
252,207,9180,1,0,0:0:0:0:
259,208,9380,1,0,0:0:0:0:
252,207,9480,1,0,0:0:0:0:
252,207,9580,1,0,0:0:0:0:
252,207,9780,1,0,0:0:0:0:
252,207,9980,1,8,0:0:0:0:
252,207,10180,1,8,0:0:0:0:
259,208,10380,1,0,0:0:0:0:
252,207,10580,1,8,0:0:0:0:
252,207,10780,1,0,0:0:0:0:
252,207,10880,1,0,0:0:0:0:
252,207,10980,1,0,0:0:0:0:
252,207,11180,1,8,0:0:0:0:
259,208,11280,1,8,0:0:0:0:
259,208,11380,1,8,0:0:0:0:
252,207,11480,1,8,0:0:0:0:
252,207,11580,1,0,0:0:0:0:
252,207,13180,1,0,0:0:0:0:
252,207,13480,1,0,0:0:0:0:
252,207,13780,1,0,0:0:0:0:
252,207,13980,1,0,0:0:0:0:
252,207,14180,1,8,0:0:0:0:
252,207,14380,1,0,0:0:0:0:
252,207,14580,1,8,0:0:0:0:
252,207,14780,1,0,0:0:0:0:
252,207,15080,1,8,0:0:0:0:
252,207,15180,1,0,0:0:0:0:
252,207,15380,1,0,0:0:0:0:
252,207,15580,1,0,0:0:0:0:
252,207,15780,1,8,0:0:0:0:
252,207,15880,1,8,0:0:0:0:
252,207,15980,1,0,0:0:0:0:
252,207,16180,1,8,0:0:0:0:
252,207,16380,1,0,0:0:0:0:
258,210,16680,1,8,0:0:0:0:
252,207,16780,1,0,0:0:0:0:
252,207,16980,1,0,0:0:0:0:
252,207,17180,1,0,0:0:0:0:
252,207,17380,1,8,0:0:0:0:
258,210,17580,1,0,0:0:0:0:
252,207,17780,1,8,0:0:0:0:
252,207,17880,1,8,0:0:0:0:
252,207,17980,1,0,0:0:0:0:
252,207,18280,1,8,0:0:0:0:
252,207,18380,1,0,0:0:0:0:
252,207,18780,1,0,0:0:0:0:
257,203,18980,1,8,0:0:0:0:
257,203,19180,1,0,0:0:0:0:
257,203,19380,1,8,0:0:0:0:
257,203,19580,1,0,0:0:0:0:
252,207,19880,1,8,0:0:0:0:
257,203,19980,1,0,0:0:0:0:
257,203,20180,1,8,0:0:0:0:
257,203,20380,1,0,0:0:0:0:
257,203,20580,1,8,0:0:0:0:
252,207,20780,1,8,0:0:0:0:
252,207,20880,1,8,0:0:0:0:
257,203,20980,1,8,0:0:0:0:
257,203,21080,1,8,0:0:0:0:
257,203,21180,1,0,0:0:0:0:
257,203,21480,1,8,0:0:0:0:
257,203,21580,1,0,0:0:0:0:
252,207,21780,1,8,0:0:0:0:
257,203,21980,1,0,0:0:0:0:
257,203,22080,1,0,0:0:0:0:
257,203,22180,1,8,0:0:0:0:
257,203,22280,1,8,0:0:0:0:
257,203,22380,1,0,0:0:0:0:
257,203,22580,1,8,0:0:0:0:
252,207,22780,1,0,0:0:0:0:
257,203,23080,1,8,0:0:0:0:
257,203,23180,1,0,0:0:0:0:
243,202,23580,1,0,0:0:0:0:
243,202,23780,1,8,0:0:0:0:
243,202,23880,1,8,0:0:0:0:
243,202,23980,1,0,0:0:0:0:
245,199,24080,1,0,0:0:0:0:
247,196,24180,1,8,0:0:0:0:
252,191,24380,1,0,0:0:0:0:
252,191,24680,1,8,0:0:0:0:
252,191,24780,1,0,0:0:0:0:
252,191,24980,1,8,0:0:0:0:
252,191,25180,1,0,0:0:0:0:
252,191,25280,1,0,0:0:0:0:
252,191,25380,1,8,0:0:0:0:
252,191,25580,1,8,0:0:0:0:
252,191,25680,1,0,0:0:0:0:
252,191,25780,1,8,0:0:0:0:
252,191,25980,1,0,0:0:0:0:
252,191,26280,1,0,0:0:0:0:
252,191,26580,1,0,0:0:0:0:
252,191,26780,1,0,0:0:0:0:
250,188,26880,1,0,0:0:0:0:
252,191,26980,1,8,0:0:0:0:
252,191,27080,1,0,0:0:0:0:
252,191,27180,1,12,0:0:0:0:
252,191,27580,1,4,0:0:0:0:
250,188,27780,1,0,0:0:0:0:
252,191,27880,1,8,0:0:0:0:
252,191,27980,1,0,0:0:0:0:
252,191,28180,1,0,0:0:0:0:
252,191,28380,1,0,0:0:0:0:
250,188,28580,1,8,0:0:0:0:
250,188,28680,1,8,0:0:0:0:
250,188,28780,1,0,0:0:0:0:
250,188,28880,1,0,0:0:0:0:
250,188,28980,1,8,0:0:0:0:
252,191,29180,1,0,0:0:0:0:
250,188,29480,1,8,0:0:0:0:
250,188,29580,1,0,0:0:0:0:
250,188,29780,1,0,0:0:0:0:
250,188,29880,1,0,0:0:0:0:
250,188,29980,1,0,0:0:0:0:
252,191,30080,1,0,0:0:0:0:
252,191,30180,1,8,0:0:0:0:
250,188,30380,1,0,0:0:0:0:
250,188,30580,1,8,0:0:0:0:
250,188,30780,1,0,0:0:0:0:
256,179,31080,1,0,0:0:0:0:
256,179,31380,1,0,0:0:0:0:
250,188,31580,1,0,0:0:0:0:
250,188,31680,1,0,0:0:0:0:
256,179,31780,1,8,0:0:0:0:
256,179,31880,1,8,0:0:0:0:
256,179,31980,1,0,0:0:0:0:
256,179,32180,1,8,0:0:0:0:
256,179,32380,1,4,0:0:0:0:
250,188,32680,1,4,0:0:0:0:
256,179,32980,1,4,0:0:0:0:
256,179,33180,1,8,0:0:0:0:
250,188,33580,1,4,0:0:0:0:
256,179,33980,1,12,0:0:0:0:
256,179,34180,1,8,0:0:0:0:
250,188,34280,1,8,0:0:0:0:
250,188,34380,1,8,0:0:0:0:
250,188,34580,1,8,0:0:0:0:
256,179,34680,1,8,0:0:0:0:
256,179,34780,1,8,0:0:0:0:
256,179,34880,1,8,0:0:0:0:
256,179,34980,1,8,0:0:0:0:
256,179,35180,1,8,0:0:0:0:
250,188,35280,1,8,0:0:0:0:
250,188,35380,1,8,0:0:0:0:
250,188,35580,1,0,0:0:0:0:
256,179,35680,1,8,0:0:0:0:
256,179,35780,1,0,0:0:0:0:
256,179,35980,1,8,0:0:0:0:
256,179,36080,1,0,0:0:0:0:
256,179,36180,1,8,0:0:0:0:
250,188,36380,1,0,0:0:0:0:
250,188,36480,1,8,0:0:0:0:
250,188,36580,1,0,0:0:0:0:
256,179,36680,1,8,0:0:0:0:
256,179,36780,1,0,0:0:0:0:
264,167,37180,1,4,0:0:0:0:
250,188,37380,1,8,0:0:0:0:
256,179,37480,1,0,0:0:0:0:
256,179,37680,1,8,0:0:0:0:
256,179,37780,1,0,0:0:0:0:
250,188,37980,1,0,0:0:0:0:
264,167,38080,1,0,0:0:0:0:
264,167,38180,1,8,0:0:0:0:
250,188,38280,1,8,0:0:0:0:
250,188,38380,1,0,0:0:0:0:
256,179,38580,1,8,0:0:0:0:
256,179,38780,1,0,0:0:0:0:
250,188,38980,1,8,0:0:0:0:
264,167,39080,1,0,0:0:0:0:
264,167,39280,1,8,0:0:0:0:
264,167,39380,1,0,0:0:0:0:
264,167,39580,1,0,0:0:0:0:
264,167,39680,1,0,0:0:0:0:
264,167,39780,1,8,0:0:0:0:
264,167,40380,1,8,0:0:0:0:
264,167,40480,1,8,0:0:0:0:
264,167,40580,1,0,0:0:0:0:
264,167,40780,1,8,0:0:0:0:
264,167,40880,1,0,0:0:0:0:
264,167,40980,1,8,0:0:0:0:
264,167,41180,1,0,0:0:0:0:
264,167,41480,1,0,0:0:0:0:
264,167,41780,1,8,0:0:0:0:
264,167,41980,1,4,0:0:0:0:
264,167,42280,1,0,0:0:0:0:
264,167,42380,1,8,0:0:0:0:
264,167,42580,1,0,0:0:0:0:
264,167,42980,1,0,0:0:0:0:
264,167,43080,1,0,0:0:0:0:
264,163,43180,1,0,0:0:0:0:
264,163,43380,1,0,0:0:0:0:
264,163,43580,1,8,0:0:0:0:
264,167,43780,1,8,0:0:0:0:
264,167,43980,1,0,0:0:0:0:
264,167,44080,1,0,0:0:0:0:
264,163,44180,1,8,0:0:0:0:
264,163,44280,1,8,0:0:0:0:
264,163,44380,1,0,0:0:0:0:
264,163,44580,1,8,0:0:0:0:
264,167,44780,1,0,0:0:0:0:
265,160,44980,1,0,0:0:0:0:
264,167,45080,1,8,0:0:0:0:
264,163,45180,1,0,0:0:0:0:
264,163,45380,1,8,0:0:0:0:
264,163,45580,1,0,0:0:0:0:
264,167,45680,1,0,0:0:0:0:
264,167,45780,1,8,0:0:0:0:
264,167,45880,1,0,0:0:0:0:
264,167,45980,1,8,0:0:0:0:
264,163,46180,1,0,0:0:0:0:
264,163,46380,1,0,0:0:0:0:
264,163,46480,1,0,0:0:0:0:
264,163,46580,1,8,0:0:0:0:
264,167,46680,1,8,0:0:0:0:
264,167,46780,1,0,0:0:0:0:
262,160,46980,1,0,0:0:0:0:
262,160,47080,1,0,0:0:0:0:
262,160,47180,1,0,0:0:0:0:
262,160,47280,1,0,0:0:0:0:
262,160,47380,1,0,0:0:0:0:
262,160,47580,1,0,0:0:0:0:
262,160,47680,1,0,0:0:0:0:
262,160,47780,1,0,0:0:0:0:
262,160,47980,1,0,0:0:0:0:
262,160,48080,1,0,0:0:0:0:
262,160,48180,1,0,0:0:0:0:
261,156,48280,1,0,0:0:0:0:
262,160,48380,1,12,0:0:0:0:
262,160,48780,1,8,0:0:0:0:
262,160,48980,1,0,0:0:0:0:
262,160,49380,1,8,0:0:0:0:
262,160,49480,1,0,0:0:0:0:
262,160,49580,1,8,0:0:0:0:
262,160,49780,1,0,0:0:0:0:
262,160,49980,1,8,0:0:0:0:
262,160,50180,1,8,0:0:0:0:
262,160,50280,1,8,0:0:0:0:
262,160,50380,1,0,0:0:0:0:
262,160,50480,1,0,0:0:0:0:
262,160,50580,1,8,0:0:0:0:
262,160,50780,1,8,0:0:0:0:
262,160,50980,1,0,0:0:0:0:
262,160,51180,1,0,0:0:0:0:
262,160,51280,1,0,0:0:0:0:
262,160,51380,1,8,0:0:0:0:
257,154,51580,1,8,0:0:0:0:
262,160,51680,1,0,0:0:0:0:
262,160,51780,1,8,0:0:0:0:
262,160,51980,1,0,0:0:0:0:
262,160,52180,1,8,0:0:0:0:
262,160,52380,1,8,0:0:0:0:
448,64,52480,1,8,0:0:0:0:
64,64,52580,1,0,0:0:0:0:
448,64,52780,1,8,0:0:0:0:
448,64,52880,1,0,0:0:0:0:
64,64,52980,1,0,0:0:0:0:
262,160,53380,1,0,0:0:0:0:
262,160,53580,1,0,0:0:0:0:
262,160,53780,1,0,0:0:0:0:
262,160,53980,1,0,0:0:0:0:
262,144,54080,1,0,0:0:0:0:
252,167,54180,1,0,0:0:0:0:
262,160,54380,1,8,0:0:0:0:
259,147,54480,1,8,0:0:0:0:
259,147,54580,1,8,0:0:0:0:
259,147,54680,1,8,0:0:0:0:
256,147,54780,1,4,0:0:0:0:
256,147,54980,1,0,0:0:0:0:
256,147,55080,1,0,0:0:0:0:
256,147,55180,1,8,0:0:0:0:
256,147,55280,1,0,0:0:0:0:
256,147,55380,1,8,0:0:0:0:
256,147,55580,1,8,0:0:0:0:
256,147,55780,1,0,0:0:0:0:
256,147,55980,1,8,0:0:0:0:
256,147,56180,1,0,0:0:0:0:
256,147,56280,1,0,0:0:0:0:
256,147,56380,1,8,0:0:0:0:
256,147,56580,1,8,0:0:0:0:
256,147,56680,1,0,0:0:0:0:
256,147,56880,1,8,0:0:0:0:
256,147,57080,1,8,0:0:0:0:
256,147,57180,1,0,0:0:0:0:
256,147,57380,1,0,0:0:0:0:
256,147,57580,1,8,0:0:0:0:
256,147,57780,1,0,0:0:0:0:
256,147,57880,1,0,0:0:0:0:
256,147,57980,1,8,0:0:0:0:
256,147,58180,1,8,0:0:0:0:
256,147,58280,1,0,0:0:0:0:
256,147,58480,1,8,0:0:0:0:
256,147,58680,1,8,0:0:0:0:
256,147,58780,1,0,0:0:0:0:
256,147,58980,1,0,0:0:0:0:
256,147,59180,1,0,0:0:0:0:
256,147,59280,1,0,0:0:0:0:
256,147,59380,1,8,0:0:0:0:
263,159,59480,1,8,0:0:0:0:
256,147,59780,1,0,0:0:0:0:
256,147,59880,1,0,0:0:0:0:
256,147,59980,1,0,0:0:0:0:
256,147,60180,1,0,0:0:0:0:
256,147,60280,1,0,0:0:0:0:
256,147,60380,1,0,0:0:0:0:
256,147,60580,1,0,0:0:0:0:
256,147,60680,1,0,0:0:0:0:
256,147,60880,1,0,0:0:0:0:
256,147,60980,1,8,0:0:0:0:
256,147,61180,1,4,0:0:0:0:
256,147,61380,1,0,0:0:0:0:
256,147,61480,1,0,0:0:0:0:
256,147,61580,1,8,0:0:0:0:
256,147,61680,1,0,0:0:0:0:
256,147,61780,1,8,0:0:0:0:
256,147,61980,1,8,0:0:0:0:
256,147,62180,1,0,0:0:0:0:
256,147,62280,1,0,0:0:0:0:
256,147,62380,1,8,0:0:0:0:
256,147,62580,1,8,0:0:0:0:
256,147,62680,1,0,0:0:0:0:
256,147,62780,1,8,0:0:0:0:
256,147,62980,1,8,0:0:0:0:
256,147,63080,1,0,0:0:0:0:
256,147,63280,1,8,0:0:0:0:
256,147,63380,1,0,0:0:0:0:
256,147,63480,1,8,0:0:0:0:
256,147,63580,1,0,0:0:0:0:
256,147,63780,1,0,0:0:0:0:
256,147,64180,1,0,0:0:0:0:
256,147,64280,1,0,0:0:0:0:
256,147,64380,1,8,0:0:0:0:
256,147,64580,1,8,0:0:0:0:
253,149,64680,1,0,0:0:0:0:
256,147,64880,1,8,0:0:0:0:
256,147,64980,1,0,0:0:0:0:
256,147,65080,1,8,0:0:0:0:
256,147,65180,1,0,0:0:0:0:
256,147,65380,1,0,0:0:0:0:
256,147,65580,1,8,0:0:0:0:
256,147,65680,1,8,0:0:0:0:
256,147,65780,1,0,0:0:0:0:
256,147,65880,1,0,0:0:0:0:
256,147,65980,1,12,0:0:0:0:
256,192,73980,12,0,78580,0:0:0:0:
251,180,78780,5,0,0:0:0:0:
251,180,78980,1,0,0:0:0:0:
251,180,79080,1,0,0:0:0:0:
448,64,79280,1,8,0:0:0:0:
251,180,79380,1,8,0:0:0:0:
251,180,79580,1,0,0:0:0:0:
251,180,79680,1,0,0:0:0:0:
251,180,79880,1,8,0:0:0:0:
251,180,79980,1,8,0:0:0:0:
251,180,80180,1,0,0:0:0:0:
251,180,80280,1,8,0:0:0:0:
251,180,80380,1,0,0:0:0:0:
251,180,80580,1,0,0:0:0:0:
251,180,80680,1,0,0:0:0:0:
251,180,80880,1,8,0:0:0:0:
251,180,80980,1,8,0:0:0:0:
251,180,81180,1,0,0:0:0:0:
251,180,81280,1,0,0:0:0:0:
251,180,81480,1,8,0:0:0:0:
251,180,81580,1,8,0:0:0:0:
251,180,81780,1,0,0:0:0:0:
251,180,81880,1,8,0:0:0:0:
251,180,81980,1,0,0:0:0:0:
251,180,82180,1,0,0:0:0:0:
251,180,82280,1,0,0:0:0:0:
251,180,82480,1,8,0:0:0:0:
251,180,82580,1,8,0:0:0:0:
251,180,82780,1,0,0:0:0:0:
251,180,82880,1,0,0:0:0:0:
251,180,83080,1,8,0:0:0:0:
251,180,83180,1,8,0:0:0:0:
251,180,83380,1,0,0:0:0:0:
251,180,83480,1,8,0:0:0:0:
251,180,83780,1,8,0:0:0:0:
251,180,83880,1,8,0:0:0:0:
249,173,84080,1,0,0:0:0:0:
248,169,84180,1,8,0:0:0:0:
249,173,84380,1,8,0:0:0:0:
249,173,84480,1,8,0:0:0:0:
249,173,84780,1,0,0:0:0:0:
248,169,85180,1,4,0:0:0:0:
248,169,85380,1,0,0:0:0:0:
248,169,85480,1,0,0:0:0:0:
248,169,85580,1,8,0:0:0:0:
246,162,85780,1,0,0:0:0:0:
248,169,85880,1,0,0:0:0:0:
248,169,85980,1,0,0:0:0:0:
248,169,86080,1,8,0:0:0:0:
248,169,86280,1,0,0:0:0:0:
248,169,86380,1,8,0:0:0:0:
248,169,86580,1,8,0:0:0:0:
246,162,86680,1,8,0:0:0:0:
246,162,86780,1,0,0:0:0:0:
246,162,86980,1,0,0:0:0:0:
246,162,87080,1,0,0:0:0:0:
246,162,87280,1,8,0:0:0:0:
246,162,87380,1,0,0:0:0:0:
246,162,87580,1,0,0:0:0:0:
239,158,87680,1,8,0:0:0:0:
246,162,87880,1,0,0:0:0:0:
246,162,87980,1,8,0:0:0:0:
239,158,88180,1,0,0:0:0:0:
239,158,88280,1,8,0:0:0:0:
239,158,88380,1,0,0:0:0:0:
239,158,88580,1,0,0:0:0:0:
239,158,88680,1,0,0:0:0:0:
239,158,88780,1,8,0:0:0:0:
239,158,88880,1,8,0:0:0:0:
239,158,88980,1,0,0:0:0:0:
239,158,89180,1,8,0:0:0:0:
239,158,89280,1,8,0:0:0:0:
239,158,89380,1,0,0:0:0:0:
239,158,89480,1,8,0:0:0:0:
239,158,89580,1,0,0:0:0:0:
239,158,89780,1,0,0:0:0:0:
239,158,89880,1,8,0:0:0:0:
239,158,89980,1,0,0:0:0:0:
253,197,91180,1,0,0:0:0:0:
253,197,91580,1,12,0:0:0:0:
253,197,92180,1,0,0:0:0:0:
253,197,92280,1,0,0:0:0:0:
253,197,92380,1,12,0:0:0:0:
253,197,92680,1,8,0:0:0:0:
253,197,92980,1,8,0:0:0:0:
253,197,93380,1,0,0:0:0:0:
253,197,93480,1,0,0:0:0:0:
253,197,93580,1,8,0:0:0:0:
253,197,93780,1,0,0:0:0:0:
253,197,93980,1,12,0:0:0:0:
253,197,94280,1,8,0:0:0:0:
253,197,94380,1,0,0:0:0:0:
253,197,94580,1,0,0:0:0:0:
252,193,94680,1,0,0:0:0:0:
253,197,94780,1,8,0:0:0:0:
253,197,94980,1,8,0:0:0:0:
253,197,95080,1,8,0:0:0:0:
253,197,95180,1,0,0:0:0:0:
448,64,95580,1,12,0:0:0:0:
64,64,95780,1,0,0:0:0:0:
448,64,95980,1,8,0:0:0:0:
64,64,96180,1,0,0:0:0:0:
448,64,96380,1,8,0:0:0:0:
448,64,96580,1,8,0:0:0:0:
448,64,96780,1,8,0:0:0:0:
64,64,96980,1,0,0:0:0:0:
448,64,97180,1,12,0:0:0:0:
448,64,97380,1,8,0:0:0:0:
64,64,97480,1,0,0:0:0:0:
448,64,97580,1,12,0:0:0:0:
448,64,97780,1,8,0:0:0:0:
64,64,97980,1,4,0:0:0:0:
448,64,98380,1,8,0:0:0:0:
448,64,98780,1,8,0:0:0:0:
448,64,98880,1,8,0:0:0:0:
448,64,98980,1,8,0:0:0:0:
448,64,99080,1,8,0:0:0:0:
64,64,99180,1,0,0:0:0:0:
64,64,99380,1,12,0:0:0:0:
64,64,99780,1,0,0:0:0:0:
64,64,99880,1,0,0:0:0:0:
64,64,100080,1,0,0:0:0:0:
64,64,100280,1,0,0:0:0:0:
448,64,100380,1,12,0:0:0:0:
448,64,100680,1,12,0:0:0:0:
251,182,100980,1,12,0:0:0:0:
64,64,101180,1,4,0:0:0:0:
64,64,101480,1,4,0:0:0:0:
448,64,101780,1,8,0:0:0:0:
64,64,101980,1,0,0:0:0:0:
448,64,102380,1,12,0:0:0:0:
448,64,102780,1,8,0:0:0:0:
64,64,102880,1,0,0:0:0:0:
448,64,102980,1,12,0:0:0:0:
448,64,103180,1,12,0:0:0:0:
64,64,103380,1,0,0:0:0:0:
448,64,103580,1,12,0:0:0:0:
64,64,103880,1,0,0:0:0:0:
448,64,103980,1,12,0:0:0:0:
448,64,104180,1,8,0:0:0:0:
64,64,104380,1,4,0:0:0:0:
448,64,104580,1,8,0:0:0:0:
448,64,104680,1,8,0:0:0:0:
64,64,104780,1,0,0:0:0:0:
64,64,104980,1,0,0:0:0:0:
64,64,105080,1,0,0:0:0:0:
448,64,105180,1,8,0:0:0:0:
64,64,105380,1,0,0:0:0:0:
448,64,105480,1,8,0:0:0:0:
64,64,105680,1,0,0:0:0:0:
448,64,105780,1,8,0:0:0:0:
64,64,105980,1,0,0:0:0:0:
448,64,106180,1,8,0:0:0:0:
448,64,106280,1,8,0:0:0:0:
64,64,106380,1,0,0:0:0:0:
64,64,106480,1,0,0:0:0:0:
448,64,106580,1,8,0:0:0:0:
64,64,106780,1,0,0:0:0:0:
448,64,106880,1,8,0:0:0:0:
448,64,107080,1,8,0:0:0:0:
64,64,107180,1,0,0:0:0:0:
64,64,107313,1,0,0:0:0:0:
64,64,107446,1,0,0:0:0:0:
448,64,107580,1,8,0:0:0:0:
64,64,107780,1,0,0:0:0:0:
448,64,107980,1,8,0:0:0:0:
64,64,108180,1,0,0:0:0:0:
448,64,108380,1,8,0:0:0:0:
64,64,108480,1,0,0:0:0:0:
448,64,108580,1,8,0:0:0:0:
448,64,108680,1,8,0:0:0:0:
64,64,108780,1,0,0:0:0:0:
448,64,108980,1,8,0:0:0:0:
64,64,109180,1,0,0:0:0:0:
448,64,109280,1,8,0:0:0:0:
448,64,109480,1,8,0:0:0:0:
64,64,109580,1,0,0:0:0:0:
448,64,109980,1,8,0:0:0:0:
64,64,110180,1,0,0:0:0:0:
64,64,110380,1,0,0:0:0:0:
448,64,110480,1,8,0:0:0:0:
64,64,110580,1,0,0:0:0:0:
448,64,110680,1,8,0:0:0:0:
64,64,110780,1,0,0:0:0:0:
64,64,110980,1,0,0:0:0:0:
64,64,111080,1,0,0:0:0:0:
448,64,111180,1,8,0:0:0:0:
64,64,111280,1,0,0:0:0:0:
448,64,111380,1,8,0:0:0:0:
64,64,111580,1,0,0:0:0:0:
64,64,111780,1,0,0:0:0:0:
448,64,111880,1,8,0:0:0:0:
448,64,112080,1,8,0:0:0:0:
64,64,112180,1,0,0:0:0:0:
64,64,112380,1,0,0:0:0:0:
448,64,112480,1,8,0:0:0:0:
448,64,112680,1,8,0:0:0:0:
64,64,112780,1,0,0:0:0:0:
64,64,112980,1,0,0:0:0:0:
448,64,113080,1,8,0:0:0:0:
448,64,113280,1,8,0:0:0:0:
64,64,113380,1,0,0:0:0:0:
64,64,113580,1,0,0:0:0:0:
448,64,113680,1,8,0:0:0:0:
448,64,113980,1,8,0:0:0:0:
448,64,114180,1,8,0:0:0:0:
448,64,114280,1,8,0:0:0:0:
64,64,114380,1,0,0:0:0:0:
64,64,114480,1,0,0:0:0:0:
448,64,114580,1,8,0:0:0:0:
64,64,114780,1,0,0:0:0:0:
448,64,114880,1,8,0:0:0:0:
448,64,115080,1,8,0:0:0:0:
64,64,115180,1,0,0:0:0:0:
64,64,115280,1,0,0:0:0:0:
448,64,115380,1,8,0:0:0:0:
448,64,115580,1,8,0:0:0:0:
64,64,115680,1,0,0:0:0:0:
448,64,115780,1,8,0:0:0:0:
448,64,115880,1,8,0:0:0:0:
64,64,115980,1,0,0:0:0:0:
64,64,116180,1,0,0:0:0:0:
448,64,116380,1,8,0:0:0:0:
64,64,116480,1,0,0:0:0:0:
448,64,116580,1,8,0:0:0:0:
64,64,116680,1,0,0:0:0:0:
448,64,116780,1,8,0:0:0:0:
64,64,116980,1,0,0:0:0:0:
448,64,117180,1,8,0:0:0:0:
448,64,117580,1,12,0:0:0:0:
448,64,117780,1,8,0:0:0:0:
448,64,117880,1,8,0:0:0:0:
64,64,117980,1,0,0:0:0:0:
258,177,118080,1,8,0:0:0:0:
64,64,118180,1,0,0:0:0:0:
448,64,118380,1,8,0:0:0:0:
258,177,118480,1,0,0:0:0:0:
448,64,118580,1,8,0:0:0:0:
448,64,118680,1,8,0:0:0:0:
64,64,118780,1,0,0:0:0:0:
448,64,118980,1,8,0:0:0:0:
448,64,119080,1,8,0:0:0:0:
64,64,119180,1,0,0:0:0:0:
448,64,119280,1,8,0:0:0:0:
64,64,119380,1,0,0:0:0:0:
448,64,119580,1,8,0:0:0:0:
448,64,119680,1,8,0:0:0:0:
64,64,119780,1,0,0:0:0:0:
64,64,119980,1,0,0:0:0:0:
64,64,120180,1,0,0:0:0:0:
448,64,120380,1,8,0:0:0:0:
448,64,120480,1,8,0:0:0:0:
448,64,120580,1,8,0:0:0:0:
448,64,120680,1,8,0:0:0:0:
64,64,120780,1,0,0:0:0:0:
448,64,120980,1,8,0:0:0:0:
448,64,121180,1,8,0:0:0:0:
64,64,121280,1,0,0:0:0:0:
448,64,121380,1,8,0:0:0:0:
448,64,121480,1,8,0:0:0:0:
64,64,121580,1,0,0:0:0:0:
448,64,121780,1,8,0:0:0:0:
64,64,121980,1,0,0:0:0:0:
64,64,122080,1,0,0:0:0:0:
448,64,122180,1,8,0:0:0:0:
448,64,122280,1,8,0:0:0:0:
64,64,122380,1,0,0:0:0:0:
448,64,122580,1,8,0:0:0:0:
448,64,122780,1,8,0:0:0:0:
448,64,123080,1,8,0:0:0:0:
64,64,123380,1,8,0:0:0:0:
448,64,123580,1,4,0:0:0:0:
64,64,123780,1,0,0:0:0:0:
64,64,123880,1,0,0:0:0:0:
448,64,123980,1,8,0:0:0:0:
448,64,124180,1,8,0:0:0:0:
64,64,124380,1,0,0:0:0:0:
448,64,124780,1,0,0:0:0:0:
254,186,124980,1,8,0:0:0:0:
254,186,125080,1,8,0:0:0:0:
254,186,125180,1,0,0:0:0:0:
254,186,125280,1,0,0:0:0:0:
254,186,125380,1,8,0:0:0:0:
254,186,125580,1,0,0:0:0:0:
264,181,125780,1,8,0:0:0:0:
265,182,125980,1,0,0:0:0:0:
265,182,126080,1,8,0:0:0:0:
265,182,126180,1,0,0:0:0:0:
265,182,126380,1,0,0:0:0:0:
265,182,126580,1,0,0:0:0:0:
264,181,126780,1,8,0:0:0:0:
265,182,126880,1,8,0:0:0:0:
265,182,126980,1,0,0:0:0:0:
265,182,127180,1,0,0:0:0:0:
255,187,127280,1,0,0:0:0:0:
255,187,127380,1,8,0:0:0:0:
265,182,127580,1,8,0:0:0:0:
264,181,127680,1,8,0:0:0:0:
264,181,127780,1,0,0:0:0:0:
255,181,127980,1,0,0:0:0:0:
257,182,128180,1,8,0:0:0:0:
262,178,128380,1,0,0:0:0:0:
265,182,128480,1,0,0:0:0:0:
265,182,128580,1,8,0:0:0:0:
264,181,128680,1,8,0:0:0:0:
264,181,128780,1,0,0:0:0:0:
260,175,128980,1,8,0:0:0:0:
265,186,129180,1,8,0:0:0:0:
264,186,129480,1,0,0:0:0:0:
264,181,129780,1,8,0:0:0:0:
263,176,130180,1,12,0:0:0:0:
267,164,130380,1,12,0:0:0:0:
264,181,130580,1,4,0:0:0:0:
273,175,130780,1,4,0:0:0:0:
252,177,131180,1,12,0:0:0:0:
256,180,131580,1,4,0:0:0:0:
252,177,131980,1,0,0:0:0:0:
252,177,132180,1,8,0:0:0:0:
251,174,132380,1,8,0:0:0:0:
252,168,132580,1,0,0:0:0:0:
250,169,132780,1,8,0:0:0:0:
250,169,132980,1,0,0:0:0:0:
249,155,133080,1,0,0:0:0:0:
249,155,133180,1,8,0:0:0:0:
249,162,133380,1,8,0:0:0:0:
246,161,133480,1,0,0:0:0:0:
245,161,133680,1,8,0:0:0:0:
244,161,133880,1,8,0:0:0:0:
244,161,133980,1,0,0:0:0:0:
241,149,134180,1,0,0:0:0:0:
246,152,134380,1,8,0:0:0:0:
245,161,134580,1,0,0:0:0:0:
245,161,134680,1,0,0:0:0:0:
244,161,134780,1,8,0:0:0:0:
244,161,134980,1,8,0:0:0:0:
235,157,135080,1,0,0:0:0:0:
235,157,135280,1,8,0:0:0:0:
235,158,135480,1,8,0:0:0:0:
235,158,135580,1,0,0:0:0:0:
235,158,135780,1,0,0:0:0:0:
234,156,135980,1,8,0:0:0:0:
235,157,136080,1,8,0:0:0:0:
235,157,136180,1,0,0:0:0:0:
251,151,136580,1,0,0:0:0:0:
251,151,136680,1,0,0:0:0:0:
245,152,136780,1,0,0:0:0:0:
250,155,136980,1,0,0:0:0:0:
245,160,137080,1,0,0:0:0:0:
244,160,137180,1,0,0:0:0:0:
244,172,137380,1,0,0:0:0:0:
247,162,137480,1,0,0:0:0:0:
247,162,137680,1,0,0:0:0:0:
247,162,137780,1,8,0:0:0:0:
250,155,137980,1,12,0:0:0:0:
263,163,138180,1,0,0:0:0:0:
262,163,138380,1,8,0:0:0:0:
266,162,138480,1,8,0:0:0:0:
262,154,138580,1,0,0:0:0:0:
261,160,138680,1,0,0:0:0:0:
265,154,138780,1,8,0:0:0:0:
261,155,138980,1,0,0:0:0:0:
261,155,139180,1,8,0:0:0:0:
261,155,139380,1,0,0:0:0:0:
262,154,139580,1,8,0:0:0:0:
265,154,139780,1,8,0:0:0:0:
261,144,139880,1,0,0:0:0:0:
261,155,140080,1,0,0:0:0:0:
261,155,140180,1,8,0:0:0:0:
268,150,140380,1,8,0:0:0:0:
262,154,140580,1,0,0:0:0:0:
265,154,140780,1,8,0:0:0:0:
261,144,140880,1,8,0:0:0:0:
274,145,140980,1,0,0:0:0:0:
271,144,141080,1,0,0:0:0:0:
267,145,141180,1,8,0:0:0:0:
271,140,141380,1,8,0:0:0:0:
267,141,141480,1,0,0:0:0:0:
270,147,141680,1,8,0:0:0:0:
271,143,141880,1,8,0:0:0:0:
274,145,141980,1,0,0:0:0:0:
267,145,142180,1,0,0:0:0:0:
271,140,142380,1,8,0:0:0:0:
270,147,142580,1,8,0:0:0:0:
271,143,142780,1,0,0:0:0:0:
254,187,143980,1,0,0:0:0:0:
257,178,144380,1,12,0:0:0:0:
261,182,144780,1,0,0:0:0:0:
260,182,144980,1,8,0:0:0:0:
254,187,145080,1,8,0:0:0:0:
254,187,145180,1,8,0:0:0:0:
257,178,145380,1,8,0:0:0:0:
257,178,145580,1,0,0:0:0:0:
261,182,145780,1,0,0:0:0:0:
260,182,145980,1,8,0:0:0:0:
254,187,146080,1,8,0:0:0:0:
254,187,146180,1,0,0:0:0:0:
257,178,146380,1,8,0:0:0:0:
246,180,146480,1,0,0:0:0:0:
247,180,146580,1,8,0:0:0:0:
240,177,146680,1,0,0:0:0:0:
239,177,146780,1,8,0:0:0:0:
243,177,146980,1,0,0:0:0:0:
242,177,147080,1,8,0:0:0:0:
242,177,147180,1,0,0:0:0:0:
244,172,147380,1,0,0:0:0:0:
247,180,147580,1,8,0:0:0:0:
251,179,147980,1,0,0:0:0:0:
242,177,148180,1,8,0:0:0:0:
244,172,148280,1,8,0:0:0:0:
245,179,148380,1,0,0:0:0:0:
247,180,148580,1,8,0:0:0:0:
251,179,148780,1,0,0:0:0:0:
251,179,148980,1,0,0:0:0:0:
248,182,149080,1,0,0:0:0:0:
234,186,149180,1,8,0:0:0:0:
242,186,149280,1,8,0:0:0:0:
241,186,149380,1,0,0:0:0:0:
247,189,149580,1,8,0:0:0:0:
247,189,149680,1,0,0:0:0:0:
247,189,149780,1,8,0:0:0:0:
247,189,149880,1,0,0:0:0:0:
247,189,149980,1,8,0:0:0:0:
247,193,150180,1,0,0:0:0:0:
246,193,150280,1,8,0:0:0:0:
246,193,150380,1,0,0:0:0:0:
247,189,150580,1,0,0:0:0:0:
177,61,150780,1,12,0:0:0:0:
247,193,151180,1,0,0:0:0:0:
246,193,151380,1,8,0:0:0:0:
247,189,151480,1,8,0:0:0:0:
247,189,151580,1,0,0:0:0:0:
247,189,151780,1,8,0:0:0:0:
250,188,151980,1,0,0:0:0:0:
240,189,152180,1,0,0:0:0:0:
246,193,152280,1,8,0:0:0:0:
246,193,152380,1,0,0:0:0:0:
247,189,152580,1,0,0:0:0:0:
247,189,152680,1,0,0:0:0:0:
247,189,152780,1,8,0:0:0:0:
250,188,152880,1,0,0:0:0:0:
250,188,152980,1,8,0:0:0:0:
250,193,153180,1,8,0:0:0:0:
246,193,153380,1,0,0:0:0:0:
247,189,153480,1,8,0:0:0:0:
247,189,153580,1,0,0:0:0:0:
247,189,153780,1,0,0:0:0:0:
250,188,153980,1,8,0:0:0:0:
249,185,154380,1,0,0:0:0:0:
247,189,154580,1,8,0:0:0:0:
247,189,154680,1,8,0:0:0:0:
247,189,154780,1,0,0:0:0:0:
250,188,154980,1,8,0:0:0:0:
249,185,155180,1,0,0:0:0:0:
249,185,155380,1,0,0:0:0:0:
246,182,155480,1,0,0:0:0:0:
247,189,155580,1,8,0:0:0:0:
247,189,155780,1,0,0:0:0:0:
245,182,155980,1,8,0:0:0:0:
249,185,156180,1,8,0:0:0:0:
249,185,156380,1,8,0:0:0:0:
260,184,156480,1,8,0:0:0:0:
259,184,156580,1,0,0:0:0:0:
259,184,156780,1,12,0:0:0:0:
259,186,156980,1,0,0:0:0:0:
258,188,157180,1,12,0:0:0:0:
259,184,157580,1,8,0:0:0:0:
261,175,157713,1,8,0:0:0:0:
259,186,157846,1,8,0:0:0:0:
259,186,157980,1,8,0:0:0:0:
258,188,158113,1,8,0:0:0:0:
267,173,158246,1,8,0:0:0:0:
270,187,158380,1,8,0:0:0:0:
270,187,158580,1,0,0:0:0:0:
265,188,158780,1,8,0:0:0:0:
269,186,158880,1,0,0:0:0:0:
278,177,158980,1,0,0:0:0:0:
270,187,159180,1,8,0:0:0:0:
281,179,159313,1,8,0:0:0:0:
281,179,159446,1,8,0:0:0:0:
281,179,159580,1,8,0:0:0:0:
284,176,159713,1,8,0:0:0:0:
271,179,159846,1,8,0:0:0:0:
288,173,159980,1,8,0:0:0:0:
295,171,160380,1,8,0:0:0:0:
303,176,160580,1,8,0:0:0:0:
304,176,160680,1,0,0:0:0:0:
294,178,160780,1,8,0:0:0:0:
302,177,160880,1,8,0:0:0:0:
302,177,160980,1,0,0:0:0:0:
303,176,161180,1,8,0:0:0:0:
298,177,161480,1,8,0:0:0:0:
302,168,161680,1,0,0:0:0:0:
302,167,161780,1,8,0:0:0:0:
301,164,161880,1,0,0:0:0:0:
297,165,161980,1,8,0:0:0:0:
307,165,162080,1,8,0:0:0:0:
303,167,162280,1,0,0:0:0:0:
303,167,162380,1,8,0:0:0:0:
312,160,162580,1,8,0:0:0:0:
312,157,162680,1,0,0:0:0:0:
313,152,162780,1,8,0:0:0:0:
309,153,162980,1,8,0:0:0:0:
309,152,163180,1,8,0:0:0:0:
309,152,163280,1,0,0:0:0:0:
311,150,163580,1,12,0:0:0:0:
294,150,163980,1,8,0:0:0:0:
309,152,164113,1,8,0:0:0:0:
309,152,164246,1,8,0:0:0:0:
304,150,164380,1,8,0:0:0:0:
304,150,164513,1,8,0:0:0:0:
289,168,164646,1,8,0:0:0:0:
306,154,164780,1,8,0:0:0:0:
309,152,165180,1,8,0:0:0:0:
309,152,165280,1,8,0:0:0:0:
311,150,165380,1,0,0:0:0:0:
311,157,165580,1,8,0:0:0:0:
306,154,165713,1,8,0:0:0:0:
308,152,165846,1,8,0:0:0:0:
309,152,165980,1,8,0:0:0:0:
309,152,166113,1,8,0:0:0:0:
290,160,166246,1,8,0:0:0:0:
311,150,166380,1,8,0:0:0:0:
321,155,166780,1,8,0:0:0:0:
321,155,166880,1,8,0:0:0:0:
321,155,166980,1,8,0:0:0:0:
321,155,167080,1,0,0:0:0:0:
321,155,167180,1,8,0:0:0:0:
311,150,167380,1,0,0:0:0:0:
325,152,167580,1,8,0:0:0:0:
333,152,167780,1,0,0:0:0:0:
336,145,167880,1,8,0:0:0:0:
330,144,168080,1,0,0:0:0:0:
330,144,168180,1,8,0:0:0:0:
330,144,168280,1,0,0:0:0:0:
330,144,168380,1,8,0:0:0:0:
325,152,168580,1,8,0:0:0:0:
323,145,168680,1,0,0:0:0:0:
324,144,168780,1,8,0:0:0:0:
325,143,168880,1,8,0:0:0:0:
330,144,168980,1,0,0:0:0:0:
323,147,169180,1,8,0:0:0:0:
321,151,169380,1,0,0:0:0:0:
325,152,169480,1,0,0:0:0:0:
325,152,169580,1,8,0:0:0:0:
324,144,169780,1,0,0:0:0:0:
322,152,169980,1,4,0:0:0:0:
