osu file format v14

[General]
AudioFilename: audio.ogg
AudioLeadIn: 0
PreviewTime: 90980
Countdown: 0
SampleSet: Normal
StackLeniency: 0.7
Mode: 1
LetterboxInBreaks: 0
EpilepsyWarning: 1
WidescreenStoryboard: 1

[Editor]
Bookmarks: 380,13180,21180,27580,33980,41980,54780,65980,78780,85180,91580,99380,104380,117580,123580,131580,144380,150780,157180,163580
DistanceSpacing: 0.1
BeatDivisor: 3
GridSize: 32
TimelineZoom: 1.7

[Metadata]
Title:snooze
TitleUnicode:snooze
Artist:wotaku feat. SHIKI
ArtistUnicode:wotaku feat. SHIKI
Creator:gaston_2199
Version:dreaming
Source:
Tags:japanese pop jpop j-pop electronic ちふり Lenkon -_Lenkon Zennan
BeatmapID:3767404
BeatmapSetID:1835087

[Difficulty]
HPDrainRate:6
CircleSize:2
OverallDifficulty:6.5
ApproachRate:10
SliderMultiplier:1.4
SliderTickRate:1

[Events]
//Background and Video events
0,0,"BG.jpg",0,-30
Video,-150,"TaikoVideo.mp4"
//Break Periods
2,66180,73376
//Storyboard Layer 0 (Background)
//Storyboard Layer 1 (Fail)
//Storyboard Layer 2 (Pass)
//Storyboard Layer 3 (Foreground)
//Storyboard Layer 4 (Overlay)
//Storyboard Sound Samples

[TimingPoints]
380,400,4,1,0,80,1,0
380,-133.333333333333,4,1,0,80,0,0
575,-133.333333333333,4,1,0,60,0,0
6772,-111.111111111111,4,1,0,70,0,0
7172,-109.357292711532,4,1,0,70,0,0
7472,-107.133527215812,4,1,0,70,0,0
7572,-106.28971187055,4,1,0,70,0,0
7772,-104.487264824492,4,1,0,70,0,0
7972,-102.564102564103,4,1,0,70,0,0
8172,-100.551949575409,4,1,0,70,0,0
8272,-99.520739324608,4,1,0,70,0,0
8372,-98.4765622797584,4,1,0,70,0,0
8572,-96.3591840513196,4,1,0,70,0,0
8772,-94.21746826358,4,1,0,70,0,0
8972,-92.0661209952654,4,1,0,70,0,0
9072,-90.9907457245148,4,1,0,70,0,0
9172,-89.9173811299393,4,1,0,70,0,0
9372,-87.7813979279034,4,1,0,70,0,0
9572,-85.6665389397,4,1,0,70,0,0
9972,-81.5262608003189,4,1,0,80,0,0
10172,-79.5107986859134,4,1,0,80,0,0
10372,-77.5367245275598,4,1,0,80,0,0
10572,-75.6066861493603,4,1,0,80,0,0
10772,-73.7226374646584,4,1,0,80,0,0
10872,-72.7983064047826,4,1,0,80,0,0
10972,-71.8859441041035,4,1,0,80,0,0
11072,-70.9856443665002,4,1,0,80,0,0
11172,-70.0974749911329,4,1,0,80,0,0
11238,-69.5179505108857,4,1,0,80,0,0
11305,-68.9350776825179,4,1,0,80,0,0
11372,-68.3576816337005,4,1,0,80,0,0
11438,-67.7942580030482,4,1,0,80,0,0
11505,-67.2277295589582,4,1,0,80,0,0
11572,-66.6666666666667,4,1,0,80,0,0
13175,-133.333333333333,4,1,0,80,0,0
14780,400,4,1,0,90,1,0
26772,-104.929988616696,4,1,0,70,0,0
26872,-107.485160359953,4,1,0,70,0,0
26972,-110.090249830026,4,1,0,70,0,0
27072,-112.732574248291,4,1,0,70,0,0
27172,-115.392925016595,4,1,0,70,0,0
27272,-118.041430362984,4,1,0,70,0,0
27372,-120.628544214707,4,1,0,70,0,0
27472,-123.058877436942,4,1,0,70,0,0
27580,-83.3333333333333,4,1,0,90,0,1
33180,-111.111111111111,4,1,0,80,0,0
33475,-40,4,1,0,90,0,0
33980,-57.1428571428571,4,1,0,90,0,1
36780,-57.1428571428571,4,1,0,80,0,0
37180,-100,4,1,0,90,0,1
37372,-98.7517192385253,4,1,0,90,0,1
37472,-97.9851742525747,4,1,0,90,0,1
37572,-97.1779080970851,4,1,0,90,0,1
37772,-95.4890631230289,4,1,0,90,0,1
37872,-94.6217587278919,4,1,0,90,0,1
37972,-93.745534637396,4,1,0,90,0,1
38172,-91.97913956313,4,1,0,90,0,1
38272,-91.0938146660664,4,1,0,90,0,1
38372,-90.2095708455365,4,1,0,90,0,1
38472,-89.3278807232525,4,1,0,90,0,1
38572,-88.4499738201068,4,1,0,90,0,1
38772,-86.7094745675403,4,1,0,90,0,1
38872,-85.84848438084,4,1,0,90,0,1
38972,-84.9945300877021,4,1,0,90,0,1
39072,-84.1481329053174,4,1,0,90,0,1
39172,-83.3097307521269,4,1,0,90,0,1
39272,-82.4796898478193,4,1,0,90,0,1
39372,-81.6583143927329,4,1,0,90,0,1
39472,-80.8458547179076,4,1,0,90,0,1
39572,-80.0425142020439,4,1,0,90,0,1
39672,-79.2484551830575,4,1,0,90,0,1
39772,-78.4638040415981,4,1,0,90,0,1
39838,-77.9511351627138,4,1,0,90,0,1
39905,-77.4349541348765,4,1,0,90,0,1
39980,-76.9230769230769,4,1,0,80,0,0
40372,-66.6666666666667,4,1,0,80,0,0
40438,-67.5533933140984,4,1,0,80,0,0
40505,-68.4670773612568,4,1,0,80,0,0
40572,-69.3939350086316,4,1,0,80,0,0
40672,-70.8004856524424,4,1,0,80,0,0
40772,-72.2323324620017,4,1,0,80,0,0
40838,-73.1894084959256,4,1,0,80,0,0
40905,-74.169092771629,4,1,0,80,0,0
40972,-75.1550494988607,4,1,0,80,0,0
41072,-76.6329157641231,4,1,0,80,0,0
41172,-78.1082704181769,4,1,0,80,0,0
41272,-79.564662189895,4,1,0,80,0,0
41372,-80.9755050465519,4,1,0,80,0,0
41438,-81.8592700153158,4,1,0,80,0,0
41505,-82.6852359815635,4,1,0,80,0,0
41980,400,4,1,0,80,1,0
41980,-83.3333333333333,4,1,0,80,0,0
42108,-100,4,1,0,80,0,0
42372,-99.7928550133831,4,1,0,80,0,0
42572,-99.2302238418094,4,1,0,80,0,0
42672,-98.916285786598,4,1,0,80,0,0
42872,-98.2490060518155,4,1,0,80,0,0
42972,-97.9006814565225,4,1,0,80,0,0
43072,-97.5447988380198,4,1,0,80,0,0
43172,-97.1825622098484,4,1,0,80,0,0
43372,-96.4427389503492,4,1,0,80,0,0
43572,-95.6871854660259,4,1,0,80,0,0
43672,-95.304910248709,4,1,0,80,0,0
43772,-94.9202386268044,4,1,0,80,0,0
43872,-94.5335554092302,4,1,0,80,0,0
43972,-94.1452025001932,4,1,0,80,0,0
44172,-93.3646794152589,4,1,0,80,0,0
44272,-92.9730321151342,4,1,0,80,0,0
44472,-92.1880936139718,4,1,0,80,0,0
44572,-91.7951938333388,4,1,0,80,0,0
44672,-91.4022401739785,4,1,0,80,0,0
44772,-91.0093893590133,4,1,0,80,0,0
44872,-90.6167854129639,4,1,0,80,0,0
44972,-90.2245609241399,4,1,0,80,0,0
45072,-89.8328381394408,4,1,0,80,0,0
45172,-89.4417299195281,4,1,0,80,0,0
45372,-88.6617666143858,4,1,0,80,0,0
45472,-88.2730973807734,4,1,0,80,0,0
45572,-87.885415652563,4,1,0,80,0,0
45772,-87.1133160294514,4,1,0,80,0,0
45972,-86.3460170191694,4,1,0,80,0,0
46038,-86.0939443453857,4,1,0,80,0,0
46105,-85.8386560333029,4,1,0,80,0,0
46172,-85.5839910659576,4,1,0,80,0,0
46272,-85.2050847569603,4,1,0,80,0,0
46372,-84.8276443565148,4,1,0,80,0,0
46472,-84.451711723213,4,1,0,80,0,0
46572,-84.0773255909333,4,1,0,80,0,0
46672,-83.7045217701246,4,1,0,80,0,0
46772,-57.1428571428571,4,1,0,90,0,0
48672,-100,4,1,0,80,0,0
48772,-99.7928550133831,4,1,0,80,0,0
48972,-99.2302238418094,4,1,0,80,0,0
49072,-98.916285786598,4,1,0,80,0,0
49272,-98.2490060518155,4,1,0,80,0,0
49372,-97.9006814565225,4,1,0,80,0,0
49472,-97.5447988380198,4,1,0,80,0,0
49572,-97.1825622098484,4,1,0,80,0,0
49772,-96.4427389503492,4,1,0,80,0,0
49972,-95.6871854660259,4,1,0,80,0,0
50072,-95.304910248709,4,1,0,80,0,0
50172,-94.9202386268044,4,1,0,80,0,0
50272,-94.5335554092302,4,1,0,80,0,0
50372,-94.1452025001932,4,1,0,80,0,0
50572,-93.3646794152589,4,1,0,80,0,0
50672,-92.9730321151342,4,1,0,80,0,0
50872,-92.1880936139718,4,1,0,80,0,0
50972,-91.7951938333388,4,1,0,80,0,0
51072,-91.4022401739785,4,1,0,80,0,0
51172,-91.0093893590133,4,1,0,80,0,0
51272,-90.6167854129639,4,1,0,80,0,0
51372,-90.2245609241399,4,1,0,80,0,0
51472,-89.8328381394408,4,1,0,80,0,0
51572,-89.4417299195281,4,1,0,80,0,0
51772,-88.6617666143858,4,1,0,80,0,0
51872,-88.2730973807734,4,1,0,80,0,0
51972,-87.885415652563,4,1,0,80,0,0
52172,-87.1133160294514,4,1,0,80,0,0
52372,-86.3460170191694,4,1,0,80,0,0
52438,-86.0939443453857,4,1,0,80,0,0
52505,-85.8386560333029,4,1,0,80,0,0
52572,-85.5839910659576,4,1,0,80,0,0
52672,-85.2050847569603,4,1,0,80,0,0
52772,-84.8276443565148,4,1,0,80,0,0
52872,-84.451711723213,4,1,0,80,0,0
52972,-84.0773255909333,4,1,0,80,0,0
53072,-83.7045217701246,4,1,0,80,0,0
53172,-83.3333333333333,4,1,0,70,0,0
53377,-86.0215053763441,4,1,0,70,0,0
53577,-88.8888888888889,4,1,0,70,0,0
53643,-89.8775418492304,4,1,0,70,0,0
53710,-90.9039259133004,4,1,0,70,0,0
53777,-91.9540229885058,4,1,0,70,0,0
53843,-93.0124404139054,4,1,0,70,0,0
53910,-94.112111052291,4,1,0,70,0,0
53977,-95.2380952380952,4,1,0,70,0,0
54177,-98.7654320987654,4,1,0,70,0,0
54377,-102.564102564103,4,1,0,70,0,0
54443,-103.882612647708,4,1,0,70,0,0
54510,-105.256233142556,4,1,0,70,0,0
54577,-106.666666666667,4,1,0,70,0,0
54643,-108.09350087826,4,1,0,70,0,0
54710,-109.581535511266,4,1,0,70,0,0
54772,-83.3333333333333,4,1,0,80,0,0
55072,-100,4,1,0,80,0,0
55172,-99.7928550133831,4,1,0,80,0,0
55372,-99.2302238418094,4,1,0,80,0,0
55472,-98.916285786598,4,1,0,80,0,0
55572,-98.588229663503,4,1,0,80,0,0
55672,-98.2490060518155,4,1,0,80,0,0
55772,-97.9006814565225,4,1,0,80,0,0
55972,-97.1825622098484,4,1,0,80,0,0
56172,-96.4427389503492,4,1,0,80,0,0
56272,-96.0666280048276,4,1,0,80,0,0
56372,-95.6871854660259,4,1,0,80,0,0
56572,-94.9202386268044,4,1,0,80,0,0
56672,-94.5335554092302,4,1,0,80,0,0
56872,-93.7554855814139,4,1,0,80,0,0
56972,-93.3646794152589,4,1,0,80,0,0
57072,-92.9730321151342,4,1,0,80,0,0
57172,-92.580768628993,4,1,0,80,0,0
57272,-92.1880936139718,4,1,0,80,0,0
57372,-91.7951938333388,4,1,0,80,0,0
57572,-91.0093893590133,4,1,0,80,0,0
57772,-90.2245609241399,4,1,0,80,0,0
57872,-89.8328381394408,4,1,0,80,0,0
57972,-89.4417299195281,4,1,0,80,0,0
58172,-88.6617666143858,4,1,0,80,0,0
58272,-88.2730973807734,4,1,0,80,0,0
58472,-87.4987981550837,4,1,0,80,0,0
58572,-87.1133160294514,4,1,0,80,0,0
58672,-86.7290352530229,4,1,0,80,0,0
58772,-86.3460170191694,4,1,0,80,0,0
58838,-86.0939443453857,4,1,0,80,0,0
58905,-85.8386560333029,4,1,0,80,0,0
58972,-85.5839910659576,4,1,0,80,0,0
59072,-85.2050847569603,4,1,0,80,0,0
59172,-84.8276443565148,4,1,0,80,0,0
59272,-84.451711723213,4,1,0,80,0,0
59372,-84.0773255909333,4,1,0,80,0,0
59472,-83.7045217701246,4,1,0,80,0,0
59572,-83.3333333333333,4,1,0,80,0,0
59708,-125,4,1,0,70,0,0
59872,-124.345084915647,4,1,0,70,0,0
59972,-123.505558671051,4,1,0,70,0,0
60172,-121.619116514835,4,1,0,70,0,0
60272,-120.617414570305,4,1,0,70,0,0
60372,-119.591960487039,4,1,0,70,0,0
60572,-117.496087522804,4,1,0,70,0,0
60672,-116.434934569604,4,1,0,70,0,0
60872,-114.30247687865,4,1,0,70,0,0
60972,-113.235917321125,4,1,0,70,0,0
61172,-83.3333333333333,4,1,0,80,0,0
61472,-100,4,1,0,80,0,0
61572,-99.5575221238938,4,1,0,80,0,0
61772,-98.6842105263158,4,1,0,80,0,0
61872,-98.2532751091703,4,1,0,80,0,0
61972,-97.8260869565217,4,1,0,80,0,0
62072,-97.4025974025974,4,1,0,80,0,0
62172,-96.9827586206897,4,1,0,80,0,0
62372,-96.1538461538461,4,1,0,80,0,0
62572,-95.3389830508474,4,1,0,80,0,0
62672,-94.9367088607595,4,1,0,80,0,0
62772,-94.5378151260504,4,1,0,80,0,0
62972,-93.75,4,1,0,80,0,0
63072,-93.3609958506224,4,1,0,80,0,0
63172,-92.9752066115702,4,1,0,80,0,0
63372,-92.2131147540984,4,1,0,80,0,0
63472,-91.8367346938776,4,1,0,80,0,0
63572,-91.4634146341463,4,1,0,80,0,0
63672,-91.0931174089069,4,1,0,80,0,0
63772,-90.7258064516129,4,1,0,80,0,0
63872,-90.3614457831325,4,1,0,80,0,0
63972,-90,4,1,0,80,0,0
64172,-89.2857142857143,4,1,0,80,0,0
64272,-88.9328063241107,4,1,0,80,0,0
64372,-88.5826771653543,4,1,0,80,0,0
64438,-88.3530982486453,4,1,0,80,0,0
64505,-88.121254846669,4,1,0,80,0,0
64572,-87.890625,4,1,0,80,0,0
64772,-87.2093023255814,4,1,0,80,0,0
64972,-86.5384615384615,4,1,0,80,0,0
65072,-86.2068965517241,4,1,0,80,0,0
65172,-85.8778625954199,4,1,0,80,0,0
65272,-85.5513307984791,4,1,0,80,0,0
65372,-85.2272727272727,4,1,0,80,0,0
65472,-84.9056603773585,4,1,0,80,0,0
65572,-84.5864661654135,4,1,0,80,0,0
65638,-84.3771094277357,4,1,0,80,0,0
65705,-84.1656379755359,4,1,0,80,0,0
65772,-83.955223880597,4,1,0,80,0,0
65838,-83.7489764013995,4,1,0,80,0,0
65905,-83.5406378791817,4,1,0,80,0,0
65980,400,4,1,0,80,1,0
65980,-83.3333333333333,4,1,0,80,0,0
66775,-125,4,1,0,50,0,0
78780,-100,4,1,0,70,0,0
85175,-83.3333333333333,4,1,0,80,0,0
85372,-99.5605960128092,4,1,0,80,0,0
85472,-99.2871811148815,4,1,0,80,0,0
85572,-98.9962369905556,4,1,0,80,0,0
85772,-98.3773783872122,4,1,0,80,0,0
85872,-98.0540850685622,4,1,0,80,0,0
85972,-97.7236031980379,4,1,0,80,0,0
86072,-97.387040429592,4,1,0,80,0,0
86272,-96.6990867899588,4,1,0,80,0,0
86372,-96.3490535829193,4,1,0,80,0,0
86472,-95.995720301776,4,1,0,80,0,0
86572,-95.6395464785629,4,1,0,80,0,0
86672,-95.2809342480896,4,1,0,80,0,0
86772,-94.9202386268044,4,1,0,80,0,0
86972,-94.1938271603481,4,1,0,80,0,0
87072,-93.8286483710184,4,1,0,80,0,0
87172,-93.462469084749,4,1,0,80,0,0
87372,-92.7279262412828,4,1,0,80,0,0
87472,-92.359927214617,4,1,0,80,0,0
87572,-91.9916607882264,4,1,0,80,0,0
87672,-91.6232736878999,4,1,0,80,0,0
87872,-90.8866676594121,4,1,0,80,0,0
87972,-90.5186887724378,4,1,0,80,0,0
88072,-90.1510711604355,4,1,0,80,0,0
88172,-89.7839137847446,4,1,0,80,0,0
88272,-89.4173084856274,4,1,0,80,0,0
88372,-89.0513405768094,4,1,0,80,0,0
88572,-88.3216286681535,4,1,0,80,0,0
88672,-87.9580271465795,4,1,0,80,0,0
88772,-87.5953487759637,4,1,0,80,0,0
88972,-86.872995776435,4,1,0,80,0,0
89072,-86.513428408982,4,1,0,80,0,0
89172,-86.1549992558583,4,1,0,80,0,0
89272,-85.7977532396087,4,1,0,80,0,0
89472,-85.0869751297356,4,1,0,80,0,0
89572,-84.7335182801833,4,1,0,80,0,0
89672,-84.3813954050041,4,1,0,80,0,0
89772,-84.030637876835,4,1,0,80,0,0
89872,-83.681274838034,4,1,0,80,0,0
89972,-83.3333333333333,4,1,0,80,0,0
91175,-200,4,1,0,70,0,0
91580,-57.1428571428571,4,1,0,90,0,1
91980,-100,4,1,0,80,0,0
92380,-66.6666666666667,4,1,0,90,0,1
92572,-73.8534537450046,4,1,0,90,0,1
92672,-77.8535370801446,4,1,0,90,0,1
92872,-86.6474740072665,4,1,0,90,0,1
92972,-91.3465340641078,4,1,0,90,0,1
93172,-100,4,1,0,90,0,1
93372,-83.3333333333333,4,1,0,90,0,1
93572,-89.0513405768094,4,1,0,90,0,1
93772,-94.9202386268044,4,1,0,90,0,1
93972,-66.6666666666667,4,1,0,90,0,1
94275,-100,4,1,0,90,0,1
94780,-100,4,1,0,80,0,0
94872,-96.3490535829193,4,1,0,80,0,0
94972,-91.9916607882264,4,1,0,80,0,0
95072,-87.5953487759637,4,1,0,80,0,0
95172,-83.3333333333333,4,1,0,80,0,0
95238,-86.0701571819171,4,1,0,80,0,0
95305,-88.7375475506578,4,1,0,80,0,0
95372,-90.9090909090909,4,1,0,80,0,0
95580,-66.6666666666667,4,1,0,90,0,1
95772,-83.3333333333333,4,1,0,90,0,1
95872,-84.532139799983,4,1,0,90,0,1
95972,-85.7468171539431,4,1,0,90,0,1
96172,-88.2176519644673,4,1,0,90,0,1
96238,-89.0429836831672,4,1,0,90,0,1
96305,-89.8845686203778,4,1,0,90,0,1
96372,-90.7289248445616,4,1,0,90,0,1
96472,-91.9916607882264,4,1,0,90,0,1
96572,-93.2528557718212,4,1,0,90,0,1
96638,-94.0812635409216,4,1,0,90,0,1
96705,-94.9161056073778,4,1,0,90,0,1
96772,-95.7415758708811,4,1,0,90,0,1
96872,-96.9467994319012,4,1,0,90,0,1
96972,-98.1007391020513,4,1,0,90,0,1
97072,-99.164335680038,4,1,0,90,0,1
97172,-66.6666666666667,4,1,0,90,0,1
97472,-94.1938271603481,4,1,0,90,0,1
97572,-66.6666666666667,4,1,0,90,0,1
97772,-87.5953487759637,4,1,0,90,0,1
97980,-66.6666666666667,4,1,0,80,0,0
98172,-75.1550494988607,4,1,0,80,0,0
98372,-83.3333333333333,4,1,0,80,0,0
98775,-111.111111111111,4,1,0,80,0,0
99380,-66.6666666666667,4,1,0,90,0,1
99575,-83.3333333333333,4,1,0,90,0,1
100372,-66.6666666666667,4,1,0,90,0,1
100672,-72.761224379597,4,1,0,90,0,1
100772,-74.9681410270953,4,1,0,90,0,1
100972,-79.6520260479581,4,1,0,90,0,1
101172,-66.6666666666667,4,1,0,90,0,1
101780,-100,4,1,0,90,0,1
101980,-100,4,1,0,80,0,0
102380,-66.6666666666667,4,1,0,90,0,1
102575,-83.3333333333333,4,1,0,90,0,1
102975,-66.6666666666667,4,1,0,90,0,1
103375,-83.3333333333333,4,1,0,90,0,1
103572,-66.6666666666667,4,1,0,90,0,1
103872,-72.9566008434814,4,1,0,90,0,1
103980,-66.6666666666667,4,1,0,80,0,0
104172,-79.564662189895,4,1,0,80,0,0
104380,-66.6666666666667,4,1,0,90,0,1
104475,-83.3333333333333,4,1,0,90,0,1
110780,-83.3333333333333,4,1,0,80,0,0
110972,-100,4,1,0,80,0,0
111072,-99.6479790810557,4,1,0,80,0,0
111172,-99.194945071628,4,1,0,80,0,0
111272,-98.6969851380226,4,1,0,80,0,0
111372,-98.169587666677,4,1,0,80,0,0
111472,-97.6209315921897,4,1,0,80,0,0
111572,-97.0562232888813,4,1,0,80,0,0
111772,-95.8923636810804,4,1,0,80,0,0
111872,-95.2980809956176,4,1,0,80,0,0
112072,-94.0934921409946,4,1,0,80,0,0
112172,-93.485771494861,4,1,0,80,0,0
112272,-92.8758233969974,4,1,0,80,0,0
112372,-92.2645022704034,4,1,0,80,0,0
112472,-91.6525462293957,4,1,0,80,0,0
112672,-90.4292173285567,4,1,0,80,0,0
112772,-89.8188997491136,4,1,0,80,0,0
112972,-88.6031429894995,4,1,0,80,0,0
113072,-87.9984301953755,4,1,0,80,0,0
113272,-86.7968556188049,4,1,0,80,0,0
113372,-86.2005027085737,4,1,0,80,0,0
113472,-85.6073988956542,4,1,0,80,0,0
113572,-85.0177335156169,4,1,0,80,0,0
113672,-84.4316747027532,4,1,0,80,0,0
113872,-83.2709559475099,4,1,0,80,0,0
113972,-82.6965443348781,4,1,0,80,0,0
114172,-81.5601298171618,4,1,0,80,0,0
114372,-80.4408010524751,4,1,0,80,0,0
114472,-79.8877070460898,4,1,0,80,0,0
114572,-79.3390618096819,4,1,0,80,0,0
114772,-78.2552751878246,4,1,0,80,0,0
114872,-77.7201949397807,4,1,0,80,0,0
114972,-77.1896869279349,4,1,0,80,0,0
115072,-76.6637666754131,4,1,0,80,0,0
115172,-76.1424445821416,4,1,0,80,0,0
115272,-75.6257263557945,4,1,0,80,0,0
115372,-75.1136134062605,4,1,0,80,0,0
115472,-74.6061032072218,4,1,0,80,0,0
115572,-74.1031896280134,4,1,0,80,0,0
115672,-73.6048632385657,4,1,0,80,0,0
115772,-73.1111115899191,4,1,0,80,0,0
115872,-72.6219194725246,4,1,0,80,0,0
115972,-72.1372691543083,4,1,0,80,0,0
116072,-71.6571406002685,4,1,0,80,0,0
116172,-71.1815116751936,4,1,0,80,0,0
116272,-70.7103583309265,4,1,0,80,0,0
116372,-70.2436547794653,4,1,0,80,0,0
116438,-69.9380547997132,4,1,0,80,0,0
116505,-69.6297865121826,4,1,0,80,0,0
116572,-69.3234861523518,4,1,0,80,0,0
116672,-68.8699621835316,4,1,0,80,0,0
116772,-68.4207704853434,4,1,0,80,0,0
116838,-68.1266615283995,4,1,0,80,0,0
116905,-67.8300024566492,4,1,0,80,0,0
116972,-67.5352537160399,4,1,0,80,0,0
117038,-67.2467619713797,4,1,0,80,0,0
117105,-66.9557747347154,4,1,0,80,0,0
117172,-66.6666666666667,4,1,0,80,0,0
117580,-66.6666666666667,4,1,0,90,0,1
117775,-83.3333333333333,4,1,0,90,0,1
123560,-66.6666666666667,4,1,0,90,0,1
123760,-83.3333333333333,4,1,0,90,0,1
129980,-83.3333333333333,4,1,0,80,0,0
130175,-66.6666666666667,4,1,0,80,0,0
131580,400,4,1,0,90,1,1
131580,-66.6666666666667,4,1,0,90,0,1
131767,-83.3333333333333,4,1,0,90,0,1
136380,-83.3333333333333,4,1,0,80,0,0
136572,-125,4,1,0,80,0,0
136672,-124.345084915647,4,1,0,80,0,0
136772,-123.505558671051,4,1,0,80,0,0
136972,-121.619116514835,4,1,0,80,0,0
137072,-120.617414570305,4,1,0,80,0,0
137172,-119.591960487039,4,1,0,80,0,0
137372,-117.496087522804,4,1,0,80,0,0
137472,-116.434934569604,4,1,0,80,0,0
137672,-114.30247687865,4,1,0,80,0,0
137772,-113.235917321125,4,1,0,80,0,0
137980,-66.6666666666667,4,1,0,90,0,1
138175,-83.3333333333333,4,1,0,90,0,1
142780,-83.3333333333333,4,1,0,80,0,0
143975,-125,4,1,0,80,0,0
144380,-76.9230769230769,4,1,0,90,0,1
144572,-78.0487804878049,4,1,0,90,0,1
144638,-78.4275280623499,4,1,0,90,0,1
144705,-78.8157927144652,4,1,0,90,0,1
144772,-79.2079207920792,4,1,0,90,0,1
144972,-80.4020100502513,4,1,0,90,0,1
145072,-81.0126582278481,4,1,0,90,0,1
145172,-81.6326530612245,4,1,0,90,0,1
145372,-82.9015544041451,4,1,0,90,0,1
145572,-84.2105263157895,4,1,0,90,0,1
145772,-85.5614973262032,4,1,0,90,0,1
145838,-86.0168808128595,4,1,0,90,0,1
145905,-86.484149077052,4,1,0,90,0,1
145972,-86.9565217391304,4,1,0,90,0,1
146172,-88.3977900552486,4,1,0,90,0,1
146238,-88.8839508916171,4,1,0,90,0,1
146305,-89.3829781291025,4,1,0,90,0,1
146372,-89.8876404494382,4,1,0,90,0,1
146472,-90.6515580736544,4,1,0,90,0,1
146572,-91.4285714285714,4,1,0,90,0,1
146672,-92.2190201729107,4,1,0,90,0,1
146772,-93.0232558139535,4,1,0,90,0,1
146972,-94.6745562130178,4,1,0,90,0,1
147038,-95.2324266412714,4,1,0,90,0,1
147105,-95.8055148049459,4,1,0,90,0,1
147172,-96.3855421686747,4,1,0,90,0,1
147272,-97.2644376899696,4,1,0,90,0,1
147372,-98.159509202454,4,1,0,90,0,1
147438,-98.7593358434664,4,1,0,90,0,1
147505,-99.3757957827397,4,1,0,90,0,1
147572,-76.9230769230769,4,1,0,90,0,1
147972,-79.2079207920792,4,1,0,90,0,1
148105,-79.9980000499987,4,1,0,90,0,1
148238,-80.80399979799,4,1,0,90,0,1
148372,-81.6326530612245,4,1,0,90,0,1
148472,-82.2622107969152,4,1,0,90,0,1
148572,-82.9015544041451,4,1,0,90,0,1
148638,-83.3289932815999,4,1,0,90,0,1
148705,-83.7674406429151,4,1,0,90,0,1
148772,-84.2105263157895,4,1,0,90,0,1
148972,-85.5614973262032,4,1,0,90,0,1
149172,-86.9565217391304,4,1,0,90,0,1
149272,-87.6712328767123,4,1,0,90,0,1
149372,-88.3977900552486,4,1,0,90,0,1
149572,-89.8876404494382,4,1,0,90,0,1
149705,-90.9065083378313,4,1,0,90,0,1
149838,-91.9487385782426,4,1,0,90,0,1
149972,-93.0232558139535,4,1,0,90,0,1
150172,-94.6745562130178,4,1,0,90,0,1
150372,-96.3855421686747,4,1,0,90,0,1
150438,-96.9638203745228,4,1,0,90,0,1
150505,-97.5580012804488,4,1,0,90,0,1
150572,-98.159509202454,4,1,0,90,0,1
150672,-99.0712074303406,4,1,0,90,0,1
150772,-76.9230769230769,4,1,0,90,0,1
150972,-78.0487804878049,4,1,0,90,0,1
151038,-78.4275280623499,4,1,0,90,0,1
151105,-78.8157927144652,4,1,0,90,0,1
151172,-79.2079207920792,4,1,0,90,0,1
151372,-80.4020100502513,4,1,0,90,0,1
151472,-81.0126582278481,4,1,0,90,0,1
151572,-81.6326530612245,4,1,0,90,0,1
151772,-82.9015544041451,4,1,0,90,0,1
151972,-84.2105263157895,4,1,0,90,0,1
152172,-85.5614973262032,4,1,0,90,0,1
152238,-86.0168808128595,4,1,0,90,0,1
152305,-86.484149077052,4,1,0,90,0,1
152372,-86.9565217391304,4,1,0,90,0,1
152572,-88.3977900552486,4,1,0,90,0,1
152638,-88.8839508916171,4,1,0,90,0,1
152705,-89.3829781291025,4,1,0,90,0,1
152772,-89.8876404494382,4,1,0,90,0,1
152872,-90.6515580736544,4,1,0,90,0,1
152972,-91.4285714285714,4,1,0,90,0,1
153072,-92.2190201729107,4,1,0,90,0,1
153172,-93.0232558139535,4,1,0,90,0,1
153372,-94.6745562130178,4,1,0,90,0,1
153438,-95.2324266412714,4,1,0,90,0,1
153505,-95.8055148049459,4,1,0,90,0,1
153572,-96.3855421686747,4,1,0,90,0,1
153672,-97.2644376899696,4,1,0,90,0,1
153772,-98.159509202454,4,1,0,90,0,1
153838,-98.7593358434664,4,1,0,90,0,1
153905,-99.3757957827397,4,1,0,90,0,1
153972,-76.9230769230769,4,1,0,90,0,1
154372,-79.2079207920792,4,1,0,90,0,1
154505,-79.9980000499987,4,1,0,90,0,1
154638,-80.80399979799,4,1,0,90,0,1
154772,-81.6326530612245,4,1,0,90,0,1
154872,-82.2622107969152,4,1,0,90,0,1
154972,-82.9015544041451,4,1,0,90,0,1
155038,-83.3289932815999,4,1,0,90,0,1
155105,-83.7674406429151,4,1,0,90,0,1
155172,-84.2105263157895,4,1,0,90,0,1
155372,-85.5614973262032,4,1,0,90,0,1
155572,-86.9565217391304,4,1,0,90,0,1
155672,-87.6712328767123,4,1,0,90,0,1
155772,-88.3977900552486,4,1,0,90,0,1
155972,-89.8876404494382,4,1,0,90,0,1
156105,-90.9065083378313,4,1,0,90,0,1
156238,-91.9487385782426,4,1,0,90,0,1
156372,-93.0232558139535,4,1,0,90,0,1
156472,-93.841642228739,4,1,0,90,0,1
156572,-94.6745562130178,4,1,0,90,0,1
156772,-57.1428571428571,4,1,0,90,0,1
157172,-76.9230769230769,4,1,0,90,0,1
157372,-78.0487804878049,4,1,0,90,0,1
157438,-78.4275280623499,4,1,0,90,0,1
157505,-78.8157927144652,4,1,0,90,0,1
157572,-79.2079207920792,4,1,0,90,0,1
157705,-79.9980000499987,4,1,0,90,0,1
157838,-80.80399979799,4,1,0,90,0,1
157972,-81.6326530612245,4,1,0,90,0,1
158105,-82.4721012345043,4,1,0,90,0,1
158238,-83.3289932815999,4,1,0,90,0,1
158372,-84.2105263157895,4,1,0,90,0,1
158572,-85.5614973262032,4,1,0,90,0,1
158638,-86.0168808128595,4,1,0,90,0,1
158705,-86.484149077052,4,1,0,90,0,1
158772,-86.9565217391304,4,1,0,90,0,1
158972,-88.3977900552486,4,1,0,90,0,1
159038,-88.8839508916171,4,1,0,90,0,1
159105,-89.3829781291025,4,1,0,90,0,1
159172,-89.8876404494382,4,1,0,90,0,1
159305,-90.9065083378313,4,1,0,90,0,1
159438,-91.9487385782426,4,1,0,90,0,1
159572,-93.0232558139535,4,1,0,90,0,1
159705,-94.1148789741478,4,1,0,90,0,1
159838,-95.2324266412714,4,1,0,90,0,1
159972,-96.3855421686747,4,1,0,90,0,1
160072,-97.2644376899696,4,1,0,90,0,1
160172,-98.159509202454,4,1,0,90,0,1
160238,-98.7593358434664,4,1,0,90,0,1
160305,-99.3757957827397,4,1,0,90,0,1
160372,-76.9230769230769,4,1,0,90,0,1
160572,-78.0487804878049,4,1,0,90,0,1
160672,-78.6240786240786,4,1,0,90,0,1
160772,-79.2079207920792,4,1,0,90,0,1
160872,-79.8004987531172,4,1,0,90,0,1
160972,-80.4020100502513,4,1,0,90,0,1
161072,-81.0126582278481,4,1,0,90,0,1
161172,-81.6326530612245,4,1,0,90,0,1
161372,-82.9015544041451,4,1,0,90,0,1
161438,-83.3289932815999,4,1,0,90,0,1
161505,-83.7674406429151,4,1,0,90,0,1
161572,-84.2105263157895,4,1,0,90,0,1
161672,-84.8806366047745,4,1,0,90,0,1
161772,-85.5614973262032,4,1,0,90,0,1
161872,-86.2533692722372,4,1,0,90,0,1
161972,-86.9565217391304,4,1,0,90,0,1
162072,-87.6712328767123,4,1,0,90,0,1
162172,-88.3977900552486,4,1,0,90,0,1
162272,-89.1364902506964,4,1,0,90,0,1
162372,-89.8876404494382,4,1,0,90,0,1
162505,-90.9065083378313,4,1,0,90,0,1
162638,-91.9487385782426,4,1,0,90,0,1
162772,-93.0232558139535,4,1,0,90,0,1
162872,-93.841642228739,4,1,0,90,0,1
162972,-94.6745562130178,4,1,0,90,0,1
163172,-96.3855421686747,4,1,0,90,0,1
163238,-96.9638203745228,4,1,0,90,0,1
163305,-97.5580012804488,4,1,0,90,0,1
163372,-98.159509202454,4,1,0,90,0,1
163472,-99.0712074303406,4,1,0,90,0,1
163572,-76.9230769230769,4,1,0,90,0,1
163772,-78.0487804878049,4,1,0,90,0,1
163838,-78.4275280623499,4,1,0,90,0,1
163905,-78.8157927144652,4,1,0,90,0,1
163972,-79.2079207920792,4,1,0,90,0,1
164105,-79.9980000499987,4,1,0,90,0,1
164238,-80.80399979799,4,1,0,90,0,1
164372,-81.6326530612245,4,1,0,90,0,1
164505,-82.4721012345043,4,1,0,90,0,1
164638,-83.3289932815999,4,1,0,90,0,1
164772,-84.2105263157895,4,1,0,90,0,1
164972,-85.5614973262032,4,1,0,90,0,1
165038,-86.0168808128595,4,1,0,90,0,1
165105,-86.484149077052,4,1,0,90,0,1
165172,-86.9565217391304,4,1,0,90,0,1
165372,-88.3977900552486,4,1,0,90,0,1
165438,-88.8839508916171,4,1,0,90,0,1
165505,-89.3829781291025,4,1,0,90,0,1
165572,-89.8876404494382,4,1,0,90,0,1
165705,-90.9065083378313,4,1,0,90,0,1
165838,-91.9487385782426,4,1,0,90,0,1
165972,-93.0232558139535,4,1,0,90,0,1
166105,-94.1148789741478,4,1,0,90,0,1
166238,-95.2324266412714,4,1,0,90,0,1
166372,-96.3855421686747,4,1,0,90,0,1
166472,-97.2644376899696,4,1,0,90,0,1
166572,-98.159509202454,4,1,0,90,0,1
166638,-98.7593358434664,4,1,0,90,0,1
166705,-99.3757957827397,4,1,0,90,0,1
166772,-76.9230769230769,4,1,0,90,0,1
166872,-77.4818401937046,4,1,0,90,0,1
166972,-78.0487804878049,4,1,0,90,0,1
167072,-78.6240786240786,4,1,0,90,0,1
167172,-79.2079207920792,4,1,0,90,0,1
167272,-79.8004987531172,4,1,0,90,0,1
167372,-80.4020100502513,4,1,0,90,0,1
167472,-81.0126582278481,4,1,0,90,0,1
167572,-81.6326530612245,4,1,0,90,0,1
167772,-82.9015544041451,4,1,0,90,0,1
167838,-83.3289932815999,4,1,0,90,0,1
167905,-83.7674406429151,4,1,0,90,0,1
167972,-84.2105263157895,4,1,0,90,0,1
168072,-84.8806366047745,4,1,0,90,0,1
168172,-85.5614973262032,4,1,0,90,0,1
168272,-86.2533692722372,4,1,0,90,0,1
168372,-86.9565217391304,4,1,0,90,0,1
168472,-87.6712328767123,4,1,0,90,0,1
168572,-88.3977900552486,4,1,0,90,0,1
168672,-89.1364902506964,4,1,0,90,0,1
168772,-89.8876404494382,4,1,0,90,0,1
168905,-90.9065083378313,4,1,0,90,0,1
169038,-91.9487385782426,4,1,0,90,0,1
169172,-93.0232558139535,4,1,0,90,0,1
169272,-93.841642228739,4,1,0,90,0,1
169372,-94.6745562130178,4,1,0,90,0,1
169572,-96.3855421686747,4,1,0,90,0,1
169638,-96.9638203745228,4,1,0,90,0,1
169705,-97.5580012804488,4,1,0,90,0,1
169772,-98.159509202454,4,1,0,90,0,1
169872,-99.0712074303406,4,1,0,90,0,1
169980,-57.1428571428571,4,1,0,100,0,0

[HitObjects]
256,192,380,5,4,0:0:0:0:
256,192,1980,1,8,0:0:0:0:
256,192,3580,1,8,0:0:0:0:
256,192,5180,1,0,0:0:0:0:
256,192,5980,1,8,0:0:0:0:
256,192,6780,1,4,0:0:0:0:
256,192,7180,1,8,0:0:0:0:
256,192,7480,1,8,0:0:0:0:
256,192,7580,1,0,0:0:0:0:
256,192,7780,1,0,0:0:0:0:
256,192,7980,1,8,0:0:0:0:
256,192,8180,1,8,0:0:0:0:
256,192,8280,1,8,0:0:0:0:
256,192,8380,1,0,0:0:0:0:
256,192,8580,1,0,0:0:0:0:
256,192,8780,1,8,0:0:0:0:
256,192,8980,1,0,0:0:0:0:
256,192,9080,1,8,0:0:0:0:
256,192,9180,1,0,0:0:0:0:
256,192,9380,1,0,0:0:0:0:
256,192,9580,1,8,0:0:0:0:
256,192,9980,1,0,0:0:0:0:
256,192,10180,1,0,0:0:0:0:
256,192,10380,1,8,0:0:0:0:
256,192,10580,1,8,0:0:0:0:
256,192,10780,1,0,0:0:0:0:
256,192,10880,1,0,0:0:0:0:
256,192,10980,1,0,0:0:0:0:
256,192,11080,1,0,0:0:0:0:
256,192,11180,1,8,0:0:0:0:
256,192,11246,1,8,0:0:0:0:
256,192,11313,1,8,0:0:0:0:
256,192,11380,1,8,0:0:0:0:
256,192,11446,1,8,0:0:0:0:
256,192,11513,1,8,0:0:0:0:
256,192,11580,1,0,0:0:0:0:
256,192,13180,1,0,0:0:0:0:
256,192,13480,1,0,0:0:0:0:
256,192,13780,1,0,0:0:0:0:
256,192,13980,1,0,0:0:0:0:
256,192,14180,1,8,0:0:0:0:
256,192,14380,1,0,0:0:0:0:
256,192,14580,1,8,0:0:0:0:
256,192,14780,1,0,0:0:0:0:
256,192,15080,1,8,0:0:0:0:
256,192,15180,1,0,0:0:0:0:
256,192,15380,1,8,0:0:0:0:
256,192,15580,1,0,0:0:0:0:
256,192,15780,1,8,0:0:0:0:
256,192,15880,1,0,0:0:0:0:
256,192,15980,1,8,0:0:0:0:
256,192,16180,1,8,0:0:0:0:
256,192,16380,1,0,0:0:0:0:
256,192,16680,1,8,0:0:0:0:
256,192,16780,1,0,0:0:0:0:
256,192,16980,1,8,0:0:0:0:
256,192,17180,1,0,0:0:0:0:
256,192,17380,1,8,0:0:0:0:
256,192,17480,1,8,0:0:0:0:
256,192,17580,1,0,0:0:0:0:
256,192,17780,1,8,0:0:0:0:
256,192,17980,1,0,0:0:0:0:
256,192,18280,1,8,0:0:0:0:
256,192,18380,1,0,0:0:0:0:
256,192,18580,1,8,0:0:0:0:
256,192,18780,1,0,0:0:0:0:
256,192,18980,1,8,0:0:0:0:
256,192,19080,1,0,0:0:0:0:
256,192,19180,1,0,0:0:0:0:
256,192,19380,1,8,0:0:0:0:
256,192,19580,1,0,0:0:0:0:
256,192,19880,1,8,0:0:0:0:
256,192,19980,1,0,0:0:0:0:
256,192,20180,1,8,0:0:0:0:
256,192,20380,1,0,0:0:0:0:
256,192,20580,1,8,0:0:0:0:
256,192,20780,1,8,0:0:0:0:
256,192,20880,1,8,0:0:0:0:
256,192,20980,1,0,0:0:0:0:
256,192,21080,1,0,0:0:0:0:
256,192,21180,1,0,0:0:0:0:
256,192,21480,1,8,0:0:0:0:
256,192,21580,1,0,0:0:0:0:
256,192,21780,1,8,0:0:0:0:
256,192,21980,1,0,0:0:0:0:
256,192,22180,1,8,0:0:0:0:
256,192,22280,1,0,0:0:0:0:
256,192,22380,1,0,0:0:0:0:
256,192,22580,1,8,0:0:0:0:
256,192,22780,1,0,0:0:0:0:
256,192,23080,1,8,0:0:0:0:
256,192,23180,1,0,0:0:0:0:
256,192,23380,1,8,0:0:0:0:
256,192,23580,1,0,0:0:0:0:
256,192,23780,1,8,0:0:0:0:
256,192,23880,1,0,0:0:0:0:
256,192,23980,1,8,0:0:0:0:
256,192,24180,1,8,0:0:0:0:
256,192,24380,1,0,0:0:0:0:
256,192,24680,1,8,0:0:0:0:
256,192,24780,1,0,0:0:0:0:
256,192,24980,1,8,0:0:0:0:
256,192,25180,1,0,0:0:0:0:
256,192,25380,1,8,0:0:0:0:
256,192,25480,1,8,0:0:0:0:
256,192,25580,1,0,0:0:0:0:
256,192,25780,1,8,0:0:0:0:
256,192,25980,1,0,0:0:0:0:
256,192,26280,1,8,0:0:0:0:
256,192,26380,1,0,0:0:0:0:
256,192,26580,1,8,0:0:0:0:
256,192,26780,1,0,0:0:0:0:
256,192,26880,1,8,0:0:0:0:
256,192,26980,1,0,0:0:0:0:
256,192,27080,1,0,0:0:0:0:
256,192,27180,1,8,0:0:0:0:
256,192,27280,1,0,0:0:0:0:
256,192,27380,1,8,0:0:0:0:
256,192,27480,1,8,0:0:0:0:
256,192,27580,1,4,0:0:0:0:
256,192,27780,1,0,0:0:0:0:
256,192,27880,1,8,0:0:0:0:
256,192,27980,1,0,0:0:0:0:
256,192,28180,1,8,0:0:0:0:
256,192,28280,1,0,0:0:0:0:
256,192,28380,1,8,0:0:0:0:
256,192,28580,1,8,0:0:0:0:
256,192,28680,1,0,0:0:0:0:
256,192,28780,1,0,0:0:0:0:
253,189,28880,1,0,0:0:0:0:
256,192,28980,1,8,0:0:0:0:
256,192,29180,1,0,0:0:0:0:
256,192,29380,1,0,0:0:0:0:
256,192,29480,1,8,0:0:0:0:
256,192,29580,1,0,0:0:0:0:
256,192,29780,1,8,0:0:0:0:
256,192,29880,1,8,0:0:0:0:
256,192,29980,1,0,0:0:0:0:
256,192,30180,1,8,0:0:0:0:
256,192,30280,1,0,0:0:0:0:
256,192,30380,1,8,0:0:0:0:
256,192,30480,1,0,0:0:0:0:
256,192,30580,1,8,0:0:0:0:
256,192,30680,1,8,0:0:0:0:
256,192,30780,1,0,0:0:0:0:
256,192,30980,1,0,0:0:0:0:
256,192,31080,1,8,0:0:0:0:
256,192,31180,1,0,0:0:0:0:
256,192,31380,1,8,0:0:0:0:
256,192,31480,1,0,0:0:0:0:
256,192,31580,1,8,0:0:0:0:
256,192,31780,1,8,0:0:0:0:
256,192,31880,1,8,0:0:0:0:
256,192,31980,1,0,0:0:0:0:
255,190,32080,1,0,0:0:0:0:
255,191,32180,1,8,0:0:0:0:
256,192,32380,1,4,0:0:0:0:
256,192,32680,1,4,0:0:0:0:
256,192,32980,1,4,0:0:0:0:
256,192,33180,1,8,0:0:0:0:
256,192,33246,1,8,0:0:0:0:
256,192,33580,1,4,0:0:0:0:
256,192,33980,1,12,0:0:0:0:
256,192,34180,1,0,0:0:0:0:
256,192,34280,1,0,0:0:0:0:
256,192,34380,1,8,0:0:0:0:
256,192,34480,1,0,0:0:0:0:
256,192,34580,1,0,0:0:0:0:
256,192,34680,1,0,0:0:0:0:
256,192,34780,1,8,0:0:0:0:
256,192,34880,1,8,0:0:0:0:
256,192,34980,1,0,0:0:0:0:
256,192,35080,1,8,0:0:0:0:
256,192,35180,1,8,0:0:0:0:
256,192,35280,1,8,0:0:0:0:
256,192,35380,1,0,0:0:0:0:
256,192,35480,1,0,0:0:0:0:
256,192,35580,1,8,0:0:0:0:
256,192,35646,1,8,0:0:0:0:
256,192,35713,1,8,0:0:0:0:
256,192,35780,1,0,0:0:0:0:
256,192,35880,1,8,0:0:0:0:
256,192,35946,1,8,0:0:0:0:
256,192,36013,1,8,0:0:0:0:
256,192,36080,1,0,0:0:0:0:
256,192,36180,1,8,0:0:0:0:
256,192,36280,1,0,0:0:0:0:
256,192,36380,1,8,0:0:0:0:
256,192,36446,1,8,0:0:0:0:
256,192,36513,1,8,0:0:0:0:
256,192,36580,1,0,0:0:0:0:
256,192,36680,1,0,0:0:0:0:
256,192,36780,1,8,0:0:0:0:
256,192,37180,1,4,0:0:0:0:
256,192,37380,1,0,0:0:0:0:
256,192,37480,1,8,0:0:0:0:
256,192,37580,1,0,0:0:0:0:
256,192,37780,1,8,0:0:0:0:
256,192,37880,1,0,0:0:0:0:
256,192,37980,1,8,0:0:0:0:
256,192,38180,1,8,0:0:0:0:
256,192,38280,1,8,0:0:0:0:
256,192,38380,1,0,0:0:0:0:
256,192,38480,1,0,0:0:0:0:
256,192,38580,1,8,0:0:0:0:
256,192,38780,1,0,0:0:0:0:
256,192,38880,1,8,0:0:0:0:
256,192,38980,1,0,0:0:0:0:
256,192,39080,1,8,0:0:0:0:
256,192,39180,1,0,0:0:0:0:
256,192,39280,1,0,0:0:0:0:
256,192,39380,1,8,0:0:0:0:
256,192,39480,1,0,0:0:0:0:
256,192,39580,1,8,0:0:0:0:
256,192,39680,1,8,0:0:0:0:
256,192,39780,1,0,0:0:0:0:
255,190,39846,1,8,0:0:0:0:
256,192,39913,1,8,0:0:0:0:
256,192,39980,1,0,0:0:0:0:
256,192,40080,1,0,0:0:0:0:
256,192,40180,1,0,0:0:0:0:
256,192,40280,1,0,0:0:0:0:
256,192,40380,1,8,0:0:0:0:
256,192,40446,1,8,0:0:0:0:
256,192,40513,1,8,0:0:0:0:
256,192,40580,1,0,0:0:0:0:
256,192,40680,1,0,0:0:0:0:
256,192,40780,1,8,0:0:0:0:
256,192,40846,1,8,0:0:0:0:
256,192,40913,1,8,0:0:0:0:
256,192,40980,1,0,0:0:0:0:
256,192,41080,1,0,0:0:0:0:
256,192,41180,1,8,0:0:0:0:
256,192,41280,1,0,0:0:0:0:
256,192,41380,1,8,0:0:0:0:
256,192,41446,1,0,0:0:0:0:
256,192,41513,1,0,0:0:0:0:
256,192,41580,1,8,0:0:0:0:
256,192,41980,1,4,0:0:0:0:
254,181,42280,1,0,0:0:0:0:
256,192,42380,1,8,0:0:0:0:
256,192,42580,1,0,0:0:0:0:
256,192,42680,1,0,0:0:0:0:
256,192,42880,1,8,0:0:0:0:
255,191,42980,1,0,0:0:0:0:
254,189,43080,1,0,0:0:0:0:
256,192,43180,1,8,0:0:0:0:
256,192,43380,1,0,0:0:0:0:
256,192,43580,1,8,0:0:0:0:
256,192,43680,1,0,0:0:0:0:
256,192,43780,1,8,0:0:0:0:
255,189,43880,1,0,0:0:0:0:
256,192,43980,1,8,0:0:0:0:
256,192,44180,1,0,0:0:0:0:
256,192,44280,1,8,0:0:0:0:
256,192,44480,1,8,0:0:0:0:
256,192,44580,1,0,0:0:0:0:
254,190,44680,1,0,0:0:0:0:
256,192,44780,1,8,0:0:0:0:
254,190,44880,1,8,0:0:0:0:
256,192,44980,1,0,0:0:0:0:
256,192,45080,1,8,0:0:0:0:
256,192,45180,1,0,0:0:0:0:
256,192,45380,1,8,0:0:0:0:
256,192,45480,1,0,0:0:0:0:
256,192,45580,1,8,0:0:0:0:
256,192,45780,1,0,0:0:0:0:
256,192,45980,1,0,0:0:0:0:
256,192,46046,1,0,0:0:0:0:
256,192,46113,1,0,0:0:0:0:
256,192,46180,1,8,0:0:0:0:
256,192,46280,1,0,0:0:0:0:
256,192,46380,1,8,0:0:0:0:
256,192,46480,1,0,0:0:0:0:
256,192,46580,1,8,0:0:0:0:
256,192,46680,1,8,0:0:0:0:
256,192,46780,1,0,0:0:0:0:
256,192,46880,1,0,0:0:0:0:
256,192,46980,1,0,0:0:0:0:
256,192,47080,1,0,0:0:0:0:
256,192,47180,1,0,0:0:0:0:
256,192,47280,1,0,0:0:0:0:
256,192,47380,1,0,0:0:0:0:
256,192,47480,1,0,0:0:0:0:
256,192,47580,1,0,0:0:0:0:
256,192,47680,1,0,0:0:0:0:
256,192,47780,1,0,0:0:0:0:
256,192,47880,1,0,0:0:0:0:
256,192,47980,1,0,0:0:0:0:
256,192,48080,1,0,0:0:0:0:
256,192,48180,1,0,0:0:0:0:
256,192,48280,1,0,0:0:0:0:
256,192,48380,1,12,0:0:0:0:
254,181,48680,1,0,0:0:0:0:
256,192,48780,1,8,0:0:0:0:
256,192,48980,1,0,0:0:0:0:
256,192,49080,1,0,0:0:0:0:
256,192,49280,1,8,0:0:0:0:
256,192,49380,1,0,0:0:0:0:
256,192,49480,1,0,0:0:0:0:
256,192,49580,1,8,0:0:0:0:
256,192,49780,1,0,0:0:0:0:
256,192,49980,1,8,0:0:0:0:
256,192,50080,1,0,0:0:0:0:
256,192,50180,1,8,0:0:0:0:
256,189,50280,1,0,0:0:0:0:
256,192,50380,1,8,0:0:0:0:
256,192,50580,1,0,0:0:0:0:
256,192,50680,1,8,0:0:0:0:
256,192,50880,1,8,0:0:0:0:
256,192,50980,1,0,0:0:0:0:
255,190,51080,1,0,0:0:0:0:
256,192,51180,1,8,0:0:0:0:
255,188,51280,1,8,0:0:0:0:
256,192,51380,1,0,0:0:0:0:
256,192,51480,1,8,0:0:0:0:
256,192,51580,1,0,0:0:0:0:
256,192,51780,1,8,0:0:0:0:
256,192,51880,1,0,0:0:0:0:
256,192,51980,1,8,0:0:0:0:
256,192,52180,1,0,0:0:0:0:
256,192,52380,1,0,0:0:0:0:
256,192,52446,1,0,0:0:0:0:
256,192,52513,1,0,0:0:0:0:
256,192,52580,1,8,0:0:0:0:
256,192,52680,1,0,0:0:0:0:
256,192,52780,1,8,0:0:0:0:
256,192,52880,1,8,0:0:0:0:
256,192,52980,1,0,0:0:0:0:
256,192,53080,1,8,0:0:0:0:
256,192,53180,1,0,0:0:0:0:
256,192,53380,1,8,0:0:0:0:
256,192,53580,1,0,0:0:0:0:
256,192,53646,1,0,0:0:0:0:
256,192,53713,1,0,0:0:0:0:
256,192,53780,1,0,0:0:0:0:
254,190,53846,1,0,0:0:0:0:
256,192,53913,1,0,0:0:0:0:
256,192,53980,1,8,0:0:0:0:
256,192,54180,1,0,0:0:0:0:
256,192,54380,1,8,0:0:0:0:
256,192,54446,1,8,0:0:0:0:
256,192,54513,1,8,0:0:0:0:
255,189,54580,1,8,0:0:0:0:
256,192,54646,1,8,0:0:0:0:
255,191,54713,1,8,0:0:0:0:
256,192,54780,1,4,0:0:0:0:
252,182,55080,1,0,0:0:0:0:
256,192,55180,1,8,0:0:0:0:
256,192,55380,1,8,0:0:0:0:
256,192,55480,1,0,0:0:0:0:
256,192,55580,1,8,0:0:0:0:
256,192,55680,1,8,0:0:0:0:
256,192,55780,1,0,0:0:0:0:
256,192,55980,1,8,0:0:0:0:
256,192,56180,1,0,0:0:0:0:
256,192,56280,1,0,0:0:0:0:
256,192,56380,1,8,0:0:0:0:
256,192,56580,1,0,0:0:0:0:
256,192,56680,1,8,0:0:0:0:
256,192,56880,1,0,0:0:0:0:
256,192,56980,1,8,0:0:0:0:
256,192,57080,1,8,0:0:0:0:
256,192,57180,1,0,0:0:0:0:
256,192,57280,1,8,0:0:0:0:
256,192,57380,1,0,0:0:0:0:
256,192,57580,1,8,0:0:0:0:
256,192,57780,1,0,0:0:0:0:
256,192,57880,1,0,0:0:0:0:
256,192,57980,1,8,0:0:0:0:
256,192,58180,1,8,0:0:0:0:
256,192,58280,1,0,0:0:0:0:
256,192,58480,1,8,0:0:0:0:
256,192,58580,1,0,0:0:0:0:
256,192,58680,1,8,0:0:0:0:
256,192,58780,1,0,0:0:0:0:
256,192,58846,1,0,0:0:0:0:
256,192,58913,1,0,0:0:0:0:
256,192,58980,1,8,0:0:0:0:
256,192,59080,1,0,0:0:0:0:
256,192,59180,1,8,0:0:0:0:
256,192,59280,1,8,0:0:0:0:
256,192,59380,1,0,0:0:0:0:
256,192,59480,1,0,0:0:0:0:
256,192,59780,1,0,0:0:0:0:
256,192,59880,1,0,0:0:0:0:
256,192,59980,1,8,0:0:0:0:
256,192,60180,1,0,0:0:0:0:
256,192,60280,1,0,0:0:0:0:
256,192,60380,1,8,0:0:0:0:
256,192,60580,1,0,0:0:0:0:
256,192,60680,1,8,0:0:0:0:
256,192,60880,1,8,0:0:0:0:
256,192,60980,1,0,0:0:0:0:
256,192,61180,1,4,0:0:0:0:
255,181,61480,1,0,0:0:0:0:
256,192,61580,1,8,0:0:0:0:
256,192,61780,1,8,0:0:0:0:
256,192,61880,1,0,0:0:0:0:
256,192,61980,1,8,0:0:0:0:
256,192,62080,1,8,0:0:0:0:
256,192,62180,1,0,0:0:0:0:
256,192,62380,1,8,0:0:0:0:
256,192,62580,1,0,0:0:0:0:
256,192,62680,1,0,0:0:0:0:
256,192,62780,1,8,0:0:0:0:
256,192,62980,1,8,0:0:0:0:
256,192,63080,1,0,0:0:0:0:
256,192,63180,1,8,0:0:0:0:
256,192,63380,1,8,0:0:0:0:
256,192,63480,1,8,0:0:0:0:
256,192,63580,1,0,0:0:0:0:
256,192,63680,1,8,0:0:0:0:
256,192,63780,1,0,0:0:0:0:
256,192,63880,1,0,0:0:0:0:
256,192,63980,1,8,0:0:0:0:
256,192,64180,1,8,0:0:0:0:
256,192,64280,1,8,0:0:0:0:
256,192,64380,1,0,0:0:0:0:
256,192,64446,1,0,0:0:0:0:
256,192,64513,1,0,0:0:0:0:
256,192,64580,1,8,0:0:0:0:
256,192,64780,1,8,0:0:0:0:
256,192,64980,1,8,0:0:0:0:
256,192,65080,1,8,0:0:0:0:
256,192,65180,1,0,0:0:0:0:
256,192,65280,1,8,0:0:0:0:
256,192,65380,1,0,0:0:0:0:
256,192,65480,1,0,0:0:0:0:
256,192,65580,1,8,0:0:0:0:
256,192,65646,1,8,0:0:0:0:
256,192,65713,1,8,0:0:0:0:
256,192,65780,1,0,0:0:0:0:
256,192,65846,1,0,0:0:0:0:
256,192,65913,1,0,0:0:0:0:
256,192,65980,1,12,0:0:0:0:
256,192,73980,12,0,78580,0:0:0:0:
256,192,78780,5,0,0:0:0:0:
256,192,78980,1,0,0:0:0:0:
256,192,79080,1,0,0:0:0:0:
256,192,79180,1,8,0:0:0:0:
256,192,79380,1,0,0:0:0:0:
256,192,79480,1,0,0:0:0:0:
256,192,79580,1,8,0:0:0:0:
256,192,79680,1,0,0:0:0:0:
256,192,79880,1,8,0:0:0:0:
256,192,79980,1,0,0:0:0:0:
256,192,80080,1,0,0:0:0:0:
256,192,80180,1,8,0:0:0:0:
256,190,80280,1,8,0:0:0:0:
256,192,80380,1,0,0:0:0:0:
256,192,80580,1,0,0:0:0:0:
256,192,80680,1,0,0:0:0:0:
256,192,80780,1,8,0:0:0:0:
256,192,80980,1,0,0:0:0:0:
255,189,81080,1,0,0:0:0:0:
256,192,81180,1,8,0:0:0:0:
256,192,81280,1,0,0:0:0:0:
256,192,81480,1,0,0:0:0:0:
256,192,81580,1,8,0:0:0:0:
255,190,81680,1,0,0:0:0:0:
256,192,81780,1,8,0:0:0:0:
256,192,81880,1,8,0:0:0:0:
256,192,81980,1,0,0:0:0:0:
256,192,82180,1,0,0:0:0:0:
256,192,82280,1,0,0:0:0:0:
256,192,82380,1,8,0:0:0:0:
256,192,82580,1,0,0:0:0:0:
256,189,82680,1,0,0:0:0:0:
256,192,82780,1,8,0:0:0:0:
256,192,82880,1,0,0:0:0:0:
256,192,83080,1,8,0:0:0:0:
256,192,83180,1,0,0:0:0:0:
256,192,83280,1,0,0:0:0:0:
256,192,83380,1,8,0:0:0:0:
256,192,83480,1,8,0:0:0:0:
256,192,83580,1,0,0:0:0:0:
256,192,83780,1,8,0:0:0:0:
256,192,83880,1,8,0:0:0:0:
256,192,83980,1,0,0:0:0:0:
256,192,84080,1,8,0:0:0:0:
256,192,84180,1,0,0:0:0:0:
256,192,84380,1,8,0:0:0:0:
256,192,84480,1,0,0:0:0:0:
252,188,84680,1,0,0:0:0:0:
252,188,84780,1,8,0:0:0:0:
251,185,84880,1,0,0:0:0:0:
252,188,84980,1,8,0:0:0:0:
256,192,85180,5,4,0:0:0:0:
256,192,85380,1,0,0:0:0:0:
256,192,85480,1,0,0:0:0:0:
256,192,85580,1,8,0:0:0:0:
256,192,85780,1,0,0:0:0:0:
256,192,85880,1,0,0:0:0:0:
256,192,85980,1,8,0:0:0:0:
256,192,86080,1,0,0:0:0:0:
256,192,86280,1,8,0:0:0:0:
256,192,86380,1,0,0:0:0:0:
256,192,86480,1,0,0:0:0:0:
256,192,86580,1,8,0:0:0:0:
256,192,86680,1,8,0:0:0:0:
256,192,86780,1,0,0:0:0:0:
256,192,86980,1,0,0:0:0:0:
256,192,87080,1,0,0:0:0:0:
256,192,87180,1,8,0:0:0:0:
256,192,87380,1,0,0:0:0:0:
255,189,87480,1,0,0:0:0:0:
256,192,87580,1,8,0:0:0:0:
256,192,87680,1,0,0:0:0:0:
256,192,87880,1,0,0:0:0:0:
256,192,87980,1,8,0:0:0:0:
256,192,88080,1,0,0:0:0:0:
256,192,88180,1,8,0:0:0:0:
256,192,88280,1,8,0:0:0:0:
256,192,88380,1,0,0:0:0:0:
256,192,88580,1,0,0:0:0:0:
256,192,88680,1,0,0:0:0:0:
256,192,88780,1,8,0:0:0:0:
256,192,88980,1,0,0:0:0:0:
255,188,89080,1,0,0:0:0:0:
256,192,89180,1,8,0:0:0:0:
256,192,89280,1,0,0:0:0:0:
256,192,89480,1,8,0:0:0:0:
256,192,89580,1,0,0:0:0:0:
256,192,89680,1,0,0:0:0:0:
256,192,89780,1,8,0:0:0:0:
256,192,89880,1,8,0:0:0:0:
256,192,89980,1,0,0:0:0:0:
256,160,91180,1,8,0:0:0:0:
252,188,91580,1,4,0:0:0:0:
256,192,92180,1,0,0:0:0:0:
256,192,92280,1,0,0:0:0:0:
256,192,92380,1,12,0:0:0:0:
256,192,92580,1,0,0:0:0:0:
256,192,92680,1,8,0:0:0:0:
256,192,92880,1,0,0:0:0:0:
256,192,92980,1,8,0:0:0:0:
256,192,93380,1,8,0:0:0:0:
256,192,93580,1,0,0:0:0:0:
256,192,93780,1,8,0:0:0:0:
256,192,93980,1,12,0:0:0:0:
256,192,94280,1,0,0:0:0:0:
256,192,94380,1,8,0:0:0:0:
256,192,94780,1,0,0:0:0:0:
256,192,94880,1,8,0:0:0:0:
256,192,94980,1,0,0:0:0:0:
256,192,95080,1,0,0:0:0:0:
256,192,95180,1,8,0:0:0:0:
256,192,95246,1,8,0:0:0:0:
256,192,95313,1,8,0:0:0:0:
256,192,95380,1,0,0:0:0:0:
256,192,95580,1,12,0:0:0:0:
256,192,95780,1,0,0:0:0:0:
256,192,95880,1,0,0:0:0:0:
256,192,95980,1,8,0:0:0:0:
256,192,96180,1,0,0:0:0:0:
256,192,96246,1,0,0:0:0:0:
255,189,96313,1,0,0:0:0:0:
256,192,96380,1,8,0:0:0:0:
256,192,96480,1,8,0:0:0:0:
256,192,96580,1,0,0:0:0:0:
256,192,96646,1,0,0:0:0:0:
256,192,96713,1,0,0:0:0:0:
256,192,96780,1,8,0:0:0:0:
253,187,96880,1,8,0:0:0:0:
256,192,96980,1,0,0:0:0:0:
256,192,97080,1,0,0:0:0:0:
256,192,97180,1,12,0:0:0:0:
256,192,97480,1,0,0:0:0:0:
256,192,97580,1,12,0:0:0:0:
256,192,97780,1,8,0:0:0:0:
256,192,97980,1,4,0:0:0:0:
256,192,98180,1,0,0:0:0:0:
256,192,98380,1,8,0:0:0:0:
256,192,98780,1,8,0:0:0:0:
256,192,98880,1,8,0:0:0:0:
256,192,98980,1,0,0:0:0:0:
256,192,99080,1,0,0:0:0:0:
256,192,99180,1,0,0:0:0:0:
256,192,99280,1,0,0:0:0:0:
256,192,99380,1,12,0:0:0:0:
256,192,99780,1,0,0:0:0:0:
256,192,99880,1,0,0:0:0:0:
256,192,100080,1,0,0:0:0:0:
256,192,100280,1,0,0:0:0:0:
256,192,100380,1,12,0:0:0:0:
256,192,100680,1,12,0:0:0:0:
256,192,100980,1,12,0:0:0:0:
256,192,101180,1,4,0:0:0:0:
256,192,101480,1,4,0:0:0:0:
256,192,101780,1,8,0:0:0:0:
248,160,101980,1,0,0:0:0:0:
256,160,102380,1,12,0:0:0:0:
256,160,102580,1,0,0:0:0:0:
256,160,102646,1,0,0:0:0:0:
256,160,102713,1,0,0:0:0:0:
256,160,102780,1,0,0:0:0:0:
256,160,102980,1,12,0:0:0:0:
256,160,103180,1,12,0:0:0:0:
256,160,103380,1,0,0:0:0:0:
256,160,103580,1,12,0:0:0:0:
256,160,103880,1,0,0:0:0:0:
256,160,103980,1,12,0:0:0:0:
256,160,104180,1,8,0:0:0:0:
256,160,104380,1,4,0:0:0:0:
256,160,104580,1,8,0:0:0:0:
256,160,104680,1,8,0:0:0:0:
256,160,104780,1,0,0:0:0:0:
256,160,104980,1,0,0:0:0:0:
256,160,105080,1,0,0:0:0:0:
256,160,105180,1,8,0:0:0:0:
256,160,105380,1,0,0:0:0:0:
256,160,105480,1,8,0:0:0:0:
254,157,105580,1,8,0:0:0:0:
256,160,105680,1,0,0:0:0:0:
256,160,105780,1,8,0:0:0:0:
254,157,105880,1,8,0:0:0:0:
256,160,105980,1,0,0:0:0:0:
256,160,106180,1,8,0:0:0:0:
256,160,106280,1,0,0:0:0:0:
256,160,106380,1,8,0:0:0:0:
256,160,106480,1,0,0:0:0:0:
256,160,106580,1,8,0:0:0:0:
256,160,106680,1,8,0:0:0:0:
256,160,106780,1,0,0:0:0:0:
256,160,106880,1,8,0:0:0:0:
256,160,107080,1,8,0:0:0:0:
256,160,107180,1,0,0:0:0:0:
256,160,107313,1,0,0:0:0:0:
256,160,107446,1,0,0:0:0:0:
256,160,107580,1,8,0:0:0:0:
256,157,107680,1,8,0:0:0:0:
256,160,107780,1,0,0:0:0:0:
256,160,107980,1,8,0:0:0:0:
256,156,108080,1,8,0:0:0:0:
256,160,108180,1,0,0:0:0:0:
256,160,108380,1,8,0:0:0:0:
256,160,108580,1,8,0:0:0:0:
256,160,108646,1,8,0:0:0:0:
256,160,108713,1,8,0:0:0:0:
256,160,108780,1,0,0:0:0:0:
254,156,108880,1,0,0:0:0:0:
256,160,108980,1,8,0:0:0:0:
255,156,109080,1,8,0:0:0:0:
256,160,109180,1,0,0:0:0:0:
256,160,109280,1,8,0:0:0:0:
256,160,109480,1,8,0:0:0:0:
255,159,109580,1,0,0:0:0:0:
253,156,109680,1,8,0:0:0:0:
256,160,109780,1,0,0:0:0:0:
255,156,109880,1,0,0:0:0:0:
256,160,109980,1,8,0:0:0:0:
256,160,110080,1,0,0:0:0:0:
256,160,110180,1,8,0:0:0:0:
256,160,110280,1,8,0:0:0:0:
256,160,110380,1,0,0:0:0:0:
256,160,110480,1,8,0:0:0:0:
256,160,110580,1,0,0:0:0:0:
256,160,110646,1,0,0:0:0:0:
256,160,110713,1,0,0:0:0:0:
256,160,110780,1,8,0:0:0:0:
256,160,110980,1,8,0:0:0:0:
256,160,111080,1,8,0:0:0:0:
256,160,111180,1,0,0:0:0:0:
256,160,111280,1,8,0:0:0:0:
256,160,111380,1,0,0:0:0:0:
256,160,111480,1,8,0:0:0:0:
256,160,111580,1,0,0:0:0:0:
256,160,111780,1,0,0:0:0:0:
256,160,111880,1,8,0:0:0:0:
256,160,112080,1,0,0:0:0:0:
256,160,112180,1,8,0:0:0:0:
256,160,112280,1,0,0:0:0:0:
256,160,112380,1,0,0:0:0:0:
256,160,112480,1,8,0:0:0:0:
256,160,112680,1,8,0:0:0:0:
256,160,112780,1,0,0:0:0:0:
256,160,112980,1,0,0:0:0:0:
256,160,113080,1,8,0:0:0:0:
256,160,113280,1,0,0:0:0:0:
256,160,113380,1,8,0:0:0:0:
256,160,113480,1,0,0:0:0:0:
256,160,113580,1,0,0:0:0:0:
256,160,113680,1,8,0:0:0:0:
256,160,113880,1,8,0:0:0:0:
256,160,113980,1,0,0:0:0:0:
256,160,114180,1,0,0:0:0:0:
256,160,114380,1,8,0:0:0:0:
256,160,114480,1,0,0:0:0:0:
256,160,114580,1,8,0:0:0:0:
256,160,114780,1,0,0:0:0:0:
256,160,114880,1,8,0:0:0:0:
256,160,114980,1,0,0:0:0:0:
256,160,115080,1,8,0:0:0:0:
256,160,115180,1,0,0:0:0:0:
256,160,115280,1,0,0:0:0:0:
256,160,115380,1,8,0:0:0:0:
256,160,115480,1,8,0:0:0:0:
256,160,115580,1,0,0:0:0:0:
256,160,115680,1,8,0:0:0:0:
256,160,115780,1,0,0:0:0:0:
256,160,115880,1,8,0:0:0:0:
256,160,115980,1,0,0:0:0:0:
256,160,116080,1,0,0:0:0:0:
256,160,116180,1,8,0:0:0:0:
256,160,116280,1,0,0:0:0:0:
256,160,116380,1,8,0:0:0:0:
256,160,116446,1,8,0:0:0:0:
256,160,116513,1,8,0:0:0:0:
256,160,116580,1,0,0:0:0:0:
256,160,116680,1,0,0:0:0:0:
256,160,116780,1,8,0:0:0:0:
256,160,116846,1,8,0:0:0:0:
256,160,116913,1,8,0:0:0:0:
256,160,116980,1,0,0:0:0:0:
256,160,117046,1,0,0:0:0:0:
256,160,117113,1,0,0:0:0:0:
256,160,117180,1,8,0:0:0:0:
256,160,117580,1,12,0:0:0:0:
256,160,117780,1,0,0:0:0:0:
256,158,117880,1,0,0:0:0:0:
256,160,117980,1,8,0:0:0:0:
256,160,118080,1,0,0:0:0:0:
256,160,118180,1,0,0:0:0:0:
256,160,118280,1,8,0:0:0:0:
256,160,118380,1,0,0:0:0:0:
256,160,118580,1,8,0:0:0:0:
256,160,118680,1,8,0:0:0:0:
256,160,118780,1,0,0:0:0:0:
256,160,118980,1,8,0:0:0:0:
256,160,119080,1,0,0:0:0:0:
256,160,119180,1,8,0:0:0:0:
256,160,119380,1,0,0:0:0:0:
256,160,119580,1,8,0:0:0:0:
256,160,119680,1,0,0:0:0:0:
256,160,119880,1,8,0:0:0:0:
256,160,119980,1,0,0:0:0:0:
256,160,120080,1,0,0:0:0:0:
256,160,120180,1,8,0:0:0:0:
256,160,120280,1,0,0:0:0:0:
256,160,120380,1,8,0:0:0:0:
256,160,120580,1,0,0:0:0:0:
256,160,120680,1,0,0:0:0:0:
256,160,120780,1,8,0:0:0:0:
256,160,120980,1,0,0:0:0:0:
256,157,121080,1,0,0:0:0:0:
256,160,121180,1,8,0:0:0:0:
256,160,121280,1,8,0:0:0:0:
256,160,121380,1,0,0:0:0:0:
256,160,121480,1,8,0:0:0:0:
256,160,121580,1,0,0:0:0:0:
256,160,121780,1,8,0:0:0:0:
256,160,121880,1,0,0:0:0:0:
256,160,121980,1,0,0:0:0:0:
256,160,122180,1,8,0:0:0:0:
256,160,122280,1,0,0:0:0:0:
256,160,122380,1,8,0:0:0:0:
256,160,122580,1,0,0:0:0:0:
256,160,122780,1,8,0:0:0:0:
256,160,122880,1,0,0:0:0:0:
256,160,122980,1,0,0:0:0:0:
256,160,123080,1,8,0:0:0:0:
256,160,123180,1,0,0:0:0:0:
256,160,123280,1,0,0:0:0:0:
256,160,123380,1,8,0:0:0:0:
256,160,123580,1,4,0:0:0:0:
253,155,123780,1,0,0:0:0:0:
253,155,123880,1,0,0:0:0:0:
256,160,123980,1,8,0:0:0:0:
256,160,124180,1,0,0:0:0:0:
255,156,124280,1,0,0:0:0:0:
256,160,124380,1,8,0:0:0:0:
256,160,124480,1,0,0:0:0:0:
256,160,124580,1,0,0:0:0:0:
256,160,124680,1,8,0:0:0:0:
256,160,124780,1,0,0:0:0:0:
256,160,124980,1,8,0:0:0:0:
256,160,125080,1,8,0:0:0:0:
256,160,125180,1,0,0:0:0:0:
256,160,125380,1,8,0:0:0:0:
256,160,125480,1,0,0:0:0:0:
256,160,125580,1,8,0:0:0:0:
256,160,125780,1,0,0:0:0:0:
256,160,125980,1,8,0:0:0:0:
256,160,126080,1,0,0:0:0:0:
256,160,126280,1,8,0:0:0:0:
256,160,126380,1,0,0:0:0:0:
256,160,126480,1,0,0:0:0:0:
256,160,126580,1,8,0:0:0:0:
256,160,126680,1,0,0:0:0:0:
256,160,126780,1,8,0:0:0:0:
256,160,126980,1,0,0:0:0:0:
256,160,127080,1,0,0:0:0:0:
256,160,127180,1,8,0:0:0:0:
256,160,127380,1,0,0:0:0:0:
255,157,127480,1,0,0:0:0:0:
256,160,127580,1,8,0:0:0:0:
256,160,127680,1,8,0:0:0:0:
256,160,127780,1,0,0:0:0:0:
256,160,127880,1,8,0:0:0:0:
256,160,127980,1,0,0:0:0:0:
256,160,128180,1,8,0:0:0:0:
256,160,128280,1,0,0:0:0:0:
256,160,128380,1,0,0:0:0:0:
256,160,128580,1,8,0:0:0:0:
256,160,128680,1,0,0:0:0:0:
256,160,128780,1,8,0:0:0:0:
256,160,128980,1,0,0:0:0:0:
256,160,129180,1,8,0:0:0:0:
256,160,129280,1,0,0:0:0:0:
256,160,129380,1,0,0:0:0:0:
256,160,129480,1,8,0:0:0:0:
256,160,129580,1,0,0:0:0:0:
256,160,129680,1,0,0:0:0:0:
256,160,129780,1,8,0:0:0:0:
256,160,130180,1,12,0:0:0:0:
256,160,130380,1,12,0:0:0:0:
256,160,130580,1,4,0:0:0:0:
256,160,130780,1,4,0:0:0:0:
256,160,131180,1,12,0:0:0:0:
256,147,131580,1,4,0:0:0:0:
265,147,131780,1,0,0:0:0:0:
256,160,131880,1,0,0:0:0:0:
256,160,131980,1,8,0:0:0:0:
256,160,132180,1,8,0:0:0:0:
256,147,132280,1,0,0:0:0:0:
256,147,132380,1,8,0:0:0:0:
256,147,132480,1,8,0:0:0:0:
256,147,132580,1,0,0:0:0:0:
254,143,132680,1,0,0:0:0:0:
256,160,132780,1,8,0:0:0:0:
256,160,132980,1,8,0:0:0:0:
256,160,133080,1,0,0:0:0:0:
256,160,133180,1,8,0:0:0:0:
256,147,133380,1,8,0:0:0:0:
256,147,133480,1,0,0:0:0:0:
256,160,133680,1,8,0:0:0:0:
256,160,133780,1,0,0:0:0:0:
256,160,133880,1,8,0:0:0:0:
256,160,133980,1,0,0:0:0:0:
256,160,134080,1,0,0:0:0:0:
256,160,134180,1,8,0:0:0:0:
256,147,134280,1,0,0:0:0:0:
256,147,134380,1,8,0:0:0:0:
256,160,134580,1,8,0:0:0:0:
256,160,134680,1,0,0:0:0:0:
256,160,134780,1,8,0:0:0:0:
256,160,134980,1,8,0:0:0:0:
256,160,135080,1,0,0:0:0:0:
256,147,135280,1,0,0:0:0:0:
256,147,135380,1,8,0:0:0:0:
256,160,135480,1,0,0:0:0:0:
256,160,135580,1,8,0:0:0:0:
256,160,135680,1,8,0:0:0:0:
256,160,135780,1,0,0:0:0:0:
256,160,135880,1,8,0:0:0:0:
256,160,135980,1,0,0:0:0:0:
256,147,136180,1,8,0:0:0:0:
256,147,136280,1,0,0:0:0:0:
256,160,136580,1,0,0:0:0:0:
256,160,136680,1,0,0:0:0:0:
256,160,136780,1,8,0:0:0:0:
256,160,136980,1,0,0:0:0:0:
256,147,137080,1,0,0:0:0:0:
256,147,137180,1,8,0:0:0:0:
256,160,137380,1,0,0:0:0:0:
256,160,137480,1,0,0:0:0:0:
256,160,137680,1,0,0:0:0:0:
256,160,137780,1,0,0:0:0:0:
256,160,137980,1,12,0:0:0:0:
256,160,138380,1,8,0:0:0:0:
256,160,138580,1,0,0:0:0:0:
256,160,138680,1,0,0:0:0:0:
256,160,138780,1,8,0:0:0:0:
256,160,138880,1,8,0:0:0:0:
256,160,138980,1,0,0:0:0:0:
256,160,139080,1,8,0:0:0:0:
256,160,139180,1,8,0:0:0:0:
256,160,139380,1,8,0:0:0:0:
256,160,139480,1,0,0:0:0:0:
256,160,139580,1,8,0:0:0:0:
252,154,139780,1,8,0:0:0:0:
252,154,139880,1,0,0:0:0:0:
252,154,140080,1,0,0:0:0:0:
252,154,140180,1,0,0:0:0:0:
251,152,140280,1,0,0:0:0:0:
252,154,140380,1,8,0:0:0:0:
250,151,140480,1,0,0:0:0:0:
252,154,140580,1,8,0:0:0:0:
248,145,140680,1,8,0:0:0:0:
250,150,140780,1,0,0:0:0:0:
248,145,140980,1,8,0:0:0:0:
248,145,141080,1,0,0:0:0:0:
248,145,141180,1,8,0:0:0:0:
250,151,141380,1,8,0:0:0:0:
250,151,141480,1,0,0:0:0:0:
247,145,141680,1,8,0:0:0:0:
245,141,141780,1,8,0:0:0:0:
245,138,141880,1,8,0:0:0:0:
245,133,141980,1,0,0:0:0:0:
245,133,142080,1,8,0:0:0:0:
245,133,142180,1,0,0:0:0:0:
245,133,142280,1,0,0:0:0:0:
245,133,142380,1,8,0:0:0:0:
243,128,142580,1,8,0:0:0:0:
243,128,143980,1,0,0:0:0:0:
243,128,144380,1,12,0:0:0:0:
243,128,144580,1,0,0:0:0:0:
243,128,144646,1,0,0:0:0:0:
243,128,144713,1,0,0:0:0:0:
243,128,144780,1,8,0:0:0:0:
243,128,144980,1,0,0:0:0:0:
243,128,145080,1,0,0:0:0:0:
243,128,145180,1,8,0:0:0:0:
243,128,145380,1,0,0:0:0:0:
243,128,145580,1,8,0:0:0:0:
243,128,145780,1,8,0:0:0:0:
243,128,145846,1,8,0:0:0:0:
243,128,145913,1,8,0:0:0:0:
243,128,145980,1,0,0:0:0:0:
243,128,146180,1,0,0:0:0:0:
243,128,146246,1,0,0:0:0:0:
243,128,146313,1,0,0:0:0:0:
243,128,146380,1,8,0:0:0:0:
243,128,146480,1,8,0:0:0:0:
243,128,146580,1,0,0:0:0:0:
243,128,146680,1,0,0:0:0:0:
243,128,146780,1,8,0:0:0:0:
243,128,146980,1,0,0:0:0:0:
243,128,147046,1,0,0:0:0:0:
243,128,147113,1,0,0:0:0:0:
243,128,147180,1,8,0:0:0:0:
243,128,147280,1,0,0:0:0:0:
243,128,147380,1,8,0:0:0:0:
243,128,147446,1,8,0:0:0:0:
243,128,147513,1,8,0:0:0:0:
243,128,147580,1,0,0:0:0:0:
243,128,147980,1,8,0:0:0:0:
243,128,148113,1,0,0:0:0:0:
243,128,148246,1,0,0:0:0:0:
243,128,148380,1,8,0:0:0:0:
243,128,148480,1,0,0:0:0:0:
243,128,148580,1,8,0:0:0:0:
243,128,148646,1,8,0:0:0:0:
243,128,148713,1,8,0:0:0:0:
243,128,148780,1,0,0:0:0:0:
243,128,148980,1,8,0:0:0:0:
243,128,149180,1,0,0:0:0:0:
243,128,149280,1,0,0:0:0:0:
243,128,149380,1,8,0:0:0:0:
243,128,149580,1,0,0:0:0:0:
243,128,149713,1,0,0:0:0:0:
243,128,149846,1,0,0:0:0:0:
243,128,149980,1,8,0:0:0:0:
243,128,150180,1,8,0:0:0:0:
243,128,150380,1,0,0:0:0:0:
243,128,150446,1,0,0:0:0:0:
243,128,150513,1,0,0:0:0:0:
243,128,150580,1,8,0:0:0:0:
243,128,150680,1,8,0:0:0:0:
243,128,150780,1,4,0:0:0:0:
243,128,150980,1,0,0:0:0:0:
243,128,151046,1,0,0:0:0:0:
243,128,151113,1,0,0:0:0:0:
243,128,151180,1,8,0:0:0:0:
243,128,151380,1,0,0:0:0:0:
243,128,151480,1,0,0:0:0:0:
243,128,151580,1,8,0:0:0:0:
243,128,151780,1,0,0:0:0:0:
243,128,151980,1,8,0:0:0:0:
243,128,152180,1,8,0:0:0:0:
243,128,152246,1,8,0:0:0:0:
243,128,152313,1,8,0:0:0:0:
243,128,152380,1,0,0:0:0:0:
243,128,152580,1,0,0:0:0:0:
243,128,152646,1,0,0:0:0:0:
243,128,152713,1,0,0:0:0:0:
243,128,152780,1,8,0:0:0:0:
243,128,152880,1,8,0:0:0:0:
243,128,152980,1,0,0:0:0:0:
243,128,153080,1,0,0:0:0:0:
243,128,153180,1,8,0:0:0:0:
243,128,153380,1,8,0:0:0:0:
243,128,153446,1,0,0:0:0:0:
243,128,153513,1,0,0:0:0:0:
243,128,153580,1,8,0:0:0:0:
243,128,153680,1,0,0:0:0:0:
243,128,153780,1,8,0:0:0:0:
243,128,153846,1,8,0:0:0:0:
243,128,153913,1,8,0:0:0:0:
243,128,153980,1,0,0:0:0:0:
243,128,154380,1,8,0:0:0:0:
243,128,154513,1,0,0:0:0:0:
243,128,154646,1,0,0:0:0:0:
243,128,154780,1,8,0:0:0:0:
243,128,154880,1,0,0:0:0:0:
243,128,154980,1,8,0:0:0:0:
243,128,155046,1,8,0:0:0:0:
243,128,155113,1,8,0:0:0:0:
243,128,155180,1,0,0:0:0:0:
243,128,155380,1,8,0:0:0:0:
243,128,155580,1,0,0:0:0:0:
243,128,155680,1,0,0:0:0:0:
243,128,155780,1,8,0:0:0:0:
243,128,155980,1,0,0:0:0:0:
243,128,156113,1,0,0:0:0:0:
243,128,156246,1,0,0:0:0:0:
243,128,156380,1,8,0:0:0:0:
241,125,156480,1,0,0:0:0:0:
243,128,156580,1,8,0:0:0:0:
243,128,156780,1,4,0:0:0:0:
243,128,157180,1,12,0:0:0:0:
243,128,157380,1,0,0:0:0:0:
243,128,157446,1,0,0:0:0:0:
243,128,157513,1,0,0:0:0:0:
243,128,157580,1,8,0:0:0:0:
243,128,157713,1,0,0:0:0:0:
243,128,157846,1,0,0:0:0:0:
243,128,157980,1,8,0:0:0:0:
240,124,158113,1,0,0:0:0:0:
243,128,158246,1,0,0:0:0:0:
243,128,158380,1,8,0:0:0:0:
243,128,158580,1,8,0:0:0:0:
243,128,158646,1,8,0:0:0:0:
243,128,158713,1,8,0:0:0:0:
243,128,158780,1,0,0:0:0:0:
243,128,158980,1,0,0:0:0:0:
243,128,159046,1,0,0:0:0:0:
243,128,159113,1,0,0:0:0:0:
243,128,159180,1,8,0:0:0:0:
239,129,159313,1,8,0:0:0:0:
243,128,159446,1,0,0:0:0:0:
243,128,159580,1,8,0:0:0:0:
243,128,159713,1,0,0:0:0:0:
243,128,159846,1,0,0:0:0:0:
243,128,159980,1,8,0:0:0:0:
243,128,160080,1,0,0:0:0:0:
243,128,160180,1,8,0:0:0:0:
243,128,160246,1,8,0:0:0:0:
243,128,160313,1,8,0:0:0:0:
243,128,160380,1,0,0:0:0:0:
237,122,160580,1,0,0:0:0:0:
237,122,160680,1,0,0:0:0:0:
243,128,160780,1,8,0:0:0:0:
243,128,160880,1,0,0:0:0:0:
243,128,160980,1,0,0:0:0:0:
241,126,161080,1,0,0:0:0:0:
243,128,161180,1,8,0:0:0:0:
243,128,161380,1,8,0:0:0:0:
243,128,161446,1,8,0:0:0:0:
243,128,161513,1,8,0:0:0:0:
243,128,161580,1,0,0:0:0:0:
237,122,161680,1,0,0:0:0:0:
243,128,161780,1,8,0:0:0:0:
237,122,161880,1,0,0:0:0:0:
243,128,161980,1,8,0:0:0:0:
243,128,162080,1,8,0:0:0:0:
243,128,162180,1,0,0:0:0:0:
237,122,162280,1,0,0:0:0:0:
243,128,162380,1,8,0:0:0:0:
243,128,162513,1,0,0:0:0:0:
243,128,162646,1,0,0:0:0:0:
243,128,162780,1,8,0:0:0:0:
237,122,162880,1,0,0:0:0:0:
243,128,162980,1,8,0:0:0:0:
243,128,163180,1,0,0:0:0:0:
243,128,163246,1,0,0:0:0:0:
243,128,163313,1,0,0:0:0:0:
243,128,163380,1,8,0:0:0:0:
243,128,163480,1,8,0:0:0:0:
243,128,163580,1,4,0:0:0:0:
243,128,163780,1,0,0:0:0:0:
243,128,163846,1,0,0:0:0:0:
243,128,163913,1,0,0:0:0:0:
243,128,163980,1,8,0:0:0:0:
243,128,164113,1,0,0:0:0:0:
243,128,164246,1,0,0:0:0:0:
243,128,164380,1,8,0:0:0:0:
240,124,164513,1,0,0:0:0:0:
243,128,164646,1,0,0:0:0:0:
243,128,164780,1,8,0:0:0:0:
243,128,164980,1,8,0:0:0:0:
243,128,165046,1,8,0:0:0:0:
243,128,165113,1,8,0:0:0:0:
243,128,165180,1,0,0:0:0:0:
243,128,165380,1,0,0:0:0:0:
243,128,165446,1,0,0:0:0:0:
243,128,165513,1,0,0:0:0:0:
243,128,165580,1,8,0:0:0:0:
243,128,165713,1,8,0:0:0:0:
243,128,165846,1,0,0:0:0:0:
243,128,165980,1,8,0:0:0:0:
241,125,166113,1,0,0:0:0:0:
243,128,166246,1,0,0:0:0:0:
243,128,166380,1,8,0:0:0:0:
243,128,166480,1,0,0:0:0:0:
243,128,166580,1,8,0:0:0:0:
243,128,166646,1,8,0:0:0:0:
243,128,166713,1,8,0:0:0:0:
243,128,166780,1,0,0:0:0:0:
241,126,166880,1,8,0:0:0:0:
237,122,166980,1,0,0:0:0:0:
237,122,167080,1,0,0:0:0:0:
243,128,167180,1,8,0:0:0:0:
243,128,167280,1,0,0:0:0:0:
243,128,167380,1,0,0:0:0:0:
241,126,167480,1,0,0:0:0:0:
243,128,167580,1,8,0:0:0:0:
243,128,167780,1,8,0:0:0:0:
243,128,167846,1,8,0:0:0:0:
243,128,167913,1,8,0:0:0:0:
243,128,167980,1,0,0:0:0:0:
237,122,168080,1,0,0:0:0:0:
243,128,168180,1,8,0:0:0:0:
237,122,168280,1,0,0:0:0:0:
243,128,168380,1,8,0:0:0:0:
243,128,168480,1,8,0:0:0:0:
243,128,168580,1,0,0:0:0:0:
237,122,168680,1,0,0:0:0:0:
243,128,168780,1,8,0:0:0:0:
243,128,168913,1,0,0:0:0:0:
243,128,169046,1,0,0:0:0:0:
243,128,169180,1,8,0:0:0:0:
237,122,169280,1,0,0:0:0:0:
243,128,169380,1,8,0:0:0:0:
243,128,169580,1,0,0:0:0:0:
243,128,169646,1,0,0:0:0:0:
243,128,169713,1,0,0:0:0:0:
243,128,169780,1,8,0:0:0:0:
243,128,169880,1,8,0:0:0:0:
243,128,169980,1,4,0:0:0:0:
