osu file format v14

[General]
AudioFilename: audio.ogg
AudioLeadIn: 0
PreviewTime: 90980
Countdown: 0
SampleSet: Normal
StackLeniency: 0.7
Mode: 1
LetterboxInBreaks: 0
EpilepsyWarning: 1
WidescreenStoryboard: 1

[Editor]
Bookmarks: 380,13180,21180,27580,33980,41980,54780,65980,78780,85180,91580,99380,104380,117580,123580,131580,144380,150780,157180,163580
DistanceSpacing: 0.1
BeatDivisor: 4
GridSize: 32
TimelineZoom: 1.5

[Metadata]
Title:snooze
TitleUnicode:snooze
Artist:wotaku feat. SHIKI
ArtistUnicode:wotaku feat. SHIKI
Creator:gaston_2199
Version:muzukashii
Source:
Tags:japanese pop jpop j-pop electronic ちふり Lenkon -_Lenkon Zennan
BeatmapID:3811742
BeatmapSetID:1835087

[Difficulty]
HPDrainRate:6
CircleSize:2
OverallDifficulty:5
ApproachRate:10
SliderMultiplier:1.4
SliderTickRate:1

[Events]
//Background and Video events
0,0,"BG.jpg",0,-30
Video,-150,"TaikoVideo.mp4"
//Break Periods
2,66180,73376
//Storyboard Layer 0 (Background)
//Storyboard Layer 1 (Fail)
//Storyboard Layer 2 (Pass)
//Storyboard Layer 3 (Foreground)
//Storyboard Layer 4 (Overlay)
//Storyboard Sound Samples

[TimingPoints]
380,400,4,1,0,80,1,0
380,-133.333333333333,4,1,0,80,0,0
575,-133.333333333333,4,1,0,60,0,0
6772,-111.111111111111,4,1,0,70,0,0
7172,-108.108108108108,4,1,0,70,0,0
7472,-105.960264900662,4,1,0,70,0,0
7572,-105.263157894737,4,1,0,70,0,0
7772,-103.896103896104,4,1,0,70,0,0
7972,-102.564102564103,4,1,0,70,0,0
8372,-100,4,1,0,70,0,0
8572,-98.7654320987654,4,1,0,70,0,0
8772,-97.5609756097561,4,1,0,70,0,0
8972,-96.3855421686747,4,1,0,70,0,0
9072,-95.8083832335329,4,1,0,70,0,0
9172,-95.2380952380952,4,1,0,70,0,0
9372,-94.1176470588235,4,1,0,70,0,0
9572,-93.0232558139535,4,1,0,70,0,0
9972,-90.9090909090909,4,1,0,80,0,0
10172,-89.8876404494382,4,1,0,80,0,0
10372,-88.8888888888889,4,1,0,80,0,0
10572,-87.9120879120879,4,1,0,80,0,0
10772,-86.9565217391304,4,1,0,80,0,0
10872,-86.4864864864865,4,1,0,80,0,0
10972,-86.0215053763441,4,1,0,80,0,0
11172,-85.1063829787234,4,1,0,80,0,0
11272,-84.6560846560847,4,1,0,80,0,0
11372,-84.2105263157895,4,1,0,80,0,0
11572,-83.3333333333333,4,1,0,80,0,0
13175,-133.333333333333,4,1,0,80,0,0
14780,400,4,1,0,90,1,0
26772,-100,4,1,0,70,0,0
27580,-90.9090909090909,4,1,0,90,0,1
33180,-100,4,1,0,80,0,0
33475,-66.6666666666667,4,1,0,90,0,0
33980,-83.3333333333333,4,1,0,90,0,1
36780,-66.6666666666667,4,1,0,80,0,0
37180,-100,4,1,0,90,0,1
37472,-98.9399293286219,4,1,0,90,0,1
37772,-97.9020979020979,4,1,0,90,0,1
37972,-97.2222222222222,4,1,0,90,0,1
38172,-96.551724137931,4,1,0,90,0,1
38372,-95.8904109589041,4,1,0,90,0,1
38572,-95.2380952380952,4,1,0,90,0,1
38772,-94.5945945945946,4,1,0,90,0,1
38872,-94.2760942760943,4,1,0,90,0,1
38972,-93.9597315436242,4,1,0,90,0,1
39172,-93.3333333333333,4,1,0,90,0,1
39372,-92.7152317880795,4,1,0,90,0,1
39572,-92.1052631578947,4,1,0,90,0,1
39672,-91.8032786885246,4,1,0,90,0,1
39772,-91.5032679738562,4,1,0,90,0,1
39980,-90.9090909090909,4,1,0,80,0,0
40372,-83.3333333333333,4,1,0,80,0,0
40472,-84.5070422535211,4,1,0,80,0,0
40572,-85.7142857142857,4,1,0,80,0,0
40772,-88.2352941176471,4,1,0,80,0,0
40872,-89.5522388059701,4,1,0,80,0,0
40972,-90.9090909090909,4,1,0,80,0,0
41172,-93.75,4,1,0,80,0,0
41372,-96.7741935483871,4,1,0,80,0,0
41572,-100,4,1,0,80,0,0
41980,400,4,1,0,80,1,0
46772,-66.6666666666667,4,1,0,90,0,0
48575,-100,4,1,0,80,0,0
53175,-99.9999952000002,4,1,0,70,0,0
53775,-125,4,1,0,80,0,0
54775,-100,4,1,0,80,0,0
59580,-125,4,1,0,70,0,0
61172,-100,4,1,0,80,0,0
62972,-99.3788819875776,4,1,0,80,0,0
63075,-93.1174,4,1,0,80,0,0
63272,-98.4615384615385,4,1,0,80,0,0
63372,-98.159509202454,4,1,0,80,0,0
63475,-91.63347,4,1,0,80,0,0
63572,-97.5609756097561,4,1,0,80,0,0
63772,-96.969696969697,4,1,0,80,0,0
64172,-95.8083832335329,4,1,0,80,0,0
64372,-95.2380952380952,4,1,0,80,0,0
64472,-94.9554896142433,4,1,0,80,0,0
64572,-94.6745562130177,4,1,0,80,0,0
64772,-94.1176470588235,4,1,0,80,0,0
64972,-93.5672514619883,4,1,0,80,0,0
65172,-93.0232558139535,4,1,0,80,0,0
65272,-92.7536231884058,4,1,0,80,0,0
65372,-92.485549132948,4,1,0,80,0,0
65572,-91.9540229885057,4,1,0,80,0,0
65672,-91.6905444126074,4,1,0,80,0,0
65772,-91.4285714285714,4,1,0,80,0,0
65972,-90.9090909090909,4,1,0,80,0,0
65980,400,4,1,0,80,1,0
66775,-125,4,1,0,50,0,0
78780,-100,4,1,0,70,0,0
85175,-90.9090909090909,4,1,0,80,0,0
85572,-99.1735537190083,4,1,0,80,0,0
85772,-98.7654320987654,4,1,0,80,0,0
85872,-98.5626283367556,4,1,0,80,0,0
85972,-98.3606557377049,4,1,0,80,0,0
86172,-97.9591836734694,4,1,0,80,0,0
86372,-97.5609756097561,4,1,0,80,0,0
86572,-97.165991902834,4,1,0,80,0,0
86972,-96.3855421686747,4,1,0,80,0,0
87172,-96,4,1,0,80,0,0
87372,-95.6175298804781,4,1,0,80,0,0
87472,-95.427435387674,4,1,0,80,0,0
87572,-95.2380952380952,4,1,0,80,0,0
87772,-94.8616600790514,4,1,0,80,0,0
87972,-94.488188976378,4,1,0,80,0,0
88172,-94.1176470588235,4,1,0,80,0,0
88572,-93.3852140077821,4,1,0,80,0,0
88772,-93.0232558139535,4,1,0,80,0,0
88972,-92.6640926640926,4,1,0,80,0,0
89072,-92.485549132948,4,1,0,80,0,0
89172,-92.3076923076923,4,1,0,80,0,0
89372,-91.9540229885057,4,1,0,80,0,0
89572,-91.6030534351145,4,1,0,80,0,0
89772,-91.254752851711,4,1,0,80,0,0
89972,-90.9090909090909,4,1,0,80,0,0
91175,-133.333333333333,4,1,0,70,0,0
91580,-83.3333333333333,4,1,0,90,0,1
91980,-100,4,1,0,80,0,0
92380,-83.3333333333333,4,1,0,90,0,1
92675,-86.9565217391304,4,1,0,90,0,1
92975,-90.9090909090909,4,1,0,90,0,1
93175,-100,4,1,0,90,0,1
93975,-76.9230769230769,4,1,0,90,0,1
94075,-100,4,1,0,90,0,1
94780,-100,4,1,0,80,0,0
95580,-76.9230769230769,4,1,0,90,0,1
95772,-79.2079207920792,4,1,0,90,0,1
95972,-81.6326530612245,4,1,0,90,0,1
96172,-84.2105263157895,4,1,0,90,0,1
96372,-86.9565217391304,4,1,0,90,0,1
96972,-96.3855421686747,4,1,0,90,0,1
97172,-83.3333333333333,4,1,0,90,0,1
97375,-88.888885,4,1,0,90,0,1
97475,-90.56604,4,1,0,90,0,1
97575,-92.307686,4,1,0,90,0,1
97775,-96,4,1,0,90,0,1
97980,-100,4,1,0,80,0,0
99380,-83.3333333333333,4,1,0,90,0,1
99575,-100,4,1,0,90,0,1
100375,-83.3333333333333,4,1,0,90,0,1
100675,-100,4,1,0,90,0,1
101175,-83.3333333333333,4,1,0,90,0,1
101475,-100,4,1,0,90,0,1
101980,-100,4,1,0,80,0,0
102380,-76.9230769230769,4,1,0,90,0,1
102575,-100,4,1,0,90,0,1
102975,-83.3333333333333,4,1,0,90,0,1
103375,-100,4,1,0,90,0,1
103575,-83.3333333333333,4,1,0,90,0,1
103875,-100,4,1,0,90,0,1
103980,-100,4,1,0,80,0,0
104380,-90.9090909090909,4,1,0,90,0,1
110780,-90.9090909090909,4,1,0,80,0,0
111172,-98.159509202454,4,1,0,80,0,0
111272,-97.7099236641221,4,1,0,80,0,0
111372,-97.2644376899696,4,1,0,80,0,0
111572,-96.3855421686747,4,1,0,80,0,0
111872,-95.0965824665676,4,1,0,80,0,0
112172,-93.841642228739,4,1,0,80,0,0
112472,-92.6193921852388,4,1,0,80,0,0
112772,-91.4285714285714,4,1,0,80,0,0
113072,-90.2679830747532,4,1,0,80,0,0
113372,-89.1364902506964,4,1,0,80,0,0
113972,-86.9565217391304,4,1,0,80,0,0
114172,-86.2533692722372,4,1,0,80,0,0
114372,-85.5614973262032,4,1,0,80,0,0
114572,-84.8806366047745,4,1,0,80,0,0
114772,-84.2105263157895,4,1,0,80,0,0
114972,-83.5509138381201,4,1,0,80,0,0
115172,-82.9015544041451,4,1,0,80,0,0
115372,-82.2622107969152,4,1,0,80,0,0
115572,-81.6326530612245,4,1,0,80,0,0
115672,-81.3214739517154,4,1,0,80,0,0
115772,-81.0126582278481,4,1,0,80,0,0
115972,-80.4020100502513,4,1,0,80,0,0
116172,-79.8004987531172,4,1,0,80,0,0
116372,-79.2079207920792,4,1,0,80,0,0
116472,-78.9149198520345,4,1,0,80,0,0
116572,-78.6240786240786,4,1,0,80,0,0
116772,-78.0487804878049,4,1,0,80,0,0
116972,-77.4818401937046,4,1,0,80,0,0
117172,-76.9230769230769,4,1,0,80,0,0
117580,-90.9090909090909,4,1,0,90,0,1
123575,-83.3333333333333,4,1,0,90,0,1
123775,-90.9090909090909,4,1,0,90,0,1
129980,-90.9090909090909,4,1,0,80,0,0
130175,-76.9230769230769,4,1,0,80,0,0
131580,400,4,1,0,90,1,1
136380,-111.111111111111,4,1,0,80,0,0
137980,-90.9090909090909,4,1,0,90,0,1
142780,-90.9090909090909,4,1,0,80,0,0
144380,-100,4,1,0,90,0,1
169980,-66.6666666666667,4,1,0,100,0,0

[HitObjects]
261,174,380,5,4,0:0:0:0:
261,174,1980,1,0,0:0:0:0:
261,174,3580,1,8,0:0:0:0:
261,174,5180,1,0,0:0:0:0:
261,174,5980,1,8,0:0:0:0:
261,174,6780,1,4,0:0:0:0:
261,174,7180,1,8,0:0:0:0:
261,174,7480,1,0,0:0:0:0:
261,174,7580,1,0,0:0:0:0:
261,174,7780,1,0,0:0:0:0:
261,174,7980,1,8,0:0:0:0:
261,174,8380,1,0,0:0:0:0:
261,174,8580,1,0,0:0:0:0:
261,174,8780,1,8,0:0:0:0:
261,174,8980,1,0,0:0:0:0:
261,174,9080,1,0,0:0:0:0:
261,174,9180,1,0,0:0:0:0:
261,174,9380,1,0,0:0:0:0:
261,174,9580,1,8,0:0:0:0:
261,174,9980,1,0,0:0:0:0:
261,174,10180,1,0,0:0:0:0:
261,174,10380,1,8,0:0:0:0:
261,174,10580,1,8,0:0:0:0:
261,174,10780,1,0,0:0:0:0:
261,174,10880,1,0,0:0:0:0:
261,174,10980,1,0,0:0:0:0:
261,174,11180,1,8,0:0:0:0:
261,174,11280,1,8,0:0:0:0:
261,174,11380,1,8,0:0:0:0:
261,174,11580,1,0,0:0:0:0:
188,147,13180,1,0,0:0:0:0:
180,144,13780,1,0,0:0:0:0:
180,144,14380,1,8,0:0:0:0:
180,144,14780,1,0,0:0:0:0:
180,144,15080,1,0,0:0:0:0:
180,144,15380,1,8,0:0:0:0:
184,147,15580,1,0,0:0:0:0:
180,144,15980,1,8,0:0:0:0:
180,144,16380,1,0,0:0:0:0:
180,144,16680,1,8,0:0:0:0:
180,144,16980,1,8,0:0:0:0:
180,144,17180,1,0,0:0:0:0:
180,144,17980,1,0,0:0:0:0:
180,144,18280,1,0,0:0:0:0:
180,144,18580,1,8,0:0:0:0:
180,144,18780,1,0,0:0:0:0:
180,144,19180,1,8,0:0:0:0:
180,144,19580,1,0,0:0:0:0:
180,144,19880,1,8,0:0:0:0:
180,144,20180,1,8,0:0:0:0:
180,144,20380,1,0,0:0:0:0:
180,144,20780,1,0,0:0:0:0:
180,144,20880,1,0,0:0:0:0:
180,144,20980,1,0,0:0:0:0:
188,147,21180,1,0,0:0:0:0:
184,137,21480,1,0,0:0:0:0:
180,144,21780,1,8,0:0:0:0:
180,144,21980,1,0,0:0:0:0:
180,144,22380,1,8,0:0:0:0:
180,144,22780,1,0,0:0:0:0:
180,144,23080,1,0,0:0:0:0:
180,144,23380,1,8,0:0:0:0:
184,147,23580,1,0,0:0:0:0:
180,144,23980,1,8,0:0:0:0:
180,144,24380,1,0,0:0:0:0:
180,144,24680,1,8,0:0:0:0:
180,144,24980,1,8,0:0:0:0:
180,144,25180,1,0,0:0:0:0:
180,144,25980,1,0,0:0:0:0:
180,144,26280,1,0,0:0:0:0:
180,144,26580,1,8,0:0:0:0:
180,144,27180,1,8,0:0:0:0:
188,147,27580,1,4,0:0:0:0:
180,144,27880,1,8,0:0:0:0:
180,144,28180,1,8,0:0:0:0:
180,144,28380,1,0,0:0:0:0:
182,135,28580,1,8,0:0:0:0:
176,132,28680,1,8,0:0:0:0:
180,144,28780,1,8,0:0:0:0:
180,144,28980,1,8,0:0:0:0:
180,144,29180,1,0,0:0:0:0:
180,144,29480,1,0,0:0:0:0:
180,144,29780,1,8,0:0:0:0:
184,147,29980,1,0,0:0:0:0:
180,141,30180,1,0,0:0:0:0:
180,144,30380,1,8,0:0:0:0:
180,144,30780,1,0,0:0:0:0:
180,144,31080,1,8,0:0:0:0:
180,144,31380,1,8,0:0:0:0:
180,144,31580,1,0,0:0:0:0:
180,135,31780,1,8,0:0:0:0:
174,134,31880,1,8,0:0:0:0:
180,144,31980,1,8,0:0:0:0:
180,144,32180,1,8,0:0:0:0:
180,144,32380,1,0,0:0:0:0:
180,144,32680,1,0,0:0:0:0:
180,144,32980,1,0,0:0:0:0:
180,144,33580,1,4,0:0:0:0:
180,144,33980,1,12,0:0:0:0:
180,144,34180,1,8,0:0:0:0:
180,144,34380,1,0,0:0:0:0:
180,144,34580,1,8,0:0:0:0:
180,144,34780,1,0,0:0:0:0:
180,144,34980,1,0,0:0:0:0:
180,144,35180,1,8,0:0:0:0:
180,144,35380,1,0,0:0:0:0:
180,144,35580,1,8,0:0:0:0:
180,144,35680,1,8,0:0:0:0:
180,144,35780,1,8,0:0:0:0:
180,144,35980,1,8,0:0:0:0:
180,144,36180,1,0,0:0:0:0:
180,144,36380,1,8,0:0:0:0:
180,144,36480,1,8,0:0:0:0:
180,144,36580,1,8,0:0:0:0:
189,123,37180,1,4,0:0:0:0:
185,112,37480,1,0,0:0:0:0:
189,123,37780,1,8,0:0:0:0:
189,123,37980,1,0,0:0:0:0:
189,123,38180,1,8,0:0:0:0:
185,112,38380,1,0,0:0:0:0:
189,123,38580,1,8,0:0:0:0:
189,123,38780,1,0,0:0:0:0:
189,123,38880,1,0,0:0:0:0:
189,123,38980,1,0,0:0:0:0:
185,112,39180,1,8,0:0:0:0:
185,112,39380,1,0,0:0:0:0:
189,123,39580,1,8,0:0:0:0:
185,112,39680,1,8,0:0:0:0:
189,123,39780,1,8,0:0:0:0:
191,118,39980,1,0,0:0:0:0:
185,112,40380,1,8,0:0:0:0:
185,112,40480,1,8,0:0:0:0:
185,112,40580,1,8,0:0:0:0:
185,112,40780,1,8,0:0:0:0:
185,112,40880,1,8,0:0:0:0:
185,112,40980,1,8,0:0:0:0:
185,112,41180,1,8,0:0:0:0:
186,104,41380,1,0,0:0:0:0:
185,112,41580,1,8,0:0:0:0:
185,112,41980,1,4,0:0:0:0:
185,112,42380,1,8,0:0:0:0:
185,112,42580,1,0,0:0:0:0:
183,97,42980,1,0,0:0:0:0:
185,112,43180,1,8,0:0:0:0:
184,97,43780,1,0,0:0:0:0:
184,97,43980,1,8,0:0:0:0:
190,96,44180,1,0,0:0:0:0:
184,97,44480,1,0,0:0:0:0:
184,97,44580,1,0,0:0:0:0:
184,97,44780,1,8,0:0:0:0:
190,96,44980,1,0,0:0:0:0:
190,96,45080,1,0,0:0:0:0:
190,96,45180,1,0,0:0:0:0:
190,96,45380,1,8,0:0:0:0:
184,97,45580,1,8,0:0:0:0:
190,96,45780,1,0,0:0:0:0:
190,96,46080,1,8,0:0:0:0:
190,96,46180,1,8,0:0:0:0:
190,96,46380,1,8,0:0:0:0:
190,96,46580,1,0,0:0:0:0:
190,96,46780,2,0,L|291:97,14,52.5000020027161
185,112,48380,1,12,0:0:0:0:
185,112,48780,1,8,0:0:0:0:
185,112,48980,1,0,0:0:0:0:
183,97,49380,1,0,0:0:0:0:
185,112,49580,1,8,0:0:0:0:
184,97,50180,1,0,0:0:0:0:
184,97,50380,1,8,0:0:0:0:
190,96,50580,1,0,0:0:0:0:
184,97,50880,1,0,0:0:0:0:
184,97,50980,1,0,0:0:0:0:
184,97,51180,1,8,0:0:0:0:
190,96,51380,1,0,0:0:0:0:
190,96,51480,1,0,0:0:0:0:
190,96,51580,1,0,0:0:0:0:
190,96,51780,1,8,0:0:0:0:
184,97,51980,1,8,0:0:0:0:
190,96,52180,1,0,0:0:0:0:
190,96,52480,1,8,0:0:0:0:
190,96,52580,1,8,0:0:0:0:
190,96,52780,1,8,0:0:0:0:
190,96,52980,1,0,0:0:0:0:
190,96,53180,1,8,0:0:0:0:
194,72,53780,1,0,0:0:0:0:
194,72,53980,1,8,0:0:0:0:
194,72,54380,1,8,0:0:0:0:
194,72,54480,1,8,0:0:0:0:
194,72,54580,1,8,0:0:0:0:
194,72,54780,1,4,0:0:0:0:
194,72,55380,1,8,0:0:0:0:
194,72,55580,1,0,0:0:0:0:
194,72,55980,1,8,0:0:0:0:
194,72,56180,1,0,0:0:0:0:
194,72,56380,1,0,0:0:0:0:
194,72,56580,1,8,0:0:0:0:
194,72,56880,1,0,0:0:0:0:
194,72,56980,1,0,0:0:0:0:
194,72,57180,1,8,0:0:0:0:
194,72,57380,1,0,0:0:0:0:
194,72,57780,1,8,0:0:0:0:
194,72,57980,1,8,0:0:0:0:
194,72,58180,1,0,0:0:0:0:
191,62,58480,1,8,0:0:0:0:
194,72,58580,1,8,0:0:0:0:
194,72,58780,1,8,0:0:0:0:
194,72,58980,1,0,0:0:0:0:
194,72,59180,1,8,0:0:0:0:
194,72,59780,1,0,0:0:0:0:
194,72,59980,1,8,0:0:0:0:
194,72,60380,1,8,0:0:0:0:
194,72,60680,1,8,0:0:0:0:
191,62,60980,1,8,0:0:0:0:
194,72,61180,1,4,0:0:0:0:
194,72,61780,1,8,0:0:0:0:
194,72,61980,1,0,0:0:0:0:
194,72,62380,1,0,0:0:0:0:
194,72,62580,1,8,0:0:0:0:
194,72,62780,1,8,0:0:0:0:
194,72,62980,1,0,0:0:0:0:
194,72,63280,1,0,0:0:0:0:
194,72,63380,1,0,0:0:0:0:
194,72,63580,1,8,0:0:0:0:
194,72,63780,1,0,0:0:0:0:
194,72,64180,1,8,0:0:0:0:
194,72,64380,1,0,0:0:0:0:
195,69,64480,1,0,0:0:0:0:
194,72,64580,1,0,0:0:0:0:
194,72,64780,1,8,0:0:0:0:
194,72,64980,1,0,0:0:0:0:
194,72,65180,1,8,0:0:0:0:
194,72,65280,1,8,0:0:0:0:
194,72,65380,1,8,0:0:0:0:
194,72,65580,1,0,0:0:0:0:
194,72,65680,1,0,0:0:0:0:
194,72,65780,1,0,0:0:0:0:
194,72,65980,1,12,0:0:0:0:
256,192,73980,12,0,78580,0:0:0:0:
239,172,78780,5,0,0:0:0:0:
246,182,79180,1,8,0:0:0:0:
246,182,79380,1,0,0:0:0:0:
246,182,79480,1,0,0:0:0:0:
246,182,79580,1,0,0:0:0:0:
246,182,79780,1,8,0:0:0:0:
246,182,79980,1,0,0:0:0:0:
246,182,80180,1,8,0:0:0:0:
246,182,80580,1,0,0:0:0:0:
240,176,80780,1,8,0:0:0:0:
240,176,80980,1,0,0:0:0:0:
240,176,81080,1,0,0:0:0:0:
240,176,81180,1,0,0:0:0:0:
240,176,81380,1,8,0:0:0:0:
240,176,81580,1,0,0:0:0:0:
240,176,81780,1,8,0:0:0:0:
240,176,82180,1,0,0:0:0:0:
240,176,82380,1,8,0:0:0:0:
240,176,82580,1,0,0:0:0:0:
240,176,82680,1,0,0:0:0:0:
240,176,82780,1,0,0:0:0:0:
240,176,82980,1,8,0:0:0:0:
240,176,83180,1,0,0:0:0:0:
240,176,83380,1,8,0:0:0:0:
240,176,83780,1,8,0:0:0:0:
238,170,83980,1,0,0:0:0:0:
240,176,84080,1,0,0:0:0:0:
239,173,84180,1,0,0:0:0:0:
240,176,84380,1,8,0:0:0:0:
240,176,84780,1,8,0:0:0:0:
239,172,85180,5,4,0:0:0:0:
246,182,85580,1,8,0:0:0:0:
246,182,85780,1,0,0:0:0:0:
246,182,85880,1,0,0:0:0:0:
246,182,85980,1,0,0:0:0:0:
246,182,86180,1,8,0:0:0:0:
246,182,86380,1,0,0:0:0:0:
246,182,86580,1,8,0:0:0:0:
246,182,86980,1,0,0:0:0:0:
240,176,87180,1,8,0:0:0:0:
240,176,87380,1,0,0:0:0:0:
240,176,87480,1,0,0:0:0:0:
240,176,87580,1,0,0:0:0:0:
240,176,87780,1,8,0:0:0:0:
240,176,87980,1,0,0:0:0:0:
240,176,88180,1,8,0:0:0:0:
240,176,88580,1,0,0:0:0:0:
240,176,88780,1,8,0:0:0:0:
240,176,88980,1,0,0:0:0:0:
240,176,89080,1,0,0:0:0:0:
240,176,89180,1,0,0:0:0:0:
240,176,89380,1,8,0:0:0:0:
240,176,89580,1,0,0:0:0:0:
240,176,89780,1,8,0:0:0:0:
240,176,91180,1,8,0:0:0:0:
240,176,91580,1,4,0:0:0:0:
240,176,92180,1,0,0:0:0:0:
240,176,92380,1,12,0:0:0:0:
240,176,92680,1,8,0:0:0:0:
240,176,92980,1,8,0:0:0:0:
233,164,93380,1,8,0:0:0:0:
231,163,93480,1,8,0:0:0:0:
230,158,93580,1,8,0:0:0:0:
226,152,93780,1,0,0:0:0:0:
223,146,93980,1,12,0:0:0:0:
217,134,94380,1,8,0:0:0:0:
210,120,94780,1,0,0:0:0:0:
205,121,94880,1,0,0:0:0:0:
207,114,94980,1,0,0:0:0:0:
204,108,95180,1,8,0:0:0:0:
199,94,95580,1,12,0:0:0:0:
196,84,95780,1,0,0:0:0:0:
196,84,95980,1,8,0:0:0:0:
196,84,96180,1,0,0:0:0:0:
196,84,96380,1,8,0:0:0:0:
191,67,96980,1,0,0:0:0:0:
191,67,97180,1,12,0:0:0:0:
191,67,97580,1,12,0:0:0:0:
191,67,97780,1,8,0:0:0:0:
191,67,97980,1,4,0:0:0:0:
216,106,99380,1,12,0:0:0:0:
226,122,99780,1,0,0:0:0:0:
226,123,99880,1,0,0:0:0:0:
229,128,100080,1,0,0:0:0:0:
232,133,100380,1,12,0:0:0:0:
226,122,100680,1,8,0:0:0:0:
229,128,100980,1,8,0:0:0:0:
232,133,101180,1,4,0:0:0:0:
226,122,101480,1,0,0:0:0:0:
229,128,101780,1,8,0:0:0:0:
199,112,102380,1,12,0:0:0:0:
188,102,102780,1,0,0:0:0:0:
188,102,102980,1,12,0:0:0:0:
188,102,103180,1,12,0:0:0:0:
188,102,103580,1,4,0:0:0:0:
176,98,103980,1,12,0:0:0:0:
176,98,104180,1,8,0:0:0:0:
176,98,104380,1,4,0:0:0:0:
176,98,104780,1,8,0:0:0:0:
176,98,104980,1,0,0:0:0:0:
176,98,105080,1,0,0:0:0:0:
176,98,105180,1,0,0:0:0:0:
176,98,105480,1,0,0:0:0:0:
176,98,105780,1,8,0:0:0:0:
176,98,106180,1,8,0:0:0:0:
176,98,106380,1,0,0:0:0:0:
176,98,106580,1,8,0:0:0:0:
178,93,106780,1,0,0:0:0:0:
176,98,107180,1,0,0:0:0:0:
176,98,107580,1,8,0:0:0:0:
176,98,107780,1,0,0:0:0:0:
176,98,107980,1,8,0:0:0:0:
176,98,108180,1,8,0:0:0:0:
176,98,108380,1,0,0:0:0:0:
176,98,108580,1,8,0:0:0:0:
176,98,108680,1,8,0:0:0:0:
176,98,108780,1,8,0:0:0:0:
176,98,108980,1,0,0:0:0:0:
176,98,109580,1,8,0:0:0:0:
176,98,109780,1,8,0:0:0:0:
176,98,109980,1,0,0:0:0:0:
176,98,110180,1,8,0:0:0:0:
176,98,110380,1,0,0:0:0:0:
176,98,110480,1,0,0:0:0:0:
176,98,110580,1,0,0:0:0:0:
176,98,110780,1,8,0:0:0:0:
176,98,111180,1,8,0:0:0:0:
176,98,111280,1,8,0:0:0:0:
176,98,111380,1,8,0:0:0:0:
176,98,111580,1,0,0:0:0:0:
176,98,111880,1,8,0:0:0:0:
176,98,112180,1,0,0:0:0:0:
176,98,112480,1,8,0:0:0:0:
176,98,112780,1,0,0:0:0:0:
176,98,113080,1,8,0:0:0:0:
176,98,113380,1,0,0:0:0:0:
180,87,113980,1,0,0:0:0:0:
182,80,114180,1,0,0:0:0:0:
182,80,114380,1,8,0:0:0:0:
182,80,114580,1,8,0:0:0:0:
182,80,114780,1,0,0:0:0:0:
182,80,114980,1,0,0:0:0:0:
182,80,115180,1,8,0:0:0:0:
182,80,115380,1,8,0:0:0:0:
182,80,115580,1,0,0:0:0:0:
182,80,115680,1,0,0:0:0:0:
182,80,115780,1,0,0:0:0:0:
182,80,115980,1,8,0:0:0:0:
182,80,116180,1,0,0:0:0:0:
182,80,116380,1,8,0:0:0:0:
182,80,116480,1,8,0:0:0:0:
182,80,116580,1,8,0:0:0:0:
182,80,116780,1,0,0:0:0:0:
182,80,116980,1,8,0:0:0:0:
182,80,117180,1,0,0:0:0:0:
191,89,117580,1,12,0:0:0:0:
204,97,117980,1,0,0:0:0:0:
204,97,118280,1,0,0:0:0:0:
205,93,118380,1,0,0:0:0:0:
204,97,118580,1,8,0:0:0:0:
209,84,118980,1,8,0:0:0:0:
209,84,119180,1,0,0:0:0:0:
209,84,119580,1,8,0:0:0:0:
209,84,119880,1,8,0:0:0:0:
209,84,119980,1,8,0:0:0:0:
209,84,120180,1,0,0:0:0:0:
209,84,120380,1,8,0:0:0:0:
202,88,120580,1,8,0:0:0:0:
209,84,120780,1,0,0:0:0:0:
202,88,120980,1,0,0:0:0:0:
209,84,121180,1,8,0:0:0:0:
209,84,121480,1,0,0:0:0:0:
209,84,121580,1,0,0:0:0:0:
209,84,121780,1,8,0:0:0:0:
209,84,122180,1,0,0:0:0:0:
209,84,122380,1,8,0:0:0:0:
201,81,122580,1,8,0:0:0:0:
209,84,122780,1,0,0:0:0:0:
182,80,123580,1,4,0:0:0:0:
191,89,123980,1,8,0:0:0:0:
182,80,124180,1,0,0:0:0:0:
204,97,124380,1,8,0:0:0:0:
204,97,124680,1,0,0:0:0:0:
205,93,124780,1,0,0:0:0:0:
204,97,124980,1,8,0:0:0:0:
209,84,125380,1,8,0:0:0:0:
209,84,125580,1,0,0:0:0:0:
209,84,125980,1,8,0:0:0:0:
209,84,126280,1,8,0:0:0:0:
209,84,126380,1,8,0:0:0:0:
209,84,126580,1,0,0:0:0:0:
209,84,126780,1,8,0:0:0:0:
202,88,126980,1,8,0:0:0:0:
209,84,127180,1,0,0:0:0:0:
202,88,127380,1,0,0:0:0:0:
209,84,127580,1,8,0:0:0:0:
209,84,127780,1,0,0:0:0:0:
209,84,127880,1,0,0:0:0:0:
209,84,127980,1,0,0:0:0:0:
209,84,128180,1,8,0:0:0:0:
209,84,128580,1,0,0:0:0:0:
209,84,128780,1,8,0:0:0:0:
201,81,128980,1,8,0:0:0:0:
209,84,129180,1,0,0:0:0:0:
212,105,130180,5,4,0:0:0:0:
214,115,130380,1,4,0:0:0:0:
214,115,130580,1,4,0:0:0:0:
214,115,130780,1,4,0:0:0:0:
214,115,131180,1,12,0:0:0:0:
214,115,131580,1,4,0:0:0:0:
214,115,131980,1,8,0:0:0:0:
214,115,132180,1,0,0:0:0:0:
210,110,132380,1,8,0:0:0:0:
194,72,132780,1,8,0:0:0:0:
194,72,132980,1,0,0:0:0:0:
194,72,133080,1,0,0:0:0:0:
194,72,133180,1,0,0:0:0:0:
194,72,133380,1,8,0:0:0:0:
194,72,133680,1,0,0:0:0:0:
194,72,133780,1,0,0:0:0:0:
194,72,133980,1,8,0:0:0:0:
194,72,134180,1,0,0:0:0:0:
194,72,134580,1,8,0:0:0:0:
194,72,134680,1,8,0:0:0:0:
194,72,134780,1,8,0:0:0:0:
194,72,134980,1,0,0:0:0:0:
194,72,135280,1,8,0:0:0:0:
194,72,135380,1,8,0:0:0:0:
194,72,135580,1,8,0:0:0:0:
194,72,135780,1,0,0:0:0:0:
194,72,136580,1,0,0:0:0:0:
194,72,136780,1,8,0:0:0:0:
194,72,137180,1,8,0:0:0:0:
194,72,137480,1,8,0:0:0:0:
194,72,137780,1,0,0:0:0:0:
194,72,137980,1,12,0:0:0:0:
194,72,138380,1,8,0:0:0:0:
194,72,138580,1,0,0:0:0:0:
194,72,138780,1,0,0:0:0:0:
194,72,139180,1,8,0:0:0:0:
194,72,139380,1,0,0:0:0:0:
194,72,139480,1,0,0:0:0:0:
194,72,139580,1,0,0:0:0:0:
194,72,139780,1,8,0:0:0:0:
194,72,140080,1,8,0:0:0:0:
194,72,140180,1,8,0:0:0:0:
194,72,140380,1,0,0:0:0:0:
194,72,140580,1,8,0:0:0:0:
194,72,140980,1,8,0:0:0:0:
194,72,141080,1,8,0:0:0:0:
194,72,141180,1,8,0:0:0:0:
194,72,141380,1,0,0:0:0:0:
194,72,141680,1,0,0:0:0:0:
194,72,141780,1,0,0:0:0:0:
194,72,141980,1,8,0:0:0:0:
194,72,142180,1,0,0:0:0:0:
194,72,142380,1,8,0:0:0:0:
194,72,142580,1,8,0:0:0:0:
194,72,144380,1,12,0:0:0:0:
194,72,144780,1,8,0:0:0:0:
194,72,144980,1,0,0:0:0:0:
194,72,145080,1,0,0:0:0:0:
194,72,145180,1,0,0:0:0:0:
194,72,145380,1,8,0:0:0:0:
194,72,145580,1,0,0:0:0:0:
194,72,146380,1,0,0:0:0:0:
194,72,146580,1,0,0:0:0:0:
194,72,146780,1,8,0:0:0:0:
194,72,146980,1,0,0:0:0:0:
194,72,147080,1,0,0:0:0:0:
194,72,147180,1,0,0:0:0:0:
194,72,147380,1,8,0:0:0:0:
194,72,147580,1,0,0:0:0:0:
194,72,147980,1,8,0:0:0:0:
194,72,148180,1,8,0:0:0:0:
194,72,148280,1,8,0:0:0:0:
194,72,148380,1,8,0:0:0:0:
194,72,148580,1,0,0:0:0:0:
194,72,148780,1,8,0:0:0:0:
198,59,149180,1,0,0:0:0:0:
194,72,149580,1,8,0:0:0:0:
194,72,149780,1,0,0:0:0:0:
194,72,149980,1,8,0:0:0:0:
194,72,150180,1,8,0:0:0:0:
194,72,150380,1,0,0:0:0:0:
194,72,150580,1,8,0:0:0:0:
194,72,150780,1,4,0:0:0:0:
194,72,151180,1,8,0:0:0:0:
194,72,151380,1,0,0:0:0:0:
194,72,151480,1,0,0:0:0:0:
194,72,151580,1,0,0:0:0:0:
194,72,151780,1,8,0:0:0:0:
194,72,151980,1,0,0:0:0:0:
194,72,152780,1,0,0:0:0:0:
194,72,152980,1,0,0:0:0:0:
194,72,153180,1,8,0:0:0:0:
194,72,153380,1,0,0:0:0:0:
194,72,153480,1,0,0:0:0:0:
194,72,153580,1,0,0:0:0:0:
194,72,153780,1,8,0:0:0:0:
194,72,153980,1,0,0:0:0:0:
194,72,154380,1,8,0:0:0:0:
194,72,154580,1,8,0:0:0:0:
194,72,154680,1,8,0:0:0:0:
194,72,154780,1,8,0:0:0:0:
194,72,154980,1,0,0:0:0:0:
194,72,155180,1,8,0:0:0:0:
198,59,155580,1,0,0:0:0:0:
194,72,155980,1,8,0:0:0:0:
194,72,156180,1,0,0:0:0:0:
194,72,156380,1,8,0:0:0:0:
194,72,156580,1,8,0:0:0:0:
194,72,156780,1,4,0:0:0:0:
194,72,157180,1,12,0:0:0:0:
194,72,157580,1,0,0:0:0:0:
194,72,157780,1,0,0:0:0:0:
194,72,157980,1,8,0:0:0:0:
194,72,158380,1,8,0:0:0:0:
194,72,158580,1,0,0:0:0:0:
194,72,159180,1,0,0:0:0:0:
194,72,159580,1,8,0:0:0:0:
198,70,159780,1,8,0:0:0:0:
194,72,159980,1,0,0:0:0:0:
194,72,160380,1,8,0:0:0:0:
194,72,160580,1,0,0:0:0:0:
194,72,160680,1,0,0:0:0:0:
194,72,160780,1,0,0:0:0:0:
194,72,160980,1,0,0:0:0:0:
194,72,161180,1,8,0:0:0:0:
194,72,161580,1,8,0:0:0:0:
194,72,161780,1,8,0:0:0:0:
194,72,161880,1,8,0:0:0:0:
194,72,161980,1,8,0:0:0:0:
194,72,162180,1,0,0:0:0:0:
194,72,162380,1,8,0:0:0:0:
194,72,162580,1,0,0:0:0:0:
194,72,162780,1,8,0:0:0:0:
194,72,162980,1,0,0:0:0:0:
194,72,163180,1,8,0:0:0:0:
194,72,163580,1,4,0:0:0:0:
194,72,163980,1,0,0:0:0:0:
194,72,164180,1,8,0:0:0:0:
194,72,164380,1,8,0:0:0:0:
194,72,164780,1,8,0:0:0:0:
194,72,164980,1,0,0:0:0:0:
194,72,165580,1,0,0:0:0:0:
194,72,165980,1,8,0:0:0:0:
193,63,166180,1,0,0:0:0:0:
194,72,166380,1,0,0:0:0:0:
194,72,166780,1,8,0:0:0:0:
194,72,166980,1,8,0:0:0:0:
194,72,167080,1,8,0:0:0:0:
194,72,167180,1,8,0:0:0:0:
194,72,167380,1,0,0:0:0:0:
194,72,167580,1,8,0:0:0:0:
194,72,167980,1,8,0:0:0:0:
194,72,168180,1,0,0:0:0:0:
194,72,168280,1,0,0:0:0:0:
194,72,168380,1,0,0:0:0:0:
194,72,168580,1,8,0:0:0:0:
194,72,168780,1,0,0:0:0:0:
194,72,168980,1,8,0:0:0:0:
194,69,169080,1,8,0:0:0:0:
194,72,169180,1,8,0:0:0:0:
194,72,169380,1,8,0:0:0:0:
194,72,169580,1,0,0:0:0:0:
194,72,169980,1,4,0:0:0:0:
