osu file format v14

[General]
AudioFilename: audio.ogg
AudioLeadIn: 0
PreviewTime: 90980
Countdown: 0
SampleSet: Normal
StackLeniency: 0.7
Mode: 1
LetterboxInBreaks: 0
EpilepsyWarning: 1
WidescreenStoryboard: 1

[Editor]
Bookmarks: 380,13180,21180,27580,33980,41980,54780,65980,78780,85180,91580,99380,104380,117580,123580,131580,144380,150780,157180,163580
DistanceSpacing: 0.1
BeatDivisor: 4
GridSize: 32
TimelineZoom: 1.7

[Metadata]
Title:snooze
TitleUnicode:snooze
Artist:wotaku feat. SHIKI
ArtistUnicode:wotaku feat. SHIKI
Creator:gaston_2199
Version:lenkon's futsuu
Source:
Tags:japanese pop jpop j-pop electronic ちふり Lenkon -_Lenkon Zennan
BeatmapID:3781852
BeatmapSetID:1835087

[Difficulty]
HPDrainRate:7
CircleSize:7
OverallDifficulty:4
ApproachRate:9
SliderMultiplier:1.4
SliderTickRate:1

[Events]
//Background and Video events
0,0,"BG.jpg",0,-30
Video,-150,"TaikoVideo.mp4"
//Break Periods
2,66180,73380
//Storyboard Layer 0 (Background)
//Storyboard Layer 1 (Fail)
//Storyboard Layer 2 (Pass)
//Storyboard Layer 3 (Foreground)
//Storyboard Layer 4 (Overlay)
//Storyboard Sound Samples

[TimingPoints]
380,400,4,1,0,80,1,0
380,-125,4,1,0,80,0,0
6775,-111.111111111111,4,1,0,80,0,0
14780,400,4,1,0,80,1,0
27580,-95.2380952380952,4,1,0,90,0,1
33180,-95.2380952380952,4,1,0,80,0,0
33980,-86.9565217391304,4,1,0,90,0,1
36780,-100,4,1,0,80,0,0
37180,-95.2380952380952,4,1,0,90,0,1
39980,-100,4,1,0,80,0,0
40375,-102.040816326531,4,1,0,80,0,0
41175,-104.166666666667,4,1,0,80,0,0
41475,-106.382978723404,4,1,0,80,0,0
41980,400,4,1,0,80,1,0
41980,-111.111111111111,4,1,0,80,0,0
46775,-100,4,1,0,90,0,0
48775,-111.111111111111,4,1,0,80,0,0
53175,-125,4,1,0,80,0,0
54775,-111.111111111111,4,1,0,80,0,0
59575,-125,4,1,0,80,0,0
61175,-111.111111111111,4,1,0,80,0,0
65980,400,4,1,0,80,1,0
66375,-125,4,1,0,80,0,0
78780,-100,4,1,0,70,0,0
91175,-111.111111111111,4,1,0,80,0,0
91580,-90.9090909090909,4,1,0,90,0,1
91980,-95.2380952380952,4,1,0,80,0,0
92380,-90.9090909090909,4,1,0,90,0,1
93175,-95.2380952380952,4,1,0,80,0,1
94780,-95.2380952380952,4,1,0,90,0,0
95580,-90.9090909090909,4,1,0,90,0,1
96975,-95.2380952380952,4,1,0,80,0,1
97175,-90.9090909090909,4,1,0,90,0,1
97980,-100,4,1,0,80,0,0
99380,-90.9090909090909,4,1,0,90,0,1
99575,-95.2380952380952,4,1,0,80,0,1
101175,-90.9090909090909,4,1,0,90,0,1
101780,-100,4,1,0,80,0,1
101980,-100,4,1,0,80,0,0
102380,-100,4,1,0,90,0,1
102975,-98.0392156862745,4,1,0,90,0,1
103175,-96.1538461538461,4,1,0,90,0,1
103575,-94.3396226415094,4,1,0,90,0,1
103980,-92.5925925925926,4,1,0,80,0,0
104380,-86.9565217391304,4,1,0,90,0,1
110780,-86.9565217391304,4,1,0,80,0,0
111575,-105.263157894737,4,1,0,80,0,0
111875,-103.898478718475,4,1,0,80,0,0
112175,-102.56862610351,4,1,0,80,0,0
112375,-101.272488822049,4,1,0,80,0,0
112775,-100.008700756966,4,1,0,80,0,0
113375,-97.5733507664387,4,1,0,80,0,0
113975,-95.2537894338782,4,1,0,80,0,0
114375,-93.7678158850182,4,1,0,80,0,0
114775,-92.3274077603033,4,1,0,80,0,0
115175,-90.9305835924855,4,1,0,80,0,0
115375,-90.2479019618991,4,1,0,80,0,0
115575,-89.5753947139768,4,1,0,80,0,0
115975,-88.2600069195845,4,1,0,80,0,0
116175,-87.616771251886,4,1,0,80,0,0
116375,-86.9827678438624,4,1,0,80,0,0
117175,-90.9090909090909,4,1,0,80,0,0
117580,-83.3333333333333,4,1,0,90,0,1
129980,-80,4,1,0,80,0,0
131580,400,4,1,0,90,1,1
131580,-83.3333333333333,4,1,0,90,0,1
136380,-100,4,1,0,80,0,0
137980,-83.3333333333333,4,1,0,90,0,1
142780,-83.3333333333333,4,1,0,80,0,0
144380,-100,4,1,0,90,0,1
169980,-100,4,1,0,100,0,0

[HitObjects]
128,96,380,5,12,0:0:0:0:
32,32,1980,1,0,0:0:0:0:
32,32,3580,1,0,0:0:0:0:
128,32,5180,1,8,0:0:0:0:
32,32,5980,1,0,0:0:0:0:
128,128,6780,1,12,0:0:0:0:
32,32,7180,1,0,0:0:0:0:
32,32,7580,1,0,0:0:0:0:
128,32,7980,1,8,0:0:0:0:
32,32,8380,1,0,0:0:0:0:
128,32,8780,1,8,0:0:0:0:
128,32,9180,1,8,0:0:0:0:
32,32,9580,1,0,0:0:0:0:
128,32,9980,1,8,0:0:0:0:
128,32,10180,1,8,0:0:0:0:
32,32,10380,1,0,0:0:0:0:
32,32,10780,1,0,0:0:0:0:
32,32,10980,1,0,0:0:0:0:
128,32,11180,1,8,0:0:0:0:
128,32,11380,1,8,0:0:0:0:
32,32,11580,1,0,0:0:0:0:
32,32,13180,1,0,0:0:0:0:
32,32,13480,1,0,0:0:0:0:
128,32,13780,1,8,0:0:0:0:
128,32,13980,1,8,0:0:0:0:
32,96,14780,1,0,0:0:0:0:
128,32,15080,1,8,0:0:0:0:
128,32,15380,1,8,0:0:0:0:
32,32,15580,1,0,0:0:0:0:
32,32,16380,1,0,0:0:0:0:
128,32,16680,1,8,0:0:0:0:
128,32,16980,1,8,0:0:0:0:
32,32,17180,1,0,0:0:0:0:
32,32,17980,1,0,0:0:0:0:
128,32,18280,1,8,0:0:0:0:
128,32,18580,1,8,0:0:0:0:
32,32,18780,1,0,0:0:0:0:
32,32,19580,1,0,0:0:0:0:
128,32,19880,1,8,0:0:0:0:
128,32,20180,1,8,0:0:0:0:
32,32,20380,1,0,0:0:0:0:
320,96,21180,1,0,0:0:0:0:
224,32,21480,1,8,0:0:0:0:
320,32,21780,1,0,0:0:0:0:
224,32,21980,1,8,0:0:0:0:
224,32,22780,1,8,0:0:0:0:
320,32,23080,1,0,0:0:0:0:
320,32,23380,1,0,0:0:0:0:
224,32,23580,1,8,0:0:0:0:
224,32,24380,1,8,0:0:0:0:
320,32,24680,1,0,0:0:0:0:
320,32,24980,1,0,0:0:0:0:
224,32,25180,1,8,0:0:0:0:
224,32,25980,1,8,0:0:0:0:
320,32,26280,1,0,0:0:0:0:
320,32,26580,1,0,0:0:0:0:
224,32,26780,1,8,0:0:0:0:
128,128,27580,1,12,0:0:0:0:
320,32,27880,1,0,0:0:0:0:
128,32,28180,1,8,0:0:0:0:
320,32,28380,1,0,0:0:0:0:
128,32,28780,1,8,0:0:0:0:
320,32,29180,1,0,0:0:0:0:
128,32,29480,1,8,0:0:0:0:
128,32,29780,1,8,0:0:0:0:
320,32,29980,1,0,0:0:0:0:
128,32,30380,1,8,0:0:0:0:
320,32,30780,1,0,0:0:0:0:
320,32,31080,1,0,0:0:0:0:
128,32,31380,1,8,0:0:0:0:
320,32,31580,1,0,0:0:0:0:
128,32,31980,1,8,0:0:0:0:
320,32,32380,1,0,0:0:0:0:
320,32,32680,1,0,0:0:0:0:
320,32,32980,1,0,0:0:0:0:
128,32,33180,1,8,0:0:0:0:
320,96,33980,1,4,0:0:0:0:
128,32,34380,1,8,0:0:0:0:
320,32,34580,1,0,0:0:0:0:
320,32,34980,1,0,0:0:0:0:
128,32,35180,1,8,0:0:0:0:
128,32,35580,1,8,0:0:0:0:
320,32,35780,1,0,0:0:0:0:
128,32,35980,1,8,0:0:0:0:
128,32,36380,1,8,0:0:0:0:
320,32,36580,1,0,0:0:0:0:
480,160,37180,1,12,0:0:0:0:
480,96,37480,1,8,0:0:0:0:
288,96,37780,1,0,0:0:0:0:
480,96,37980,1,8,0:0:0:0:
288,96,38380,1,0,0:0:0:0:
480,96,38780,1,8,0:0:0:0:
480,96,39080,1,8,0:0:0:0:
288,96,39380,1,0,0:0:0:0:
288,96,39580,1,0,0:0:0:0:
480,96,39780,1,8,0:0:0:0:
480,96,40380,1,8,0:0:0:0:
288,96,41180,1,0,0:0:0:0:
288,96,41580,1,0,0:0:0:0:
480,160,41980,1,12,0:0:0:0:
288,96,42380,1,0,0:0:0:0:
288,96,42980,1,0,0:0:0:0:
480,96,43180,1,8,0:0:0:0:
288,96,43580,1,0,0:0:0:0:
480,96,43980,1,8,0:0:0:0:
480,96,44380,1,8,0:0:0:0:
288,96,44780,1,0,0:0:0:0:
480,96,44980,1,8,0:0:0:0:
288,96,45380,1,0,0:0:0:0:
480,96,45580,1,8,0:0:0:0:
288,96,45780,1,0,0:0:0:0:
480,96,45980,1,8,0:0:0:0:
480,96,46780,1,8,0:0:0:0:
480,96,47180,1,8,0:0:0:0:
288,96,47380,1,0,0:0:0:0:
480,96,47580,1,8,0:0:0:0:
480,96,47780,1,8,0:0:0:0:
288,96,47980,1,0,0:0:0:0:
64,224,48380,1,12,0:0:0:0:
64,160,48780,1,8,0:0:0:0:
256,160,49380,1,0,0:0:0:0:
256,160,49580,1,0,0:0:0:0:
64,160,49980,1,8,0:0:0:0:
256,160,50380,1,0,0:0:0:0:
256,160,50780,1,0,0:0:0:0:
64,160,51180,1,8,0:0:0:0:
256,160,51380,1,0,0:0:0:0:
64,160,51780,1,8,0:0:0:0:
256,160,51980,1,0,0:0:0:0:
64,160,52180,1,8,0:0:0:0:
256,160,52380,1,0,0:0:0:0:
64,160,53180,1,8,0:0:0:0:
256,160,53980,1,0,0:0:0:0:
256,160,54580,1,0,0:0:0:0:
64,224,54780,1,12,0:0:0:0:
256,160,55180,1,0,0:0:0:0:
256,160,55380,1,0,0:0:0:0:
64,160,55580,1,8,0:0:0:0:
256,160,55980,1,0,0:0:0:0:
256,160,56380,1,0,0:0:0:0:
64,160,56580,1,8,0:0:0:0:
64,160,56780,1,8,0:0:0:0:
64,160,57180,1,8,0:0:0:0:
256,160,57380,1,0,0:0:0:0:
64,160,57780,1,8,0:0:0:0:
256,160,57980,1,0,0:0:0:0:
256,160,58180,1,0,0:0:0:0:
256,160,58580,1,0,0:0:0:0:
64,160,58780,1,8,0:0:0:0:
256,160,59780,1,0,0:0:0:0:
64,160,59980,1,8,0:0:0:0:
256,160,60380,1,0,0:0:0:0:
256,160,60680,1,0,0:0:0:0:
64,224,61180,1,12,0:0:0:0:
256,160,61980,1,0,0:0:0:0:
64,160,62380,1,8,0:0:0:0:
256,160,62780,1,0,0:0:0:0:
64,160,62980,1,8,0:0:0:0:
256,160,63180,1,0,0:0:0:0:
64,160,63580,1,8,0:0:0:0:
256,160,63780,1,0,0:0:0:0:
256,160,64180,1,0,0:0:0:0:
64,160,64380,1,8,0:0:0:0:
256,160,64580,1,0,0:0:0:0:
256,160,64980,1,0,0:0:0:0:
64,160,65180,1,8,0:0:0:0:
256,160,65580,1,0,0:0:0:0:
64,224,65980,1,12,0:0:0:0:
256,192,73980,12,0,78580,0:0:0:0:
64,160,78980,5,0,0:0:0:0:
64,160,79280,1,8,0:0:0:0:
256,160,79580,1,0,0:0:0:0:
64,160,80180,1,8,0:0:0:0:
256,160,80580,1,0,0:0:0:0:
64,160,80880,1,8,0:0:0:0:
256,160,81180,1,0,0:0:0:0:
64,160,81780,1,8,0:0:0:0:
256,160,82180,1,0,0:0:0:0:
64,160,82480,1,8,0:0:0:0:
256,160,82780,1,0,0:0:0:0:
256,160,83380,1,0,0:0:0:0:
64,160,83780,1,8,0:0:0:0:
64,160,84080,1,8,0:0:0:0:
256,160,84380,1,0,0:0:0:0:
256,160,84780,1,0,0:0:0:0:
352,128,85180,1,12,0:0:0:0:
352,64,85980,1,8,0:0:0:0:
160,64,86580,1,0,0:0:0:0:
352,64,86980,1,8,0:0:0:0:
160,64,87280,1,0,0:0:0:0:
352,64,87580,1,8,0:0:0:0:
160,64,88180,1,0,0:0:0:0:
352,64,88580,1,8,0:0:0:0:
160,64,88880,1,0,0:0:0:0:
352,64,89180,1,8,0:0:0:0:
160,64,89780,1,0,0:0:0:0:
160,64,91180,1,0,0:0:0:0:
352,128,91580,1,12,0:0:0:0:
160,64,92180,1,0,0:0:0:0:
352,128,92380,1,12,0:0:0:0:
352,128,92680,1,8,0:0:0:0:
352,128,92980,1,8,0:0:0:0:
160,64,93380,1,0,0:0:0:0:
160,64,93580,1,0,0:0:0:0:
160,64,93780,1,0,0:0:0:0:
352,128,93980,1,12,0:0:0:0:
352,64,94380,1,8,0:0:0:0:
160,64,94780,1,0,0:0:0:0:
160,128,95580,1,4,0:0:0:0:
352,64,95780,1,8,0:0:0:0:
160,64,95980,1,0,0:0:0:0:
352,64,96180,1,8,0:0:0:0:
160,64,96380,1,0,0:0:0:0:
160,64,96980,1,0,0:0:0:0:
352,128,97180,1,12,0:0:0:0:
352,128,97580,1,12,0:0:0:0:
160,64,97980,1,4,0:0:0:0:
352,128,99380,1,12,0:0:0:0:
160,64,99780,1,0,0:0:0:0:
160,64,100080,1,0,0:0:0:0:
352,128,100380,1,12,0:0:0:0:
160,64,100780,1,0,0:0:0:0:
352,128,101180,1,12,0:0:0:0:
352,128,101480,1,12,0:0:0:0:
160,64,101780,1,0,0:0:0:0:
160,128,102380,1,4,0:0:0:0:
352,128,102980,1,12,0:0:0:0:
352,128,103180,1,12,0:0:0:0:
160,64,103580,1,0,0:0:0:0:
160,64,103980,1,0,0:0:0:0:
352,128,104380,1,12,0:0:0:0:
160,64,105180,1,0,0:0:0:0:
160,64,105480,1,0,0:0:0:0:
160,64,105780,1,0,0:0:0:0:
352,64,106180,1,8,0:0:0:0:
352,64,106380,1,8,0:0:0:0:
160,64,106580,1,0,0:0:0:0:
352,64,106780,1,8,0:0:0:0:
160,64,107180,1,0,0:0:0:0:
352,64,107580,1,8,0:0:0:0:
160,64,107780,1,0,0:0:0:0:
352,64,107980,1,8,0:0:0:0:
160,64,108180,1,0,0:0:0:0:
352,64,108380,1,8,0:0:0:0:
352,64,108780,1,8,0:0:0:0:
160,64,109180,1,0,0:0:0:0:
352,64,109580,1,8,0:0:0:0:
352,64,109780,1,8,0:0:0:0:
160,64,109980,1,0,0:0:0:0:
352,64,110380,1,8,0:0:0:0:
160,64,110580,1,0,0:0:0:0:
352,64,110780,1,8,0:0:0:0:
160,64,111580,1,0,0:0:0:0:
352,64,111880,1,8,0:0:0:0:
160,64,112180,1,0,0:0:0:0:
352,64,112480,1,8,0:0:0:0:
160,64,112780,1,0,0:0:0:0:
160,64,113380,1,0,0:0:0:0:
352,64,113980,1,8,0:0:0:0:
352,64,114380,1,8,0:0:0:0:
160,64,114780,1,0,0:0:0:0:
160,64,115180,1,0,0:0:0:0:
160,64,115380,1,0,0:0:0:0:
352,64,115580,1,8,0:0:0:0:
352,64,115980,1,8,0:0:0:0:
352,64,116180,1,8,0:0:0:0:
160,64,116380,1,0,0:0:0:0:
160,64,117180,1,0,0:0:0:0:
352,128,117580,1,12,0:0:0:0:
160,64,117980,1,0,0:0:0:0:
160,64,118280,1,0,0:0:0:0:
352,64,118580,1,8,0:0:0:0:
160,64,118980,1,0,0:0:0:0:
352,64,119180,1,8,0:0:0:0:
352,64,119580,1,8,0:0:0:0:
160,64,119980,1,0,0:0:0:0:
160,64,120180,1,0,0:0:0:0:
352,64,120380,1,8,0:0:0:0:
160,64,120780,1,0,0:0:0:0:
352,64,121180,1,8,0:0:0:0:
352,64,121380,1,8,0:0:0:0:
160,64,121580,1,0,0:0:0:0:
352,64,121780,1,8,0:0:0:0:
160,64,122180,1,0,0:0:0:0:
352,64,122380,1,8,0:0:0:0:
160,64,122780,1,0,0:0:0:0:
352,128,123580,1,12,0:0:0:0:
160,64,123980,1,0,0:0:0:0:
160,64,124180,1,0,0:0:0:0:
352,64,124380,1,8,0:0:0:0:
352,64,124780,1,8,0:0:0:0:
160,64,124980,1,0,0:0:0:0:
160,64,125380,1,0,0:0:0:0:
352,64,125580,1,8,0:0:0:0:
352,64,125980,1,8,0:0:0:0:
160,64,126180,1,0,0:0:0:0:
160,64,126380,1,0,0:0:0:0:
160,64,126580,1,0,0:0:0:0:
352,64,126780,1,8,0:0:0:0:
160,64,127180,1,0,0:0:0:0:
160,64,127380,1,0,0:0:0:0:
352,64,127580,1,8,0:0:0:0:
160,64,127980,1,0,0:0:0:0:
352,64,128180,1,8,0:0:0:0:
160,64,128580,1,0,0:0:0:0:
352,64,128780,1,8,0:0:0:0:
160,64,128980,1,0,0:0:0:0:
352,64,129180,1,8,0:0:0:0:
352,64,129380,1,8,0:0:0:0:
160,128,130180,1,4,0:0:0:0:
160,128,130380,1,4,0:0:0:0:
160,128,130580,1,4,0:0:0:0:
352,128,130780,1,12,0:0:0:0:
160,128,131180,1,4,0:0:0:0:
352,128,131580,1,12,0:0:0:0:
160,64,132180,1,0,0:0:0:0:
352,64,132380,1,8,0:0:0:0:
160,64,132780,1,0,0:0:0:0:
352,64,133180,1,8,0:0:0:0:
160,64,133380,1,0,0:0:0:0:
160,64,133580,1,0,0:0:0:0:
352,64,133980,1,8,0:0:0:0:
160,64,134180,1,0,0:0:0:0:
160,64,134580,1,0,0:0:0:0:
352,64,134780,1,8,0:0:0:0:
352,64,134980,1,8,0:0:0:0:
160,64,135180,1,0,0:0:0:0:
352,64,135580,1,8,0:0:0:0:
160,64,135780,1,0,0:0:0:0:
352,96,136580,1,8,0:0:0:0:
352,96,136780,1,8,0:0:0:0:
160,96,137180,1,0,0:0:0:0:
160,96,137480,1,0,0:0:0:0:
256,224,137980,1,12,0:0:0:0:
256,160,138780,1,8,0:0:0:0:
64,160,139180,1,0,0:0:0:0:
256,160,139580,1,8,0:0:0:0:
64,160,139780,1,0,0:0:0:0:
64,160,139980,1,0,0:0:0:0:
256,160,140380,1,8,0:0:0:0:
64,160,140580,1,0,0:0:0:0:
64,160,140980,1,0,0:0:0:0:
256,160,141180,1,8,0:0:0:0:
256,160,141380,1,8,0:0:0:0:
64,160,141580,1,0,0:0:0:0:
256,160,141980,1,8,0:0:0:0:
64,160,142180,1,0,0:0:0:0:
256,160,142380,1,8,0:0:0:0:
256,160,142580,1,8,0:0:0:0:
64,224,144380,1,4,0:0:0:0:
256,160,144780,1,8,0:0:0:0:
64,160,144980,1,0,0:0:0:0:
256,160,145180,1,8,0:0:0:0:
256,160,145580,1,8,0:0:0:0:
64,160,146380,1,0,0:0:0:0:
64,160,146580,1,0,0:0:0:0:
256,160,146780,1,8,0:0:0:0:
64,160,147180,1,0,0:0:0:0:
256,160,147580,1,8,0:0:0:0:
256,160,147980,1,8,0:0:0:0:
64,160,148180,1,0,0:0:0:0:
256,160,148380,1,8,0:0:0:0:
64,160,148780,1,0,0:0:0:0:
64,160,149580,1,0,0:0:0:0:
64,160,149780,1,0,0:0:0:0:
256,160,149980,1,8,0:0:0:0:
256,160,150180,1,8,0:0:0:0:
256,160,150380,1,8,0:0:0:0:
64,224,150780,1,4,0:0:0:0:
256,160,151180,1,8,0:0:0:0:
64,160,151380,1,0,0:0:0:0:
256,160,151580,1,8,0:0:0:0:
256,160,151980,1,8,0:0:0:0:
64,160,152780,1,0,0:0:0:0:
64,160,152980,1,0,0:0:0:0:
256,160,153180,1,8,0:0:0:0:
64,160,153580,1,0,0:0:0:0:
256,160,153980,1,8,0:0:0:0:
256,160,154380,1,8,0:0:0:0:
64,160,154580,1,0,0:0:0:0:
256,160,154780,1,8,0:0:0:0:
64,160,155180,1,0,0:0:0:0:
64,160,155980,1,0,0:0:0:0:
64,160,156180,1,0,0:0:0:0:
256,160,156380,1,8,0:0:0:0:
256,160,156580,1,8,0:0:0:0:
256,160,156780,1,8,0:0:0:0:
64,224,157180,1,4,0:0:0:0:
64,160,157580,1,0,0:0:0:0:
64,160,157780,1,0,0:0:0:0:
256,160,157980,1,8,0:0:0:0:
64,160,158180,1,0,0:0:0:0:
256,160,158380,1,8,0:0:0:0:
64,160,159180,1,0,0:0:0:0:
256,160,159380,1,8,0:0:0:0:
64,160,159580,1,0,0:0:0:0:
64,160,159780,1,0,0:0:0:0:
256,160,159980,1,8,0:0:0:0:
256,160,160380,1,8,0:0:0:0:
64,160,160580,1,0,0:0:0:0:
256,160,160780,1,8,0:0:0:0:
256,160,160980,1,8,0:0:0:0:
64,160,161180,1,0,0:0:0:0:
64,160,161580,1,0,0:0:0:0:
64,160,161780,1,0,0:0:0:0:
256,160,161980,1,8,0:0:0:0:
64,160,162180,1,0,0:0:0:0:
256,160,162380,1,8,0:0:0:0:
64,160,162780,1,0,0:0:0:0:
256,160,162980,1,8,0:0:0:0:
256,160,163180,1,8,0:0:0:0:
64,224,163580,1,4,0:0:0:0:
256,160,163980,1,8,0:0:0:0:
64,160,164180,1,0,0:0:0:0:
256,160,164380,1,8,0:0:0:0:
64,160,164580,1,0,0:0:0:0:
64,160,164780,1,0,0:0:0:0:
256,160,165580,1,8,0:0:0:0:
256,160,165980,1,8,0:0:0:0:
64,160,166180,1,0,0:0:0:0:
256,160,166380,1,8,0:0:0:0:
64,160,166780,1,0,0:0:0:0:
256,160,166980,1,8,0:0:0:0:
64,160,167180,1,0,0:0:0:0:
64,160,167580,1,0,0:0:0:0:
256,160,167780,1,8,0:0:0:0:
64,160,167980,1,0,0:0:0:0:
64,160,168180,1,0,0:0:0:0:
256,160,168380,1,8,0:0:0:0:
64,160,168780,1,0,0:0:0:0:
64,160,168980,1,0,0:0:0:0:
256,160,169180,1,8,0:0:0:0:
256,160,169380,1,8,0:0:0:0:
256,160,169580,1,8,0:0:0:0:
64,224,169980,1,4,0:0:0:0:
