osu file format v14

[General]
AudioFilename: audio.ogg
AudioLeadIn: 0
PreviewTime: 90980
Countdown: 0
SampleSet: Normal
StackLeniency: 0.7
Mode: 1
LetterboxInBreaks: 0
EpilepsyWarning: 1
WidescreenStoryboard: 1

[Editor]
Bookmarks: 380,13180,21180,27580,33980,41980,54780,65980,78780,85180,91580,99380,104380,117580,123580,131580,144380,150780,157180,163580
DistanceSpacing: 0.1
BeatDivisor: 4
GridSize: 32
TimelineZoom: 1.1

[Metadata]
Title:snooze
TitleUnicode:snooze
Artist:wotaku feat. SHIKI
ArtistUnicode:wotaku feat. SHIKI
Creator:gaston_2199
Version:kantan
Source:
Tags:japanese pop jpop j-pop electronic ちふり Lenkon -_Lenkon Zennan
BeatmapID:3816925
BeatmapSetID:1835087

[Difficulty]
HPDrainRate:8
CircleSize:2
OverallDifficulty:3
ApproachRate:10
SliderMultiplier:1.4
SliderTickRate:1

[Events]
//Background and Video events
0,0,"BG.jpg",0,-30
Video,-150,"TaikoVideo.mp4"
//Break Periods
2,66180,73376
//Storyboard Layer 0 (Background)
//Storyboard Layer 1 (Fail)
//Storyboard Layer 2 (Pass)
//Storyboard Layer 3 (Foreground)
//Storyboard Layer 4 (Overlay)
//Storyboard Sound Samples

[TimingPoints]
380,400,4,1,0,80,1,0
580,-100,4,1,0,60,0,0
6772,-100,4,1,0,70,0,0
9972,-100,4,1,0,80,0,0
14780,400,4,1,0,90,1,0
26772,-100,4,1,0,70,0,0
27580,-100,4,1,0,90,0,1
33180,-100,4,1,0,80,0,0
33475,-100,4,1,0,90,0,0
33980,-100,4,1,0,90,0,1
36780,-100,4,1,0,80,0,0
37180,-100,4,1,0,90,0,1
39980,-100,4,1,0,80,0,0
41980,400,4,1,0,80,1,0
46772,-100,4,1,0,90,0,0
48575,-100,4,1,0,80,0,0
53175,-100,4,1,0,70,0,0
54775,-100,4,1,0,80,0,0
59708,-100,4,1,0,70,0,0
61172,-100,4,1,0,80,0,0
65980,400,4,1,0,80,1,0
66775,-100,4,1,0,50,0,0
78780,-100,4,1,0,70,0,0
85175,-100,4,1,0,80,0,0
91175,-100,4,1,0,70,0,0
91580,-100,4,1,0,90,0,1
91980,-100,4,1,0,80,0,0
92380,-100,4,1,0,90,0,1
94780,-100,4,1,0,80,0,0
95580,-100,4,1,0,90,0,1
97980,-100,4,1,0,80,0,0
99380,-100,4,1,0,90,0,1
101980,-100,4,1,0,80,0,0
102380,-100,4,1,0,90,0,1
103980,-100,4,1,0,80,0,0
104380,-100,4,1,0,90,0,1
110780,-100,4,1,0,80,0,0
117580,-100,4,1,0,90,0,1
129980,-100,4,1,0,80,0,0
131580,400,4,1,0,90,1,1
136380,-100,4,1,0,80,0,0
137980,-100,4,1,0,90,0,1
142780,-100,4,1,0,80,0,0
144380,-100,4,1,0,90,0,1
169980,-100,4,1,0,100,0,0

[HitObjects]
256,192,380,5,4,0:0:0:0:
256,192,1980,1,0,0:0:0:0:
256,192,3580,1,8,0:0:0:0:
256,192,5180,1,0,0:0:0:0:
256,192,6780,1,4,0:0:0:0:
256,192,7580,1,8,0:0:0:0:
256,192,8380,1,0,0:0:0:0:
256,192,9180,1,8,0:0:0:0:
256,192,9980,1,0,0:0:0:0:
256,192,10380,1,0,0:0:0:0:
256,192,10780,1,8,0:0:0:0:
256,192,11180,1,8,0:0:0:0:
256,192,11580,1,0,0:0:0:0:
224,160,13180,1,8,0:0:0:0:
160,128,14780,1,0,0:0:0:0:
160,128,15580,1,8,0:0:0:0:
160,128,16380,1,0,0:0:0:0:
160,128,16780,1,8,0:0:0:0:
160,128,17180,1,0,0:0:0:0:
160,128,17980,1,0,0:0:0:0:
160,128,18780,1,8,0:0:0:0:
160,128,19180,1,8,0:0:0:0:
160,128,19580,1,0,0:0:0:0:
160,128,20780,1,8,0:0:0:0:
160,128,21180,1,0,0:0:0:0:
160,128,21980,1,8,0:0:0:0:
160,128,22780,1,0,0:0:0:0:
160,128,23180,1,8,0:0:0:0:
160,128,23580,1,0,0:0:0:0:
160,128,24380,1,0,0:0:0:0:
160,128,25180,1,8,0:0:0:0:
160,128,25580,1,8,0:0:0:0:
160,128,25980,1,0,0:0:0:0:
160,128,27580,1,4,0:0:0:0:
160,128,28380,1,8,0:0:0:0:
160,128,29180,1,0,0:0:0:0:
160,128,29580,1,8,0:0:0:0:
160,128,29980,1,0,0:0:0:0:
160,128,30780,1,0,0:0:0:0:
160,128,31580,1,8,0:0:0:0:
160,128,31980,1,8,0:0:0:0:
160,128,32380,1,0,0:0:0:0:
160,128,33980,1,12,0:0:0:0:
160,128,34780,1,0,0:0:0:0:
160,128,35180,1,0,0:0:0:0:
160,128,35580,1,8,0:0:0:0:
179,113,35980,1,0,0:0:0:0:
160,128,36380,1,8,0:0:0:0:
160,128,37180,1,4,0:0:0:0:
160,128,37980,1,8,0:0:0:0:
160,128,38380,1,8,0:0:0:0:
160,128,38780,1,0,0:0:0:0:
160,128,39180,1,0,0:0:0:0:
160,128,39580,1,8,0:0:0:0:
160,128,40380,1,0,0:0:0:0:
160,128,41980,1,4,0:0:0:0:
160,128,43180,1,8,0:0:0:0:
160,128,43580,1,0,0:0:0:0:
160,128,43980,1,8,0:0:0:0:
160,128,44780,1,8,0:0:0:0:
160,128,45580,1,8,0:0:0:0:
160,128,45980,1,0,0:0:0:0:
256,192,46780,12,0,48180,0:0:0:0:
128,64,48380,5,12,0:0:0:0:
160,96,49580,1,8,0:0:0:0:
160,96,49980,1,0,0:0:0:0:
160,96,50380,1,8,0:0:0:0:
160,96,51180,1,8,0:0:0:0:
160,96,51580,1,0,0:0:0:0:
160,96,51980,1,8,0:0:0:0:
160,96,52380,1,0,0:0:0:0:
160,96,53180,1,8,0:0:0:0:
160,96,54780,1,4,0:0:0:0:
192,96,55580,1,0,0:0:0:0:
192,96,55980,1,8,0:0:0:0:
192,96,56380,1,0,0:0:0:0:
192,96,57180,1,8,0:0:0:0:
192,96,57980,1,8,0:0:0:0:
192,96,58380,1,8,0:0:0:0:
192,96,58780,1,0,0:0:0:0:
160,96,61180,1,4,0:0:0:0:
160,96,61980,1,0,0:0:0:0:
160,96,62780,1,8,0:0:0:0:
160,96,63180,1,8,0:0:0:0:
160,96,63580,1,0,0:0:0:0:
160,96,64380,1,0,0:0:0:0:
160,96,64780,1,8,0:0:0:0:
160,96,65180,1,0,0:0:0:0:
160,96,65580,1,0,0:0:0:0:
160,96,65980,1,12,0:0:0:0:
256,192,73980,12,0,78580,0:0:0:0:
160,128,78780,5,0,0:0:0:0:
160,128,79580,1,0,0:0:0:0:
160,128,79980,1,8,0:0:0:0:
160,128,80380,1,0,0:0:0:0:
160,128,81180,1,0,0:0:0:0:
160,128,81580,1,8,0:0:0:0:
160,128,81980,1,0,0:0:0:0:
160,128,82780,1,0,0:0:0:0:
160,128,83980,1,8,0:0:0:0:
160,128,84780,1,8,0:0:0:0:
160,128,85180,1,4,0:0:0:0:
160,128,85980,1,0,0:0:0:0:
160,128,86380,1,8,0:0:0:0:
160,128,86780,1,0,0:0:0:0:
160,128,87580,1,0,0:0:0:0:
160,128,87980,1,8,0:0:0:0:
160,128,88380,1,0,0:0:0:0:
160,128,89180,1,0,0:0:0:0:
160,128,89580,1,8,0:0:0:0:
160,128,91580,1,4,0:0:0:0:
160,128,92380,1,12,0:0:0:0:
160,128,93980,1,12,0:0:0:0:
160,128,94780,1,0,0:0:0:0:
160,128,95580,1,12,0:0:0:0:
160,128,96380,1,0,0:0:0:0:
160,128,97180,1,12,0:0:0:0:
160,128,97580,1,12,0:0:0:0:
160,128,97980,1,4,0:0:0:0:
160,128,99380,1,12,0:0:0:0:
160,128,100380,1,12,0:0:0:0:
160,128,101180,1,4,0:0:0:0:
160,128,102380,1,12,0:0:0:0:
160,128,103580,1,4,0:0:0:0:
160,128,103980,1,12,0:0:0:0:
160,128,104380,1,4,0:0:0:0:
192,128,105180,1,8,0:0:0:0:
256,128,106380,1,0,0:0:0:0:
256,128,106780,1,8,0:0:0:0:
256,128,107580,1,8,0:0:0:0:
256,128,107980,1,8,0:0:0:0:
256,128,108380,1,0,0:0:0:0:
256,128,109180,1,8,0:0:0:0:
256,128,109980,1,0,0:0:0:0:
256,128,110380,1,0,0:0:0:0:
256,128,110780,1,8,0:0:0:0:
288,96,111580,1,0,0:0:0:0:
256,96,112380,1,8,0:0:0:0:
256,96,113980,1,0,0:0:0:0:
256,96,114380,1,0,0:0:0:0:
256,96,114780,1,8,0:0:0:0:
256,96,115180,1,8,0:0:0:0:
256,96,115580,1,0,0:0:0:0:
256,96,116380,1,8,0:0:0:0:
256,96,116780,1,8,0:0:0:0:
256,96,117580,1,12,0:0:0:0:
256,96,118780,1,0,0:0:0:0:
256,96,119580,1,8,0:0:0:0:
256,96,120380,1,0,0:0:0:0:
256,96,120780,1,8,0:0:0:0:
256,96,121180,1,0,0:0:0:0:
256,96,121980,1,8,0:0:0:0:
256,96,123580,1,4,0:0:0:0:
256,96,124380,1,0,0:0:0:0:
256,96,124780,1,8,0:0:0:0:
256,96,125180,1,0,0:0:0:0:
224,96,125980,1,8,0:0:0:0:
192,96,126780,1,0,0:0:0:0:
192,96,127180,1,0,0:0:0:0:
192,96,127580,1,8,0:0:0:0:
192,96,128380,1,0,0:0:0:0:
192,96,129180,1,8,0:0:0:0:
192,96,129580,1,0,0:0:0:0:
192,96,131580,1,4,0:0:0:0:
192,96,132380,1,0,0:0:0:0:
192,96,132780,1,8,0:0:0:0:
192,96,133180,1,0,0:0:0:0:
192,96,133580,1,0,0:0:0:0:
192,96,133980,1,8,0:0:0:0:
192,96,134780,1,8,0:0:0:0:
192,96,135180,1,8,0:0:0:0:
192,96,135580,1,0,0:0:0:0:
192,96,137980,1,12,0:0:0:0:
192,64,138780,1,8,0:0:0:0:
192,64,139180,1,8,0:0:0:0:
192,64,139580,1,0,0:0:0:0:
192,64,139980,1,0,0:0:0:0:
192,64,140380,1,8,0:0:0:0:
192,64,141180,1,0,0:0:0:0:
192,64,141580,1,8,0:0:0:0:
192,64,141980,1,0,0:0:0:0:
160,128,144380,1,12,0:0:0:0:
160,128,145180,1,8,0:0:0:0:
160,128,145580,1,0,0:0:0:0:
160,128,146780,1,8,0:0:0:0:
160,128,147180,1,8,0:0:0:0:
160,128,147580,1,0,0:0:0:0:
160,128,148380,1,8,0:0:0:0:
160,128,148780,1,0,0:0:0:0:
160,96,149580,1,0,0:0:0:0:
160,128,149980,1,8,0:0:0:0:
160,128,150380,1,0,0:0:0:0:
160,128,150780,1,4,0:0:0:0:
160,128,151580,1,8,0:0:0:0:
160,128,151980,1,0,0:0:0:0:
160,128,153180,1,8,0:0:0:0:
160,128,153580,1,0,0:0:0:0:
160,128,153980,1,0,0:0:0:0:
160,128,154780,1,8,0:0:0:0:
160,128,155180,1,0,0:0:0:0:
160,128,155980,1,0,0:0:0:0:
160,128,156380,1,8,0:0:0:0:
160,128,156780,1,0,0:0:0:0:
160,128,157180,1,12,0:0:0:0:
160,128,157980,1,8,0:0:0:0:
160,128,158380,1,0,0:0:0:0:
160,128,159580,1,8,0:0:0:0:
160,128,160380,1,8,0:0:0:0:
160,128,160780,1,0,0:0:0:0:
160,128,161180,1,8,0:0:0:0:
160,128,161580,1,8,0:0:0:0:
160,128,161980,1,0,0:0:0:0:
160,128,162780,1,8,0:0:0:0:
160,96,163180,1,8,0:0:0:0:
160,96,163580,1,4,0:0:0:0:
160,96,164380,1,8,0:0:0:0:
160,96,164780,1,0,0:0:0:0:
160,96,165980,1,8,0:0:0:0:
160,96,166780,1,0,0:0:0:0:
160,96,167180,1,0,0:0:0:0:
192,96,167580,1,8,0:0:0:0:
192,96,167980,1,0,0:0:0:0:
192,96,168380,1,8,0:0:0:0:
160,64,169180,1,8,0:0:0:0:
160,64,169580,1,8,0:0:0:0:
160,64,169980,1,4,0:0:0:0:
