osu file format v14

[General]
AudioFilename: audio.mp3
AudioLeadIn: 0
PreviewTime: 376
Countdown: 0
SampleSet: Soft
StackLeniency: 1
Mode: 0
LetterboxInBreaks: 0
WidescreenStoryboard: 0

[Editor]
DistanceSpacing: 2.4
BeatDivisor: 4
GridSize: 4
TimelineZoom: 3.999996

[Metadata]
Title:snooze
TitleUnicode:snooze
Artist:wotaku feat. SHIKI
ArtistUnicode:wotaku feat. SHIKI
Creator:Beren
Version:boredom
Source:
Tags:Atlust Calvaria Ntauch N T C axey bakahuang necho cqmasai Reincarnation cube hannah ちふり japanese pop electronic
BeatmapID:3570926
BeatmapSetID:1745709

[Difficulty]
HPDrainRate:6
CircleSize:4
OverallDifficulty:8
ApproachRate:9.4
SliderMultiplier:2.6
SliderTickRate:1

[Events]
//Background and Video events
0,0,"IMG_6600.PNG",0,0
Video,-185,"snooze.mp4"
//Break Periods
2,66176,78236
//Storyboard Layer 0 (Background)
//Storyboard Layer 1 (Fail)
//Storyboard Layer 2 (Pass)
//Storyboard Layer 3 (Foreground)
//Storyboard Layer 4 (Overlay)
//Storyboard Sound Samples

[TimingPoints]
376,400,4,2,0,60,1,0
376,-200,4,2,0,60,0,0
6376,-133.333333333333,4,2,0,60,0,0
6776,-100,4,2,0,70,0,0
11576,-80,4,2,0,70,0,0
11976,-100,4,2,0,5,0,0
13176,-666.666666666667,4,2,0,75,0,0
13976,-66.6666666666667,4,2,0,75,0,0
14776,-666.666666666667,4,2,0,80,0,0
15176,-133.333333333333,4,2,0,80,0,0
15576,-66.6666666666667,4,2,0,80,0,0
16376,-666.666666666667,4,2,0,80,0,0
16776,-133.333333333333,4,2,0,80,0,0
17176,-66.6666666666667,4,2,0,80,0,0
17976,-666.666666666667,4,2,0,80,0,0
18376,-133.333333333333,4,2,0,80,0,0
18776,-66.6666666666667,4,2,0,80,0,0
19576,-666.666666666667,4,2,0,80,0,0
19976,-133.333333333333,4,2,0,80,0,0
20376,-66.6666666666667,4,2,0,80,0,0
21176,-666.666666666667,4,2,0,80,0,0
21576,-133.333333333333,4,2,0,80,0,0
21976,-66.6666666666667,4,2,0,80,0,0
22776,-666.666666666667,4,2,0,80,0,0
23176,-133.333333333333,4,2,0,80,0,0
23576,-66.6666666666667,4,2,0,80,0,0
24376,-666.666666666667,4,2,0,80,0,0
24776,-133.333333333333,4,2,0,80,0,0
25176,-66.6666666666667,4,2,0,80,0,0
25976,-666.666666666667,4,2,0,80,0,0
26376,-133.333333333333,4,2,0,80,0,0
27576,-666.666666666667,4,2,0,80,0,0
27976,-133.333333333333,4,2,0,80,0,0
28376,-66.6666666666667,4,2,0,80,0,0
29176,-666.666666666667,4,2,0,80,0,0
29576,-133.333333333333,4,2,0,80,0,0
29976,-66.6666666666667,4,2,0,80,0,0
30776,-666.666666666667,4,2,0,80,0,0
31176,-133.333333333333,4,2,0,80,0,0
31576,-66.6666666666667,4,2,0,80,0,0
32576,-66.6666666666667,4,2,0,5,0,0
32676,-66.6666666666667,4,2,0,80,0,0
32876,-66.6666666666667,4,2,0,5,0,0
32976,-66.6666666666667,4,2,0,80,0,0
33076,-66.6666666666667,4,2,0,5,0,0
33176,-66.6666666666667,4,2,0,80,0,0
33976,-66.6666666666667,4,2,0,60,0,0
34176,-200,4,2,0,60,0,0
35576,-66.6666666666667,4,2,0,60,0,0
37176,-666.666666666667,4,2,0,80,0,0
37576,-133.333333333333,4,2,0,80,0,0
37976,-66.6666666666667,4,2,0,80,0,0
40176,-100,4,2,0,80,0,0
40376,-100,4,2,0,70,0,0
41176,-200,4,2,0,70,0,0
41376,-100,4,2,0,70,0,0
41576,-200,4,2,0,70,0,0
41976,-66.6666666666667,4,2,0,70,0,0
42376,-100,4,2,0,70,0,0
48376,-66.6666666666667,4,2,0,70,0,0
48776,-100,4,2,0,70,0,0
53176,-200,4,2,0,70,0,0
53976,-400,4,2,0,70,0,0
54776,-66.6666666666667,4,2,0,70,0,0
55176,-100,4,2,0,70,0,0
60076,-100,4,2,0,5,0,0
60176,-100,4,2,0,70,0,0
60476,-100,4,2,0,5,0,0
60576,-100,4,2,0,70,0,0
61176,-66.6666666666667,4,2,0,70,0,0
61576,-100,4,2,0,70,0,0
65576,-66.6666666666667,4,2,0,70,0,0
65976,-66.6666666666667,4,2,0,60,0,0
79276,-200,4,2,0,60,0,0
79576,-66.6666666666667,4,2,0,60,0,0
79876,-200,4,2,0,60,0,0
80576,-66.6666666666667,4,2,0,60,0,0
80876,-200,4,2,0,60,0,0
81176,-66.6666666666667,4,2,0,60,0,0
81476,-200,4,2,0,60,0,0
82176,-66.6666666666667,4,2,0,60,0,0
82476,-200,4,2,0,60,0,0
82776,-66.6666666666667,4,2,0,60,0,0
83076,-200,4,2,0,60,0,0
83876,-66.6666666666667,4,2,0,60,0,0
84776,-200,4,2,0,60,0,0
85176,-66.6666666666667,4,2,0,65,0,0
85676,-200,4,2,0,65,0,0
85976,-66.6666666666667,4,2,0,65,0,0
86276,-200,4,2,0,65,0,0
86976,-66.6666666666667,4,2,0,65,0,0
87276,-200,4,2,0,65,0,0
87576,-66.6666666666667,4,2,0,65,0,0
87876,-200,4,2,0,65,0,0
88576,-66.6666666666667,4,2,0,65,0,0
88876,-200,4,2,0,65,0,0
89176,-66.6666666666667,4,2,0,65,0,0
89476,-200,4,2,0,65,0,0
89976,-200,4,2,0,5,0,0
91176,-66.6666666666667,4,2,0,65,0,0
91276,-66.6666666666667,4,2,0,65,0,0
91576,-125,4,2,0,70,0,0
92376,-83.3333333333333,4,2,0,70,0,0
92976,-125,4,2,0,70,0,0
93376,-83.3333333333333,4,2,0,70,0,0
94076,-125,4,2,0,70,0,0
95176,-250,4,2,0,70,0,0
95576,-83.3333333333333,4,2,0,70,0,0
96176,-250,4,2,0,70,0,0
96976,-83.3333333333333,4,2,0,70,0,0
97976,-125,4,2,0,70,0,0
99376,-250,4,2,0,70,0,0
99776,-83.3333333333333,4,2,0,70,0,0
100376,-250,4,2,0,70,0,0
101176,-83.3333333333333,4,2,0,70,0,0
101976,-1000,4,2,0,70,0,0
102576,-125,4,2,0,70,0,0
102776,-83.3333333333333,4,2,0,70,0,0
103576,-125,4,2,0,70,0,0
105176,-83.3333333333333,4,2,0,70,0,0
105276,-83.3333333333333,4,2,0,5,0,0
105376,-83.3333333333333,4,2,0,70,0,0
105576,-83.3333333333333,4,2,0,70,0,0
105676,-83.3333333333333,4,2,0,70,0,0
107176,-125,4,2,0,70,0,0
107576,-83.3333333333333,4,2,0,70,0,0
108376,-83.3333333333333,4,2,0,70,0,0
111576,-1000,4,2,0,70,0,0
111876,-76.9230769230769,4,2,0,70,0,0
112176,-500,4,2,0,70,0,0
112476,-71.4285714285714,4,2,0,70,0,0
112776,-333.333333333333,4,2,0,70,0,0
113076,-66.6666666666667,4,2,0,70,0,0
113376,-250,4,2,0,70,0,0
113676,-62.5,4,2,0,70,0,0
116376,-125,4,2,0,70,0,0
116776,-83.3333333333333,4,2,0,70,0,0
117176,-200,4,2,0,70,0,0
117576,-66.6666666666667,4,2,0,70,0,0
117976,-100,4,2,0,70,0,0
118376,-66.6666666666667,4,2,0,70,0,0
118576,-100,4,2,0,70,0,0
118976,-66.6666666666667,4,2,0,70,0,0
119176,-100,4,2,0,70,0,0
119976,-66.6666666666667,4,2,0,70,0,0
120476,-66.6666666666667,4,2,0,5,0,0
120576,-66.6666666666667,4,2,0,70,0,0
120676,-66.6666666666667,4,2,0,5,0,0
120776,-66.6666666666667,4,2,0,70,0,0
120876,-66.6666666666667,4,2,0,5,0,0
120976,-66.6666666666667,4,2,0,70,0,0
121076,-66.6666666666667,4,2,0,5,0,0
121176,-66.6666666666667,4,2,0,70,0,0
122376,-100,4,2,0,70,0,0
123176,-66.6666666666667,4,2,0,70,0,0
123576,-200,4,2,0,70,0,0
123976,-66.6666666666667,4,2,0,70,0,0
124376,-100,4,2,0,70,0,0
124776,-66.6666666666667,4,2,0,70,0,0
124976,-100,4,2,0,70,0,0
125376,-66.6666666666667,4,2,0,70,0,0
125576,-100,4,2,0,70,0,0
126376,-66.6666666666667,4,2,0,70,0,0
126876,-66.6666666666667,4,2,0,5,0,0
126976,-66.6666666666667,4,2,0,70,0,0
127076,-66.6666666666667,4,2,0,5,0,0
127176,-66.6666666666667,4,2,0,70,0,0
127276,-66.6666666666667,4,2,0,5,0,0
127376,-66.6666666666667,4,2,0,70,0,0
127476,-66.6666666666667,4,2,0,5,0,0
127576,-66.6666666666667,4,2,0,70,0,0
128776,-100,4,2,0,70,0,0
129576,-66.6666666666667,4,2,0,70,0,0
131176,-200,4,2,0,70,0,0
131576,-66.6666666666667,4,2,0,70,0,0
131976,-100,4,2,0,70,0,0
132776,-66.6666666666667,4,2,0,70,0,0
133176,-100,4,2,0,70,0,0
134376,-66.6666666666667,4,2,0,70,0,0
135176,-100,4,2,0,70,0,0
135976,-66.6666666666667,4,2,0,70,0,0
136576,-66.6666666666667,4,2,0,70,0,0
136776,-500,4,2,0,70,0,0
136876,-500,4,2,0,5,0,0
136976,-66.6666666666667,4,2,0,70,0,0
137176,-500,4,2,0,70,0,0
137276,-500,4,2,0,5,0,0
137376,-50,4,2,0,70,0,0
137976,-66.6666666666667,4,2,0,70,0,0
138376,-100,4,2,0,70,0,0
139176,-66.6666666666667,4,2,0,70,0,0
139576,-100,4,2,0,70,0,0
140776,-66.6666666666667,4,2,0,70,0,0
141576,-100,4,2,0,70,0,0
142376,-66.6666666666667,4,2,0,70,0,0
142776,-66.6666666666667,4,2,0,5,0,0
143976,-100,4,2,0,70,0,0
144376,-100,4,2,0,80,0,0
145576,-200,4,2,0,80,0,0
146376,-100,4,2,0,80,0,0
148776,-200,4,2,0,80,0,0
149576,-100,4,2,0,80,0,0
151976,-200,4,2,0,80,0,0
152776,-100,4,2,0,80,0,0
155176,-200,4,2,0,80,0,0
155976,-100,4,2,0,80,0,0
156376,-200,4,2,0,80,0,0
156776,-66.6666666666667,4,2,0,80,0,0
157176,-200,4,2,0,80,0,0

[Colours]
Combo1 : 168,210,215
Combo2 : 203,150,135
Combo3 : 216,217,166
Combo4 : 168,215,172

[HitObjects]
128,232,376,6,0,P|242:369|256:192,1,455,4|2,1:0|0:2,0:0:0:0:
282,60,1976,6,0,P|107:93|256:191,1,455,2|2,0:3|0:2,0:0:0:0:
352,279,3576,6,0,P|414:113|255:191,1,455,2|2,0:3|0:2,0:0:0:0:
128,232,5176,6,0,B|62:248|62:248|-5:213,1,130,2|2,0:3|0:2,0:0:0:0:
90,64,5976,6,0,L|82:129,1,65,2|0,0:3|0:0,0:0:0:0:
78,46,6376,2,0,L|66:143,1,97.50000371933,2|0,0:2|0:0,0:0:0:0:
30,336,6776,6,0,P|-3:281|6:218,1,130,4|2,1:2|0:2,0:0:0:0:
66,142,7076,1,2,0:2:0:0:
151,192,7176,2,0,P|184:247|175:310,1,130,8|2,1:2|0:2,0:0:0:0:
252,379,7476,5,2,0:0:0:0:
285,373,7576,1,0,1:2:0:0:
317,371,7676,1,2,0:0:0:0:
344,368,7776,2,0,L|426:361,1,65,2|0,0:2|0:0,0:0:0:0:
508,274,7976,2,0,B|485:251|481:215|481:215|469:250|445:267,1,130,8|2,1:2|0:2,0:0:0:0:
199,144,8376,6,0,B|188:83|188:83|213:19,1,130,0|2,1:2|0:2,0:0:0:0:
311,0,8676,1,2,0:2:0:0:
395,52,8776,2,0,B|405:112|405:112|380:176,1,130,8|2,1:2|0:2,0:0:0:0:
276,240,9076,5,2,0:0:0:0:
244,243,9176,1,0,1:2:0:0:
212,245,9276,1,2,0:0:0:0:
180,248,9376,2,0,L|97:254,1,65,2|0,0:2|0:0,0:0:0:0:
0,333,9576,2,0,P|-7:370|22:330,1,130,8|2,1:2|0:2,0:0:0:0:
155,76,9976,5,8,1:2:0:0:
269,344,10176,1,8,1:2:0:0:
334,61,10376,1,8,1:2:0:0:
115,251,10576,1,8,1:2:0:0:
404,226,10776,5,8,1:2:0:0:
468,253,10876,1,8,1:2:0:0:
512,199,10976,1,8,1:2:0:0:
477,139,11076,1,8,1:2:0:0:
410,154,11176,6,0,L|385:128,7,32.5,8|8|8|8|8|8|8|8,1:2|1:2|1:2|1:2|1:2|1:2|1:2|1:2,0:0:0:0:
404,226,11576,6,0,B|375:275|316:268|316:268|196:230|210:398|314:344,1,325,4|0,0:1|0:0,0:0:0:0:
311,345,13176,6,0,L|323:324,1,19.4999994049072,2|0,0:3|0:0,0:0:0:0:
429,313,13476,2,0,L|428:288,1,19.4999994049072,2|0,0:3|0:0,0:0:0:0:
473,204,13776,2,0,L|464:189,1,9.74999970245362,2|0,0:3|0:0,0:0:0:0:
475,97,13976,6,0,P|432:73|384:77,1,97.50000371933,2|0,0:3|0:0,0:0:0:0:
296,36,14176,2,0,P|254:61|234:104,1,97.50000371933,2|0,0:3|0:0,0:0:0:0:
0,242,14376,6,0,P|42:218|90:222,1,97.50000371933,2|0,0:3|0:0,0:0:0:0:
179,181,14576,2,0,P|220:206|240:249,1,97.50000371933,2|0,0:3|0:0,0:0:0:0:
304,330,14776,6,0,L|299:352,1,19.4999994049072,4|2,1:2|0:0,0:0:0:0:
278,352,15076,1,2,0:3:0:0:
188,370,15176,6,0,P|179:348|180:324,1,48.750001859665,0|0,1:0|0:0,0:0:0:0:
240,248,15375,2,0,P|262:239|286:239,1,48.750001859665,2|0,0:3|0:0,0:0:0:0:
388,241,15576,6,0,P|419:202|423:154,1,97.50000371933,0|0,1:0|0:0,0:0:0:0:
479,75,15776,2,0,P|461:29|422:2,1,97.50000371933,2|0,0:3|0:0,0:0:0:0:
203,62,15976,6,0,L|314:53,1,97.50000371933,0|0,1:0|0:0,0:0:0:0:
326,148,16176,2,0,L|437:157,1,97.50000371933,2|0,0:3|0:0,0:0:0:0:
494,248,16376,6,0,L|497:269,1,19.4999994049072,0|2,1:0|0:0,0:0:0:0:
494,290,16676,1,2,0:3:0:0:
400,316,16776,6,0,L|393:267,1,48.750001859665,0|0,1:0|0:0,0:0:0:0:
332,196,16976,2,0,L|325:147,1,48.750001859665,2|0,0:3|0:0,0:0:0:0:
300,54,17176,6,0,P|252:62|218:96,1,97.50000371933,0|0,1:0|0:0,0:0:0:0:
162,177,17376,2,0,P|166:129|197:92,1,97.50000371933,2|0,0:3|0:0,0:0:0:0:
19,179,17576,6,0,P|2:224|14:270,1,97.50000371933,0|0,1:0|0:0,0:0:0:0:
56,360,17776,2,0,P|16:332|0:287,1,97.50000371933,2|0,0:3|0:0,0:0:0:0:
100,264,17976,6,0,L|124:269,1,19.4999994049072,0|2,1:0|0:0,0:0:0:0:
132,253,18276,1,2,0:3:0:0:
282,210,18376,6,0,P|258:214|241:231,1,48.750001859665,0|0,1:0|0:0,0:0:0:0:
200,319,18575,2,0,P|184:337|182:361,1,48.750001859665,2|0,0:3|0:0,0:0:0:0:
291,325,18776,6,0,L|403:332,1,97.50000371933,0|0,1:0|0:0,0:0:0:0:
480,361,18976,2,0,L|367:349,1,97.50000371933,2|0,0:3|0:0,0:0:0:0:
363,129,19176,6,0,L|456:192,1,97.50000371933,0|0,1:0|0:0,0:0:0:0:
508,254,19376,2,0,L|416:187,1,97.50000371933,2|0,0:3|0:0,0:0:0:0:
282,210,19576,6,0,L|263:203,1,19.4999994049072,0|2,1:0|0:0,0:0:0:0:
246,212,19876,1,2,0:3:0:0:
208,119,19976,6,0,L|129:134,1,48.750001859665,0|0,1:0|0:0,0:0:0:0:
71,81,20176,2,0,L|10:133,1,48.750001859665,2|0,0:3|0:0,0:0:0:0:
34,260,20376,6,0,L|145:251,1,97.50000371933,0|0,1:0|0:0,0:0:0:0:
157,346,20576,2,0,L|268:355,1,97.50000371933,2|0,0:3|0:0,0:0:0:0:
383,350,20776,5,0,1:0:0:0:
377,322,20876,1,2,0:3:0:0:
370,294,20976,1,2,0:3:0:0:
363,266,21076,1,2,0:3:0:0:
282,210,21176,6,0,P|276:216|272:229,1,19.4999994049072,4|2,1:2|0:0,0:0:0:0:
270,247,21476,1,2,0:3:0:0:
363,266,21576,6,0,L|417:273,1,48.750001859665,0|0,1:0|0:0,0:0:0:0:
464,359,21776,2,0,L|518:352,1,48.750001859665,2|0,0:3|0:0,0:0:0:0:
509,260,21976,6,0,P|508:210|480:171,1,97.50000371933,0|0,1:0|0:0,0:0:0:0:
381,176,22176,2,0,P|358:217|362:265,1,97.50000371933,2|0,0:3|0:0,0:0:0:0:
301,93,22376,6,0,P|275:50|231:30,1,97.50000371933,0|0,1:0|0:0,0:0:0:0:
148,84,22576,2,0,P|148:131|176:170,1,97.50000371933,2|0,0:3|0:0,0:0:0:0:
270,247,22776,6,0,L|249:256,1,19.4999994049072,0|2,1:0|0:0,0:0:0:0:
245,273,23076,1,2,0:3:0:0:
172,344,23176,6,0,P|148:369|117:376,1,48.750001859665,0|0,1:0|0:0,0:0:0:0:
39,360,23376,2,0,P|12:336|6:305,1,48.750001859665,2|0,0:3|0:0,0:0:0:0:
51,249,23576,6,0,L|149:258,1,97.50000371933,0|0,1:0|0:0,0:0:0:0:
176,170,23776,2,0,P|176:123|148:84,1,97.50000371933,2|0,0:3|0:0,0:0:0:0:
381,176,23976,6,0,L|479:167,1,97.50000371933,0|0,1:0|0:0,0:0:0:0:
505,254,24176,2,0,P|504:301|476:340,1,97.50000371933,2|0,0:3|0:0,0:0:0:0:
376,373,24376,6,0,L|369:349,1,19.4999994049072,0|2,1:0|0:0,0:0:0:0:
354,346,24676,1,2,0:3:0:0:
258,319,24776,6,0,L|242:266,1,48.750001859665,0|0,1:0|0:0,0:0:0:0:
277,178,24976,2,0,L|292:125,1,48.750001859665,2|0,0:3|0:0,0:0:0:0:
220,62,25176,6,0,P|174:44|127:57,1,97.50000371933,0|0,1:0|0:0,0:0:0:0:
38,99,25376,2,0,P|65:59|110:42,1,97.50000371933,2|0,0:3|0:0,0:0:0:0:
242,271,25576,6,0,P|215:232|170:215,1,97.50000371933,0|0,1:0|0:0,0:0:0:0:
61,234,25777,2,0,P|105:217|152:229,1,97.50000371933,2|0,0:3|0:0,0:0:0:0:
119,366,25976,6,0,L|137:371,1,19.4999994049072,0|2,1:0|0:0,0:0:0:0:
160,367,26276,1,2,0:3:0:0:
271,384,26376,6,0,P|293:375|307:356,1,48.750001859665,0|0,1:0|0:0,0:0:0:0:
346,264,26575,2,0,P|358:243|356:219,1,48.750001859665,2|0,0:3|0:0,0:0:0:0:
338,106,26776,5,0,1:0:0:0:
334,86,26876,1,2,0:2:0:0:
339,67,26976,1,2,0:2:0:0:
357,50,27076,1,2,0:2:0:0:
385,41,27176,1,6,1:2:0:0:
418,48,27276,1,2,0:2:0:0:
439,80,27376,1,2,0:2:0:0:
436,123,27476,1,2,0:2:0:0:
356,219,27576,6,0,P|341:211|330:210,1,19.4999994049072,4|2,0:1|0:0,0:0:0:0:
319,217,27876,1,2,0:3:0:0:
226,257,27976,6,0,L|216:207,1,48.750001859665,0|0,1:0|0:0,0:0:0:0:
229,109,28176,2,0,L|219:59,1,48.750001859665,2|0,0:3|0:0,0:0:0:0:
110,32,28376,6,0,L|-1:23,1,97.50000371933,0|0,1:0|0:0,0:0:0:0:
1,112,28576,2,0,L|97:127,1,97.50000371933,2|0,0:3|0:0,0:0:0:0:
228,297,28776,6,0,L|131:312,1,97.50000371933,0|0,1:0|0:0,0:0:0:0:
119,217,28975,2,0,L|216:209,1,97.50000371933,2|0,0:3|0:0,0:0:0:0:
229,109,29176,6,0,P|235:100|237:87,1,19.4999994049072,0|2,1:0|0:0,0:0:0:0:
236,71,29476,1,2,0:3:0:0:
337,55,29576,6,0,P|341:78|338:102,1,48.750001859665,0|0,1:0|0:0,0:0:0:0:
435,122,29776,2,0,P|444:100|446:76,1,48.750001859665,2|0,0:3|0:0,0:0:0:0:
356,219,29976,6,0,P|356:266|329:306,1,97.50000371933,0|0,1:0|0:0,0:0:0:0:
405,350,30176,2,0,P|441:318|453:272,1,97.50000371933,2|0,0:3|0:0,0:0:0:0:
194,260,30376,6,0,P|167:300|168:348,1,97.50000371933,0|0,1:0|0:0,0:0:0:0:
70,294,30576,2,0,P|82:248|119:217,1,97.50000371933,2|0,0:3|0:0,0:0:0:0:
229,109,30776,6,0,L|208:103,1,19.4999994049072,0|2,1:0|0:0,0:0:0:0:
191,113,31076,1,2,0:3:0:0:
101,129,31176,6,0,L|52:121,1,48.750001859665,0|0,1:0|0:0,0:0:0:0:
45,34,31376,2,0,L|0:14,1,48.750001859665,2|0,0:3|0:0,0:0:0:0:
171,9,31576,6,0,P|218:-2|264:13,1,97.50000371933,0|0,1:0|0:0,0:0:0:0:
337,55,31776,2,0,P|371:90|379:136,1,97.50000371933,2|0,0:3|0:0,0:0:0:0:
299,354,31976,6,0,P|344:370|390:358,1,97.50000371933,0|0,1:0|0:0,0:0:0:0:
463,315,32175,2,0,P|499:283|511:236,1,97.50000371933,2|0,0:3|0:0,0:0:0:0:
470,112,32376,6,0,P|406:58|379:137,1,195.00000743866,0|0,1:0|0:0,0:0:0:0:
189,112,32676,2,0,P|216:190|281:138,1,195.00000743866,0|0,1:0|0:0,0:0:0:0:
96,144,32976,2,0,P|64:117|50:156,1,97.50000371933,0|0,1:0|0:0,0:0:0:0:
0,371,33176,6,2,B|19:303|19:303|-22:275|-22:275|184:275,1,292.50001115799,2|0,3:0|0:0,0:2:0:0:
272,275,33576,1,4,1:1:0:0:
465,330,33976,5,2,1:3:0:0:
465,330,34176,2,0,L|497:276,1,32.5,2|2,1:3|1:3,0:0:0:0:
408,220,34376,2,0,L|424:159,1,32.5,2|2,1:3|1:3,0:0:0:0:
316,142,34576,2,0,L|316:79,1,32.5,2|2,1:3|1:3,0:0:0:0:
358,25,34776,5,2,1:3:0:0:
423,7,34876,1,2,1:3:0:0:
487,30,34976,1,2,1:3:0:0:
508,94,35076,1,2,1:3:0:0:
483,157,35176,1,2,1:3:0:0:
417,189,35276,1,2,1:3:0:0:
358,224,35376,1,2,1:3:0:0:
348,291,35476,1,2,1:3:0:0:
402,359,35576,6,0,L|443:384,4,48.750001859665,2|2|2|2|2,1:3|1:3|1:3|1:3|1:3,0:0:0:0:
244,263,35876,6,0,L|200:286,4,48.750001859665,2|2|2|2|2,1:3|1:3|1:3|1:3|1:3,0:0:0:0:
417,189,36176,5,2,1:3:0:0:
417,189,36276,1,2,1:3:0:0:
417,189,36376,2,0,L|418:139,4,48.750001859665,2|2|2|2|2,1:3|1:3|1:3|1:3|1:3,0:0:0:0:
402,359,36676,5,2,1:3:0:0:
22,108,37176,6,0,L|49:101,1,19.4999994049072,4|8,1:2|1:3,0:0:0:0:
62,105,37476,1,2,0:3:0:0:
109,19,37576,6,0,L|144:54,1,48.750001859665,0|0,1:0|0:0,0:0:0:0:
149,146,37776,2,0,L|136:192,1,48.750001859665,8|0,1:3|0:0,0:0:0:0:
95,282,37976,6,0,P|88:330|117:391,1,97.50000371933,0|0,1:0|0:0,0:0:0:0:
201,366,38176,2,0,P|207:318|191:272,1,97.50000371933,8|0,1:3|0:0,0:0:0:0:
283,79,38376,6,0,P|252:116|242:163,1,97.50000371933,0|0,1:0|0:0,0:0:0:0:
329,205,38576,2,0,P|359:167|369:120,1,97.50000371933,8|0,1:3|0:0,0:0:0:0:
397,10,38776,5,0,1:0:0:0:
465,15,38876,1,8,1:3:0:0:
510,65,38976,1,8,1:3:0:0:
512,133,39076,1,8,1:3:0:0:
496,204,39176,5,0,1:0:0:0:
443,217,39276,1,8,1:3:0:0:
415,263,39376,1,8,1:3:0:0:
422,316,39476,1,8,1:3:0:0:
354,345,39576,5,0,1:0:0:0:
313,350,39676,1,8,1:3:0:0:
279,329,39776,1,8,1:3:0:0:
254,298,39876,2,0,P|245:266|262:295,1,97.50000371933,8|0,1:3|0:0,0:0:0:0:
44,287,40176,5,2,0:0:0:0:
37,279,40276,1,2,0:0:0:0:
29,274,40376,2,0,L|-3:244,2,32.5,0|0|0,1:0|1:0|1:0,0:0:0:0:
94,185,40576,5,4,0:3:0:0:
86,176,40676,1,4,0:3:0:0:
76,167,40776,2,0,L|50:130,2,32.5,0|0|0,1:0|1:0|1:0,0:0:0:0:
175,128,40976,5,4,0:3:0:0:
168,113,41076,1,4,0:3:0:0:
160,96,41176,2,0,L|144:54,1,32.5,0|4,1:0|0:3,0:0:0:0:
259,57,41376,6,0,L|255:13,2,32.5,4|4|4,0:3|0:3|0:3,0:0:0:0:
344,120,41576,6,0,B|364:132|377:157|377:157|372:128|393:86,1,97.5,0|0,1:0|0:0,0:0:0:0:
416,20,41976,6,0,P|520:56|476:148,1,195,4|2,1:0|0:2,0:0:0:0:
512,212,42276,1,2,0:2:0:0:
512,212,42376,2,0,L|402:219,1,65,8|0,1:2|0:0,0:0:0:0:
300,300,42576,1,2,0:2:0:0:
300,300,42776,6,0,P|292:336|308:364,2,65,2|4|8,0:0|0:3|1:2,0:0:0:0:
382,110,43076,1,0,0:0:0:0:
336,192,43176,2,0,B|281:187|281:187|260:197|260:197|208:192,1,130,8|4,1:2|0:3,0:0:0:0:
108,172,43476,1,2,0:2:0:0:
0,296,43576,6,0,B|-7:361|40:377|40:377|52:349,1,130,4|2,0:3|0:2,0:0:0:0:
108,172,43876,1,2,0:2:0:0:
108,172,43976,2,0,L|89:98,2,65,8|0|2,1:2|0:0|0:2,0:0:0:0:
245,352,44276,5,2,0:0:0:0:
244,351,44376,2,0,P|272:365|303:359,1,65,2|0,0:0|0:0,0:0:0:0:
373,278,44576,2,0,P|404:279|430:259,1,65,8|0,1:2|0:0,0:0:0:0:
374,35,44776,2,0,P|319:16|308:72,1,130,8|4,1:2|0:3,0:0:0:0:
390,149,45076,1,8,1:2:0:0:
490,133,45176,6,0,B|522:113|522:113|511:21,1,130,4|2,0:3|0:2,0:0:0:0:
390,149,45476,1,2,0:2:0:0:
390,149,45576,2,0,L|374:278,1,130,8|4,1:2|0:3,0:0:0:0:
470,331,45876,5,2,0:2:0:0:
470,331,45976,1,2,0:0:0:0:
470,331,46076,2,0,L|515:316,2,32.5,0|0|8,1:0|1:0|1:2,0:0:0:0:
373,278,46276,5,2,0:2:0:0:
338,280,46376,1,8,1:2:0:0:
311,296,46476,1,2,0:2:0:0:
279,300,46576,1,4,0:3:0:0:
250,317,46676,1,8,1:2:0:0:
165,367,46776,5,8,3:3:0:0:
93,376,46876,1,8,3:3:0:0:
28,342,46976,1,8,3:3:0:0:
0,277,47076,1,8,3:3:0:0:
56,236,47176,5,8,3:3:0:0:
102,254,47276,1,8,3:3:0:0:
150,239,47376,1,8,3:3:0:0:
181,198,47476,1,8,3:3:0:0:
177,135,47576,5,8,3:3:0:0:
141,141,47676,1,8,3:3:0:0:
109,124,47776,1,8,3:3:0:0:
96,91,47876,1,8,3:3:0:0:
132,40,47976,5,8,3:3:0:0:
155,49,48076,1,8,3:3:0:0:
178,42,48176,1,8,3:3:0:0:
194,21,48276,1,8,3:3:0:0:
334,28,48376,6,0,B|410:7|447:58|447:58|410:44|368:58,1,195.00000743866,4|2,1:0|0:2,0:0:0:0:
346,146,48676,1,2,0:2:0:0:
346,146,48776,2,0,L|334:233,1,65,8|0,1:2|0:0,0:0:0:0:
480,272,48976,1,2,0:2:0:0:
480,272,49176,6,0,L|471:207,2,65,2|4|8,0:0|0:3|1:2,0:0:0:0:
363,368,49476,1,0,0:0:0:0:
220,344,49576,2,0,P|198:290|253:275,1,130,8|4,1:2|0:3,0:0:0:0:
337,210,49876,1,2,0:2:0:0:
220,344,49976,6,0,L|91:328,1,130,4|2,0:3|0:2,0:0:0:0:
0,220,50276,1,2,0:2:0:0:
0,220,50376,2,0,P|18:175|45:147,2,65,8|0|2,1:2|0:0|0:2,0:0:0:0:
59,38,50676,5,2,0:0:0:0:
59,37,50776,2,0,P|87:23|119:17,1,65,2|0,0:0|0:0,0:0:0:0:
236,61,50976,2,0,P|266:71|293:89,1,65,8|0,1:2|0:0,0:0:0:0:
239,226,51176,2,0,B|203:278|203:278|219:343,1,130,8|4,1:2|0:3,0:0:0:0:
316,376,51476,1,8,1:2:0:0:
464,219,51576,6,0,B|410:209|410:209|388:217|388:217|336:209,1,130,4|2,0:3|0:2,0:0:0:0:
236,61,51876,1,2,0:2:0:0:
236,61,51976,2,0,P|292:70|274:125,1,130,8|4,1:2|0:3,0:0:0:0:
239,226,52276,5,0,0:0:0:0:
239,226,52376,1,2,0:0:0:0:
239,226,52476,2,0,L|194:233,2,32.5,0|0|8,1:0|1:0|1:2,0:0:0:0:
336,209,52676,5,2,0:2:0:0:
344,240,52776,1,8,1:2:0:0:
375,254,52876,1,2,0:2:0:0:
384,285,52976,1,4,0:3:0:0:
415,299,53076,1,8,1:2:0:0:
418,335,53176,6,0,B|390:367|348:353|348:353|278:327|242:387,1,195,4|2,0:3|0:0,0:0:0:0:
122,317,53976,6,0,P|116:337|126:317,1,65,8|2,1:2|0:0,0:0:0:0:
208,236,54576,5,4,0:3:0:0:
208,236,54676,1,2,0:2:0:0:
208,236,54776,2,0,B|181:192|182:141|182:141|151:181|92:202,1,195.00000743866,4|2,1:0|0:2,0:0:0:0:
16,164,55076,1,2,0:2:0:0:
0,256,55176,2,0,L|20:384,1,130,8|2,1:2|0:2,0:0:0:0:
136,368,55476,5,2,0:0:0:0:
136,368,55576,2,0,P|167:362|193:343,1,65,2|4,0:0|0:3,0:0:0:0:
208,235,55776,2,0,P|219:205|215:173,1,65,8|0,1:2|0:0,0:0:0:0:
140,40,55976,2,0,P|76:40|92:96,1,130,8|4,1:2|0:3,0:0:0:0:
214,172,56276,1,2,0:2:0:0:
252,64,56376,6,0,B|343:53|343:53|363:85,1,130,4|2,0:3|0:2,0:0:0:0:
363,85,56676,2,0,B|383:117|383:117|474:106,2,130,2|0|2,0:2|0:0|0:0,0:0:0:0:
252,64,57176,2,0,L|258:-1,1,65,2|0,0:0|0:0,0:0:0:0:
316,184,57376,2,0,B|311:239|311:239|321:260|321:260|317:312,1,130,8|8,1:2|1:2,0:0:0:0:
33,212,57776,5,4,0:3:0:0:
33,212,57876,1,8,1:2:0:0:
33,212,57976,2,0,P|52:150|108:120,1,130,4|2,0:3|0:2,0:0:0:0:
105,119,58276,2,0,P|167:125|212:170,2,130,2|0|2,0:2|0:0|0:2,0:0:0:0:
136,256,58776,1,2,0:0:0:0:
136,256,58876,2,0,L|115:305,2,32.5,0|0|8,1:0|1:0|1:2,0:0:0:0:
222,316,59076,5,2,0:2:0:0:
230,346,59176,1,8,1:2:0:0:
246,315,59276,1,2,0:2:0:0:
251,334,59376,1,4,0:3:0:0:
273,320,59476,1,8,1:2:0:0:
471,169,59776,5,4,3:3:0:0:
497,151,59876,1,4,3:3:0:0:
455,16,59976,2,0,L|445:137,1,65,8|0,3:3|0:0,0:0:0:0:
300,337,60176,5,4,3:3:0:0:
274,319,60276,1,4,3:3:0:0:
316,184,60376,2,0,L|326:305,1,65,8|0,3:3|0:0,0:0:0:0:
420,334,60576,5,4,3:3:0:0:
494,279,60676,1,8,3:3:0:0:
346,80,60876,5,8,3:3:0:0:
272,25,60976,1,4,3:3:0:0:
43,76,61176,6,0,B|4:84|-9:119|-9:119|32:184|104:150,1,195.00000743866,4|2,1:0|0:2,0:0:0:0:
169,86,61476,1,2,0:2:0:0:
155,230,61576,2,0,B|150:285|150:285|160:306|160:306|151:402,1,130,8|2,1:2|0:2,0:0:0:0:
274,319,61876,5,2,0:0:0:0:
274,319,61976,2,0,P|312:318|342:302,1,65,2|4,0:0|0:3,0:0:0:0:
448,346,62176,2,0,P|480:326|498:297,1,65,8|0,1:2|0:0,0:0:0:0:
505,168,62376,2,0,B|487:138|487:104|487:104|467:131|427:145,1,130,8|4,1:2|0:3,0:0:0:0:
314,194,62676,1,2,0:2:0:0:
257,81,62776,6,0,P|257:23|314:31,1,130,4|2,0:3|0:2,0:0:0:0:
410,51,63076,1,4,0:3:0:0:
314,194,63176,2,0,L|167:184,1,130,8|2,1:2|0:2,0:0:0:0:
72,59,63476,5,2,0:0:0:0:
72,59,63576,2,0,L|126:96,1,65,4|0,0:3|0:0,0:0:0:0:
113,267,63776,2,0,L|54:295,1,65,2|4,0:2|0:3,0:0:0:0:
11,173,63976,5,8,1:2:0:0:
43,176,64076,1,2,0:2:0:0:
75,177,64176,1,2,0:2:0:0:
107,179,64276,1,2,0:0:0:0:
141,182,64376,2,0,L|189:185,3,43.3333333333333,4|0|0|8,0:3|0:0|0:0|1:2,0:0:0:0:
313,134,64776,2,0,B|334:197|334:197|300:258,1,130,8|4,1:2|0:3,0:0:0:0:
207,361,65076,5,4,0:3:0:0:
239,358,65176,1,4,0:3:0:0:
271,357,65276,1,8,1:2:0:0:
303,355,65376,1,4,0:3:0:0:
335,352,65476,1,4,0:3:0:0:
422,308,65576,5,8,1:2:0:0:
422,308,65676,2,0,L|474:315,6,48.750001859665,8|8|4|4|4|4|4,3:3|3:3|0:3|0:3|0:3|0:3|0:0,0:0:0:0:
24,272,78776,5,4,0:0:0:0:
24,272,78976,2,0,P|87:244|191:306,1,195.00000743866,2|2,0:0|3:0,0:0:0:0:
189,302,79276,2,0,L|197:351,1,32.5,0|0,0:0|3:0,0:0:0:0:
488,192,79476,5,2,0:0:0:0:
488,192,79576,2,0,P|425:164|321:226,1,195.00000743866,0|0,3:0|3:0,0:0:0:0:
323,222,79876,2,0,L|315:271,1,32.5,0|2,3:0|3:0,0:0:0:0:
264,112,80076,5,0,0:0:0:0:
264,112,80176,2,0,L|252:47,1,65,0|0,3:0|3:0,0:0:0:0:
64,96,80576,6,0,B|0:112|0:112|168:136,1,195.00000743866,2|2,0:0|3:0,0:0:0:0:
127,130,80876,2,0,L|168:136,1,32.5,0|0,0:0|3:0,0:0:0:0:
448,192,81076,5,2,0:0:0:0:
448,192,81176,2,0,B|512:208|512:208|344:232,1,195.00000743866,0|0,3:0|3:0,0:0:0:0:
385,226,81476,2,0,L|344:232,1,32.5,0|2,3:0|3:0,0:0:0:0:
193,333,81676,5,0,0:0:0:0:
193,333,81776,2,0,L|130:319,1,65,0|0,3:0|3:0,0:0:0:0:
54,217,82176,6,0,B|2:165|30:73|30:73|54:101|106:101,1,195.00000743866,2|2,0:0|3:0,0:0:0:0:
63,95,82476,2,0,P|88:104|112:104,1,32.5,0|0,0:0|3:0,0:0:0:0:
458,167,82676,5,2,0:0:0:0:
458,167,82776,2,0,B|510:219|482:311|482:311|458:283|406:283,1,195.00000743866,0|0,3:0|3:0,0:0:0:0:
448,288,83076,2,0,P|424:280|400:280,1,32.5,0|2,3:0|3:0,0:0:0:0:
275,311,83276,5,0,0:0:0:0:
275,311,83376,2,0,L|263:246,1,65,0|0,3:0|3:0,0:0:0:0:
360,84,83776,5,2,0:0:0:0:
349,58,83876,2,0,P|324:43|250:61,1,97.50000371933,0|2,0:0|3:0,0:0:0:0:
100,28,84076,5,0,0:0:0:0:
123,38,84176,2,0,P|137:62|119:136,1,97.50000371933,0|2,3:0|0:0,0:0:0:0:
264,248,84376,5,0,3:0:0:0:
246,227,84476,2,0,P|218:220|154:263,1,97.50000371933,2|0,0:0|3:0,0:0:0:0:
52,280,84676,5,0,3:0:0:0:
72,296,84776,2,0,P|74:311|50:349,1,65,2|0,3:0|3:0,0:0:0:0:
29,135,85176,5,4,0:0:0:0:
29,135,85376,2,0,L|193:123,1,97.50000371933,2|0,0:0|0:0,0:0:0:0:
208,104,85576,1,2,3:0:0:0:
224,92,85676,2,0,L|228:44,1,32.5,0|0,0:0|3:0,0:0:0:0:
496,160,85876,5,2,0:0:0:0:
484,144,85976,2,0,L|320:156,1,97.50000371933,0|2,3:0|0:0,0:0:0:0:
305,175,86176,1,0,3:0:0:0:
289,187,86276,2,0,L|285:235,1,32.5,0|2,3:0|3:0,0:0:0:0:
200,380,86476,5,0,0:0:0:0:
216,368,86576,2,0,L|221:298,1,65,0|0,3:0|3:0,0:0:0:0:
29,135,86976,6,0,P|7:176|19:228,1,97.50000371933,2|0,0:0|0:0,0:0:0:0:
100,268,87176,1,2,3:0:0:0:
108,248,87276,2,0,L|148:244,1,32.5,0|0,0:0|3:0,0:0:0:0:
416,196,87476,5,2,0:0:0:0:
436,204,87576,2,0,P|458:245|446:297,1,97.50000371933,0|2,3:0|0:0,0:0:0:0:
365,337,87776,1,0,3:0:0:0:
357,317,87876,2,0,L|317:313,1,32.5,0|2,3:0|3:0,0:0:0:0:
276,168,88076,5,0,0:0:0:0:
260,156,88176,2,0,L|255:86,1,65,0|0,3:0|3:0,0:0:0:0:
29,135,88576,6,0,B|72:157|72:157|148:140,1,97.50000371933,2|0,0:0|0:0,0:0:0:0:
176,216,88776,1,2,3:0:0:0:
196,212,88876,2,0,L|192:260,1,32.5,0|0,0:0|3:0,0:0:0:0:
428,192,89076,5,2,0:0:0:0:
422,172,89176,2,0,B|379:150|379:150|303:167,1,97.50000371933,0|2,3:0|0:0,0:0:0:0:
275,87,89376,1,0,3:0:0:0:
255,91,89476,2,0,L|259:43,1,32.5,0|2,3:0|3:0,0:0:0:0:
336,276,89676,5,0,0:0:0:0:
356,272,89776,2,0,L|350:341,1,65,0|0,3:0|0:0,0:0:0:0:
52,186,91176,6,0,P|58:224|25:203,1,97.50000371933,12|2,3:2|0:0,0:0:0:0:
28,80,91576,6,0,B|84:60|120:100|120:100|156:140|224:116,1,208,4|0,1:0|0:0,0:0:0:0:
432,80,92176,5,2,0:0:0:0:
428,92,92276,1,2,0:0:0:0:
424,104,92376,2,0,B|368:48|368:48|335:117,1,155.999995239258,8|0,1:3|0:0,0:0:0:0:
356,316,92676,2,0,B|412:372|412:372|445:303,1,155.999995239258,4|0,1:3|0:0,0:0:0:0:
312,220,92976,2,0,L|174:233,1,104,4|2,1:3|0:0,0:0:0:0:
152,364,93276,5,2,0:0:0:0:
152,364,93376,2,0,P|117:345|96:314,1,77.999997619629,2|0,0:0|0:0,0:0:0:0:
67,213,93577,2,0,P|72:174|94:143,1,77.999997619629,2|0,0:0|0:0,0:0:0:0:
184,64,93776,2,0,L|148:48,2,38.9999988098145,4|0|0,0:3|0:0|0:0,0:0:0:0:
293,52,93976,5,8,1:3:0:0:
293,52,94076,2,0,P|303:94|336:65,1,104,2|2,0:0|0:0,0:0:0:0:
473,176,94376,2,0,B|484:111|484:111|475:85|475:85|484:24,1,156,4|0,1:3|0:0,0:0:0:0:
372,174,94776,5,4,0:3:0:0:
387,245,94876,1,2,0:0:0:0:
404,315,94976,1,2,0:0:0:0:
425,384,95076,1,2,0:0:0:0:
296,338,95176,2,2,B|271:309|271:309|282:268,1,78,2|0,0:1|0:0,0:1:0:0:
281,270,95576,6,0,B|167:282|167:282|181:236,1,155.999995239258,8|0,1:3|0:0,0:0:0:0:
52,43,95876,2,0,B|165:30|165:30|153:70,1,155.999995239258,4|0,1:3|0:0,0:0:0:0:
104,168,96176,6,0,L|1:179,1,104,4|0,1:3|0:0,0:0:0:0:
12,328,96776,1,2,0:0:0:0:
18,343,96876,1,2,0:0:0:0:
24,358,96976,2,0,L|73:365,2,38.9999988098145,4|0|0,0:3|0:0|0:0,0:0:0:0:
139,368,97176,6,0,P|192:315|178:242,1,155.999995239258,8|2,1:3|0:0,0:0:0:0:
34,143,97476,1,4,0:3:0:0:
33,142,97576,2,0,P|64:164|102:170,1,77.999997619629,8|0,1:3|0:0,0:0:0:0:
204,140,97776,2,0,P|236:118|254:84,1,77.999997619629,4|0,0:3|0:0,0:0:0:0:
132,16,97976,6,0,P|98:27|134:21,2,104,4|2|2,1:3|0:3|0:0,0:0:0:0:
368,52,98776,5,2,0:0:0:0:
408,64,98876,1,2,0:0:0:0:
436,88,98976,1,2,0:0:0:0:
448,116,99076,1,2,0:0:0:0:
452,140,99176,1,2,0:0:0:0:
452,160,99276,1,2,0:0:0:0:
448,168,99376,6,0,L|367:176,1,78,4|0,0:3|0:0,0:0:0:0:
287,318,99776,1,4,0:3:0:0:
287,318,99876,2,0,P|315:342|353:351,1,77.999997619629,4|0,0:3|0:0,0:0:0:0:
457,331,100076,2,0,P|490:311|511:279,1,77.999997619629,4|0,0:3|0:0,0:0:0:0:
375,226,100276,5,4,0:3:0:0:
375,227,100376,2,0,L|369:175,1,52,8|0,1:3|0:0,0:0:0:0:
448,168,100676,2,0,L|453:116,1,52,4|0,1:3|0:0,0:0:0:0:
360,92,100976,2,0,L|355:48,1,26,4|0,1:3|0:0,0:0:0:0:
357,66,101176,6,0,P|277:47|208:100,1,155.999995239258,4|0,1:3|0:0,0:0:0:0:
56,232,101476,2,0,P|36:158|74:93,1,155.999995239258,4|0,1:3|0:0,0:0:0:0:
73,92,101776,1,2,0:0:0:0:
188,220,101976,6,0,L|190:245,1,26,2|8,0:3|1:3,0:0:0:0:
112,328,102576,6,2,L|110:353,3,26,2|0|0|0,0:1|0:0|0:0|0:0,1:0:0:0:
109,353,102776,2,0,L|190:361,1,78
308,308,102976,2,0,L|389:316,1,78,8|0,1:3|0:0,0:0:0:0:
500,384,103176,1,8,1:3:0:0:
492,168,103376,5,2,0:0:0:0:
484,156,103476,1,2,0:0:0:0:
472,148,103576,2,0,P|420:152|372:216,1,104,8|0,1:3|0:0,0:0:0:0:
308,308,103876,1,8,1:3:0:0:
288,316,103976,2,0,L|296:216,1,52,4|0,1:3|0:0,0:0:0:0:
216,168,104176,2,0,L|221:117,1,52,8|0,1:3|0:0,0:0:0:0:
104,28,104376,5,4,1:3:0:0:
104,28,104576,1,2,0:0:0:0:
117,36,104676,1,2,0:0:0:0:
104,44,104776,1,8,1:2:0:0:
28,164,104976,5,2,0:0:0:0:
28,148,105076,1,2,0:0:0:0:
40,156,105176,2,0,P|72:176|111:177,1,77.999997619629,4|0,1:3|0:0,0:0:0:0:
221,116,105376,1,2,0:3:0:0:
104,296,105476,2,0,P|139:287|167:260,1,77.999997619629,2|8,0:0|1:2,0:0:0:0:
232,136,105676,1,2,0:0:0:0:
236,360,105776,2,0,P|275:295|277:217,1,155.999995239258,2|4,0:3|1:3,0:0:0:0:
380,32,106176,5,2,0:0:0:0:
376,44,106276,1,2,0:0:0:0:
372,56,106376,2,0,L|381:157,1,77.999997619629,8|0,1:2|0:0,0:0:0:0:
476,256,106576,2,0,B|484:224|484:224|441:281|364:272,1,155.999995239258,2|4,0:0|1:3,0:0:0:0:
236,360,106876,5,2,0:0:0:0:
236,360,107076,1,2,0:0:0:0:
236,360,107176,2,0,P|200:360|148:328,2,69.3333333333333,8|2|2,1:2|0:0|0:0,0:0:0:0:
40,312,107576,6,0,L|24:224,1,77.999997619629,4|0,1:3|0:0,0:0:0:0:
56,308,107776,2,0,L|40:220,1,77.999997619629,2|0,0:3|0:0,0:0:0:0:
188,124,107976,2,0,L|172:212,1,77.999997619629,8|0,1:2|0:0,0:0:0:0:
204,128,108176,2,0,L|188:216,1,77.999997619629,2|0,0:3|0:0,0:0:0:0:
236,360,108376,5,4,1:3:0:0:
236,360,108576,2,0,L|264:325,3,38.9999988098145,2|2|2|2,0:3|0:0|0:0|0:0,0:0:0:0:
247,371,108776,2,0,L|304:302,1,77.999997619629,8|0,1:2|0:0,0:0:0:0:
475,197,108976,2,0,P|461:255|396:206,1,155.999995239258,2|4,0:3|1:3,0:0:0:0:
368,80,109276,5,2,0:0:0:0:
381,88,109376,1,2,0:0:0:0:
368,96,109476,1,2,0:0:0:0:
246,50,109576,2,0,P|227:78|222:136,1,77.999997619629,8|0,1:2|0:0,0:0:0:0:
247,253,109776,2,0,P|261:282|309:315,1,77.999997619629,2|0,0:3|0:0,0:0:0:0:
143,201,109976,6,0,P|65:201|0:240,1,155.999995239258,4|2,1:3|0:3,0:0:0:0:
57,340,110276,1,2,0:0:0:0:
71,341,110376,1,8,1:2:0:0:
85,346,110476,1,2,0:0:0:0:
97,350,110576,2,0,L|131:371,3,38.9999988098145,2|2|2|2,0:3|0:0|0:0|0:0,0:0:0:0:
131,371,110776,6,0,P|150:343|155:285,1,77.999997619629,10|0,1:3|0:0,0:0:0:0:
308,337,110976,1,2,0:0:0:0:
300,323,111076,1,2,0:0:0:0:
296,310,111176,2,0,P|301:271|322:239,1,77.999997619629,8|2,1:3|0:0,0:0:0:0:
276,300,111376,2,0,P|281:261|302:229,1,77.999997619629,2|2,0:3|0:0,0:0:0:0:
484,140,111576,6,0,L|487:152,1,13,8|0,1:3|0:0,0:0:0:0:
487,152,111876,2,0,L|370:140,1,84.4999961318971,2|8,0:0|1:3,0:0:0:0:
424,308,112176,6,0,L|418:334,1,26,2|8,0:3|1:3,0:0:0:0:
418,333,112476,2,0,L|535:321,1,90.9999972229005,2|0,0:0|0:0,0:0:0:0:
283,58,112776,6,0,L|244:49,1,38.9999988098145,8|0,1:3|0:0,0:0:0:0:
245,50,113076,2,0,L|257:167,1,97.50000371933,2|8,0:0|1:3,0:0:0:0:
97,350,113376,6,0,L|46:363,1,52,2|8,0:3|1:3,0:0:0:0:
46,362,113676,2,0,L|58:245,1,104,2|0,0:0|0:0,0:0:0:0:
32,80,113976,6,0,P|83:72|130:92,1,104,8|0,1:3|0:0,0:0:0:0:
32,96,114176,2,0,P|82:88|129:108,1,104,8|0,0:3|0:0,0:0:0:0:
254,146,114376,6,0,P|286:185|291:236,1,104,8|0,1:3|0:0,0:0:0:0:
275,244,114577,2,0,P|242:204|236:153,1,104,8|0,0:3|0:0,0:0:0:0:
452,76,114776,6,0,P|484:116|490:166,1,104,8|2,1:3|0:0,0:0:0:0:
438,84,114976,2,0,P|469:123|476:174,1,104,8|2,0:3|0:0,0:0:0:0:
505,301,115176,6,0,P|486:348|445:379,1,104,8|2,1:3|0:0,0:0:0:0:
431,368,115377,2,0,P|449:320|490:289,1,104,8|2,0:3|0:0,0:0:0:0:
475,175,115576,5,8,1:3:0:0:
440,152,115676,1,8,0:3:0:0:
400,152,115776,1,8,0:3:0:0:
364,172,115876,1,8,0:3:0:0:
324,180,115976,1,8,1:3:0:0:
284,172,116076,1,8,0:3:0:0:
252,144,116176,1,8,0:3:0:0:
244,104,116276,1,8,0:3:0:0:
252,64,116376,6,0,L|240:28,1,26,10|10,1:3|0:3,0:0:0:0:
225,28,116476,2,0,L|195:17,1,26,10|10,0:3|0:3,0:0:0:0:
179,14,116576,2,0,L|137:22,1,26,10|10,0:3|0:3,0:0:0:0:
133,24,116676,2,0,L|99:51,1,26,10|10,0:3|0:3,0:0:0:0:
102,58,116776,6,0,L|82:106,7,38.9999988098145,10|10|10|10|10|10|10|10,1:3|0:3|0:3|0:3|0:3|0:3|0:3|0:3,0:0:0:0:
81,117,117176,6,0,P|80:168|106:211,1,97.5,2|0,0:0|0:0,0:0:0:0:
56,369,117576,6,0,P|99:327|226:330,1,195.00000743866,12|2,1:2|0:0,0:0:0:0:
228,331,117976,6,0,P|261:276|260:212,1,130,0|2,1:0|0:3,0:0:0:0:
292,4,118276,5,2,0:0:0:0:
339,82,118376,2,0,L|496:88,1,97.50000371933,8|0,1:2|0:0,0:0:0:0:
512,310,118576,2,0,P|500:362|432:342,1,130,2|0,0:0|1:0,0:0:0:0:
436,351,118976,6,0,P|397:323|349:322,1,97.50000371933,2|0,0:0|0:0,0:0:0:0:
259,211,119176,2,0,P|195:204|138:236,1,130,8|2,1:2|0:0,0:0:0:0:
1,342,119476,1,2,0:0:0:0:
1,342,119576,2,0,B|27:358|44:390|44:390|38:352|53:328,1,130,0|2,1:0|0:3,0:0:0:0:
98,73,119876,5,2,0:0:0:0:
17,120,119976,2,0,B|-14:160|-14:160|1:204,1,97.50000371933,8|0,1:2|0:0,0:0:0:0:
139,234,120176,2,0,B|170:194|170:194|154:149,1,97.50000371933,2|0,0:0|0:0,0:0:0:0:
434,66,120376,6,0,P|379:65|338:81,1,97.50000371933,0|0,1:0|0:0,0:0:0:0:
266,113,120576,2,0,P|297:76|341:55,1,97.50000371933,2|0,0:0|0:0,0:0:0:0:
465,195,120775,2,0,P|422:218|392:256,1,97.50000371933,8|0,1:2|0:0,0:0:0:0:
347,320,120976,2,0,P|354:273|381:233,1,97.50000371933,2|0,0:0|0:0,0:0:0:0:
154,149,121176,6,0,B|146:110|111:97|111:97|46:138|80:210,1,195.00000743866,0|2,1:0|0:3,0:0:0:0:
228,331,121476,1,2,0:0:0:0:
260,248,121576,2,0,L|162:252,1,97.50000371933,8|0,1:2|0:0,0:0:0:0:
347,321,121776,6,0,P|411:366|426:279,2,195.00000743866,2|0|2,0:0|1:0|0:0,0:0:0:0:
344,88,122376,2,0,B|352:140|352:140|344:162|344:162|355:218,1,130,8|2,1:2|0:3,0:0:0:0:
512,72,122676,1,2,0:0:0:0:
512,72,122776,2,0,B|493:42|494:7|494:7|473:34|442:44,1,130,0|2,1:0|0:0,0:0:0:0:
232,40,123076,5,2,0:0:0:0:
112,20,123176,2,0,P|82:57|78:105,1,97.50000371933,8|0,1:2|0:0,0:0:0:0:
234,131,123376,2,0,P|247:84|231:39,1,97.50000371933,2|0,0:0|0:0,0:0:0:0:
140,188,123576,6,0,P|139:239|165:282,1,97.5,4|0,1:0|0:0,0:0:0:0:
232,380,123976,6,0,B|280:336|280:272|280:272|280:312|316:344,1,195.00000743866,8|2,1:2|0:0,0:0:0:0:
308,337,124376,6,0,L|444:344,1,130,0|2,1:0|0:3,0:0:0:0:
512,80,124676,5,2,0:0:0:0:
424,164,124776,2,0,P|388:204|384:252,1,97.50000371933,8|0,1:2|0:0,0:0:0:0:
512,80,124976,2,0,B|464:40|464:40|360:52,1,130,2|0,0:0|1:0,0:0:0:0:
396,47,125376,6,0,L|299:59,1,97.50000371933,2|0,0:0|0:0,0:0:0:0:
140,188,125576,2,0,L|268:204,1,130,8|2,1:2|0:3,0:0:0:0:
412,272,125876,1,2,0:0:0:0:
412,272,125976,2,0,P|456:256|437:251,1,130,0|2,1:0|0:0,0:0:0:0:
344,144,126276,5,2,0:0:0:0:
268,204,126376,2,0,L|284:332,1,97.50000371933,8|0,1:2|0:0,0:0:0:0:
120,384,126576,2,0,L|132:287,1,97.50000371933,2|0,0:0|0:0,0:0:0:0:
176,36,126776,6,0,P|123:20|79:25,1,97.50000371933,0|0,1:0|0:0,0:0:0:0:
2,37,126976,2,0,P|41:9|89:0,1,97.50000371933,2|0,0:0|0:0,0:0:0:0:
173,168,127175,2,0,P|125:179|86:208,1,97.50000371933,8|0,1:2|0:0,0:0:0:0:
27,258,127376,2,0,P|45:214|82:182,1,97.50000371933,2|0,0:0|0:0,0:0:0:0:
304,64,127576,6,0,B|348:48|379:8|379:8|378:59|405:103,1,195.00000743866,0|2,1:0|0:3,0:0:0:0:
480,336,127876,1,2,0:0:0:0:
512,253,127976,2,0,L|414:257,1,97.50000371933,8|0,1:2|0:0,0:0:0:0:
200,312,128176,6,0,P|264:357|279:270,2,195.00000743866,2|0|2,0:0|1:0|0:0,0:0:0:0:
173,168,128776,2,0,B|226:172|226:172|247:162|247:162|304:168,1,130,8|2,1:2|0:3,0:0:0:0:
472,100,129076,1,2,0:0:0:0:
472,100,129176,2,0,B|456:60|456:60|348:48,1,130,0|2,1:0|0:0,0:0:0:0:
264,24,129476,5,2,0:0:0:0:
160,71,129576,2,0,L|176:199,1,97.50000371933,8|0,1:2|0:0,0:0:0:0:
27,258,129776,2,0,L|11:386,1,97.50000371933,2|0,0:3|0:0,0:0:0:0:
340,217,130176,5,10,1:3:0:0:
172,167,130376,1,10,1:3:0:0:
485,126,130576,1,10,1:3:0:0:
27,258,130776,1,10,1:3:0:0:
208,199,131176,6,0,L|305:192,1,97.5,10|0,1:3|0:0,0:0:0:0:
430,249,131576,6,0,P|461:312|370:358,1,195.00000743866,4|2,1:0|0:0,0:0:0:0:
208,199,131976,6,0,B|194:139|194:139|194:213,1,130,8|2,1:2|0:0,0:0:0:0:
141,344,132276,5,2,0:0:0:0:
141,344,132376,2,0,B|88:354|88:354|66:346|66:346|14:354,1,130,0|2,1:0|0:3,0:0:0:0:
30,151,132676,5,2,0:0:0:0:
123,151,132776,2,0,P|168:166|193:206,1,97.50000371933,8|0,1:2|0:0,0:0:0:0:
286,278,132976,2,0,P|307:320|296:367,1,97.50000371933,2|0,0:0|0:0,0:0:0:0:
500,178,133176,6,0,B|441:148|441:148|379:163,1,130,0|2,1:0|0:0,0:0:0:0:
430,249,133476,1,2,0:0:0:0:
430,249,133576,2,0,P|433:269|439:246,2,65,8|2|2,1:2|0:0|0:0,0:0:0:0:
278,136,133876,5,2,0:0:0:0:
278,136,133976,2,0,L|291:-35,1,130,0|2,1:0|0:3,0:0:0:0:
395,20,134276,1,0,0:0:0:0:
252,127,134376,2,0,L|244:224,1,97.50000371933,8|0,1:2|0:0,0:0:0:0:
141,344,134576,1,2,0:0:0:0:
42,226,134776,5,0,1:0:0:0:
42,226,134976,2,0,B|67:180|123:191,1,97.50000371933,2|2,0:0|0:0,0:0:0:0:
270,353,135176,2,0,L|140:343,1,130,8|2,1:2|0:3,0:0:0:0:
6,353,135476,1,2,0:0:0:0:
6,353,135576,2,0,P|9:373|15:350,2,65,0|0|2,1:0|0:0|0:0,0:0:0:0:
42,226,135876,5,2,0:0:0:0:
124,191,135976,2,0,B|173:176|205:224,1,97.50000371933,8|0,1:2|0:0,0:0:0:0:
270,353,136176,1,2,0:0:0:0:
512,83,136576,6,0,L|339:70,1,97.50000371933,10|10,1:3|1:3,0:0:0:0:
352,15,136776,2,0,L|352:28,1,13,10|0,1:3|0:0,0:0:0:0:
366,171,136976,6,0,L|193:184,1,97.50000371933,10|10,1:3|1:3,0:0:0:0:
206,226,137176,2,0,L|206:239,1,13,10|0,1:3|0:0,0:0:0:0:
140,343,137376,5,10,1:3:0:0:
47,316,137476,1,10,1:3:0:0:
0,165,137676,5,10,1:3:0:0:
93,138,137776,1,10,1:3:0:0:
327,97,137976,6,0,B|354:55|351:13|351:13|382:64|365:117,1,195.00000743866,4|2,1:0|0:0,0:0:0:0:
461,274,138376,6,0,P|515:293|493:249,1,130,8|2,1:2|0:0,0:0:0:0:
335,229,138676,5,2,0:0:0:0:
335,229,138776,2,0,L|164:242,1,130,0|2,1:0|0:3,0:0:0:0:
161,384,139076,5,2,0:0:0:0:
80,338,139176,2,0,P|48:302|46:255,1,97.50000371933,8|0,1:2|0:0,0:0:0:0:
2,147,139376,2,0,P|4:100|37:64,1,97.50000371933,2|0,0:0|0:0,0:0:0:0:
219,10,139576,6,0,B|250:19|282:10|282:10|262:36|260:70,1,130,0|2,1:0|0:0,0:0:0:0:
150,107,139876,1,2,0:0:0:0:
150,107,139976,2,0,P|147:87|141:110,2,65,8|2|2,1:2|0:0|0:0,0:0:0:0:
205,238,140276,5,2,0:0:0:0:
205,238,140376,2,0,L|34:251,1,130,0|2,1:0|0:3,0:0:0:0:
2,147,140676,1,0,0:0:0:0:
196,212,140776,2,0,L|293:204,1,97.50000371933,8|0,1:2|0:0,0:0:0:0:
394,90,140976,1,2,0:0:0:0:
444,219,141176,5,0,1:0:0:0:
444,219,141376,2,0,B|456:277|410:302,1,97.50000371933,2|2,0:0|0:0,0:0:0:0:
293,204,141576,2,0,L|283:74,1,130,8|2,1:2|0:3,0:0:0:0:
394,90,141876,1,2,0:0:0:0:
394,90,141976,2,0,P|414:87|391:81,2,65,0|0|2,1:0|0:0|0:0,0:0:0:0:
444,219,142276,5,2,0:0:0:0:
410,301,142376,2,0,B|385:346|329:334,1,97.50000371933,8|0,1:2|0:0,0:0:0:0:
192,290,142576,1,2,0:0:0:0:
256,192,142776,12,0,143876,0:0:0:0:
326,333,143976,5,0,0:0:0:0:
346,173,144376,6,0,B|307:129|263:81|371:-9|411:106|335:121,1,195,4|0,1:0|0:0,0:0:0:0:
361,105,144776,2,0,P|305:136|242:126,1,130,2|2,0:3|0:0,0:0:0:0:
60,106,145076,1,2,0:0:0:0:
45,10,145176,2,0,P|107:21|148:70,1,130,8|2,0:0|0:0,0:0:0:0:
215,297,145476,1,2,0:3:0:0:
90,350,145576,2,0,P|89:254|146:176,1,195,4|0,0:3|0:0,0:0:0:0:
280,306,146376,6,0,L|216:298,1,65,2|0,0:3|0:0,0:0:0:0:
226,317,146576,2,0,L|290:325,1,65,2|0,0:0|0:0,0:0:0:0:
352,228,146776,2,0,L|361:156,1,65,8|0,0:0|0:0,0:0:0:0:
430,73,146976,2,0,L|435:116,2,43.3333333333333,4|2|2,0:3|0:0|0:0,0:0:0:0:
419,56,147176,2,0,L|483:48,1,65,2|0,0:3|0:0,0:0:0:0:
512,220,147376,6,0,L|479:216,1,32.5,2|0,0:0|0:0,0:0:0:0:
508,200,147476,2,0,L|475:196,1,32.5,2|0,0:3|0:0,0:0:0:0:
493,183,147576,2,0,B|477:225|492:264|492:264|490:322|425:353,1,195,4|0,0:3|0:0,0:0:0:0:
430,350,147976,2,0,P|369:328|306:341,1,130,2|2,0:3|0:0,0:0:0:0:
226,317,148276,1,2,0:0:0:0:
184,151,148376,2,0,P|204:90|253:48,1,130,8|2,0:0|0:0,0:0:0:0:
337,0,148676,1,2,0:3:0:0:
512,102,148776,2,0,P|417:118|345:182,1,195,4|0,0:3|0:0,0:0:0:0:
184,151,149576,6,0,L|176:87,1,65,2|0,0:3|0:0,0:0:0:0:
157,77,149776,2,0,L|165:141,1,65,2|0,0:0|0:0,0:0:0:0:
54,254,149976,1,8,0:0:0:0:
50,279,150076,1,2,0:3:0:0:
46,307,150176,2,0,L|110:299,2,43.3333333333333,4|2|2,0:3|0:0|0:0,0:0:0:0:
122,323,150376,2,0,L|186:315,2,43.3333333333333,2|2|2,0:3|0:3|0:3,0:0:0:0:
199,340,150576,2,0,L|263:348,1,65,2|0,0:0|0:0,0:0:0:0:
331,333,150776,6,0,B|287:294|239:250|149:358|264:398|279:322,1,195,4|0,0:3|0:0,0:0:0:0:
263,348,151176,2,0,P|294:292|284:229,1,130,2|2,0:3|0:0,0:0:0:0:
264,47,151476,1,2,0:0:0:0:
168,32,151576,2,0,P|179:94|228:135,1,130,8|2,0:0|0:0,0:0:0:0:
455,202,151876,1,2,0:3:0:0:
508,77,151976,2,0,P|412:76|334:133,1,195,4|0,0:3|0:0,0:0:0:0:
210,58,152776,6,0,L|274:66,1,65,2|0,0:3|0:0,0:0:0:0:
264,47,152976,2,0,L|200:39,1,65,2|0,0:0|0:0,0:0:0:0:
138,136,153176,2,0,L|129:208,1,65,8|0,0:0|0:0,0:0:0:0:
60,291,153376,2,0,L|55:248,2,43.3333333333333,4|2|2,0:3|0:0|0:0,0:0:0:0:
71,308,153576,2,0,L|7:316,1,65,2|0,0:3|0:0,0:0:0:0:
36,114,153776,6,0,L|68:117,1,32.5,2|0,0:0|0:0,0:0:0:0:
40,134,153876,2,0,L|72:137,1,32.5,2|0,0:3|0:0,0:0:0:0:
35,94,153976,2,0,B|80:79|110:40|110:40|109:91|136:134,1,195,4|0,0:3|0:0,0:0:0:0:
137,135,154376,2,0,P|174:188|177:252,1,130,2|2,0:3|0:0,0:0:0:0:
336,384,154676,1,2,0:0:0:0:
428,342,154776,2,0,P|481:306|509:248,1,130,8|2,0:0|0:0,0:0:0:0:
469,0,155076,1,2,0:3:0:0:
366,36,155176,2,0,P|375:131|331:218,1,195,4|0,0:3|0:0,0:0:0:0:
418,323,155976,6,0,L|482:331,1,65,2|0,0:3|0:0,0:0:0:0:
492,350,156176,2,0,L|428:342,1,65,2|0,0:0|0:0,0:0:0:0:
233,274,156376,6,0,P|245:266|241:278,2,32.5,8|0|4,0:0|0:0|0:3,0:0:0:0:
137,242,156776,6,0,L|382:211,1,195.00000743866,0|2,1:0|0:0,0:0:0:0:
512,120,157176,5,4,1:0:0:0:
512,120,157576,5,2,0:3:0:0:
414,85,157709,1,2,0:0:0:0:
316,119,157842,1,2,0:0:0:0:
307,143,157976,5,8,0:0:0:0:
209,178,158109,1,2,0:0:0:0:
111,144,158242,1,2,0:0:0:0:
22,49,158376,5,4,0:3:0:0:
12,73,158576,2,0,B|20:125|20:125|12:147|12:147|23:203,1,130,2|0,0:0|0:0,0:0:0:0:
105,350,159176,6,0,L|123:254,1,86.6666666666667,2|2,0:3|0:0,0:0:0:0:
146,258,159576,1,8,0:0:0:0:
276,178,159709,1,2,0:0:0:0:
268,65,159842,1,2,0:0:0:0:
174,132,159976,2,0,L|110:143,1,43.3333333333333,2|2,0:3|0:0,0:0:0:0:
276,178,160376,5,4,0:3:0:0:
276,178,160576,1,2,0:0:0:0:
276,256,160676,1,2,0:0:0:0:
337,305,160776,1,2,0:3:0:0:
414,288,160876,1,2,0:0:0:0:
447,217,160976,1,2,0:0:0:0:
414,147,161076,1,2,0:0:0:0:
337,130,161176,6,0,L|355:34,1,97.5,8|2,0:0|0:0,0:0:0:0:
277,39,161576,1,4,0:3:0:0:
202,17,161676,1,2,0:0:0:0:
125,31,161776,1,2,0:0:0:0:
77,92,161876,1,2,0:0:0:0:
71,184,161976,5,2,0:3:0:0:
146,202,162076,1,2,0:0:0:0:
206,253,162176,1,2,0:0:0:0:
217,329,162276,1,2,0:0:0:0:
159,381,162376,2,0,P|122:389|94:380,1,65,2|2,0:3|0:0,0:0:0:0:
65,293,162676,5,2,0:0:0:0:
65,293,162776,2,0,B|40:271|40:271|22:308,2,65,8|4|2,0:0|0:3|0:3,0:0:0:0:
206,253,163276,2,0,L|302:235,1,97.5,2|4,0:0|0:3,0:0:0:0:
301,235,163976,5,2,0:3:0:0:
404,229,164109,1,2,0:0:0:0:
480,299,164242,1,2,0:0:0:0:
460,316,164376,5,8,0:0:0:0:
445,213,164509,1,2,0:0:0:0:
510,132,164642,1,2,0:0:0:0:
362,91,164776,5,4,0:3:0:0:
369,65,164909,2,0,P|318:32|246:45,1,130,2|0,0:0|0:0,0:0:0:0:
42,165,165576,6,0,L|-1:157,2,43.3333333333333,2|2|2,0:3|0:0|0:0,0:0:0:0:
142,191,165976,1,8,0:0:0:0:
234,144,166109,1,2,0:0:0:0:
252,41,166242,1,2,0:0:0:0:
131,0,166376,2,0,L|110:111,1,97.5,2|0,0:3|0:0,0:0:0:0:
142,191,166776,5,4,0:3:0:0:
91,250,166876,1,2,0:0:0:0:
116,323,166976,1,2,0:0:0:0:
192,336,167076,1,2,0:0:0:0:
244,278,167176,2,0,L|282:290,2,32.5,2|2|2,0:3|0:0|0:0,0:0:0:0:
241,258,167476,1,2,0:0:0:0:
266,133,167576,6,0,P|291:107|326:97,1,65,8|2,0:0|0:0,0:0:0:0:
434,34,167876,1,2,0:0:0:0:
404,108,167976,1,4,0:3:0:0:
466,45,168076,1,2,0:0:0:0:
425,118,168176,1,2,0:0:0:0:
493,72,168276,1,2,0:0:0:0:
443,131,168376,5,2,0:3:0:0:
385,184,168476,1,2,0:0:0:0:
376,261,168576,1,2,0:0:0:0:
398,335,168676,1,2,0:0:0:0:
467,369,168776,2,0,L|483:324,2,32.5,2|2|2,0:3|0:0|0:0,0:0:0:0:
478,384,169076,1,2,0:0:0:0:
331,384,169176,6,0,L|315:339,1,32.5,8|2,0:0|0:0,0:0:0:0:
205,215,169376,1,4,0:3:0:0:
219,228,169476,1,2,0:0:0:0:
224,245,169576,2,0,P|191:248|164:265,1,65,2|2,0:3|0:0,0:0:0:0:
5,323,169976,5,2,0:3:0:0:
