osu file format v14

[General]
AudioFilename: audio.mp3
AudioLeadIn: 0
PreviewTime: 376
Countdown: 0
SampleSet: Soft
StackLeniency: 0.6
Mode: 0
LetterboxInBreaks: 0
WidescreenStoryboard: 0

[Editor]
DistanceSpacing: 1.8
BeatDivisor: 2
GridSize: 4
TimelineZoom: 2.4

[Metadata]
Title:snooze
TitleUnicode:snooze
Artist:wotaku feat. SHIKI
ArtistUnicode:wotaku feat. SHIKI
Creator:Beren
Version:normal
Source:
Tags:Atlust Calvaria Ntauch N T C axey bakahuang necho cqmasai Reincarnation cube hannah ちふり japanese pop electronic
BeatmapID:3576440
BeatmapSetID:1745709

[Difficulty]
HPDrainRate:3
CircleSize:2.7
OverallDifficulty:5
ApproachRate:5
SliderMultiplier:1
SliderTickRate:1

[Events]
//Background and Video events
0,0,"IMG_6600.PNG",0,0
Video,-185,"snooze.mp4"
//Break Periods
2,66176,77776
//Storyboard Layer 0 (Background)
//Storyboard Layer 1 (Fail)
//Storyboard Layer 2 (Pass)
//Storyboard Layer 3 (Foreground)
//Storyboard Layer 4 (Overlay)
//Storyboard Sound Samples

[TimingPoints]
376,400,4,2,0,60,1,0
376,-133.333333333333,4,2,0,60,0,0
6776,-133.333333333333,4,2,0,70,0,0
13176,-100,4,2,0,75,0,0
14776,-100,4,2,0,80,0,0
33976,-100,4,2,0,60,0,0
37176,-100,4,2,0,80,0,0
40376,-100,4,2,0,70,0,0
65976,-100,4,2,0,60,0,0
85176,-100,4,2,0,65,0,0
91576,-100,4,2,0,70,0,0
144376,-100,4,2,0,80,0,0

[Colours]
Combo1 : 168,210,215
Combo2 : 203,150,135
Combo3 : 216,217,166
Combo4 : 168,215,172

[HitObjects]
24,292,376,6,0,P|56:228|203:223,1,225.000008583069,4|0,1:0|0:0,0:0:0:0:
300,275,1976,6,0,B|345:338|345:338|423:344|477:316|491:291,1,225.000008583069,2|0,0:3|0:0,0:0:0:0:
449,185,3576,6,0,B|411:132|429:58|429:58|391:94|344:86,1,225.000008583069,2|2,0:3|0:2,0:0:0:0:
223,87,5176,6,0,L|133:72,1,75.0000028610231,2|2,0:3|0:2,0:0:0:0:
99,183,5976,2,0,L|13:198,1,75.0000028610231,2|2,0:3|0:2,0:0:0:0:
26,320,6776,5,4,1:2:0:0:
26,320,7176,1,8,1:2:0:0:
135,369,7576,1,0,1:2:0:0:
135,369,7976,1,8,1:2:0:0:
193,266,8376,5,0,1:2:0:0:
193,266,8776,1,8,1:2:0:0:
311,307,9176,1,0,1:2:0:0:
311,307,9576,1,8,1:2:0:0:
316,190,9976,6,0,L|360:210,1,37.5000014305115,8|8,1:2|1:2,0:0:0:0:
408,221,10376,2,0,L|445:192,1,37.5000014305115,8|8,1:2|1:2,0:0:0:0:
498,167,10776,2,0,B|479:141|479:141|497:112|497:112|461:95|461:95|474:77|474:77|459:40,1,150.000005722046,8|4,1:2|0:1,0:0:0:0:
81,133,13176,6,0,P|57:76|53:50,2,75,2|2|2,0:3|0:3|0:3,0:0:0:0:
170,127,13976,2,0,L|221:139,1,50,2|2,0:3|0:3,0:0:0:0:
264,215,14376,2,0,L|263:277,1,50,2|2,0:3|0:3,0:0:0:0:
198,327,14776,6,0,L|108:353,2,75,4|2|2,1:2|0:3|0:3,0:0:0:0:
281,374,15576,1,0,1:0:0:0:
281,374,15776,1,2,0:3:0:0:
358,328,15976,1,0,1:0:0:0:
358,328,16176,1,2,0:3:0:0:
445,348,16376,6,0,P|451:307|442:253,1,75,0|2,1:0|0:3,0:0:0:0:
489,147,16976,1,2,0:3:0:0:
489,147,17176,2,0,L|426:138,1,50,0|2,1:0|0:3,0:0:0:0:
360,96,17576,2,0,L|354:40,1,50,0|2,1:0|0:3,0:0:0:0:
264,39,17976,6,0,L|175:39,2,75,0|2|2,1:0|0:3|0:3,0:0:0:0:
265,133,18776,1,0,1:0:0:0:
265,133,18976,1,2,0:3:0:0:
186,172,19176,1,0,1:0:0:0:
186,172,19376,1,2,0:3:0:0:
127,240,19576,6,0,P|101:295|96:324,1,75,0|2,1:0|0:3,0:0:0:0:
225,366,20176,1,2,0:3:0:0:
225,366,20376,2,0,L|289:362,1,50,0|2,1:0|0:3,0:0:0:0:
364,361,20776,2,0,L|396:376,2,25,0|2|2,1:0|0:3|0:3,0:0:0:0:
374,271,21176,6,0,P|383:221|396:193,2,75,4|2|2,1:2|0:3|0:3,0:0:0:0:
292,246,21976,1,0,1:0:0:0:
292,246,22176,1,2,0:3:0:0:
237,181,22376,1,0,1:0:0:0:
237,181,22576,1,2,0:3:0:0:
151,210,22776,6,0,P|115:167|108:133,1,75,0|2,1:0|0:3,0:0:0:0:
168,29,23376,1,2,0:3:0:0:
168,29,23576,2,0,L|231:38,1,50,0|2,1:0|0:3,0:0:0:0:
281,99,23976,2,0,L|340:91,1,50,0|2,1:0|0:3,0:0:0:0:
420,103,24376,6,0,P|437:56|443:29,2,75,0|2|2,1:0|0:3|0:3,0:0:0:0:
407,195,25176,1,0,1:0:0:0:
407,195,25376,1,2,0:3:0:0:
436,285,25576,1,0,1:0:0:0:
436,285,25776,1,2,0:3:0:0:
361,335,25976,6,0,P|319:351|282:351,1,75,0|2,1:0|0:3,0:0:0:0:
162,305,26576,1,2,0:3:0:0:
88,357,26776,2,0,L|58:365,2,25,0|2|2,1:0|0:2|0:2,0:0:0:0:
78,267,27176,2,0,L|42:245,2,25,6|2|2,1:2|0:2|0:2,0:0:0:0:
141,203,27576,6,0,L|123:121,2,75,4|2|2,0:1|0:3|0:3,0:0:0:0:
225,166,28376,1,0,1:0:0:0:
225,166,28576,1,2,0:3:0:0:
311,207,28776,1,0,1:0:0:0:
311,207,28976,1,2,0:3:0:0:
388,253,29176,6,0,P|431:252|463:229,1,75,0|2,1:0|0:3,0:0:0:0:
488,107,29776,1,2,0:3:0:0:
488,107,29976,2,0,L|457:50,1,50,0|2,1:0|0:3,0:0:0:0:
375,78,30376,2,0,L|334:108,1,50,0|2,1:0|0:3,0:0:0:0:
247,82,30776,6,0,P|196:63|168:37,2,75,0|2|2,1:0|0:3|0:3,0:0:0:0:
266,174,31576,1,0,1:0:0:0:
266,174,31776,1,2,0:3:0:0:
262,267,31976,1,0,1:0:0:0:
262,267,32176,1,2,0:3:0:0:
181,306,32376,6,0,L|86:329,2,75,0|0|0,1:0|1:0|1:0,0:0:0:0:
360,103,33576,1,4,1:1:0:0:
495,221,33976,6,0,L|511:269,1,50,2|2,1:3|1:3,0:0:0:0:
443,328,34376,2,0,L|394:362,1,50,2|2,1:3|1:3,0:0:0:0:
312,347,34776,2,0,L|251:314,1,50,2|2,1:3|1:3,0:0:0:0:
269,232,35176,2,0,L|273:163,1,50,2|2,1:3|1:3,0:0:0:0:
282,92,35576,6,0,L|224:70,1,50,2|2,1:3|1:3,0:0:0:0:
151,60,35976,1,2,1:3:0:0:
151,60,36176,1,2,1:3:0:0:
69,98,36376,2,0,L|72:161,1,50,2|2,1:3|1:3,0:0:0:0:
18,221,36776,1,2,0:3:0:0:
18,221,36976,1,2,0:3:0:0:
71,293,37176,6,0,P|102:307|136:346,2,75,4|2|8,1:2|0:3|1:3,0:0:0:0:
141,235,37976,2,0,L|198:200,1,50,0|8,1:0|1:3,0:0:0:0:
243,141,38376,2,0,L|234:74,1,50,0|8,1:0|1:3,0:0:0:0:
307,36,38776,6,0,B|333:17|333:17|351:29|351:29|368:22|368:22|390:43|390:43|440:27,1,150,0|8,1:0|1:3,0:0:0:0:
455,116,39576,2,0,L|463:173,1,50,0|8,1:0|1:3,0:0:0:0:
191,154,40376,6,0,L|163:211,1,50,0|4,1:0|0:3,0:0:0:0:
100,257,40776,2,0,L|102:312,1,50,0|4,1:0|0:3,0:0:0:0:
189,328,41176,2,0,L|241:385,2,75,0|4|0,1:0|0:3|0:0,0:0:0:0:
271,289,41976,6,0,L|382:292,2,100,4|8|2,1:0|1:2|0:0,0:0:0:0:
250,206,42976,1,8,1:2:0:0:
250,206,43176,2,0,L|182:214,1,50,8|4,1:2|0:3,0:0:0:0:
162,130,43576,2,0,P|154:108|155:26,1,100,4|8,0:3|1:2,0:0:0:0:
62,43,44176,1,2,0:2:0:0:
23,124,44376,2,0,P|8:179|18:233,1,100,2|8,0:0|1:2,0:0:0:0:
42,312,44976,5,4,0:3:0:0:
42,312,45176,2,0,L|142:322,1,100,4|8,0:3|1:2,0:0:0:0:
231,319,45776,1,4,0:3:0:0:
277,241,45976,2,0,L|287:213,2,25,2|0|8,0:0|1:0|1:2,0:0:0:0:
353,287,46376,2,0,L|420:317,1,50,8|4,1:2|0:3,0:0:0:0:
468,250,46776,2,0,P|484:190|471:143,1,100,8|8,3:3|3:3,0:0:0:0:
338,37,47576,2,0,B|293:46|293:46|272:112,1,100,8|8,3:3|3:3,0:0:0:0:
108,161,48376,6,0,L|-11:153,2,100,4|8|2,1:0|1:2|0:0,0:0:0:0:
189,210,49376,1,8,1:2:0:0:
189,210,49576,2,0,L|162:277,1,50,8|4,1:2|0:3,0:0:0:0:
245,305,49976,2,0,P|294:330|356:321,1,100,4|8,0:3|1:2,0:0:0:0:
426,311,50576,1,2,0:2:0:0:
472,233,50776,2,0,L|460:119,1,100,2|8,0:0|1:2,0:0:0:0:
397,78,51376,5,4,0:3:0:0:
397,78,51576,2,0,P|340:73|288:99,1,100,4|8,0:3|1:2,0:0:0:0:
219,125,52176,1,4,0:3:0:0:
131,105,52376,2,0,L|107:83,2,25,2|0|8,0:0|1:0|1:2,0:0:0:0:
86,183,52776,2,0,P|71:215|71:246,1,50,8|4,1:2|0:3,0:0:0:0:
32,311,53176,2,0,B|133:347|108:253|221:316,1,200,4|8,0:3|1:2,0:0:0:0:
399,344,54376,2,0,L|418:282,1,50,2|4,0:0|0:3,0:0:0:0:
425,207,54776,6,0,P|376:195|312:216,2,100,4|8|2,1:0|1:2|0:0,0:0:0:0:
487,142,55776,1,8,1:2:0:0:
487,142,55976,2,0,L|499:81,1,50,8|4,1:2|0:3,0:0:0:0:
413,57,56376,2,0,L|305:56,1,100,4|8,0:3|1:2,0:0:0:0:
278,139,56976,1,2,0:2:0:0:
188,151,57176,2,0,P|169:99|169:53,1,100,2|8,0:0|1:2,0:0:0:0:
84,42,57776,5,4,0:3:0:0:
84,42,57976,2,0,P|63:96|18:125,1,100,4|8,0:3|1:2,0:0:0:0:
73,199,58576,1,4,0:3:0:0:
26,276,58776,2,0,L|4:296,2,25,2|0|8,0:0|1:0|1:2,0:0:0:0:
101,324,59176,2,0,L|128:389,1,50,8|4,1:2|0:3,0:0:0:0:
299,357,59776,6,0,L|329:374,2,25,4|4|8,3:3|3:3|3:3,0:0:0:0:
377,312,60176,2,0,L|409:320,2,25,4|4|8,3:3|3:3|3:3,0:0:0:0:
389,222,60576,2,0,L|375:181,1,25,4|8,3:3|3:3,0:0:0:0:
353,112,60876,2,0,L|367:91,1,25,8|4,3:3|3:3,0:0:0:0:
282,58,61176,6,0,L|165:75,2,100,4|8|2,1:0|1:2|0:0,0:0:0:0:
259,148,62176,1,8,1:2:0:0:
259,148,62376,2,0,P|252:186|245:202,1,50,8|4,1:2|0:3,0:0:0:0:
157,189,62776,2,0,P|93:218|80:259,1,100,4|8,0:3|1:2,0:0:0:0:
45,324,63376,1,2,0:2:0:0:
130,351,63576,2,0,P|191:338|238:353,1,100,4|8,0:3|1:2,0:0:0:0:
319,366,64176,5,2,0:2:0:0:
319,366,64376,2,0,L|351:386,2,25,4|4|8,0:3|0:3|1:2,0:0:0:0:
360,285,64776,2,0,P|360:239|363:215,1,50,8|4,1:2|0:3,0:0:0:0:
448,217,65176,2,0,L|441:150,1,50,4|4,0:3|0:3,0:0:0:0:
435,77,65576,2,0,B|403:75|403:74|401:73|401:73|384:90|384:90|361:76|361:76|337:84,1,100,8|4,1:2|0:0,0:0:0:0:
379,335,78976,6,0,L|437:348,2,50,2|2|0,0:0|3:0|3:0,0:0:0:0:
291,354,79576,2,0,L|229:369,2,50,0|0|2,3:0|3:0|3:0,0:0:0:0:
291,263,80176,1,0,3:0:0:0:
342,90,80576,6,0,L|356:40,2,50,2|2|0,0:0|3:0|3:0,0:0:0:0:
252,97,81176,2,0,L|252:163,2,50,0|0|2,3:0|3:0|3:0,0:0:0:0:
172,54,81776,1,0,3:0:0:0:
66,200,82176,6,0,L|14:188,2,50,2|2|0,0:0|3:0|3:0,0:0:0:0:
84,288,82776,2,0,L|34:293,2,50,0|0|2,3:0|3:0|3:0,0:0:0:0:
169,260,83376,1,0,3:0:0:0:
340,314,83776,6,0,L|428:320,1,75,2|0,0:0|0:0,0:0:0:0:
447,188,84376,2,0,L|392:158,1,50,0|0,3:0|3:0,0:0:0:0:
374,78,84776,1,2,3:0:0:0:
102,101,85376,6,0,L|93:50,2,50,2|2|0,0:0|3:0|3:0,0:0:0:0:
122,188,85976,2,0,L|112:246,2,50,0|0|2,3:0|3:0|3:0,0:0:0:0:
204,153,86576,1,0,3:0:0:0:
371,87,86976,6,0,L|435:83,2,50,2|2|0,0:0|3:0|3:0,0:0:0:0:
360,176,87576,2,0,L|311:153,2,50,0|0|2,3:0|3:0|3:0,0:0:0:0:
418,245,88176,1,0,3:0:0:0:
242,285,88576,6,0,L|248:225,2,50,2|2|0,0:0|3:0|3:0,0:0:0:0:
168,336,89176,2,0,L|185:398,2,50,0|0|2,3:0|3:0|3:0,0:0:0:0:
87,295,89776,1,0,3:0:0:0:
68,112,91576,6,0,P|119:97|186:109,1,100,4|0,1:0|0:0,0:0:0:0:
231,268,92376,2,0,L|224:348,2,75,8|4|4,1:3|1:3|1:3,0:0:0:0:
301,102,93376,2,0,L|363:113,2,50,2|2|4,0:0|0:0|0:3,0:0:0:0:
252,26,93976,1,8,1:3:0:0:
431,18,94376,1,4,1:3:0:0:
507,180,94776,1,4,0:3:0:0:
379,306,95176,5,2,0:1:0:0:
200,286,95576,2,0,L|192:365,2,75,8|4|4,1:3|1:3|1:3,0:0:0:0:
241,206,96376,2,0,P|201:195|148:151,1,100,0|2,0:0|0:0,0:0:0:0:
16,276,97176,2,0,L|39:358,2,75,8|4|4,1:3|0:3|0:3,0:0:0:0:
28,186,97976,1,4,1:3:0:0:
75,12,98376,1,2,0:0:0:0:
244,298,99376,6,0,P|299:283|355:293,1,100,4|4,0:3|0:3,0:0:0:0:
468,332,100076,1,4,0:3:0:0:
481,197,100376,2,0,L|504:122,2,75,8|4|4,1:3|1:3|1:3,0:0:0:0:
391,197,101176,1,4,1:3:0:0:
311,87,101476,1,4,1:3:0:0:
355,307,101976,1,2,0:3:0:0:
42,87,102976,6,0,L|21:150,1,50,8|8,1:3|1:3,0:0:0:0:
71,308,103576,2,0,L|155:295,1,75,8|8,1:3|1:3,0:0:0:0:
188,309,103976,2,0,L|212:365,2,50,4|8|4,1:3|1:3|1:3,0:0:0:0:
241,136,104776,5,8,1:2:0:0:
407,65,105176,2,0,P|449:45|487:40,2,75,4|2|2,1:3|0:0|0:3,0:0:0:0:
240,129,106176,5,2,0:0:0:0:
240,129,106376,2,0,L|250:9,1,100,8|4,1:2|1:3,0:0:0:0:
75,81,107176,1,8,1:2:0:0:
27,254,107576,6,0,L|7:314,1,50,4|2,1:3|0:3,0:0:0:0:
98,321,107976,2,0,L|111:382,1,50,8|2,1:2|0:3,0:0:0:0:
198,362,108376,2,0,P|263:381|311:366,2,100,4|8|4,1:3|1:2|1:3,0:0:0:0:
229,184,109576,6,0,L|242:118,1,50,8|2,1:2|0:3,0:0:0:0:
314,86,109976,2,0,P|359:87|410:117,1,100,4|8,1:3|1:2,0:0:0:0:
489,272,110776,5,10,1:3:0:0:
505,92,111176,1,8,1:3:0:0:
353,189,111576,1,8,1:3:0:0:
407,360,111976,1,8,1:3:0:0:
227,372,112376,6,0,L|222:314,1,50,8|0,1:3|0:0,0:0:0:0:
139,286,112776,2,0,L|74:290,1,50,8|0,1:3|0:0,0:0:0:0:
50,207,113176,2,0,L|33:153,1,50,8|2,1:3|0:3,0:0:0:0:
70,76,113576,2,0,L|131:50,1,50,8|0,1:3|0:0,0:0:0:0:
208,44,113976,5,8,1:3:0:0:
208,44,114176,1,8,0:3:0:0:
279,98,114376,2,0,L|331:90,1,50,8|8,1:3|0:3,0:0:0:0:
396,32,114776,1,8,1:3:0:0:
396,32,114976,1,8,0:3:0:0:
446,106,115176,2,0,L|456:168,1,50,8|8,1:3|0:3,0:0:0:0:
474,243,115576,6,0,B|450:238|450:238|449:252|449:252|428:252|428:252|422:273|422:273|385:280|385:280|371:301|371:301|352:296,1,150,8|8,3:1|0:3,0:0:0:0:
297,358,116376,2,0,B|277:345|277:345|264:353|264:353|245:333|245:333|236:348|236:348|208:325|208:325|196:334|196:334|172:310,1,150,10|10,1:3|0:3,0:0:0:0:
97,305,117176,6,0,P|57:326|-7:322,1,100,2|12,0:0|1:2,0:0:0:0:
0,145,117976,1,0,1:0:0:0:
177,171,118376,2,0,P|207:174|236:167,1,50,8|2,1:2|0:0,0:0:0:0:
229,80,118776,6,0,L|238:24,1,50,0|2,1:0|0:0,0:0:0:0:
324,53,119176,2,0,P|374:36|424:40,1,100,8|0,1:2|1:0,0:0:0:0:
502,76,119776,2,0,L|510:14,2,50,2|8|2,0:3|1:2|0:0,0:0:0:0:
501,166,120376,6,0,L|508:269,1,100,0|8,1:0|1:2,0:0:0:0:
444,329,120976,1,2,0:0:0:0:
444,329,121176,2,0,L|379:333,1,50,0|2,1:0|0:3,0:0:0:0:
309,298,121576,1,8,1:2:0:0:
269,217,121776,6,0,P|329:198|377:206,1,100,2|2,0:0|0:0,0:0:0:0:
454,189,122376,2,0,L|448:124,1,50,8|2,1:2|0:3,0:0:0:0:
461,54,122776,1,0,1:0:0:0:
461,54,122976,2,0,L|515:67,2,50,2|8|2,0:0|1:2|0:0,0:0:0:0:
374,28,123576,5,4,1:0:0:0:
194,33,123976,2,0,P|154:31|117:40,1,50,8|2,1:2|0:0,0:0:0:0:
162,120,124376,2,0,L|175:238,1,100,0|8,1:0|1:2,0:0:0:0:
87,237,124976,5,2,0:0:0:0:
87,237,125176,2,0,L|30:229,1,50,0|2,1:0|0:0,0:0:0:0:
32,319,125576,2,0,P|78:352|140:347,1,100,8|0,1:2|1:0,0:0:0:0:
215,334,126176,2,0,L|208:383,2,50,2|8|2,0:0|1:2|0:0,0:0:0:0:
258,254,126776,6,0,P|270:205|256:150,1,100,0|8,1:0|1:2,0:0:0:0:
304,79,127376,1,2,0:0:0:0:
304,79,127576,2,0,L|369:83,1,50,0|2,1:0|0:3,0:0:0:0:
443,71,127976,1,8,1:2:0:0:
466,157,128176,6,0,P|416:159|362:195,1,100,2|2,0:0|0:0,0:0:0:0:
388,272,128776,2,0,L|398:330,1,50,8|2,1:2|0:3,0:0:0:0:
310,328,129176,1,0,1:0:0:0:
310,328,129376,2,0,L|297:382,2,50,2|8|2,0:0|1:2|0:3,0:0:0:0:
281,149,130176,5,10,1:3:0:0:
211,91,130376,1,10,1:3:0:0:
123,70,130576,1,10,1:3:0:0:
40,105,130776,1,10,1:3:0:0:
28,288,131176,1,10,1:3:0:0:
207,301,131576,6,0,P|264:297|319:317,1,100,4|8,1:0|1:2,0:0:0:0:
398,309,132176,1,2,0:0:0:0:
398,309,132376,2,0,L|388:244,1,50,0|2,1:0|0:3,0:0:0:0:
348,179,132776,2,0,P|382:171|413:171,1,50,8|2,1:2|0:0,0:0:0:0:
479,133,133176,6,0,P|498:94|499:24,1,100,0|8,1:0|1:2,0:0:0:0:
324,69,133976,2,0,P|311:11|297:-8,2,75,0|0|2,1:0|0:0|0:0,0:0:0:0:
236,90,134776,2,0,L|128:101,1,100,0|8,1:0|1:2,0:0:0:0:
92,274,135576,2,0,P|128:266|155:241,2,75,0|2|2,1:0|0:0|0:0,0:0:0:0:
261,333,136576,6,0,L|273:373,2,25,10|10|10,1:3|1:3|1:3,0:0:0:0:
350,316,136976,2,0,L|362:356,2,25,10|10|10,1:3|1:3|1:3,0:0:0:0:
408,246,137376,2,0,L|392:214,1,25,10|10,1:3|1:3,0:0:0:0:
444,147,137676,2,0,L|434:118,1,25,10|10,1:3|1:3,0:0:0:0:
393,43,137976,6,0,L|284:52,1,100,4|8,1:0|1:2,0:0:0:0:
113,37,138776,2,0,L|126:95,1,50,0|2,1:0|0:3,0:0:0:0:
208,116,139176,2,0,L|202:186,1,50,8|2,1:2|0:0,0:0:0:0:
195,255,139576,6,0,P|132:255|89:277,1,100,0|8,1:0|1:2,0:0:0:0:
29,216,140176,1,2,0:0:0:0:
29,216,140376,2,0,P|10:177|6:129,2,75,0|0|2,1:0|0:0|0:0,0:0:0:0:
14,308,141176,5,0,1:0:0:0:
14,308,141376,2,0,L|5:363,2,50,2|8|2,0:0|1:2|0:3,0:0:0:0:
96,344,141976,2,0,L|155:358,1,50,0|2,1:0|0:0,0:0:0:0:
234,331,142376,1,8,1:2:0:0:
256,192,142576,12,0,143976,0:0:0:0:
221,112,144376,5,4,1:0:0:0:
402,104,144776,2,0,L|411:46,2,50,2|2|8,0:3|0:0|0:0,0:0:0:0:
348,178,145376,1,2,0:0:0:0:
348,178,145576,2,0,P|339:261|372:322,1,150,4|0,0:3|0:0,0:0:0:0:
281,343,146376,6,0,L|234:324,1,50,2|2,0:3|0:0,0:0:0:0:
144,328,146776,2,0,P|134:351|120:371,2,50,8|4|2,0:0|0:3|0:3,0:0:0:0:
114,242,147376,1,2,0:0:0:0:
39,193,147576,6,0,L|31:84,1,100,4|2,0:3|0:3,0:0:0:0:
102,37,148176,2,0,L|150:25,1,50,2|8,0:0|0:0,0:0:0:0:
211,99,148576,1,2,0:0:0:0:
211,99,148776,2,0,P|281:131|364:115,1,150,4|0,0:3|0:0,0:0:0:0:
411,54,149576,5,2,0:3:0:0:
411,54,149776,1,2,0:0:0:0:
462,127,149976,2,0,L|530:127,2,50,8|4|2,0:0|0:3|0:3,0:0:0:0:
454,216,150576,1,2,0:0:0:0:
373,256,150776,6,0,L|361:366,1,100,4|2,0:3|0:3,0:0:0:0:
272,344,151376,2,0,L|204:347,1,50,2|8,0:0|0:0,0:0:0:0:
212,261,151776,1,2,0:0:0:0:
212,261,151976,2,0,P|225:203|198:109,1,150,4|0,0:3|0:0,0:0:0:0:
135,57,152776,6,0,L|86:56,1,50,2|2,0:3|0:0,0:0:0:0:
30,127,153176,2,0,P|15:148|6:170,2,50,8|4|2,0:0|0:3|0:3,0:0:0:0:
98,185,153776,1,2,0:0:0:0:
164,245,153976,6,0,P|212:228|278:223,1,100,4|2,0:3|0:3,0:0:0:0:
324,286,154576,2,0,L|337:343,1,50,2|8,0:0|0:0,0:0:0:0:
426,315,154976,1,2,0:0:0:0:
426,315,155176,2,0,P|450:229|434:154,1,150,4|0,0:3|0:0,0:0:0:0:
489,96,155976,5,2,0:3:0:0:
489,96,156176,1,2,0:0:0:0:
437,22,156376,2,0,L|383:14,2,50,8|4|0,0:0|0:3|1:0,0:0:0:0:
396,102,156976,1,2,0:0:0:0:
306,103,157176,5,4,1:0:0:0:
206,252,157576,2,0,P|151:249|120:261,1,66.6666666666667,2|2,0:3|0:0,0:0:0:0:
80,247,157976,2,0,L|88:180,1,66.6666666666667,8|2,0:0|0:0,0:0:0:0:
46,145,158376,1,4,0:3:0:0:
46,145,158576,1,2,0:0:0:0:
306,72,159176,6,0,P|352:65|388:76,1,66.6666666666667,2|2,0:3|0:0,0:0:0:0:
406,117,159576,2,0,L|409:194,1,66.6666666666667,8|2,0:0|0:0,0:0:0:0:
377,236,159976,1,2,0:3:0:0:
377,236,160176,1,2,0:0:0:0:
295,273,160376,6,0,P|245:293|237:303,1,50,4|2,0:3|0:0,0:0:0:0:
169,325,160776,1,2,0:3:0:0:
169,325,160976,1,2,0:0:0:0:
98,268,161176,2,0,L|-13:251,1,100,8|4,0:0|0:3,0:0:0:0:
44,78,161976,6,0,P|85:68|112:68,1,50,2|2,0:3|0:0,0:0:0:0:
156,139,162376,1,2,0:3:0:0:
156,139,162576,1,2,0:0:0:0:
216,205,162776,2,0,L|283:220,1,50,8|4,0:0|0:3,0:0:0:0:
348,180,163176,1,2,0:3:0:0:
308,4,163576,5,4,0:3:0:0:
478,60,163976,2,0,P|480:113|477:143,1,66.6666666666667,2|2,0:3|0:0,0:0:0:0:
478,186,164376,2,0,L|401:199,1,66.6666666666667,8|2,0:0|0:0,0:0:0:0:
385,253,164776,1,4,0:3:0:0:
385,253,164976,1,2,0:0:0:0:
117,254,165576,6,0,P|106:307|116:325,1,66.6666666666667,2|2,0:3|0:0,0:0:0:0:
157,352,165976,2,0,L|245:345,1,66.6666666666667,8|2,0:0|0:0,0:0:0:0:
260,300,166376,1,2,0:3:0:0:
260,300,166576,1,2,0:0:0:0:
347,319,166776,6,0,L|360:266,1,50,4|2,0:3|0:0,0:0:0:0:
338,188,167176,1,2,0:3:0:0:
338,188,167376,1,2,0:0:0:0:
420,151,167576,2,0,P|452:122|471:51,1,100,8|4,0:0|0:3,0:0:0:0:
293,38,168376,6,0,L|244:79,1,50,2|2,0:3|0:0,0:0:0:0:
168,67,168776,1,2,0:3:0:0:
168,67,168976,1,2,0:0:0:0:
116,140,169176,2,0,P|101:186|103:207,1,50,8|4,0:0|0:3,0:0:0:0:
140,267,169576,2,0,P|181:271|198:277,1,50,2|2,0:3|0:0,0:0:0:0:
256,333,169976,5,2,0:3:0:0:
