osu file format v14

[General]
AudioFilename: audio.mp3
AudioLeadIn: 0
PreviewTime: -1
Countdown: 0
SampleSet: Soft
StackLeniency: 0.5
Mode: 0
LetterboxInBreaks: 0
WidescreenStoryboard: 1

[Editor]
Bookmarks: 51950,77491,86418,99391,103242,129788,141958,155337,168715,181688,183107
DistanceSpacing: 0.5
BeatDivisor: 4
GridSize: 8
TimelineZoom: 1.6

[Metadata]
Title:Moe Flower Bomb
TitleUnicode:Moe Flower Bomb
Artist:worldwide anime masters
ArtistUnicode:worldwide anime masters
Creator:Destirox
Version:anime defat the wite wamen lose powr ovr men nihon mak the artifice waifus
Source:hentai dude
Tags:hentai dude ayy lmao weed trump anime real
BeatmapID:1687944
BeatmapSetID:804140

[Difficulty]
HPDrainRate:6
CircleSize:3.2
OverallDifficulty:8
ApproachRate:9
SliderMultiplier:1.7
SliderTickRate:1

[Events]
//Background and Video events
0,0,"THIS 3DPD IS A NO NO.png",0,0
//Break Periods
//Storyboard Layer 0 (Background)
//Storyboard Layer 1 (Fail)
//Storyboard Layer 2 (Pass)
//Storyboard Layer 3 (Foreground)
//Storyboard Sound Samples

[TimingPoints]
0,1500,4,2,0,50,1,0
1500,1034.48275862069,4,2,0,50,1,0
2534,800,4,2,0,50,1,0
3334,1428.57142857143,4,2,0,50,1,0
4762,1818.18181818182,4,2,0,50,1,0
4762,-52.6315789473684,4,2,0,50,0,0
6580,1428.57142857143,4,2,0,50,1,0
8008,1818.18181818182,4,2,0,50,1,0
8008,-52.6315789473684,4,2,0,50,0,0
9826,1428.57142857143,4,2,0,50,1,0
11238,1818.18181818182,4,2,0,50,1,0
11238,-52.6315789473684,4,2,0,50,0,0
13056,705.882352941176,4,1,0,50,1,0
13232,-100,4,2,0,50,0,0
14467,1818.18181818182,4,2,0,50,1,0
16285,600,4,1,0,50,1,0
16285,-66.6666666666667,4,1,0,50,0,0
16885,1428.57142857143,4,1,0,40,1,0
17599,-52.6315789473684,4,2,0,40,0,0
18313,1200,4,1,0,40,1,0
19513,2000,4,1,0,40,1,0
19513,-52.6315789473684,4,1,0,40,0,0
21013,-52.6315789473684,4,2,0,40,0,0
21513,1250,4,1,0,40,1,0
22763,1428.57142857143,4,1,0,40,1,0
24191,1200,4,1,0,40,1,0
25391,606.060606060606,4,1,0,40,1,0
26013,810.810810810811,4,1,0,40,1,0
29256,-100,4,2,0,40,0,0
30067,-100,4,1,0,50,0,0
30269,-100,4,2,0,40,0,0
31688,-100,4,1,0,50,0,0
32094,-100,4,2,0,40,0,0
33310,-71.4285714285714,4,1,0,50,0,0
33715,-71.4285714285714,4,2,0,50,0,0
34315,-71.4285714285714,4,2,0,50,0,0
34931,-71.4285714285714,4,1,0,50,0,0
35337,-71.4285714285714,4,2,0,50,0,0
36553,-71.4285714285714,4,1,0,50,0,0
37161,-71.4285714285714,4,2,0,50,0,0
38175,-71.4285714285714,4,1,0,50,0,0
38580,-71.4285714285714,4,2,0,50,0,0
38977,-71.4285714285714,4,2,0,65,0,0
39383,-71.4285714285714,4,2,0,50,0,0
39796,-71.4285714285714,4,1,0,50,0,0
40202,-71.4285714285714,4,2,0,50,0,0
41418,-71.4285714285714,4,1,0,50,0,0
41621,-71.4285714285714,4,2,0,50,0,0
43040,-71.4285714285714,4,1,0,50,0,0
43242,-71.4285714285714,4,2,0,50,0,0
44661,-71.4285714285714,4,1,0,50,0,0
45067,-71.4285714285714,4,2,0,50,0,0
46283,-71.4285714285714,4,1,0,50,0,0
46688,-71.4285714285714,4,2,0,50,0,0
47904,-71.4285714285714,4,1,0,50,0,0
48107,-71.4285714285714,4,2,0,50,0,0
48715,-71.4285714285714,4,1,0,50,0,0
49121,-71.4285714285714,4,2,0,50,0,0
49526,-71.4285714285714,4,1,0,50,0,0
49729,-71.4285714285714,4,2,0,50,0,0
51148,-71.4285714285714,4,1,0,50,0,0
51350,-37.037037037037,4,1,0,50,0,0
51553,-37.037037037037,4,1,0,50,0,0
51958,-62.5,4,1,0,40,0,0
52769,-62.5,4,1,0,40,0,0
64518,-37.037037037037,4,2,0,60,0,0
64931,-71.4285714285714,4,1,0,40,0,0
65540,-62.5,4,1,0,40,0,0
77499,-71.4285714285714,4,2,0,50,0,0
91080,-71.4285714285714,4,2,0,40,0,0
103850,-55.5555555555556,4,2,0,40,0,0
106688,-71.4285714285714,4,2,0,45,0,0
107904,-55.5555555555556,4,2,0,50,0,0
109931,-71.4285714285714,4,2,0,45,0,0
117634,-55.5555555555556,4,2,0,50,0,0
120675,-71.4285714285714,4,2,0,60,0,0
129391,-37.037037037037,4,2,0,50,0,0
129796,-62.5,4,1,0,40,0,0
142364,-37.037037037037,4,1,0,50,0,0
142769,-62.5,4,1,0,40,0,0
155337,-62.5,4,2,0,40,0,0
168513,-55.5555555555556,4,1,0,40,0,0
180472,-125,4,2,0,50,0,0

[HitObjects]
132,176,8008,6,0,P|180:160|112:212,1,322.99999137497
473,75,11238,2,0,P|380:141|284:80,1,242.249993531227
376,292,13056,5,0,0:0:0:0:
192,328,13232,1,0,0:0:0:0:
288,336,13408,2,0,L|276:244,1,85
248,77,14114,1,0,0:0:0:0:
248,77,14291,6,0,L|92:85,1,127.5
176,200,15376,2,0,L|176:280,1,63.75
92,204,16285,6,0,L|304:188,1,191.250007295609
420,180,16885,1,4,0:0:0:0:
340,292,17599,2,0,B|280:288|280:288|232:304|232:304|152:304,1,161.499995687485
376,124,19513,2,0,B|322:122|322:122|308:111|308:111|297:124|297:124|232:122|210:102|220:41|288:57,1,242.249993531227
276,332,21513,1,0,0:0:0:0:
48,224,22763,6,0,B|124:176|132:252|208:228|228:212,1,170
376,275,25391,2,0,L|388:148,1,127.5
128,128,26013,1,4,0:0:0:0:
224,136,26823,5,8,0:0:0:0:
320,140,28445,1,8,0:0:0:0:
472,160,29256,5,4,0:0:0:0:
372,148,29661,1,0,0:0:0:0:
276,132,29864,1,0,0:0:0:0:
120,108,30067,1,8,0:0:0:0:
120,108,30269,1,0,0:0:0:0:
196,208,30472,2,0,L|180:296,1,85
408,312,31283,1,4,0:0:0:0:
76,276,31688,1,8,0:0:0:0:
92,176,32094,1,0,0:0:0:0:
108,76,32499,5,0,0:0:0:0:
208,88,32702,1,0,0:0:0:0:
208,88,32904,1,0,0:0:0:0:
172,284,33310,1,8,0:0:0:0:
292,296,33715,1,0,0:0:0:0:
244,200,33918,1,0,0:0:0:0:
268,96,34121,1,0,0:0:0:0:
340,208,34323,2,0,L|360:116,1,59.4999981842042
320,20,34729,1,0,0:0:0:0:
424,216,34931,2,8,L|392:352,1,118.999996368408
84,256,35742,5,4,0:0:0:0:
188,224,35945,1,0,0:0:0:0:
284,272,36148,1,0,0:0:0:0:
188,324,36350,1,0,0:0:0:0:
292,356,36553,2,0,L|388:336,2,59.4999981842042
448,128,37161,1,0,0:0:0:0:
448,240,37364,1,0,0:0:0:0:
336,236,37567,1,0,0:0:0:0:
96,240,37769,2,0,L|176:240,1,59.4999981842042
336,236,38175,2,8,B|260:236|260:236|260:312,1,118.999996368408
256,120,38783,1,0,0:0:0:0:
260,356,38985,2,0,L|104:356,1,118.999996368408
336,352,39796,6,0,L|416:352,1,59.4999981842042
472,216,40202,1,0,0:0:0:0:
258,220,40607,5,0,0:0:0:0:
365,218,40810,1,0,0:0:0:0:
472,216,41013,1,0,0:0:0:0:
258,220,41215,2,8,L|252:279,1,59.4999981842042
313,342,41621,2,0,P|365:367|418:344,1,118.999996368408
171,274,42229,2,0,P|143:265|115:274,1,59.4999981842042
314,343,42634,2,0,P|341:351|369:343,1,59.4999981842042
472,234,43040,2,8,P|479:206|470:178,1,59.4999981842042
373,61,43445,2,0,P|345:52|317:61,1,59.4999981842042
168,188,43850,1,0,0:0:0:0:
282,227,44154,1,0,0:0:0:0:
282,227,44256,2,0,L|356:223,1,59.4999981842042
168,188,44661,2,8,L|27:200,1,118.999996368408
434,160,45472,5,0,0:0:0:0:
308,174,45675,1,0,0:0:0:0:
170,128,45877,2,0,L|167:188,1,59.4999981842042
171,309,46283,2,0,L|35:298,1,118.999996368408
67,63,46891,2,0,L|63:131,1,59.4999981842042
53,299,47296,1,0,0:0:0:0:
222,315,47499,2,0,B|277:326|277:326|334:294,1,118.999996368408
423,200,48107,2,0,P|430:164|409:137,1,59.4999981842042
324,47,48513,1,0,0:0:0:0:
254,235,48715,6,0,P|282:244|311:236,1,59.4999981842042
172,160,49121,2,0,P|121:157|102:174,1,59.4999981842042
55,239,49526,1,8,0:0:0:0:
172,160,49728,1,0,0:0:0:0:
306,139,49931,2,0,P|335:138|363:149,1,59.4999981842042
441,234,50337,1,0,0:0:0:0:
286,319,50540,2,0,P|314:328|342:317,1,59.4999981842042
362,148,50945,2,0,P|336:137|308:145,1,59.4999981842042
214,143,51350,2,0,P|188:132|160:140,1,59.4999981842042
62,231,51553,2,0,P|67:258|66:226,1,114.750000437737
40,51,51958,6,0,L|113:54,1,68
256,64,52364,1,0,0:0:0:0:
301,68,52465,1,0,0:0:0:0:
346,72,52567,1,0,0:0:0:0:
391,76,52668,1,0,0:0:0:0:
436,80,52769,2,8,L|340:104,1,68
139,139,53175,5,0,0:0:0:0:
256,64,53377,1,0,0:0:0:0:
436,80,53580,2,0,L|340:104,1,68
208,127,53985,1,0,0:0:0:0:
162,132,54087,1,0,0:0:0:0:
112,136,54188,1,0,0:0:0:0:
70,143,54290,1,0,0:0:0:0:
24,150,54391,2,0,L|99:162,1,68
309,214,54796,5,0,0:0:0:0:
213,133,54999,1,0,0:0:0:0:
24,150,55202,2,4,L|94:147,1,68
382,107,55607,1,0,0:0:0:0:
337,94,55709,1,0,0:0:0:0:
292,91,55810,1,4,0:0:0:0:
248,104,55912,1,0,0:0:0:0:
213,133,56013,2,0,L|213:177,1,34
172,275,56215,1,0,0:0:0:0:
213,133,56418,5,0,0:0:0:0:
382,107,56621,1,0,0:0:0:0:
213,133,56823,1,0,0:0:0:0:
382,107,57026,1,0,0:0:0:0:
492,203,57229,1,4,0:0:0:0:
462,350,57431,1,0,0:0:0:0:
238,368,57634,2,0,L|306:362,1,68
367,274,58040,6,0,L|294:280,1,68
15,278,58445,1,8,0:0:0:0:
59,266,58546,1,0,0:0:0:0:
103,254,58648,1,0,0:0:0:0:
147,242,58749,1,0,0:0:0:0:
191,233,58850,1,0,0:0:0:0:
393,182,59053,1,0,0:0:0:0:
147,242,59256,2,8,L|59:267,1,68
56,61,59661,6,0,L|125:42,1,68
301,18,60067,1,0,0:0:0:0:
314,60,60168,1,0,0:0:0:0:
327,103,60269,1,0,0:0:0:0:
341,146,60371,1,0,0:0:0:0:
353,190,60472,2,4,L|269:209,1,68
488,165,60877,5,8,0:0:0:0:
352,189,61080,1,0,0:0:0:0:
218,215,61283,1,0,0:0:0:0:
352,189,61485,1,0,0:0:0:0:
244,299,61688,2,4,L|195:316,1,34
133,230,61891,2,0,L|121:261,1,34
22,282,62094,2,0,L|20:315,1,34
133,230,62296,2,0,L|121:261,1,34
313,304,62499,2,0,L|203:310,1,102
116,347,62904,5,0,0:0:0:0:
222,222,63107,1,0,0:0:0:0:
374,182,63310,1,0,0:0:0:0:
222,222,63513,1,0,0:0:0:0:
374,182,63715,1,0,0:0:0:0:
488,284,63918,1,0,0:0:0:0:
221,222,64121,2,8,L|197:295,1,68
374,182,64526,6,8,P|391:151|372:179,1,114.750000437737
343,293,64931,1,0,0:0:0:0:
312,256,65033,1,0,0:0:0:0:
267,235,65134,1,0,0:0:0:0:
221,222,65235,1,0,0:0:0:0:
176,235,65337,2,0,L|169:275,1,29.7499990921021
176,235,65540,2,0,L|169:275,1,29.7499990921021
410,296,65742,2,8,L|342:292,1,68
221,222,66148,5,0,0:0:0:0:
343,293,66350,1,0,0:0:0:0:
107,296,66553,1,0,0:0:0:0:
221,222,66756,1,0,0:0:0:0:
343,293,66958,1,0,0:0:0:0:
389,304,67060,1,0,0:0:0:0:
436,309,67161,1,0,0:0:0:0:
483,301,67263,1,0,0:0:0:0:
467,234,67364,2,8,L|482:300,1,68
373,161,67769,6,0,L|356:85,1,68
221,222,68175,1,4,0:0:0:0:
266,233,68276,1,0,0:0:0:0:
313,228,68377,1,0,0:0:0:0:
355,205,68479,1,0,0:0:0:0:
373,161,68580,2,0,L|353:91,1,68
420,335,68985,1,8,0:0:0:0:
230,222,69188,6,0,L|246:297,1,68
152,302,69492,1,0,0:0:0:0:
152,302,69594,2,0,L|157:346,1,34
68,227,69796,2,0,L|46:264,1,34
61,109,69999,2,0,L|25:114,1,34
230,222,70202,2,4,L|245:292,1,68
358,309,70607,6,8,L|352:359,1,34
444,305,70810,1,0,0:0:0:0:
375,196,71013,6,0,L|369:246,1,34
398,80,71215,2,0,L|392:130,1,34
358,309,71418,6,4,L|352:359,1,34
375,196,71621,2,0,L|369:246,1,34
398,80,71823,1,0,0:0:0:0:
250,96,72026,1,0,0:0:0:0:
464,163,72229,5,8,0:0:0:0:
316,179,72432,1,0,0:0:0:0:
467,253,72634,1,0,0:0:0:0:
285,274,72837,2,0,L|319:269,1,34
468,331,73040,2,0,L|422:339,1,34
321,354,73242,1,0,0:0:0:0:
273,352,73344,1,0,0:0:0:0:
225,350,73445,2,4,L|149:344,1,68
37,255,73850,2,8,L|106:259,1,68
253,190,74256,5,0,0:0:0:0:
394,267,74458,1,0,0:0:0:0:
471,126,74661,1,4,0:0:0:0:
330,49,74864,1,0,0:0:0:0:
253,190,75067,1,0,0:0:0:0:
394,267,75269,1,0,0:0:0:0:
471,126,75472,2,8,L|434:191,1,68
346,342,75877,5,0,0:0:0:0:
302,237,76080,1,0,0:0:0:0:
258,132,76283,1,0,0:0:0:0:
214,237,76485,1,0,0:0:0:0:
166,342,76688,1,0,0:0:0:0:
118,237,76891,1,0,0:0:0:0:
50,84,77094,2,8,L|36:158,1,68
12,239,77499,5,0,0:0:0:0:
118,237,77702,1,0,0:0:0:0:
258,132,77904,1,4,0:0:0:0:
302,237,78107,1,0,0:0:0:0:
346,342,78310,1,0,0:0:0:0:
166,342,78513,1,0,0:0:0:0:
258,132,78715,1,8,0:0:0:0:
214,237,78918,2,0,L|288:238,1,59.4999981842042
16,240,79323,5,0,0:0:0:0:
128,240,79526,1,0,0:0:0:0:
272,240,79729,1,0,0:0:0:0:
16,240,79931,1,4,0:0:0:0:
128,240,80134,1,0,0:0:0:0:
272,240,80337,2,8,L|336:240,1,59.4999981842042
416,96,80742,5,0,0:0:0:0:
416,224,80945,1,0,0:0:0:0:
304,320,81148,2,4,L|224:336,2,59.4999981842042
416,224,81756,1,0,0:0:0:0:
245,329,81958,2,8,P|187:336|166:322,1,59.4999981842042
79,326,82364,1,0,0:0:0:0:
245,329,82567,2,0,P|187:336|166:322,1,59.4999981842042
25,247,82972,1,0,0:0:0:0:
245,329,83175,2,0,P|187:336|166:322,1,59.4999981842042
45,152,83580,2,8,P|26:200|31:219,1,59.4999981842042
182,148,83985,6,0,P|182:116|166:84,1,59.4999981842042
16,240,84391,5,0,0:0:0:0:
128,240,84594,1,4,0:0:0:0:
272,240,84797,1,0,0:0:0:0:
400,240,84999,1,0,0:0:0:0:
128,240,85202,2,0,L|192:240,1,59.4999981842042
400,160,85607,6,0,L|336:160,1,59.4999981842042
160,157,86013,2,0,B|137:148|121:151|115:187|134:200|159:191|168:205|168:220|141:227|120:215,1,118.999996368408
35,220,86621,1,0,0:0:0:0:
340,160,86823,2,8,L|276:160,1,59.4999981842042
425,120,87229,6,0,P|431:162|415:200,1,59.4999981842042
324,64,87634,1,4,0:0:0:0:
324,64,87837,1,0,0:0:0:0:
114,134,88040,2,0,P|130:98|159:87,1,59.4999981842042
324,64,88445,1,2,0:0:0:0:
206,83,88648,1,2,0:0:0:0:
89,103,88850,2,2,P|70:127|88:218,1,118.999996368408
155,293,89458,1,0,0:0:0:0:
288,208,89661,2,8,B|288:160|288:160|352:208|352:208|352:144,1,178.499994552612
448,160,90472,6,0,P|419:145|392:176,1,59.4999981842042
397,226,90877,2,0,P|423:239|447:224,1,59.4999981842042
397,77,91283,1,0,0:0:0:0:
286,119,91485,1,0,0:0:0:0:
178,66,91688,1,0,0:0:0:0:
67,108,91891,1,0,0:0:0:0:
178,66,92094,1,0,0:0:0:0:
286,119,92296,6,0,B|318:93|372:109|389:149|286:216|286:216|401:212,1,297.499990921021
384,213,93715,1,0,0:0:0:0:
444,215,94121,6,4,B|443:121|443:121|479:94|523:124|548:182|517:220|476:222|436:212,1,297.499990921021
444,215,95337,1,0,0:0:0:0:
352,288,95540,1,0,0:0:0:0:
240,288,95742,2,0,B|240:208|240:208|240:240|240:240|160:240|160:240|160:208|160:208|160:288,1,297.499990921021
160,281,96958,2,0,L|160:352,1,59.4999981842042
368,128,97364,6,0,L|368:187,1,59.4999981842042
288,224,97769,1,0,0:0:0:0:
464,160,97972,1,0,0:0:0:0:
288,80,98175,1,0,0:0:0:0:
288,224,98377,1,0,0:0:0:0:
288,224,98580,2,4,B|286:167|286:167|325:128|383:135|382:185|336:191|334:187|334:187|383:233,1,237.999992736817
492,130,99796,6,0,B|446:127|403:145|473:185|508:202|484:226|448:227|420:218,1,178.499994552612
464,245,100607,2,4,L|463:67,1,178.499994552612
300,33,101418,1,0,0:0:0:0:
300,33,101621,2,0,B|283:98|283:98|292:62|292:62|222:50|222:50|213:86|213:86|226:9|226:9|117:15|95:55|103:73|118:77|137:75|171:88,1,475.999985473633
286,99,103445,1,0,0:0:0:0:
368,65,103648,1,0,0:0:0:0:
157,85,103850,2,4,L|128:176,1,76.4999976654053
146,269,104256,2,0,P|143:298|151:268,1,76.4999976654053
224,164,104661,2,8,B|272:112|272:112|288:160|288:160|352:144|352:144|304:224,1,267.749991828919
437,164,105472,2,4,B|464:176|464:176|432:164|432:164|402:213|402:213|435:230|435:230|400:214|400:214|374:260|374:260|423:290,1,305.999990661621
384,215,106485,5,0,0:0:0:0:
255,278,106688,2,0,L|329:274,1,59.4999981842042
379,128,107094,2,0,L|440:86,1,59.4999981842042
288,128,107499,2,0,L|288:64,1,59.4999981842042
122,85,107904,2,8,B|167:147|167:147|212:68,1,152.999995330811
292,151,108513,2,0,B|292:49|292:49|292:90|292:90|394:90|394:90|394:49|394:49|394:167,1,382.499988327027
160,208,109931,6,0,P|183:237|219:220,1,59.4999981842042
281,248,110337,1,0,0:0:0:0:
364,69,110540,1,0,0:0:0:0:
364,69,110742,2,0,B|414:55|414:55|448:70|440:108|411:111|397:88|403:71,1,118.999996368408
116,159,111553,5,0,0:0:0:0:
245,178,111756,1,0,0:0:0:0:
371,203,111958,2,0,B|408:186|445:199|364:279|364:279|472:275,1,237.999992736817
466,276,112972,5,0,0:0:0:0:
466,276,113175,2,0,L|464:336,1,59.4999981842042
480,112,113580,2,4,L|478:172,1,59.4999981842042
384,32,113985,1,4,0:0:0:0:
384,32,114188,1,0,0:0:0:0:
297,108,114391,2,0,L|295:168,1,59.4999981842042
190,255,114796,2,0,L|188:315,1,59.4999981842042
305,224,115202,6,0,B|320:168|389:139|387:109|387:109|210:115|210:115|215:147|222:166|276:177|309:233,1,475.999985473633
307,230,117026,2,0,P|283:211|272:170,1,59.4999981842042
293,113,117431,1,0,0:0:0:0:
215,100,117634,6,8,P|165:90|228:221,1,305.999990661621
261,177,118648,1,0,0:0:0:0:
406,213,118850,2,0,P|423:178|412:134,1,76.4999976654053
313,92,119256,2,8,B|317:257|317:257|383:256|448:211|456:127|400:69|314:76|307:96,1,458.999985992432
130,70,120675,2,0,L|70:73,1,59.4999981842042
153,181,121080,1,0,0:0:0:0:
206,275,121283,2,0,L|277:271,1,59.4999981842042
328,177,121688,1,0,0:0:0:0:
400,265,121891,1,0,0:0:0:0:
153,181,122094,2,0,P|110:181|77:208,1,59.4999981842042
381,261,122499,2,8,B|376:256|376:256|368:264|368:264|360:256|360:256|352:264|352:264|344:256|344:256|336:264|336:264|328:256|328:256|320:264|320:264|312:256|312:256|304:264|304:264|296:256|296:256|288:264|288:264|280:256|280:256|272:264|272:264|264:256|264:256|256:264|256:264|248:256|248:256|240:264|240:264|232:256|206:275,1,237.999992736817
224,168,123513,6,0,B|229:121|229:121|270:138|270:138|311:127|311:127|299:185,1,178.499994552612
286,344,124526,5,0,0:0:0:0:
401,281,124729,2,0,L|392:340,1,59.4999981842042
302,170,125134,2,0,L|293:229,1,59.4999981842042
413,111,125540,1,0,0:0:0:0:
286,344,125742,2,0,B|292:285|292:285|352:289,1,118.999996368408
192,275,126350,5,0,0:0:0:0:
430,291,126553,1,0,0:0:0:0:
437,171,126756,2,0,L|360:175,1,59.4999981842042
190,193,127161,1,0,0:0:0:0:
59,205,127364,1,8,0:0:0:0:
110,93,127567,2,0,L|117:26,1,59.4999981842042
101,294,127972,1,4,0:0:0:0:
205,195,128175,2,0,B|212:229|259:225|272:296|252:315,1,118.999996368408
350,354,128783,1,0,0:0:0:0:
437,171,128985,1,8,0:0:0:0:
311,188,129188,5,0,0:0:0:0:
186,211,129391,2,0,P|155:210|189:207,1,114.750000437737
471,310,129796,2,0,L|458:272,1,34
401,177,129999,1,0,0:0:0:0:
374,133,130100,1,0,0:0:0:0:
365,82,130202,1,0,0:0:0:0:
372,31,130303,1,0,0:0:0:0:
372,31,130404,2,0,L|340:69,1,34
249,256,130607,2,8,L|231:339,1,68
80,304,131013,6,0,L|94:237,1,68
258,162,131418,1,0,0:0:0:0:
306,175,131519,1,0,0:0:0:0:
357,173,131621,1,0,0:0:0:0:
404,155,131722,1,0,0:0:0:0:
453,142,131823,1,0,0:0:0:0:
500,160,131925,1,0,0:0:0:0:
500,160,132026,2,0,L|487:206,1,34
249,256,132229,2,8,L|231:339,1,68
341,261,132634,5,0,0:0:0:0:
491,195,132837,1,0,0:0:0:0:
425,45,133040,1,4,0:0:0:0:
275,111,133242,1,0,0:0:0:0:
341,261,133445,1,0,0:0:0:0:
491,195,133648,1,0,0:0:0:0:
425,45,133850,2,0,L|455:111,1,68
341,261,134256,5,0,0:0:0:0:
318,215,134357,1,0,0:0:0:0:
294,169,134458,1,0,0:0:0:0:
270,123,134560,1,0,0:0:0:0:
221,139,134661,1,0,0:0:0:0:
210,301,134864,1,0,0:0:0:0:
125,153,135067,1,4,0:0:0:0:
40,301,135269,1,0,0:0:0:0:
210,301,135472,2,0,L|302:279,1,68
130,319,135877,5,0,0:0:0:0:
78,162,136080,1,0,0:0:0:0:
243,73,136283,2,0,P|197:69|171:84,1,68
145,231,136587,2,0,P|117:235|88:224,1,34
78,162,136790,1,0,0:0:0:0:
125,143,136891,1,0,0:0:0:0:
174,153,136992,1,0,0:0:0:0:
220,174,137094,1,8,0:0:0:0:
365,124,137296,5,0,0:0:0:0:
78,162,137499,1,0,0:0:0:0:
276,115,137702,1,0,0:0:0:0:
149,217,137904,1,0,0:0:0:0:
100,235,138006,1,0,0:0:0:0:
49,236,138107,1,0,0:0:0:0:
3,212,138208,2,0,L|-7:253,1,34
149,217,138411,1,0,0:0:0:0:
197,233,138513,1,0,0:0:0:0:
247,231,138614,1,0,0:0:0:0:
295,216,138715,1,8,0:0:0:0:
1,208,138918,5,0,0:0:0:0:
108,123,139121,2,0,P|150:111|177:133,1,68
288,120,139526,1,4,0:0:0:0:
408,120,139729,1,0,0:0:0:0:
464,248,139931,1,0,0:0:0:0:
224,248,140134,1,0,0:0:0:0:
336,120,140337,2,8,L|336:192,1,68
212,48,140742,5,0,0:0:0:0:
261,31,140844,1,0,0:0:0:0:
310,46,140945,1,0,0:0:0:0:
360,60,141046,1,0,0:0:0:0:
408,40,141148,2,0,L|406:84,1,34
395,263,141350,1,0,0:0:0:0:
420,218,141452,1,0,0:0:0:0:
400,171,141553,1,0,0:0:0:0:
387,121,141654,1,0,0:0:0:0:
406,73,141756,2,0,L|410:31,1,34
395,263,141958,5,8,0:0:0:0:
293,270,142161,1,4,0:0:0:0:
191,278,142364,2,0,P|168:254|194:277,1,114.750000437737
54,177,142769,5,0,0:0:0:0:
209,151,142972,1,0,0:0:0:0:
362,120,143175,2,0,L|382:170,1,34
241,142,143377,2,0,L|261:192,1,34
124,169,143580,1,8,0:0:0:0:
362,117,143783,5,0,0:0:0:0:
241,262,143985,2,0,L|279:248,1,34
362,117,144188,2,0,L|330:128,1,34
145,153,144391,1,0,0:0:0:0:
182,118,144492,1,0,0:0:0:0:
233,123,144594,1,0,0:0:0:0:
280,142,144695,1,0,0:0:0:0:
329,128,144796,1,0,0:0:0:0:
280,142,144898,2,0,L|268:187,1,34
403,124,145202,5,8,0:0:0:0:
238,152,145404,5,0,0:0:0:0:
431,289,145607,1,0,0:0:0:0:
403,124,145809,1,0,0:0:0:0:
238,152,146013,1,4,0:0:0:0:
266,317,146215,1,0,0:0:0:0:
431,289,146418,1,0,0:0:0:0:
403,124,146621,1,0,0:0:0:0:
238,152,146823,2,0,L|325:135,1,68
431,289,147229,6,0,L|364:302,1,68
183,337,147634,2,0,L|225:330,1,34
303,237,147837,2,0,L|245:254,1,34
151,192,148040,2,4,L|193:185,1,34
303,237,148242,2,0,L|245:254,1,34
460,203,148445,1,8,0:0:0:0:
151,192,148648,5,0,0:0:0:0:
303,237,148850,2,0,L|292:285,1,34
474,237,149053,2,0,L|463:285,1,34
313,196,149256,1,4,0:0:0:0:
302,245,149357,5,0,0:0:0:0:
291,293,149458,2,0,L|278:351,1,34
325,121,149661,1,0,0:0:0:0:
334,70,149763,2,0,L|328:104,1,34
184,156,150067,5,8,0:0:0:0:
45,211,150269,1,0,0:0:0:0:
115,89,150472,2,0,P|99:118|112:137,1,34
115,89,150675,1,0,0:0:0:0:
115,89,150776,1,0,0:0:0:0:
160,66,150877,1,0,0:0:0:0:
211,69,150979,1,0,0:0:0:0:
257,90,151080,1,0,0:0:0:0:
293,125,151181,1,0,0:0:0:0:
357,123,151283,2,4,P|307:131|279:112,1,68
211,69,151688,5,8,0:0:0:0:
115,89,151891,1,0,0:0:0:0:
293,125,152094,1,0,0:0:0:0:
335,97,152195,1,0,0:0:0:0:
385,100,152296,1,0,0:0:0:0:
115,89,152499,1,4,0:0:0:0:
335,97,152702,1,0,0:0:0:0:
327,317,152904,1,0,0:0:0:0:
107,309,153107,1,0,0:0:0:0:
115,89,153310,1,8,0:0:0:0:
115,89,153715,5,0,0:0:0:0:
166,200,153918,1,4,0:0:0:0:
217,311,154121,1,0,0:0:0:0:
268,200,154323,1,0,0:0:0:0:
353,28,154526,1,0,0:0:0:0:
421,200,154729,2,8,B|422:253|422:253|463:252,1,68
495,109,155134,1,0,0:0:0:0:
497,177,155337,6,0,L|495:105,1,68
490,27,155742,1,4,0:0:0:0:
497,177,155945,1,0,0:0:0:0:
497,177,156148,1,0,0:0:0:0:
284,273,156350,1,0,0:0:0:0:
406,250,156553,1,8,0:0:0:0:
254,91,157161,5,0,0:0:0:0:
193,173,157364,1,0,0:0:0:0:
319,173,157567,1,0,0:0:0:0:
144,251,157769,1,0,0:0:0:0:
365,251,157972,1,0,0:0:0:0:
254,91,158175,1,8,0:0:0:0:
100,123,158580,5,0,0:0:0:0:
198,148,158783,1,0,0:0:0:0:
342,251,158985,1,4,0:0:0:0:
440,226,159188,1,0,0:0:0:0:
340,98,159391,2,0,L|365:164,1,68
121,209,159796,2,8,L|96:275,1,68
218,307,160202,5,0,0:0:0:0:
313,272,160404,1,0,0:0:0:0:
229,212,160607,1,0,0:0:0:0:
145,152,160810,1,0,0:0:0:0:
218,307,161013,2,0,L|295:278,1,68
436,250,161418,1,8,0:0:0:0:
369,57,161823,6,0,B|359:79|378:97|365:124,1,68
368,335,162229,1,4,0:0:0:0:
469,331,162431,1,0,0:0:0:0:
282,254,162634,1,0,0:0:0:0:
181,258,162836,1,0,0:0:0:0:
368,335,163040,1,8,0:0:0:0:
181,258,163445,5,0,0:0:0:0:
282,254,163647,1,0,0:0:0:0:
365,170,163850,1,0,0:0:0:0:
466,166,164052,1,0,0:0:0:0:
282,254,164256,1,4,0:0:0:0:
365,170,164458,1,0,0:0:0:0:
464,257,164661,1,8,0:0:0:0:
466,166,165067,5,0,0:0:0:0:
367,258,165269,1,0,0:0:0:0:
268,170,165472,1,4,0:0:0:0:
367,73,165675,1,0,0:0:0:0:
466,166,165877,1,0,0:0:0:0:
367,258,166080,1,0,0:0:0:0:
281,86,166283,1,8,0:0:0:0:
281,86,166485,5,0,0:0:0:0:
466,166,166688,1,0,0:0:0:0:
271,263,166891,1,0,0:0:0:0:
168,259,167094,1,0,0:0:0:0:
66,254,167296,1,0,0:0:0:0:
172,107,167499,2,0,P|185:138|180:175,1,68
295,298,167904,2,0,P|313:247|250:267,1,136
145,287,168513,6,0,P|101:291|84:289,1,38.2499988327027
69,198,168715,2,0,P|46:193|23:173,1,38.2499988327027
145,110,168918,2,0,P|137:97|142:69,1,38.2499988327027
237,173,169121,2,0,P|252:153|281:143,1,38.2499988327027
266,280,169323,2,0,P|290:284|306:305,1,38.2499988327027
428,275,169526,2,8,P|467:265|506:283,1,76.4999976654053
365,351,169931,5,0,0:0:0:0:
410,322,170033,1,0,0:0:0:0:
428,275,170134,1,0,0:0:0:0:
431,221,170235,1,0,0:0:0:0:
412,170,170337,1,0,0:0:0:0:
309,176,170540,1,0,0:0:0:0:
207,176,170742,1,0,0:0:0:0:
104,178,170945,1,0,0:0:0:0:
313,99,171148,6,8,L|307:192,1,76.4999976654053
161,305,171553,1,0,0:0:0:0:
211,288,171654,1,0,0:0:0:0:
260,308,171756,1,0,0:0:0:0:
312,316,171857,1,0,0:0:0:0:
360,293,171958,2,4,L|367:330,1,38.2499988327027
455,250,172161,2,0,L|462:287,1,38.2499988327027
336,179,172364,2,0,L|343:216,1,38.2499988327027
433,134,172567,2,0,L|440:171,1,38.2499988327027
317,50,172769,6,8,P|363:44|384:81,1,76.4999976654053
161,169,173175,2,0,B|218:182|218:182|261:144,1,114.749996498108
196,77,173580,1,0,0:0:0:0:
210,183,173783,1,0,0:0:0:0:
225,288,173985,1,0,0:0:0:0:
358,259,174188,2,0,P|366:228|358:202,1,38.2499988327027
196,77,174391,2,8,P|167:84|147:100,1,38.2499988327027
328,81,174594,2,0,P|291:74|269:75,1,38.2499988327027
408,179,174796,2,0,P|399:146|381:117,1,38.2499988327027
378,293,174999,2,0,P|398:272|403:247,1,38.2499988327027
268,155,175202,5,4,0:0:0:0:
252,260,175404,1,0,0:0:0:0:
236,366,175607,1,0,0:0:0:0:
401,266,175810,1,0,0:0:0:0:
135,248,176013,2,8,L|71:245,1,38.2499988327027
78,93,176215,5,0,0:0:0:0:
98,142,176317,1,0,0:0:0:0:
102,195,176418,1,0,0:0:0:0:
97,248,176519,1,0,0:0:0:0:
81,299,176621,2,0,L|59:340,1,38.2499988327027
179,303,176823,1,0,0:0:0:0:
286,298,177026,1,0,0:0:0:0:
97,248,177229,1,0,0:0:0:0:
250,216,177431,2,0,L|285:191,1,38.2499988327027
454,178,177634,2,8,L|352:182,1,76.4999976654053
375,96,178040,5,0,0:0:0:0:
379,202,178242,1,0,0:0:0:0:
361,307,178445,1,4,0:0:0:0:
361,307,178648,5,0,0:0:0:0:
255,312,178850,1,0,0:0:0:0:
149,296,179053,1,0,0:0:0:0:
163,85,179256,5,8,0:0:0:0:
271,81,179661,1,0,0:0:0:0:
163,85,179864,1,4,0:0:0:0:
55,90,180067,1,0,0:0:0:0:
112,150,180269,1,0,0:0:0:0:
177,171,180472,1,0,0:0:0:0:
230,168,180675,1,0,0:0:0:0:
264,152,180877,1,8,0:0:0:0:
284,141,181080,1,0,0:0:0:0:
319,160,181283,2,0,P|307:138|282:140,1,51
277,300,181688,6,0,B|222:296|222:296|175:294|175:294|223:294|223:294|224:225|224:225|178:225,1,238
181,225,183918,2,0,L|298:228,1,102
406,176,184931,2,0,B|320:224|320:224|291:224|291:224|291:254|291:254|208:307,1,238
190,144,188175,6,0,B|210:129|197:97|142:77|105:111|95:157|110:199|156:220|186:220|223:194,1,238
363,214,190404,2,0,B|291:172|270:234|197:206,1,170
321,110,192837,2,0,B|363:52|464:180|329:246|253:171|251:138,1,238
134,288,194661,2,0,B|235:236|307:337|186:364|188:345|263:323|335:335,1,238
451,250,197904,6,0,B|422:192|333:238|333:238|324:233|343:124,1,238
