osu file format v14

[General]
AudioFilename: audio.mp3
AudioLeadIn: 0
PreviewTime: 87794
Countdown: 0
SampleSet: Normal
StackLeniency: 0.6
Mode: 1
LetterboxInBreaks: 0
WidescreenStoryboard: 0

[Editor]
Bookmarks: 23375,45318,67261,89204,111147,133090,155032,176975,198918,222232,244175,266118,288061,310004
DistanceSpacing: 1.1
BeatDivisor: 4
GridSize: 32
TimelineZoom: 2.1

[Metadata]
Title:artefatto vita
TitleUnicode:artefatto vita
Artist:witch's slave
ArtistUnicode:witch's slave
Creator:neonat
Version:Nightmare Collab
Source:
Tags:D'va BlackLotus C89 Nardoxyribonucleic Noobish Nwolf electronic instrumental gmtn. gothic hardcore ntiger black lotus
BeatmapID:1206635
BeatmapSetID:569172

[Difficulty]
HPDrainRate:6
CircleSize:4
OverallDifficulty:6
ApproachRate:9.3
SliderMultiplier:1.4
SliderTickRate:1

[Events]
//Background and Video events
0,0,"dark-very-dark-wood.jpg",0,0
//Break Periods
//Storyboard Layer 0 (Background)
//Storyboard Layer 1 (Fail)
//Storyboard Layer 2 (Pass)
//Storyboard Layer 3 (Foreground)
//Storyboard Layer 4 (Overlay)
//Storyboard Sound Samples

[TimingPoints]
61,342.857142857143,4,1,0,60,1,0
61,-133.333333333333,4,1,0,60,0,0
23375,-114.942528735632,4,1,0,80,0,0
40003,-112.359550561798,4,1,0,80,0,0
40175,-109.89010989011,4,1,0,80,0,0
40346,-107.52688172043,4,1,0,80,0,0
40518,-105.263157894737,4,1,0,80,0,0
40689,-103.092783505155,4,1,0,80,0,0
40861,-101.010101010101,4,1,0,80,0,0
41032,-99.009900990099,4,1,0,80,0,0
41203,-97.0873786407767,4,1,0,80,0,0
41375,-95.2380952380952,4,1,0,80,0,0
41546,-93.4579439252336,4,1,0,80,0,0
41718,-91.743119266055,4,1,0,80,0,0
41889,-90.0900900900901,4,1,0,80,0,0
42061,-88.4955752212389,4,1,0,80,0,0
42146,-87.719298245614,4,1,0,80,0,0
42232,-86.9565217391304,4,1,0,80,0,0
42403,-86.2068965517241,4,1,0,80,0,0
42489,-85.4700854700855,4,1,0,80,0,0
42575,-84.7457627118644,4,1,0,80,0,0
44289,-100,4,1,0,50,0,0
45318,-100,4,1,0,90,0,0
87832,-100,4,1,0,75,0,0
89203,-100,4,1,0,90,0,1
133089,-100,4,1,0,90,0,0
155718,-133.333333333333,4,1,0,50,0,0
176889,-125,4,1,0,60,0,0
198918,-117.647058823529,4,1,0,70,0,0
209203,-116.279069767442,4,1,0,70,0,0
209461,-114.942528735632,4,1,0,70,0,0
209718,-113.636363636364,4,1,0,70,0,0
209889,-111.111111111111,4,1,0,70,0,0
215375,-108.695652173913,4,1,0,70,0,0
215546,-106.382978723404,4,1,0,70,0,0
215718,-104.166666666667,4,1,0,70,0,0
215889,-102.040816326531,4,1,0,70,0,0
216061,-100,4,1,0,70,0,0
216232,-98.0392156862745,4,1,0,70,0,0
216403,-97.0873786407767,4,1,0,70,0,0
216575,-96.1538461538461,4,1,0,70,0,0
216746,-94.3396226415094,4,1,0,70,0,0
216918,-92.5925925925926,4,1,0,70,0,0
217089,-90.9090909090909,4,1,0,70,0,0
217261,-89.2857142857143,4,1,0,70,0,0
217432,-87.719298245614,4,1,0,70,0,0
217603,-86.2068965517241,4,1,0,70,0,0
217689,-85.4700854700855,4,1,0,70,0,0
217775,-84.7457627118644,4,1,0,70,0,0
217946,-83.3333333333333,4,1,0,70,0,0
218032,-82.6446280991736,4,1,0,70,0,0
218118,-81.9672131147541,4,1,0,70,0,0
220175,-100,4,1,0,50,0,0
222232,-100,4,1,0,90,0,0
230461,-94.876660341556,4,1,0,90,0,0
231146,-90.9090909090909,4,1,0,90,0,0
231832,-80,4,1,0,90,0,0
232089,-66.6666666666667,4,1,0,90,0,0
232346,-57.1428571428571,4,1,0,90,0,0
232861,-80,4,1,0,90,0,0
233203,-100,4,1,0,90,0,0
244175,-100,4,1,0,90,0,1
288061,-100,4,1,0,90,0,0
307261,-95.2380952380952,4,1,0,90,0,0
307432,-94.3396226415094,4,1,0,90,0,0
307603,-93.4579439252336,4,1,0,90,0,0
307775,-92.5925925925926,4,1,0,90,0,0
307946,-91.743119266055,4,1,0,90,0,0
308032,-90.9090909090909,4,1,0,90,0,0
308118,-90.0900900900901,4,1,0,90,0,0
308203,-89.2857142857143,4,1,0,90,0,0
308289,-88.4955752212389,4,1,0,90,0,0
308375,-87.719298245614,4,1,0,90,0,0
308461,-86.9565217391304,4,1,0,90,0,0
308632,-88.8888888888889,4,1,0,90,0,0
308803,-90.9090909090909,4,1,0,90,0,0
309146,-100,4,1,0,90,0,0
309318,-103.092783505155,4,1,0,90,0,0
309489,-106.382978723404,4,1,0,90,0,0
309661,-108.695652173913,4,1,0,90,0,0
309832,-111.111111111111,4,1,0,90,0,0
310003,-113.636363636364,4,1,0,80,0,0
326632,-108.695652173913,4,1,0,80,0,0
326803,-106.382978723404,4,1,0,80,0,0
326975,-104.166666666667,4,1,0,80,0,0
327146,-102.040816326531,4,1,0,80,0,0
327318,-100,4,1,0,80,0,0
327489,-98.0392156862745,4,1,0,80,0,0
327661,-96.1538461538461,4,1,0,80,0,0
327832,-94.3396226415094,4,1,0,80,0,0
328003,-92.5925925925926,4,1,0,80,0,0
328175,-90.9090909090909,4,1,0,80,0,0
328346,-89.2857142857143,4,1,0,80,0,0
328518,-87.719298245614,4,1,0,80,0,0
328689,-86.2068965517241,4,1,0,80,0,0
328861,-84.7457627118644,4,1,0,80,0,0
329032,-83.3333333333333,4,1,0,80,0,0
330918,-111.111111111111,4,1,0,80,0,0

[Colours]
Combo1 : 119,230,183
Combo2 : 103,235,241
Combo3 : 156,218,183
Combo4 : 194,151,223

[HitObjects]
256,192,1432,5,4,0:0:0:0:
256,192,1775,1,8,0:0:0:0:
256,192,2118,1,0,0:0:0:0:
256,192,2461,1,8,0:0:0:0:
256,192,2803,1,0,0:0:0:0:
256,192,3489,1,0,0:0:0:0:
256,192,3832,1,0,0:0:0:0:
256,192,4175,1,8,0:0:0:0:
256,192,4861,1,8,0:0:0:0:
256,192,5203,1,0,0:0:0:0:
256,192,5546,1,8,0:0:0:0:
256,192,5889,1,8,0:0:0:0:
256,192,6232,1,0,0:0:0:0:
256,192,6575,1,0,0:0:0:0:
256,192,6918,1,0,0:0:0:0:
256,192,7261,1,8,0:0:0:0:
256,192,7603,1,0,0:0:0:0:
256,192,7946,1,8,0:0:0:0:
256,192,8289,1,8,0:0:0:0:
256,192,8975,1,8,0:0:0:0:
256,192,9318,1,0,0:0:0:0:
256,192,9661,1,8,0:0:0:0:
256,192,10003,1,0,0:0:0:0:
256,192,10346,1,0,0:0:0:0:
256,192,10689,1,0,0:0:0:0:
256,192,11032,1,8,0:0:0:0:
256,192,11375,1,0,0:0:0:0:
256,192,11718,1,0,0:0:0:0:
256,192,12061,1,0,0:0:0:0:
256,192,12232,1,0,0:0:0:0:
256,192,12403,1,4,0:0:0:0:
256,192,12746,1,8,0:0:0:0:
256,192,13089,1,0,0:0:0:0:
256,192,13432,1,8,0:0:0:0:
256,192,13775,1,0,0:0:0:0:
256,192,14461,1,0,0:0:0:0:
256,192,14803,1,0,0:0:0:0:
256,192,15146,1,8,0:0:0:0:
256,192,15661,1,0,0:0:0:0:
256,192,15832,1,8,0:0:0:0:
256,192,16175,1,8,0:0:0:0:
256,192,16518,1,8,0:0:0:0:
256,192,16861,1,0,0:0:0:0:
256,192,17203,1,8,0:0:0:0:
256,192,17546,1,0,0:0:0:0:
256,192,17889,1,8,0:0:0:0:
256,192,18232,1,0,0:0:0:0:
256,192,18575,1,8,0:0:0:0:
256,192,18918,1,8,0:0:0:0:
256,192,19261,1,8,0:0:0:0:
256,192,19946,1,8,0:0:0:0:
256,192,20289,1,0,0:0:0:0:
256,192,20632,1,0,0:0:0:0:
256,192,20975,1,8,0:0:0:0:
256,192,21318,1,8,0:0:0:0:
256,192,21661,1,0,0:0:0:0:
256,192,22003,1,8,0:0:0:0:
256,192,22346,1,0,0:0:0:0:
256,192,22689,1,0,0:0:0:0:
256,192,23032,1,8,0:0:0:0:
224,160,23375,5,0,0:0:0:0:
288,160,23632,1,8,0:0:0:0:
224,160,23718,1,0,0:0:0:0:
288,160,23889,1,8,0:0:0:0:
224,160,24061,1,0,0:0:0:0:
288,160,24318,1,8,0:0:0:0:
224,160,24403,1,0,0:0:0:0:
288,160,24575,1,8,0:0:0:0:
224,160,24746,1,0,0:0:0:0:
288,160,25003,1,8,0:0:0:0:
224,160,25089,1,0,0:0:0:0:
288,160,25261,1,8,0:0:0:0:
224,160,25432,1,0,0:0:0:0:
288,160,25689,1,8,0:0:0:0:
224,160,25775,1,0,0:0:0:0:
288,160,25946,1,8,0:0:0:0:
288,160,26032,1,8,0:0:0:0:
224,160,26118,1,0,0:0:0:0:
288,160,26375,1,8,0:0:0:0:
224,160,26461,1,0,0:0:0:0:
288,160,26632,1,8,0:0:0:0:
224,160,26803,1,0,0:0:0:0:
288,160,27061,1,8,0:0:0:0:
224,160,27146,1,0,0:0:0:0:
288,160,27318,1,8,0:0:0:0:
224,160,27489,1,0,0:0:0:0:
288,160,27746,1,8,0:0:0:0:
224,160,27832,1,0,0:0:0:0:
288,160,28003,1,8,0:0:0:0:
288,160,28175,1,8,0:0:0:0:
224,160,28432,1,0,0:0:0:0:
288,160,28518,1,8,0:0:0:0:
224,160,28689,1,0,0:0:0:0:
288,160,28775,1,8,0:0:0:0:
224,160,28861,1,0,0:0:0:0:
288,160,29118,1,8,0:0:0:0:
224,160,29203,1,0,0:0:0:0:
288,160,29375,1,8,0:0:0:0:
224,160,29546,1,0,0:0:0:0:
288,160,29803,1,8,0:0:0:0:
224,160,29889,1,0,0:0:0:0:
288,160,30061,1,8,0:0:0:0:
224,160,30232,1,0,0:0:0:0:
288,160,30489,1,8,0:0:0:0:
224,160,30575,1,0,0:0:0:0:
288,160,30746,1,8,0:0:0:0:
224,160,30918,1,0,0:0:0:0:
288,160,31175,1,8,0:0:0:0:
224,160,31261,1,0,0:0:0:0:
288,160,31432,1,8,0:0:0:0:
288,160,31518,1,8,0:0:0:0:
224,160,31603,1,0,0:0:0:0:
288,160,31861,1,8,0:0:0:0:
224,160,31946,1,0,0:0:0:0:
288,160,32118,1,8,0:0:0:0:
224,160,32289,1,0,0:0:0:0:
288,160,32546,1,8,0:0:0:0:
224,160,32632,1,0,0:0:0:0:
288,160,32803,1,8,0:0:0:0:
224,160,32975,1,0,0:0:0:0:
288,160,33232,1,8,0:0:0:0:
224,160,33318,1,0,0:0:0:0:
288,160,33489,1,8,0:0:0:0:
224,160,33661,1,0,0:0:0:0:
288,160,33746,1,8,0:0:0:0:
224,160,33832,1,0,0:0:0:0:
224,160,33918,1,0,0:0:0:0:
288,160,34003,1,8,0:0:0:0:
224,160,34175,1,0,0:0:0:0:
288,160,34261,1,8,0:0:0:0:
224,160,34346,1,0,0:0:0:0:
288,160,34603,1,8,0:0:0:0:
224,160,34689,1,0,0:0:0:0:
288,160,34861,1,8,0:0:0:0:
224,160,35032,1,0,0:0:0:0:
288,160,35289,1,8,0:0:0:0:
224,160,35375,1,0,0:0:0:0:
288,160,35546,1,8,0:0:0:0:
224,160,35718,1,0,0:0:0:0:
288,160,35975,1,8,0:0:0:0:
224,160,36061,1,0,0:0:0:0:
288,160,36232,1,8,0:0:0:0:
224,160,36403,1,0,0:0:0:0:
288,160,36661,1,8,0:0:0:0:
224,160,36746,1,0,0:0:0:0:
288,160,36918,1,8,0:0:0:0:
288,160,37003,1,8,0:0:0:0:
224,160,37089,1,0,0:0:0:0:
288,160,37346,1,8,0:0:0:0:
224,160,37432,1,0,0:0:0:0:
288,160,37603,1,8,0:0:0:0:
224,160,37775,1,0,0:0:0:0:
288,160,38032,1,8,0:0:0:0:
224,160,38118,1,0,0:0:0:0:
288,160,38289,1,8,0:0:0:0:
224,160,38461,1,0,0:0:0:0:
288,160,38718,1,8,0:0:0:0:
224,160,38803,1,0,0:0:0:0:
288,160,38975,1,8,0:0:0:0:
288,160,39146,1,8,0:0:0:0:
224,160,39403,1,0,0:0:0:0:
288,160,39489,1,8,0:0:0:0:
224,160,39661,1,0,0:0:0:0:
288,160,39746,1,8,0:0:0:0:
224,160,39832,1,0,0:0:0:0:
224,160,40003,1,0,0:0:0:0:
224,160,40175,1,0,0:0:0:0:
224,160,40346,1,0,0:0:0:0:
224,160,40518,1,0,0:0:0:0:
224,160,40689,1,0,0:0:0:0:
224,160,40861,1,0,0:0:0:0:
224,160,41032,1,0,0:0:0:0:
224,160,41203,1,0,0:0:0:0:
224,160,41375,1,0,0:0:0:0:
224,160,41546,1,0,0:0:0:0:
224,160,41718,1,0,0:0:0:0:
224,160,41889,1,0,0:0:0:0:
224,160,42061,1,0,0:0:0:0:
288,160,42146,1,8,0:0:0:0:
224,160,42232,1,0,0:0:0:0:
224,160,42403,1,0,0:0:0:0:
224,160,42489,1,0,0:0:0:0:
288,160,42575,1,8,0:0:0:0:
288,160,42661,1,8,0:0:0:0:
224,160,42746,1,0,0:0:0:0:
224,160,42832,1,0,0:0:0:0:
288,160,42918,1,8,0:0:0:0:
288,160,43003,1,0,0:0:0:0:
224,160,43089,1,0,0:0:0:0:
224,160,43175,1,0,0:0:0:0:
288,160,43261,1,8,0:0:0:0:
288,160,43346,1,8,0:0:0:0:
224,160,43432,1,0,0:0:0:0:
224,160,43518,1,0,0:0:0:0:
288,160,43603,1,8,0:0:0:0:
288,160,43689,1,0,0:0:0:0:
224,160,43775,1,0,0:0:0:0:
224,160,43861,1,0,0:0:0:0:
256,192,44289,12,0,44803,0:0:0:0:
32,32,44975,6,0,L|128:32,1,70
256,192,45318,5,4,0:0:0:0:
256,192,45661,1,0,0:0:0:0:
256,192,46003,1,0,0:0:0:0:
256,192,46346,1,0,0:0:0:0:
256,192,46689,1,0,0:0:0:0:
256,192,47032,1,0,0:0:0:0:
256,192,47375,1,0,0:0:0:0:
256,192,47718,1,0,0:0:0:0:
256,192,47889,1,8,0:0:0:0:
256,192,47975,1,8,0:0:0:0:
256,192,48061,1,0,0:0:0:0:
256,192,48403,1,0,0:0:0:0:
256,192,48746,1,0,0:0:0:0:
256,192,49089,1,0,0:0:0:0:
256,192,49432,1,0,0:0:0:0:
256,192,49689,1,8,0:0:0:0:
256,192,49775,1,0,0:0:0:0:
256,192,49946,1,8,0:0:0:0:
256,192,50118,1,0,0:0:0:0:
256,192,50375,1,0,0:0:0:0:
256,192,50461,1,8,0:0:0:0:
256,192,50803,1,8,0:0:0:0:
256,192,50889,1,8,0:0:0:0:
256,192,50975,1,8,0:0:0:0:
256,192,51061,1,8,0:0:0:0:
256,192,51146,1,4,0:0:0:0:
256,192,51489,1,0,0:0:0:0:
256,192,51832,1,0,0:0:0:0:
256,192,52175,1,0,0:0:0:0:
256,192,52518,1,0,0:0:0:0:
256,192,52861,1,0,0:0:0:0:
256,192,53203,1,12,0:0:0:0:
256,192,53546,1,0,0:0:0:0:
256,192,53889,1,0,0:0:0:0:
256,192,54232,1,0,0:0:0:0:
256,192,54575,1,0,0:0:0:0:
256,192,54918,1,0,0:0:0:0:
256,192,55175,1,8,0:0:0:0:
256,192,55261,1,0,0:0:0:0:
256,192,55432,1,8,0:0:0:0:
256,192,55603,1,0,0:0:0:0:
256,192,55775,1,0,0:0:0:0:
256,192,55946,1,8,0:0:0:0:
256,192,56118,1,0,0:0:0:0:
256,192,56161,1,0,0:0:0:0:
256,192,56203,1,0,0:0:0:0:
256,192,56246,1,0,0:0:0:0:
256,192,56632,1,4,0:0:0:0:
256,192,56803,1,0,0:0:0:0:
256,192,56975,1,0,0:0:0:0:
256,192,57061,1,0,0:0:0:0:
256,192,57146,1,0,0:0:0:0:
256,192,57232,1,0,0:0:0:0:
256,192,57318,1,8,0:0:0:0:
256,192,57489,1,0,0:0:0:0:
256,192,57532,1,0,0:0:0:0:
256,192,57575,1,0,0:0:0:0:
256,192,57618,1,0,0:0:0:0:
256,192,57661,1,0,0:0:0:0:
256,192,58003,1,0,0:0:0:0:
256,192,58346,1,0,0:0:0:0:
256,192,58689,1,0,0:0:0:0:
256,192,58861,1,8,0:0:0:0:
256,192,58946,1,8,0:0:0:0:
256,192,59032,1,0,0:0:0:0:
256,192,59375,1,0,0:0:0:0:
256,192,59718,1,0,0:0:0:0:
256,192,60061,1,0,0:0:0:0:
256,192,60403,1,0,0:0:0:0:
256,192,60661,1,8,0:0:0:0:
256,192,60746,1,0,0:0:0:0:
256,192,60918,1,8,0:0:0:0:
256,192,61089,1,0,0:0:0:0:
256,192,61261,1,0,0:0:0:0:
256,192,61432,1,12,0:0:0:0:
256,192,61775,1,4,0:0:0:0:
256,192,62118,1,0,0:0:0:0:
256,192,62461,1,0,0:0:0:0:
256,192,62803,1,8,0:0:0:0:
256,192,63146,1,4,0:0:0:0:
256,192,63489,1,0,0:0:0:0:
256,192,63832,1,0,0:0:0:0:
256,192,64003,1,0,0:0:0:0:
256,192,64175,1,8,0:0:0:0:
256,192,64346,1,8,0:0:0:0:
256,192,64518,1,4,0:0:0:0:
256,192,64861,1,0,0:0:0:0:
256,192,65203,1,12,0:0:0:0:
256,192,65461,1,0,0:0:0:0:
256,192,65718,1,8,0:0:0:0:
256,192,65889,1,12,0:0:0:0:
256,192,66146,1,4,0:0:0:0:
256,192,66403,1,12,0:0:0:0:
256,192,66575,1,4,0:0:0:0:
256,192,66746,1,0,0:0:0:0:
256,192,66832,1,0,0:0:0:0:
256,192,66918,1,8,0:0:0:0:
256,192,67003,1,0,0:0:0:0:
256,192,67089,1,8,0:0:0:0:
256,192,67175,1,8,0:0:0:0:
256,192,67261,5,4,0:0:0:0:
256,192,67518,1,8,0:0:0:0:
256,192,67603,1,0,0:0:0:0:
256,192,67775,1,8,0:0:0:0:
256,192,67946,1,0,0:0:0:0:
256,192,68203,1,8,0:0:0:0:
256,192,68289,1,0,0:0:0:0:
256,192,68461,1,8,0:0:0:0:
256,192,68632,1,0,0:0:0:0:
256,192,68889,1,8,0:0:0:0:
256,188,68975,1,0,0:0:0:0:
256,192,69146,1,8,0:0:0:0:
256,192,69318,1,0,0:0:0:0:
256,192,69489,1,8,0:0:0:0:
256,192,69575,1,8,0:0:0:0:
256,192,69661,1,0,0:0:0:0:
256,192,69746,1,0,0:0:0:0:
256,192,69832,1,8,0:0:0:0:
256,192,70003,1,0,0:0:0:0:
256,192,70261,1,8,0:0:0:0:
256,192,70346,1,0,0:0:0:0:
256,192,70518,1,8,0:0:0:0:
256,192,70689,1,0,0:0:0:0:
256,192,70946,1,8,0:0:0:0:
256,192,71032,1,0,0:0:0:0:
256,192,71203,1,8,0:0:0:0:
256,192,71375,1,0,0:0:0:0:
256,192,71546,1,8,0:0:0:0:
256,192,71632,1,8,0:0:0:0:
256,192,71718,1,0,0:0:0:0:
256,192,71889,1,8,0:0:0:0:
256,192,72061,1,8,0:0:0:0:
256,192,72232,1,0,0:0:0:0:
256,192,72403,1,4,0:0:0:0:
256,192,72575,1,4,0:0:0:0:
256,192,72746,1,4,0:0:0:0:
256,192,73003,1,8,0:0:0:0:
256,192,73089,1,0,0:0:0:0:
256,192,73261,1,8,0:0:0:0:
256,192,73432,1,0,0:0:0:0:
256,192,73689,1,8,0:0:0:0:
256,192,73775,1,0,0:0:0:0:
256,192,73946,1,8,0:0:0:0:
256,192,74118,1,0,0:0:0:0:
256,192,74375,1,8,0:0:0:0:
256,192,74461,1,0,0:0:0:0:
256,192,74632,1,8,0:0:0:0:
256,192,74803,1,8,0:0:0:0:
256,192,75061,1,8,0:0:0:0:
256,192,75146,1,0,0:0:0:0:
256,192,75232,1,0,0:0:0:0:
256,192,75318,1,8,0:0:0:0:
256,192,75403,1,8,0:0:0:0:
256,192,75489,1,0,0:0:0:0:
256,192,75661,1,8,0:0:0:0:
256,192,75746,1,8,0:0:0:0:
256,192,75832,1,0,0:0:0:0:
256,192,76003,1,8,0:0:0:0:
256,192,76175,1,0,0:0:0:0:
256,192,76346,1,0,0:0:0:0:
256,192,76432,1,8,0:0:0:0:
256,192,76518,1,0,0:0:0:0:
256,192,76689,1,0,0:0:0:0:
256,192,76861,1,8,0:0:0:0:
256,192,77032,1,8,0:0:0:0:
256,192,77118,1,8,0:0:0:0:
256,192,77203,1,0,0:0:0:0:
256,192,77375,1,0,0:0:0:0:
256,192,77461,1,8,0:0:0:0:
256,192,77546,1,0,0:0:0:0:
256,192,77718,1,4,0:0:0:0:
256,192,77889,1,4,0:0:0:0:
256,192,78061,1,4,0:0:0:0:
256,192,78232,1,12,0:0:0:0:
256,192,78489,1,8,0:0:0:0:
256,192,78575,1,0,0:0:0:0:
256,192,78746,1,8,0:0:0:0:
256,192,78918,1,0,0:0:0:0:
256,192,79175,1,8,0:0:0:0:
256,192,79261,1,0,0:0:0:0:
256,192,79432,1,8,0:0:0:0:
256,192,79603,1,0,0:0:0:0:
256,192,79861,1,8,0:0:0:0:
256,192,79946,1,0,0:0:0:0:
256,192,80118,1,8,0:0:0:0:
256,192,80289,1,0,0:0:0:0:
256,192,80461,1,0,0:0:0:0:
256,192,80546,1,8,0:0:0:0:
256,192,80632,1,0,0:0:0:0:
256,192,80718,1,0,0:0:0:0:
256,192,80803,1,8,0:0:0:0:
256,192,80889,1,8,0:0:0:0:
256,192,80975,1,0,0:0:0:0:
256,192,81232,1,8,0:0:0:0:
256,192,81318,1,0,0:0:0:0:
256,192,81489,1,8,0:0:0:0:
256,192,81661,1,0,0:0:0:0:
256,192,81918,1,8,0:0:0:0:
256,192,82003,1,0,0:0:0:0:
256,192,82175,1,8,0:0:0:0:
256,192,82261,1,8,0:0:0:0:
256,192,82346,1,0,0:0:0:0:
256,192,82518,1,0,0:0:0:0:
256,192,82603,1,8,0:0:0:0:
256,192,82689,1,0,0:0:0:0:
256,192,82861,1,8,0:0:0:0:
256,192,83032,1,0,0:0:0:0:
256,192,83203,1,0,0:0:0:0:
256,192,83375,1,12,0:0:0:0:
256,192,83718,1,4,0:0:0:0:
256,192,83975,1,0,0:0:0:0:
256,192,84061,1,8,0:0:0:0:
256,192,84232,1,8,0:0:0:0:
256,192,84403,1,0,0:0:0:0:
256,192,84575,1,0,0:0:0:0:
256,192,84661,1,0,0:0:0:0:
256,192,84746,1,8,0:0:0:0:
256,192,84832,1,0,0:0:0:0:
256,192,84918,1,8,0:0:0:0:
256,192,85089,1,12,0:0:0:0:
256,192,85261,1,8,0:0:0:0:
256,192,85346,1,8,0:0:0:0:
256,192,85432,1,0,0:0:0:0:
256,192,85603,1,0,0:0:0:0:
256,192,85775,1,0,0:0:0:0:
256,192,85946,1,12,0:0:0:0:
256,192,86118,1,0,0:0:0:0:
256,192,86289,1,0,0:0:0:0:
256,192,86461,1,4,0:0:0:0:
256,192,86632,1,0,0:0:0:0:
256,192,86803,1,0,0:0:0:0:
256,192,86975,1,8,0:0:0:0:
256,192,87146,1,8,0:0:0:0:
256,192,87232,1,8,0:0:0:0:
256,192,87318,1,0,0:0:0:0:
256,192,87403,1,0,0:0:0:0:
256,192,87489,1,8,0:0:0:0:
256,192,87575,1,8,0:0:0:0:
256,192,87661,1,0,0:0:0:0:
256,192,87746,1,0,0:0:0:0:
256,192,87832,1,8,0:0:0:0:
256,192,88003,1,8,0:0:0:0:
256,192,88175,1,0,0:0:0:0:
256,192,88346,1,0,0:0:0:0:
256,192,88518,1,8,0:0:0:0:
256,192,88689,1,0,0:0:0:0:
256,192,88861,1,8,0:0:0:0:
256,192,89032,1,0,0:0:0:0:
256,192,89203,5,4,0:0:0:0:
256,192,89375,1,0,0:0:0:0:
256,192,89461,1,0,0:0:0:0:
256,192,89546,1,8,0:0:0:0:
256,192,89718,1,0,0:0:0:0:
256,192,89889,1,8,0:0:0:0:
256,192,90061,1,8,0:0:0:0:
256,192,90146,1,0,0:0:0:0:
256,192,90318,1,0,0:0:0:0:
256,192,90403,1,8,0:0:0:0:
256,192,90575,1,8,0:0:0:0:
256,192,90746,1,0,0:0:0:0:
256,192,90918,1,8,0:0:0:0:
256,192,91003,1,8,0:0:0:0:
256,192,91089,1,0,0:0:0:0:
256,192,91261,1,0,0:0:0:0:
256,192,91432,1,0,0:0:0:0:
256,192,91518,1,8,0:0:0:0:
256,192,91689,1,8,0:0:0:0:
256,192,91775,1,0,0:0:0:0:
256,192,91946,1,0,0:0:0:0:
256,192,92118,1,0,0:0:0:0:
256,192,92203,1,0,0:0:0:0:
256,192,92289,1,8,0:0:0:0:
256,192,92461,1,0,0:0:0:0:
256,192,92632,1,8,0:0:0:0:
256,192,92803,1,8,0:0:0:0:
256,192,92889,1,8,0:0:0:0:
256,192,93061,1,0,0:0:0:0:
256,192,93146,1,0,0:0:0:0:
256,192,93318,1,8,0:0:0:0:
256,192,93661,1,0,0:0:0:0:
256,192,93832,1,0,0:0:0:0:
256,192,94003,1,8,0:0:0:0:
256,192,94175,1,0,0:0:0:0:
256,192,94346,1,8,0:0:0:0:
256,192,94689,1,8,0:0:0:0:
256,192,94861,1,0,0:0:0:0:
256,192,95032,1,8,0:0:0:0:
256,192,95118,1,8,0:0:0:0:
256,192,95203,1,0,0:0:0:0:
256,192,95375,1,8,0:0:0:0:
256,192,95546,1,0,0:0:0:0:
256,192,95632,1,8,0:0:0:0:
256,192,95803,1,8,0:0:0:0:
256,192,95889,1,0,0:0:0:0:
256,192,96061,1,8,0:0:0:0:
256,192,96232,1,0,0:0:0:0:
256,192,96318,1,0,0:0:0:0:
256,192,96403,1,8,0:0:0:0:
256,192,96575,1,0,0:0:0:0:
256,192,96746,1,8,0:0:0:0:
256,192,96918,1,0,0:0:0:0:
256,192,97003,1,8,0:0:0:0:
256,192,97175,1,8,0:0:0:0:
256,192,97261,1,0,0:0:0:0:
256,192,97432,1,0,0:0:0:0:
256,192,97603,1,8,0:0:0:0:
256,192,97689,1,0,0:0:0:0:
256,192,97861,1,0,0:0:0:0:
256,192,97946,1,8,0:0:0:0:
256,192,98032,1,8,0:0:0:0:
256,192,98118,1,0,0:0:0:0:
256,192,98289,1,0,0:0:0:0:
256,192,98375,1,8,0:0:0:0:
256,192,98546,1,8,0:0:0:0:
256,192,98632,1,0,0:0:0:0:
256,192,98718,1,0,0:0:0:0:
256,192,98803,1,8,0:0:0:0:
256,192,98975,1,8,0:0:0:0:
256,192,99061,1,0,0:0:0:0:
256,192,99232,1,0,0:0:0:0:
256,192,99318,1,8,0:0:0:0:
256,192,99403,1,8,0:0:0:0:
256,192,99489,1,0,0:0:0:0:
256,192,99661,1,0,0:0:0:0:
256,192,99832,1,8,0:0:0:0:
256,192,100003,1,8,0:0:0:0:
256,192,100175,1,4,0:0:0:0:
256,192,100346,1,0,0:0:0:0:
256,192,100432,1,0,0:0:0:0:
256,192,100518,1,8,0:0:0:0:
256,192,100689,1,0,0:0:0:0:
256,192,100861,1,8,0:0:0:0:
256,192,101032,1,8,0:0:0:0:
256,192,101118,1,0,0:0:0:0:
256,192,101289,1,0,0:0:0:0:
256,192,101375,1,8,0:0:0:0:
256,192,101546,1,8,0:0:0:0:
256,192,101718,1,0,0:0:0:0:
256,192,101889,1,8,0:0:0:0:
256,192,101975,1,8,0:0:0:0:
256,192,102061,1,0,0:0:0:0:
256,192,102232,1,0,0:0:0:0:
256,192,102403,1,0,0:0:0:0:
256,192,102489,1,8,0:0:0:0:
256,192,102661,1,8,0:0:0:0:
256,192,102746,1,0,0:0:0:0:
256,192,102918,1,0,0:0:0:0:
256,192,103089,1,0,0:0:0:0:
256,192,103175,1,0,0:0:0:0:
256,192,103261,1,8,0:0:0:0:
256,192,103432,1,0,0:0:0:0:
256,192,103603,1,8,0:0:0:0:
256,192,103775,1,8,0:0:0:0:
256,192,103861,1,8,0:0:0:0:
256,192,104032,1,0,0:0:0:0:
256,192,104118,1,0,0:0:0:0:
256,192,104289,1,8,0:0:0:0:
256,192,104632,1,0,0:0:0:0:
256,192,104803,1,0,0:0:0:0:
256,192,104975,1,8,0:0:0:0:
256,192,105146,1,0,0:0:0:0:
256,192,105318,1,8,0:0:0:0:
256,192,105661,1,8,0:0:0:0:
256,192,105832,1,0,0:0:0:0:
256,192,106003,1,8,0:0:0:0:
256,192,106089,1,8,0:0:0:0:
256,192,106175,1,0,0:0:0:0:
256,192,106346,1,8,0:0:0:0:
256,192,106518,1,0,0:0:0:0:
256,192,106603,1,8,0:0:0:0:
256,192,106775,1,8,0:0:0:0:
256,192,106861,1,0,0:0:0:0:
256,192,107032,1,8,0:0:0:0:
256,192,107203,1,0,0:0:0:0:
256,192,107289,1,0,0:0:0:0:
256,192,107375,1,8,0:0:0:0:
256,192,107461,1,8,0:0:0:0:
256,192,107546,1,0,0:0:0:0:
256,192,107718,1,8,0:0:0:0:
256,192,107889,1,0,0:0:0:0:
256,192,107975,1,8,0:0:0:0:
256,192,108146,1,8,0:0:0:0:
256,192,108232,1,0,0:0:0:0:
256,192,108403,1,8,0:0:0:0:
256,192,108489,1,0,0:0:0:0:
256,192,108575,1,0,0:0:0:0:
256,192,108661,1,8,0:0:0:0:
256,192,108746,1,0,0:0:0:0:
256,192,108832,1,0,0:0:0:0:
256,192,108918,1,8,0:0:0:0:
256,192,109003,1,0,0:0:0:0:
256,192,109089,1,8,0:0:0:0:
256,192,109175,1,0,0:0:0:0:
256,192,109261,1,8,0:0:0:0:
256,192,109346,1,8,0:0:0:0:
256,192,109432,1,0,0:0:0:0:
256,192,109518,1,8,0:0:0:0:
256,192,109603,1,0,0:0:0:0:
256,192,109689,1,0,0:0:0:0:
256,192,109775,1,8,0:0:0:0:
256,192,109946,1,0,0:0:0:0:
256,192,110032,1,0,0:0:0:0:
256,192,110118,1,0,0:0:0:0:
256,192,110289,1,0,0:0:0:0:
256,192,110461,1,8,0:0:0:0:
256,192,110546,1,8,0:0:0:0:
256,192,110632,1,0,0:0:0:0:
256,192,110803,1,12,0:0:0:0:
256,192,110975,1,0,0:0:0:0:
256,192,111146,1,4,0:0:0:0:
256,192,111318,1,0,0:0:0:0:
256,192,111403,1,0,0:0:0:0:
256,192,111489,1,8,0:0:0:0:
256,192,111661,1,0,0:0:0:0:
256,192,111746,1,0,0:0:0:0:
256,192,111832,1,8,0:0:0:0:
256,192,112003,1,8,0:0:0:0:
256,192,112089,1,0,0:0:0:0:
256,192,112261,1,0,0:0:0:0:
256,192,112346,1,8,0:0:0:0:
256,192,112518,1,0,0:0:0:0:
256,192,112689,1,8,0:0:0:0:
256,192,112861,1,0,0:0:0:0:
256,192,113032,1,8,0:0:0:0:
256,192,113118,1,8,0:0:0:0:
256,192,113203,1,0,0:0:0:0:
256,192,113375,1,0,0:0:0:0:
256,192,113461,1,0,0:0:0:0:
256,192,113632,1,0,0:0:0:0:
256,192,113718,1,8,0:0:0:0:
256,192,113889,1,8,0:0:0:0:
256,192,114061,1,0,0:0:0:0:
256,192,114232,1,8,0:0:0:0:
256,192,114403,1,0,0:0:0:0:
256,192,114489,1,0,0:0:0:0:
256,192,114575,1,8,0:0:0:0:
256,192,114746,1,0,0:0:0:0:
256,192,114832,1,8,0:0:0:0:
256,192,115003,1,8,0:0:0:0:
256,192,115089,1,0,0:0:0:0:
256,192,115261,1,8,0:0:0:0:
256,192,115603,1,8,0:0:0:0:
256,192,115775,1,0,0:0:0:0:
256,192,115946,1,8,0:0:0:0:
256,192,116032,1,0,0:0:0:0:
256,192,116118,1,0,0:0:0:0:
256,192,116203,1,0,0:0:0:0:
256,192,116289,1,8,0:0:0:0:
256,192,116632,1,8,0:0:0:0:
256,192,116803,1,0,0:0:0:0:
256,192,116975,1,8,0:0:0:0:
256,192,117146,1,0,0:0:0:0:
256,192,117232,1,0,0:0:0:0:
256,192,117318,1,8,0:0:0:0:
256,192,117489,1,0,0:0:0:0:
256,192,117575,1,8,0:0:0:0:
256,192,117746,1,0,0:0:0:0:
256,192,117832,1,8,0:0:0:0:
256,192,118003,1,8,0:0:0:0:
256,192,118175,1,0,0:0:0:0:
256,192,118346,1,8,0:0:0:0:
256,192,118518,1,0,0:0:0:0:
256,192,118603,1,0,0:0:0:0:
256,192,118689,1,8,0:0:0:0:
256,192,118861,1,0,0:0:0:0:
256,192,118946,1,8,0:0:0:0:
256,192,119118,1,8,0:0:0:0:
256,192,119203,1,0,0:0:0:0:
256,192,119375,1,4,0:0:0:0:
256,192,119632,1,4,0:0:0:0:
256,192,119889,1,8,0:0:0:0:
256,192,119932,1,8,0:0:0:0:
256,192,119975,1,8,0:0:0:0:
256,192,120018,1,8,0:0:0:0:
256,192,120318,1,4,0:0:0:0:
256,192,120575,1,8,0:0:0:0:
256,192,120618,1,8,0:0:0:0:
256,192,120661,1,8,0:0:0:0:
256,192,120703,1,8,0:0:0:0:
256,192,120918,1,8,0:0:0:0:
256,192,121003,1,0,0:0:0:0:
256,192,121175,1,0,0:0:0:0:
256,192,121261,1,8,0:0:0:0:
256,192,121432,1,12,0:0:0:0:
256,192,121689,1,0,0:0:0:0:
256,192,121946,1,8,0:0:0:0:
256,192,122032,1,8,0:0:0:0:
256,192,122118,1,4,0:0:0:0:
256,192,122289,1,0,0:0:0:0:
256,192,122461,1,8,0:0:0:0:
256,192,122632,1,0,0:0:0:0:
256,192,122803,1,8,0:0:0:0:
256,192,122975,1,8,0:0:0:0:
256,192,123061,1,0,0:0:0:0:
256,192,123232,1,0,0:0:0:0:
256,192,123318,1,8,0:0:0:0:
256,192,123489,1,0,0:0:0:0:
256,192,123661,1,8,0:0:0:0:
256,192,123832,1,0,0:0:0:0:
256,192,124003,1,8,0:0:0:0:
256,192,124089,1,8,0:0:0:0:
256,192,124175,1,0,0:0:0:0:
256,192,124346,1,0,0:0:0:0:
256,192,124432,1,0,0:0:0:0:
256,192,124518,1,8,0:0:0:0:
256,192,124603,1,0,0:0:0:0:
256,192,124689,1,8,0:0:0:0:
256,192,124861,1,8,0:0:0:0:
256,192,125032,1,0,0:0:0:0:
256,192,125118,1,0,0:0:0:0:
256,192,125203,1,8,0:0:0:0:
256,192,125375,1,8,0:0:0:0:
256,192,125461,1,0,0:0:0:0:
256,192,125546,1,8,0:0:0:0:
256,192,125718,1,0,0:0:0:0:
256,192,125803,1,8,0:0:0:0:
256,192,125975,1,8,0:0:0:0:
256,192,126061,1,0,0:0:0:0:
256,192,126232,1,8,0:0:0:0:
256,192,126575,1,0,0:0:0:0:
256,192,126746,1,8,0:0:0:0:
256,192,126918,1,0,0:0:0:0:
256,192,127003,1,0,0:0:0:0:
256,192,127089,1,8,0:0:0:0:
256,192,127261,1,0,0:0:0:0:
256,192,127432,1,0,0:0:0:0:
256,192,127603,1,12,0:0:0:0:
256,192,127775,1,0,0:0:0:0:
256,192,127946,1,8,0:0:0:0:
256,192,128118,1,0,0:0:0:0:
256,192,128289,1,8,0:0:0:0:
256,192,128375,1,8,0:0:0:0:
256,192,128461,1,0,0:0:0:0:
256,192,128546,1,8,0:0:0:0:
256,192,128718,1,8,0:0:0:0:
256,192,128803,1,0,0:0:0:0:
256,192,128975,1,8,0:0:0:0:
256,192,129146,1,0,0:0:0:0:
256,192,129318,1,8,0:0:0:0:
256,192,129489,1,0,0:0:0:0:
256,192,129661,1,8,0:0:0:0:
256,192,129746,1,0,0:0:0:0:
256,192,129832,1,0,0:0:0:0:
256,192,129918,1,8,0:0:0:0:
256,192,130089,1,0,0:0:0:0:
256,192,130175,1,8,0:0:0:0:
256,196,130346,5,8,0:0:0:0:
256,196,130432,1,0,0:0:0:0:
256,196,130518,1,0,0:0:0:0:
256,196,130603,1,8,0:0:0:0:
256,196,130689,1,0,0:0:0:0:
256,196,130775,1,0,0:0:0:0:
256,196,130861,1,8,0:0:0:0:
256,196,130946,1,0,0:0:0:0:
256,196,131032,1,8,0:0:0:0:
256,196,131118,1,0,0:0:0:0:
256,196,131203,1,0,0:0:0:0:
256,196,131289,1,8,0:0:0:0:
256,196,131375,1,0,0:0:0:0:
256,196,131461,1,0,0:0:0:0:
256,196,131546,1,8,0:0:0:0:
256,196,131632,1,8,0:0:0:0:
256,196,131718,1,0,0:0:0:0:
256,196,131889,1,12,0:0:0:0:
256,196,132061,1,12,0:0:0:0:
256,196,132232,1,12,0:0:0:0:
256,196,132403,1,4,0:0:0:0:
256,196,132575,1,4,0:0:0:0:
256,196,132746,1,4,0:0:0:0:
256,196,132918,1,4,0:0:0:0:
256,192,133089,1,4,0:0:0:0:
256,196,133346,1,8,0:0:0:0:
256,196,133432,1,0,0:0:0:0:
256,196,133603,1,8,0:0:0:0:
256,196,133775,1,0,0:0:0:0:
256,192,134032,1,8,0:0:0:0:
256,192,134118,1,0,0:0:0:0:
256,196,134289,1,8,0:0:0:0:
256,196,134461,1,0,0:0:0:0:
256,196,134718,1,8,0:0:0:0:
256,196,134803,1,0,0:0:0:0:
256,192,134975,1,8,0:0:0:0:
256,192,135146,1,0,0:0:0:0:
256,196,135318,1,8,0:0:0:0:
256,196,135403,1,8,0:0:0:0:
256,196,135489,1,0,0:0:0:0:
256,196,135661,1,8,0:0:0:0:
256,196,135832,1,0,0:0:0:0:
256,192,136089,1,8,0:0:0:0:
256,192,136175,1,0,0:0:0:0:
256,196,136346,1,8,0:0:0:0:
256,196,136518,1,0,0:0:0:0:
256,196,136775,1,8,0:0:0:0:
256,196,136861,1,0,0:0:0:0:
256,192,137032,1,8,0:0:0:0:
256,192,137203,1,0,0:0:0:0:
256,196,137461,1,8,0:0:0:0:
256,196,137546,1,0,0:0:0:0:
256,196,137718,1,8,0:0:0:0:
256,196,137889,1,8,0:0:0:0:
256,192,138061,1,0,0:0:0:0:
256,192,138146,1,0,0:0:0:0:
256,192,138232,1,8,0:0:0:0:
256,196,138575,1,4,0:0:0:0:
258,200,138832,1,0,0:0:0:0:
258,200,138918,1,8,0:0:0:0:
258,200,139089,1,8,0:0:0:0:
258,200,139261,1,0,0:0:0:0:
258,200,139518,1,0,0:0:0:0:
258,200,139603,1,8,0:0:0:0:
258,200,139775,1,8,0:0:0:0:
258,200,139946,1,0,0:0:0:0:
258,200,140203,1,0,0:0:0:0:
258,200,140289,1,8,0:0:0:0:
258,200,140461,1,8,0:0:0:0:
258,200,140632,1,0,0:0:0:0:
258,200,140803,1,0,0:0:0:0:
258,200,140889,1,0,0:0:0:0:
258,200,140975,1,8,0:0:0:0:
258,200,141146,1,8,0:0:0:0:
258,200,141318,1,0,0:0:0:0:
258,200,141575,1,0,0:0:0:0:
258,200,141661,1,8,0:0:0:0:
258,200,141832,1,8,0:0:0:0:
258,200,142003,1,0,0:0:0:0:
258,200,142261,1,0,0:0:0:0:
258,200,142346,1,8,0:0:0:0:
258,200,142518,1,8,0:0:0:0:
258,200,142689,1,0,0:0:0:0:
258,200,142946,1,0,0:0:0:0:
258,200,143032,1,8,0:0:0:0:
258,200,143203,1,8,0:0:0:0:
258,200,143375,1,0,0:0:0:0:
258,200,143546,1,0,0:0:0:0:
258,200,143718,1,8,0:0:0:0:
258,200,144061,1,8,0:0:0:0:
258,200,144146,1,8,0:0:0:0:
258,200,144232,1,8,0:0:0:0:
258,200,144318,1,8,0:0:0:0:
258,200,144403,1,8,0:0:0:0:
258,200,144575,1,8,0:0:0:0:
258,200,144746,1,12,0:0:0:0:
258,200,145003,1,8,0:0:0:0:
258,200,145089,1,0,0:0:0:0:
258,200,145261,1,8,0:0:0:0:
258,200,145432,1,0,0:0:0:0:
258,200,145689,1,8,0:0:0:0:
258,200,145775,1,0,0:0:0:0:
258,200,145946,1,8,0:0:0:0:
258,200,146118,1,0,0:0:0:0:
258,200,146375,1,8,0:0:0:0:
258,200,146461,1,0,0:0:0:0:
258,200,146632,1,8,0:0:0:0:
258,200,146803,1,0,0:0:0:0:
264,193,146975,1,8,0:0:0:0:
258,200,147061,1,8,0:0:0:0:
258,200,147146,1,0,0:0:0:0:
258,200,147318,1,8,0:0:0:0:
258,200,147489,1,0,0:0:0:0:
258,200,147746,1,8,0:0:0:0:
258,200,147832,1,0,0:0:0:0:
258,200,148003,1,8,0:0:0:0:
258,200,148175,1,0,0:0:0:0:
258,200,148432,1,8,0:0:0:0:
258,200,148518,1,0,0:0:0:0:
258,200,148689,1,8,0:0:0:0:
258,200,148861,1,0,0:0:0:0:
258,200,149032,1,0,0:0:0:0:
258,200,149203,1,8,0:0:0:0:
258,200,149546,1,4,0:0:0:0:
258,200,149803,1,0,0:0:0:0:
258,193,149889,1,8,0:0:0:0:
258,200,150061,1,8,0:0:0:0:
258,200,150232,1,0,0:0:0:0:
258,200,150318,1,8,0:0:0:0:
258,200,150403,1,0,0:0:0:0:
258,200,150489,1,0,0:0:0:0:
258,200,150575,1,8,0:0:0:0:
258,193,150918,1,4,0:0:0:0:
258,200,151175,1,8,0:0:0:0:
258,200,151261,1,0,0:0:0:0:
258,200,151432,1,12,0:0:0:0:
258,200,151603,1,0,0:0:0:0:
258,200,151775,1,0,0:0:0:0:
258,193,151946,1,12,0:0:0:0:
258,200,152289,1,4,0:0:0:0:
258,200,152461,1,0,0:0:0:0:
258,200,152632,1,8,0:0:0:0:
258,200,152803,1,0,0:0:0:0:
258,193,152975,1,8,0:0:0:0:
258,200,153061,1,8,0:0:0:0:
258,200,153146,1,0,0:0:0:0:
258,200,153232,1,0,0:0:0:0:
258,200,153318,1,8,0:0:0:0:
258,200,153403,1,0,0:0:0:0:
258,200,153489,1,8,0:0:0:0:
258,200,153832,1,8,0:0:0:0:
258,200,154175,1,8,0:0:0:0:
258,200,154346,1,0,0:0:0:0:
258,200,154518,1,0,0:0:0:0:
258,200,154689,1,8,0:0:0:0:
258,200,154861,1,8,0:0:0:0:
288,160,155032,5,4,0:0:0:0:
256,192,155718,1,0,0:0:0:0:
256,192,156403,1,0,0:0:0:0:
256,192,157089,1,0,0:0:0:0:
256,192,157775,1,0,0:0:0:0:
256,192,158289,1,0,0:0:0:0:
256,192,158803,1,8,0:0:0:0:
256,192,159146,1,0,0:0:0:0:
256,192,159661,1,0,0:0:0:0:
256,192,160175,1,0,0:0:0:0:
256,192,160346,1,0,0:0:0:0:
256,192,160518,1,8,0:0:0:0:
256,192,161032,1,0,0:0:0:0:
256,192,161546,1,0,0:0:0:0:
256,192,161718,1,8,0:0:0:0:
256,192,161889,1,8,0:0:0:0:
256,192,162403,1,0,0:0:0:0:
256,192,162918,1,0,0:0:0:0:
256,192,163089,1,0,0:0:0:0:
256,192,163261,1,8,0:0:0:0:
256,192,163432,1,0,0:0:0:0:
256,192,163775,1,8,0:0:0:0:
256,192,163946,1,0,0:0:0:0:
256,192,164289,1,0,0:0:0:0:
256,192,164461,1,8,0:0:0:0:
256,192,164632,1,8,0:0:0:0:
256,192,164803,1,0,0:0:0:0:
256,192,165146,1,0,0:0:0:0:
256,192,165318,1,8,0:0:0:0:
256,192,165661,1,0,0:0:0:0:
256,192,166003,1,0,0:0:0:0:
256,192,166346,1,0,0:0:0:0:
256,192,166689,1,8,0:0:0:0:
256,192,167032,1,8,0:0:0:0:
256,192,167375,1,0,0:0:0:0:
256,192,167546,1,0,0:0:0:0:
256,192,167718,1,8,0:0:0:0:
256,192,167889,1,0,0:0:0:0:
256,192,168061,1,8,0:0:0:0:
256,192,168403,1,0,0:0:0:0:
256,192,168746,1,0,0:0:0:0:
256,192,169089,1,0,0:0:0:0:
256,192,169261,1,0,0:0:0:0:
256,192,169432,1,8,0:0:0:0:
256,192,169775,1,8,0:0:0:0:
256,192,170118,1,8,0:0:0:0:
256,192,170289,1,0,0:0:0:0:
256,192,170461,1,0,0:0:0:0:
256,192,170632,1,8,0:0:0:0:
256,192,170803,1,0,0:0:0:0:
256,192,171146,1,0,0:0:0:0:
256,192,171489,1,0,0:0:0:0:
256,192,171832,1,0,0:0:0:0:
256,192,172003,1,0,0:0:0:0:
256,192,172175,1,8,0:0:0:0:
256,192,172518,1,8,0:0:0:0:
256,192,172689,1,0,0:0:0:0:
256,192,173032,1,0,0:0:0:0:
256,192,173203,1,8,0:0:0:0:
256,192,173375,1,0,0:0:0:0:
256,192,173546,1,8,0:0:0:0:
256,192,173889,1,8,0:0:0:0:
256,192,174232,1,0,0:0:0:0:
256,192,174403,1,8,0:0:0:0:
256,192,174575,1,0,0:0:0:0:
256,192,174746,1,0,0:0:0:0:
256,192,174918,1,8,0:0:0:0:
256,192,175261,1,8,0:0:0:0:
256,192,175603,1,8,0:0:0:0:
256,192,175775,1,0,0:0:0:0:
256,192,175946,1,0,0:0:0:0:
256,192,176118,1,8,0:0:0:0:
256,192,176289,1,0,0:0:0:0:
256,192,176632,1,0,0:0:0:0:
224,224,176975,5,4,0:0:0:0:
288,160,177318,1,8,0:0:0:0:
224,160,177489,1,0,0:0:0:0:
288,160,177661,1,8,0:0:0:0:
224,160,178003,1,0,0:0:0:0:
288,160,178346,1,8,0:0:0:0:
288,160,178518,1,8,0:0:0:0:
224,160,178689,1,0,0:0:0:0:
288,160,178861,1,8,0:0:0:0:
288,160,179032,1,8,0:0:0:0:
224,160,179375,1,0,0:0:0:0:
288,160,179546,1,8,0:0:0:0:
288,160,179632,1,8,0:0:0:0:
224,160,179718,1,0,0:0:0:0:
288,160,180061,1,8,0:0:0:0:
288,160,180403,1,8,0:0:0:0:
224,160,180746,1,0,0:0:0:0:
288,160,181089,1,8,0:0:0:0:
288,160,181261,1,8,0:0:0:0:
288,160,181346,1,8,0:0:0:0:
224,160,181432,1,0,0:0:0:0:
288,160,181603,1,8,0:0:0:0:
224,160,181775,1,0,0:0:0:0:
288,160,182032,1,8,0:0:0:0:
224,160,182118,1,0,0:0:0:0:
224,160,182203,1,0,0:0:0:0:
288,160,182289,1,8,0:0:0:0:
224,160,182461,1,0,0:0:0:0:
288,160,182803,1,8,0:0:0:0:
224,160,182975,1,0,0:0:0:0:
288,160,183146,1,8,0:0:0:0:
288,160,183489,1,8,0:0:0:0:
224,160,183661,1,0,0:0:0:0:
288,160,184003,1,8,0:0:0:0:
224,160,184175,1,0,0:0:0:0:
288,160,184346,1,8,0:0:0:0:
288,160,184518,1,8,0:0:0:0:
224,160,184861,1,0,0:0:0:0:
288,160,185032,1,8,0:0:0:0:
288,160,185118,1,8,0:0:0:0:
224,160,185203,1,0,0:0:0:0:
224,160,185546,1,0,0:0:0:0:
224,160,185718,1,0,0:0:0:0:
288,160,185889,1,8,0:0:0:0:
288,160,186232,1,8,0:0:0:0:
288,160,186575,1,8,0:0:0:0:
224,160,186746,1,0,0:0:0:0:
224,160,186832,1,0,0:0:0:0:
288,160,186918,1,8,0:0:0:0:
288,160,187089,1,8,0:0:0:0:
224,160,187261,1,0,0:0:0:0:
288,160,187518,1,8,0:0:0:0:
224,160,187603,1,0,0:0:0:0:
224,160,187689,1,0,0:0:0:0:
288,160,187775,1,8,0:0:0:0:
224,160,187861,1,0,0:0:0:0:
288,160,187946,1,8,0:0:0:0:
224,160,188289,1,0,0:0:0:0:
224,160,188461,1,0,0:0:0:0:
288,160,188632,1,8,0:0:0:0:
288,160,188975,1,8,0:0:0:0:
288,160,189318,1,8,0:0:0:0:
288,160,189489,1,8,0:0:0:0:
224,160,189661,1,0,0:0:0:0:
288,160,189832,1,8,0:0:0:0:
288,160,190003,1,8,0:0:0:0:
224,160,190346,1,0,0:0:0:0:
288,160,190518,1,8,0:0:0:0:
288,160,190603,1,8,0:0:0:0:
224,160,190689,1,0,0:0:0:0:
288,160,191032,1,8,0:0:0:0:
224,160,191203,1,0,0:0:0:0:
288,160,191375,1,8,0:0:0:0:
224,160,191718,1,0,0:0:0:0:
288,160,192061,1,8,0:0:0:0:
288,160,192232,1,8,0:0:0:0:
288,160,192318,1,8,0:0:0:0:
224,160,192403,1,0,0:0:0:0:
288,160,192575,1,8,0:0:0:0:
224,160,192746,1,0,0:0:0:0:
288,160,193003,1,8,0:0:0:0:
224,160,193089,1,0,0:0:0:0:
224,160,193175,1,0,0:0:0:0:
288,160,193261,1,8,0:0:0:0:
224,160,193432,1,0,0:0:0:0:
288,160,193775,1,8,0:0:0:0:
224,160,193946,1,0,0:0:0:0:
288,160,194118,1,8,0:0:0:0:
288,160,194461,1,8,0:0:0:0:
224,160,194632,1,0,0:0:0:0:
288,160,194975,1,8,0:0:0:0:
288,160,195146,1,8,0:0:0:0:
224,160,195318,1,0,0:0:0:0:
288,160,195489,1,8,0:0:0:0:
224,160,195832,1,0,0:0:0:0:
288,160,196003,1,8,0:0:0:0:
288,160,196089,1,8,0:0:0:0:
224,160,196175,1,0,0:0:0:0:
288,160,196518,1,8,0:0:0:0:
224,160,196689,1,0,0:0:0:0:
288,160,196861,1,8,0:0:0:0:
288,160,197203,1,8,0:0:0:0:
288,160,197546,1,8,0:0:0:0:
288,160,197718,1,8,0:0:0:0:
288,160,197803,1,8,0:0:0:0:
224,160,197889,1,0,0:0:0:0:
288,160,198061,1,8,0:0:0:0:
224,160,198232,1,0,0:0:0:0:
288,160,198489,5,8,0:0:0:0:
224,160,198575,1,0,0:0:0:0:
224,160,198661,1,0,0:0:0:0:
288,160,198746,1,8,0:0:0:0:
256,160,198918,5,0,0:0:0:0:
256,160,199261,1,0,0:0:0:0:
256,160,199603,1,8,0:0:0:0:
256,160,199946,1,8,0:0:0:0:
256,160,200289,1,0,0:0:0:0:
256,160,200461,1,0,0:0:0:0:
256,160,200632,1,8,0:0:0:0:
256,160,200803,1,0,0:0:0:0:
256,160,200975,1,8,0:0:0:0:
256,160,201318,1,8,0:0:0:0:
256,160,201489,1,0,0:0:0:0:
256,160,201575,1,8,0:0:0:0:
256,160,201661,1,0,0:0:0:0:
256,160,202003,1,0,0:0:0:0:
256,160,202346,1,8,0:0:0:0:
256,160,202689,1,8,0:0:0:0:
256,160,203032,1,8,0:0:0:0:
256,160,203203,1,8,0:0:0:0:
256,160,203289,1,8,0:0:0:0:
256,160,203375,1,0,0:0:0:0:
256,160,203546,1,0,0:0:0:0:
256,160,203718,1,8,0:0:0:0:
256,160,203975,1,0,0:0:0:0:
256,160,204061,1,8,0:0:0:0:
256,160,204232,1,0,0:0:0:0:
256,160,204403,1,0,0:0:0:0:
256,160,204746,1,0,0:0:0:0:
256,160,205089,1,8,0:0:0:0:
256,160,205432,1,8,0:0:0:0:
256,160,205603,1,0,0:0:0:0:
256,160,205946,1,0,0:0:0:0:
256,160,206118,1,0,0:0:0:0:
256,160,206289,1,8,0:0:0:0:
256,160,206461,1,8,0:0:0:0:
256,160,206803,1,8,0:0:0:0:
256,160,206975,1,0,0:0:0:0:
256,160,207061,1,8,0:0:0:0:
256,160,207146,1,0,0:0:0:0:
256,160,207489,1,0,0:0:0:0:
256,160,207832,1,8,0:0:0:0:
256,160,208175,1,8,0:0:0:0:
256,160,208518,1,8,0:0:0:0:
256,160,208689,1,8,0:0:0:0:
256,160,208861,1,0,0:0:0:0:
256,160,209032,1,8,0:0:0:0:
256,160,209203,1,0,0:0:0:0:
256,160,209289,1,8,0:0:0:0:
256,160,209461,1,8,0:0:0:0:
288,160,209546,1,0,0:0:0:0:
256,160,209718,1,8,0:0:0:0:
256,160,209889,1,0,0:0:0:0:
256,160,210232,1,0,0:0:0:0:
256,160,210575,1,8,0:0:0:0:
256,160,210918,1,8,0:0:0:0:
256,160,211261,1,0,0:0:0:0:
256,160,211432,1,0,0:0:0:0:
256,160,211603,1,8,0:0:0:0:
256,160,211775,1,0,0:0:0:0:
256,160,211946,1,8,0:0:0:0:
256,160,212203,1,8,0:0:0:0:
256,160,212289,1,0,0:0:0:0:
256,160,212461,1,0,0:0:0:0:
256,160,212546,1,8,0:0:0:0:
256,160,212632,1,0,0:0:0:0:
256,160,212975,1,0,0:0:0:0:
256,160,213318,1,8,0:0:0:0:
256,160,213661,1,8,0:0:0:0:
256,160,214003,1,8,0:0:0:0:
256,160,214175,1,8,0:0:0:0:
250,162,214261,1,8,0:0:0:0:
256,160,214346,1,0,0:0:0:0:
256,160,214518,1,8,0:0:0:0:
256,160,214689,1,0,0:0:0:0:
256,160,214775,1,8,0:0:0:0:
256,160,214946,1,8,0:0:0:0:
256,160,215032,1,0,0:0:0:0:
256,160,215203,1,8,0:0:0:0:
256,160,215375,1,0,0:0:0:0:
256,160,215546,1,0,0:0:0:0:
256,160,215718,1,8,0:0:0:0:
256,160,215889,1,8,0:0:0:0:
256,160,216061,1,0,0:0:0:0:
256,160,216232,1,0,0:0:0:0:
256,160,216403,1,8,0:0:0:0:
256,160,216575,1,0,0:0:0:0:
256,160,216746,1,0,0:0:0:0:
256,160,216918,1,8,0:0:0:0:
256,160,217089,1,0,0:0:0:0:
256,160,217261,1,8,0:0:0:0:
256,160,217432,1,8,0:0:0:0:
256,160,217603,1,0,0:0:0:0:
256,160,217689,1,8,0:0:0:0:
256,160,217775,1,0,0:0:0:0:
256,160,217946,1,8,0:0:0:0:
256,160,218032,1,8,0:0:0:0:
256,160,218118,1,0,0:0:0:0:
256,160,218203,1,0,0:0:0:0:
256,160,218289,1,0,0:0:0:0:
256,160,218375,1,0,0:0:0:0:
256,160,218461,1,8,0:0:0:0:
256,160,218546,1,8,0:0:0:0:
256,160,218632,1,8,0:0:0:0:
256,160,218718,1,8,0:0:0:0:
256,160,218803,1,0,0:0:0:0:
256,160,218889,1,8,0:0:0:0:
256,160,218975,1,0,0:0:0:0:
256,160,219061,1,8,0:0:0:0:
256,160,219146,1,8,0:0:0:0:
256,160,219232,1,0,0:0:0:0:
256,160,219318,1,0,0:0:0:0:
256,160,219403,1,8,0:0:0:0:
256,160,219489,1,0,0:0:0:0:
256,192,220861,12,0,222061,0:0:0:0:
256,192,222232,5,12,0:0:0:0:
256,192,222403,1,0,0:0:0:0:
256,192,222489,1,0,0:0:0:0:
256,192,222575,1,8,0:0:0:0:
256,192,222661,1,0,0:0:0:0:
256,192,222746,1,0,0:0:0:0:
256,192,222832,1,8,0:0:0:0:
256,192,222918,1,8,0:0:0:0:
256,192,223089,1,0,0:0:0:0:
256,192,223175,1,0,0:0:0:0:
256,192,223346,1,0,0:0:0:0:
256,192,223432,1,8,0:0:0:0:
256,192,223603,1,0,0:0:0:0:
256,192,223689,1,8,0:0:0:0:
256,192,223775,1,0,0:0:0:0:
256,192,223946,1,8,0:0:0:0:
256,192,224118,1,0,0:0:0:0:
256,192,224203,1,0,0:0:0:0:
256,192,224289,1,8,0:0:0:0:
256,192,224461,1,0,0:0:0:0:
256,192,224546,1,0,0:0:0:0:
256,192,224718,1,0,0:0:0:0:
256,192,224803,1,8,0:0:0:0:
256,192,224975,1,12,0:0:0:0:
256,192,225232,1,4,0:0:0:0:
256,192,225489,1,0,0:0:0:0:
256,192,225575,1,0,0:0:0:0:
256,192,225661,1,8,0:0:0:0:
256,192,225918,1,4,0:0:0:0:
256,192,226175,1,8,0:0:0:0:
256,192,226261,1,8,0:0:0:0:
256,192,226346,1,0,0:0:0:0:
256,192,226603,1,4,0:0:0:0:
256,192,226861,1,8,0:0:0:0:
256,192,226946,1,0,0:0:0:0:
256,192,227032,1,8,0:0:0:0:
256,192,227375,1,4,0:0:0:0:
256,192,227718,1,12,0:0:0:0:
256,192,227889,1,0,0:0:0:0:
256,192,227975,1,0,0:0:0:0:
256,192,228061,1,8,0:0:0:0:
256,192,228146,1,0,0:0:0:0:
256,192,228232,1,0,0:0:0:0:
256,192,228318,1,8,0:0:0:0:
256,192,228403,1,8,0:0:0:0:
256,192,228575,1,0,0:0:0:0:
256,192,228661,1,0,0:0:0:0:
256,192,228832,1,0,0:0:0:0:
256,192,228918,1,8,0:0:0:0:
256,192,229089,1,0,0:0:0:0:
256,192,229175,1,8,0:0:0:0:
256,192,229261,1,0,0:0:0:0:
256,192,229432,1,8,0:0:0:0:
256,192,229603,1,0,0:0:0:0:
256,192,229689,1,0,0:0:0:0:
256,192,229775,1,8,0:0:0:0:
256,192,229861,1,8,0:0:0:0:
256,192,229946,1,0,0:0:0:0:
256,192,230032,1,0,0:0:0:0:
256,192,230203,1,0,0:0:0:0:
256,192,230289,1,8,0:0:0:0:
256,192,230461,1,4,0:0:0:0:
256,192,230632,1,0,0:0:0:0:
256,192,230718,1,8,0:0:0:0:
256,192,230889,1,0,0:0:0:0:
256,192,230975,1,8,0:0:0:0:
256,192,231146,1,4,0:0:0:0:
256,192,231318,1,0,0:0:0:0:
256,192,231403,1,8,0:0:0:0:
256,192,231575,1,0,0:0:0:0:
256,192,231661,1,8,0:0:0:0:
256,192,231832,1,8,0:0:0:0:
256,192,231875,1,8,0:0:0:0:
256,192,231918,1,8,0:0:0:0:
256,192,232089,1,8,0:0:0:0:
256,192,232132,1,8,0:0:0:0:
256,192,232175,1,8,0:0:0:0:
256,192,232346,1,8,0:0:0:0:
256,192,232389,1,8,0:0:0:0:
256,192,232432,1,8,0:0:0:0:
256,192,232861,1,4,0:0:0:0:
256,192,233203,1,12,0:0:0:0:
256,192,233375,1,0,0:0:0:0:
256,192,233461,1,0,0:0:0:0:
256,192,233546,1,8,0:0:0:0:
256,192,233632,1,0,0:0:0:0:
256,192,233718,1,0,0:0:0:0:
256,192,233803,1,8,0:0:0:0:
256,192,233889,1,8,0:0:0:0:
256,192,234061,1,0,0:0:0:0:
256,192,234146,1,0,0:0:0:0:
256,192,234232,1,8,0:0:0:0:
256,192,234275,1,8,0:0:0:0:
256,192,234403,1,0,0:0:0:0:
256,192,234446,1,0,0:0:0:0:
256,192,234575,1,12,0:0:0:0:
256,192,234746,1,0,0:0:0:0:
256,192,234832,1,0,0:0:0:0:
256,192,234918,1,8,0:0:0:0:
256,192,235003,1,0,0:0:0:0:
256,192,235089,1,0,0:0:0:0:
256,192,235175,1,8,0:0:0:0:
256,192,235261,1,8,0:0:0:0:
256,192,235432,1,0,0:0:0:0:
256,192,235603,1,8,0:0:0:0:
256,192,235689,1,8,0:0:0:0:
256,192,235775,1,0,0:0:0:0:
256,192,235946,1,12,0:0:0:0:
256,192,236118,1,0,0:0:0:0:
256,192,236203,1,0,0:0:0:0:
256,192,236289,1,8,0:0:0:0:
256,192,236375,1,8,0:0:0:0:
256,192,236461,1,0,0:0:0:0:
256,192,236632,1,12,0:0:0:0:
256,192,236803,1,0,0:0:0:0:
256,192,236975,1,8,0:0:0:0:
256,192,237061,1,8,0:0:0:0:
256,192,237146,1,8,0:0:0:0:
256,192,237318,1,12,0:0:0:0:
256,192,237489,1,0,0:0:0:0:
256,192,237575,1,0,0:0:0:0:
256,192,237661,1,8,0:0:0:0:
256,192,237746,1,8,0:0:0:0:
256,192,237832,1,0,0:0:0:0:
256,192,238003,1,12,0:0:0:0:
256,192,238175,1,0,0:0:0:0:
256,192,238261,1,8,0:0:0:0:
256,192,238346,1,0,0:0:0:0:
256,192,238389,1,0,0:0:0:0:
256,192,238518,1,8,0:0:0:0:
256,192,238561,1,8,0:0:0:0:
256,192,238689,1,8,0:0:0:0:
256,192,238861,1,0,0:0:0:0:
256,192,239032,1,8,0:0:0:0:
256,192,239203,1,0,0:0:0:0:
256,192,239375,1,8,0:0:0:0:
256,192,239546,1,0,0:0:0:0:
256,192,239718,1,8,0:0:0:0:
256,192,239889,1,0,0:0:0:0:
256,192,240061,1,8,0:0:0:0:
256,192,240146,1,0,0:0:0:0:
256,192,240232,1,8,0:0:0:0:
256,192,240318,1,8,0:0:0:0:
256,192,240403,1,0,0:0:0:0:
256,192,240489,1,0,0:0:0:0:
256,192,240575,1,8,0:0:0:0:
256,192,240661,1,8,0:0:0:0:
256,192,240746,1,0,0:0:0:0:
256,192,240803,1,0,0:0:0:0:
256,192,240861,1,0,0:0:0:0:
256,192,240918,1,0,0:0:0:0:
256,192,240975,1,0,0:0:0:0:
256,192,241032,1,0,0:0:0:0:
256,192,241089,1,8,0:0:0:0:
256,192,241146,1,8,0:0:0:0:
256,192,241203,1,8,0:0:0:0:
256,192,241261,1,8,0:0:0:0:
256,192,241318,1,8,0:0:0:0:
256,192,241375,1,8,0:0:0:0:
256,192,241432,1,0,0:0:0:0:
256,192,241518,1,8,0:0:0:0:
256,192,241603,1,8,0:0:0:0:
256,192,241689,1,0,0:0:0:0:
256,192,241775,1,8,0:0:0:0:
256,192,241861,1,8,0:0:0:0:
256,192,241946,1,0,0:0:0:0:
256,192,242003,1,0,0:0:0:0:
256,192,242061,1,0,0:0:0:0:
256,192,242118,1,8,0:0:0:0:
256,192,242203,1,0,0:0:0:0:
256,192,242289,1,8,0:0:0:0:
256,192,242346,1,8,0:0:0:0:
256,192,242403,1,8,0:0:0:0:
256,192,242461,1,0,0:0:0:0:
256,192,242546,1,0,0:0:0:0:
256,192,242632,1,8,0:0:0:0:
256,192,242689,1,0,0:0:0:0:
256,192,242746,1,0,0:0:0:0:
256,192,242803,1,8,0:0:0:0:
256,192,242975,1,0,0:0:0:0:
256,192,243146,1,8,0:0:0:0:
256,192,243318,1,0,0:0:0:0:
256,192,243489,1,8,0:0:0:0:
256,192,243832,1,12,0:0:0:0:
224,224,244175,5,4,0:0:0:0:
288,160,244346,1,8,0:0:0:0:
288,160,244432,1,8,0:0:0:0:
224,160,244518,1,0,0:0:0:0:
288,160,244689,1,8,0:0:0:0:
288,160,244775,1,8,0:0:0:0:
224,160,244861,1,0,0:0:0:0:
288,160,245032,1,8,0:0:0:0:
288,160,245118,1,8,0:0:0:0:
224,160,245203,1,0,0:0:0:0:
224,160,245289,1,0,0:0:0:0:
288,160,245375,1,8,0:0:0:0:
224,160,245461,1,0,0:0:0:0:
288,160,245546,1,8,0:0:0:0:
224,160,245718,1,0,0:0:0:0:
224,160,245803,1,0,0:0:0:0:
288,160,245889,1,8,0:0:0:0:
224,160,246061,1,0,0:0:0:0:
224,160,246146,1,0,0:0:0:0:
288,160,246232,1,8,0:0:0:0:
224,160,246403,1,0,0:0:0:0:
224,160,246489,1,0,0:0:0:0:
288,160,246575,1,8,0:0:0:0:
224,160,246661,1,0,0:0:0:0:
288,160,246746,1,8,0:0:0:0:
288,160,246832,1,8,0:0:0:0:
224,160,246918,1,0,0:0:0:0:
288,160,247089,1,8,0:0:0:0:
224,160,247175,1,0,0:0:0:0:
288,160,247261,1,8,0:0:0:0:
224,160,247432,1,0,0:0:0:0:
224,160,247518,1,0,0:0:0:0:
288,160,247603,1,8,0:0:0:0:
224,160,247775,1,0,0:0:0:0:
288,160,247861,1,8,0:0:0:0:
224,160,247946,1,0,0:0:0:0:
224,160,248032,1,0,0:0:0:0:
288,160,248118,1,8,0:0:0:0:
224,160,248203,1,0,0:0:0:0:
288,160,248289,1,8,0:0:0:0:
288,160,248375,1,8,0:0:0:0:
288,160,248461,1,8,0:0:0:0:
288,160,248546,1,8,0:0:0:0:
224,160,248632,1,0,0:0:0:0:
288,160,248718,1,8,0:0:0:0:
224,160,248803,1,0,0:0:0:0:
288,160,248975,1,8,0:0:0:0:
288,160,249061,1,8,0:0:0:0:
224,160,249146,1,0,0:0:0:0:
224,160,249232,1,0,0:0:0:0:
224,160,249318,1,8,0:0:0:0:
288,160,249403,1,8,0:0:0:0:
224,160,249489,1,0,0:0:0:0:
288,160,249575,1,8,0:0:0:0:
224,160,249661,1,0,0:0:0:0:
288,160,249832,1,8,0:0:0:0:
224,160,249918,1,0,0:0:0:0:
288,160,250003,1,8,0:0:0:0:
224,160,250175,1,0,0:0:0:0:
288,160,250261,1,8,0:0:0:0:
224,160,250346,1,0,0:0:0:0:
288,160,250518,1,8,0:0:0:0:
224,160,250603,1,0,0:0:0:0:
288,160,250689,1,8,0:0:0:0:
288,160,250775,1,8,0:0:0:0:
224,160,250861,1,0,0:0:0:0:
224,160,250946,1,0,0:0:0:0:
288,160,251032,1,8,0:0:0:0:
224,160,251203,1,0,0:0:0:0:
224,160,251289,1,0,0:0:0:0:
288,160,251375,1,8,0:0:0:0:
288,160,251546,1,8,0:0:0:0:
288,160,251632,1,8,0:0:0:0:
224,160,251718,1,0,0:0:0:0:
288,160,251889,1,8,0:0:0:0:
224,160,251975,1,0,0:0:0:0:
224,160,252061,1,0,0:0:0:0:
288,160,252146,1,8,0:0:0:0:
224,160,252232,1,0,0:0:0:0:
224,160,252318,1,0,0:0:0:0:
288,160,252403,1,8,0:0:0:0:
224,160,252575,1,0,0:0:0:0:
288,160,252661,1,8,0:0:0:0:
224,160,252746,1,0,0:0:0:0:
224,160,252832,1,0,0:0:0:0:
288,160,252918,1,8,0:0:0:0:
288,160,253089,1,8,0:0:0:0:
224,160,253261,1,0,0:0:0:0:
288,160,253346,1,8,0:0:0:0:
288,160,253432,1,8,0:0:0:0:
224,160,253518,1,0,0:0:0:0:
288,160,253603,1,8,0:0:0:0:
288,160,253775,1,8,0:0:0:0:
224,160,253946,1,0,0:0:0:0:
288,160,254032,1,8,0:0:0:0:
288,160,254118,1,8,0:0:0:0:
224,160,254203,1,0,0:0:0:0:
288,160,254289,1,8,0:0:0:0:
224,160,254375,1,0,0:0:0:0:
288,160,254461,1,8,0:0:0:0:
288,224,254803,1,12,0:0:0:0:
288,160,254975,1,8,0:0:0:0:
224,224,255146,1,4,0:0:0:0:
288,160,255318,1,8,0:0:0:0:
288,160,255403,1,8,0:0:0:0:
224,160,255489,1,0,0:0:0:0:
288,160,255661,1,8,0:0:0:0:
288,160,255746,1,8,0:0:0:0:
224,160,255832,1,0,0:0:0:0:
224,160,255918,1,0,0:0:0:0:
288,160,256003,1,8,0:0:0:0:
288,160,256089,1,8,0:0:0:0:
224,160,256175,1,0,0:0:0:0:
288,160,256261,1,8,0:0:0:0:
288,160,256346,1,8,0:0:0:0:
224,160,256432,1,0,0:0:0:0:
288,160,256518,1,8,0:0:0:0:
224,160,256689,1,0,0:0:0:0:
224,160,256775,1,0,0:0:0:0:
288,160,256861,1,8,0:0:0:0:
224,160,257032,1,0,0:0:0:0:
224,160,257118,1,0,0:0:0:0:
288,160,257203,1,8,0:0:0:0:
224,160,257289,1,0,0:0:0:0:
224,160,257375,1,0,0:0:0:0:
288,160,257461,1,8,0:0:0:0:
224,160,257546,1,0,0:0:0:0:
224,160,257632,1,0,0:0:0:0:
288,160,257718,1,8,0:0:0:0:
224,160,257803,1,0,0:0:0:0:
288,160,257889,1,8,0:0:0:0:
224,160,258061,1,0,0:0:0:0:
288,160,258146,1,8,0:0:0:0:
224,160,258232,1,0,0:0:0:0:
224,160,258403,1,8,0:0:0:0:
224,160,258489,1,0,0:0:0:0:
288,160,258575,1,8,0:0:0:0:
288,160,258661,1,8,0:0:0:0:
224,160,258746,1,0,0:0:0:0:
288,160,258832,1,8,0:0:0:0:
288,160,258918,1,8,0:0:0:0:
288,160,259003,1,8,0:0:0:0:
224,160,259089,1,0,0:0:0:0:
224,160,259175,1,0,0:0:0:0:
288,160,259261,1,8,0:0:0:0:
288,160,259346,1,8,0:0:0:0:
288,160,259432,1,8,0:0:0:0:
288,160,259518,1,8,0:0:0:0:
224,160,259603,1,0,0:0:0:0:
224,160,259689,1,0,0:0:0:0:
288,160,259775,1,8,0:0:0:0:
224,160,259946,1,0,0:0:0:0:
224,160,260032,1,0,0:0:0:0:
288,160,260118,1,8,0:0:0:0:
288,160,260203,1,8,0:0:0:0:
224,160,260289,1,0,0:0:0:0:
224,160,260375,1,0,0:0:0:0:
288,160,260461,1,8,0:0:0:0:
224,160,260546,1,0,0:0:0:0:
288,160,260632,1,8,0:0:0:0:
224,160,260803,1,0,0:0:0:0:
224,160,260889,1,0,0:0:0:0:
288,160,260975,1,8,0:0:0:0:
224,160,261146,1,0,0:0:0:0:
224,160,261232,1,0,0:0:0:0:
288,160,261318,1,8,0:0:0:0:
288,160,261403,1,8,0:0:0:0:
224,160,261489,1,0,0:0:0:0:
288,160,261575,1,8,0:0:0:0:
224,160,261661,1,0,0:0:0:0:
288,160,261746,1,0,0:0:0:0:
288,160,261832,1,8,0:0:0:0:
224,160,261918,1,0,0:0:0:0:
288,160,262003,1,8,0:0:0:0:
224,160,262175,1,0,0:0:0:0:
288,160,262261,1,8,0:0:0:0:
288,160,262346,1,8,0:0:0:0:
224,160,262518,1,0,0:0:0:0:
288,160,262603,1,8,0:0:0:0:
288,160,262689,1,8,0:0:0:0:
224,160,262775,1,0,0:0:0:0:
288,160,262861,1,8,0:0:0:0:
288,160,262946,1,8,0:0:0:0:
224,160,263032,1,0,0:0:0:0:
288,160,263118,1,0,0:0:0:0:
288,160,263203,1,8,0:0:0:0:
288,160,263289,1,8,0:0:0:0:
224,160,263375,1,0,0:0:0:0:
288,160,263546,1,8,0:0:0:0:
224,160,263632,1,0,0:0:0:0:
288,160,263803,1,8,0:0:0:0:
224,160,263889,1,0,0:0:0:0:
288,160,263975,1,8,0:0:0:0:
224,160,264061,1,0,0:0:0:0:
288,160,264232,1,8,0:0:0:0:
224,160,264318,1,0,0:0:0:0:
288,160,264489,1,8,0:0:0:0:
224,160,264575,1,0,0:0:0:0:
224,160,264661,1,0,0:0:0:0:
288,160,264746,1,8,0:0:0:0:
224,160,264918,1,0,0:0:0:0:
288,160,265089,1,8,0:0:0:0:
288,160,265261,1,8,0:0:0:0:
224,160,265432,1,0,0:0:0:0:
288,160,265603,5,8,0:0:0:0:
288,224,265775,1,12,0:0:0:0:
224,160,265946,1,0,0:0:0:0:
288,128,266118,5,4,0:0:0:0:
288,128,266289,1,8,0:0:0:0:
288,128,266375,1,0,0:0:0:0:
288,128,266461,1,8,0:0:0:0:
288,128,266632,1,0,0:0:0:0:
288,128,266803,1,8,0:0:0:0:
288,128,266889,1,0,0:0:0:0:
288,128,266975,1,0,0:0:0:0:
288,128,267061,1,8,0:0:0:0:
288,128,267232,1,0,0:0:0:0:
288,128,267318,1,8,0:0:0:0:
288,128,267403,1,0,0:0:0:0:
288,128,267489,1,8,0:0:0:0:
288,128,267661,1,0,0:0:0:0:
288,128,267746,1,0,0:0:0:0:
288,128,267832,1,8,0:0:0:0:
288,128,268003,1,0,0:0:0:0:
288,128,268175,1,8,0:0:0:0:
288,128,268261,1,0,0:0:0:0:
288,128,268346,1,8,0:0:0:0:
288,128,268432,1,8,0:0:0:0:
288,128,268603,1,8,0:0:0:0:
288,128,268689,1,8,0:0:0:0:
288,128,268775,1,0,0:0:0:0:
288,128,268861,1,8,0:0:0:0:
288,128,269032,1,0,0:0:0:0:
288,128,269118,1,0,0:0:0:0:
288,128,269203,1,8,0:0:0:0:
288,128,269375,1,0,0:0:0:0:
288,128,269546,1,8,0:0:0:0:
288,128,269632,1,0,0:0:0:0:
288,128,269718,1,0,0:0:0:0:
288,128,269803,1,8,0:0:0:0:
288,128,269975,1,0,0:0:0:0:
288,128,270061,1,8,0:0:0:0:
288,128,270146,1,0,0:0:0:0:
288,128,270232,1,8,0:0:0:0:
288,128,270403,1,0,0:0:0:0:
288,128,270575,1,8,0:0:0:0:
288,128,270746,1,0,0:0:0:0:
288,128,270832,1,0,0:0:0:0:
288,128,270918,1,8,0:0:0:0:
288,128,271003,1,8,0:0:0:0:
288,128,271089,1,0,0:0:0:0:
288,128,271175,1,0,0:0:0:0:
288,128,271261,1,8,0:0:0:0:
288,128,271603,1,8,0:0:0:0:
288,128,271775,5,0,0:0:0:0:
288,128,271861,1,0,0:0:0:0:
288,128,271946,1,8,0:0:0:0:
295,127,272032,1,0,0:0:0:0:
288,128,272118,1,0,0:0:0:0:
288,128,272289,1,8,0:0:0:0:
288,128,272375,1,0,0:0:0:0:
288,128,272461,1,0,0:0:0:0:
288,128,272546,1,8,0:0:0:0:
288,128,272718,1,8,0:0:0:0:
288,128,272803,1,8,0:0:0:0:
288,128,272889,1,0,0:0:0:0:
288,128,272975,1,8,0:0:0:0:
288,128,273146,1,0,0:0:0:0:
295,127,273232,1,0,0:0:0:0:
288,128,273318,1,8,0:0:0:0:
288,128,273403,1,0,0:0:0:0:
288,128,273489,1,0,0:0:0:0:
288,128,273661,1,8,0:0:0:0:
288,128,273746,1,0,0:0:0:0:
288,128,273832,1,0,0:0:0:0:
288,128,273918,1,8,0:0:0:0:
288,128,274089,1,8,0:0:0:0:
288,128,274175,1,8,0:0:0:0:
288,128,274261,1,0,0:0:0:0:
288,128,274346,1,8,0:0:0:0:
288,128,274432,1,0,0:0:0:0:
288,128,274518,1,0,0:0:0:0:
288,128,274603,1,8,0:0:0:0:
288,128,274775,1,0,0:0:0:0:
288,128,274861,1,8,0:0:0:0:
288,128,274903,1,8,0:0:0:0:
288,128,274946,1,8,0:0:0:0:
288,128,274989,1,8,0:0:0:0:
256,128,275203,1,0,0:0:0:0:
256,128,275289,1,0,0:0:0:0:
288,128,275461,1,0,0:0:0:0:
272,127,275546,1,8,0:0:0:0:
288,128,275589,1,8,0:0:0:0:
288,128,275632,1,8,0:0:0:0:
288,128,275675,1,8,0:0:0:0:
288,128,275889,1,8,0:0:0:0:
288,128,275975,1,0,0:0:0:0:
288,128,276146,1,0,0:0:0:0:
288,128,276232,1,8,0:0:0:0:
288,128,276403,1,12,0:0:0:0:
288,128,276661,1,0,0:0:0:0:
288,128,276918,1,8,0:0:0:0:
288,128,277003,1,8,0:0:0:0:
288,128,277089,1,4,0:0:0:0:
320,128,277261,1,8,0:0:0:0:
288,128,277346,1,0,0:0:0:0:
288,128,277432,1,8,0:0:0:0:
288,128,277603,1,0,0:0:0:0:
288,128,277689,1,0,0:0:0:0:
288,128,277775,1,8,0:0:0:0:
288,128,277861,1,0,0:0:0:0:
288,128,277946,1,0,0:0:0:0:
288,128,278032,1,8,0:0:0:0:
288,128,278203,1,8,0:0:0:0:
288,128,278289,1,8,0:0:0:0:
288,128,278375,1,0,0:0:0:0:
288,128,278461,1,8,0:0:0:0:
288,128,278632,1,0,0:0:0:0:
288,128,278718,1,0,0:0:0:0:
288,128,278803,1,8,0:0:0:0:
288,128,278975,1,0,0:0:0:0:
288,128,279146,1,8,0:0:0:0:
288,128,279232,1,0,0:0:0:0:
288,128,279318,1,0,0:0:0:0:
288,128,279403,1,8,0:0:0:0:
288,128,279489,1,0,0:0:0:0:
288,128,279661,1,8,0:0:0:0:
288,128,279746,1,0,0:0:0:0:
288,128,279832,1,8,0:0:0:0:
256,128,280003,1,0,0:0:0:0:
256,128,280089,1,0,0:0:0:0:
256,128,280175,1,8,0:0:0:0:
288,128,280346,1,0,0:0:0:0:
288,128,280432,1,0,0:0:0:0:
288,128,280518,1,8,0:0:0:0:
288,128,280603,1,8,0:0:0:0:
288,128,280689,1,0,0:0:0:0:
288,128,280775,1,8,0:0:0:0:
288,128,280861,1,0,0:0:0:0:
288,128,280946,1,0,0:0:0:0:
288,128,281032,1,8,0:0:0:0:
288,128,281118,1,0,0:0:0:0:
288,128,281203,1,8,0:0:0:0:
288,128,281375,1,0,0:0:0:0:
288,128,281461,1,0,0:0:0:0:
288,128,281546,1,8,0:0:0:0:
288,128,281718,1,8,0:0:0:0:
288,128,281889,1,0,0:0:0:0:
288,128,282061,1,8,0:0:0:0:
288,128,282232,1,0,0:0:0:0:
288,128,282403,1,0,0:0:0:0:
288,128,282575,1,4,0:0:0:0:
288,128,282746,1,8,0:0:0:0:
288,128,282832,1,0,0:0:0:0:
288,128,282918,1,8,0:0:0:0:
288,128,283089,1,0,0:0:0:0:
288,128,283261,1,8,0:0:0:0:
288,128,283346,1,0,0:0:0:0:
288,128,283432,1,0,0:0:0:0:
288,128,283518,1,8,0:0:0:0:
288,128,283603,1,0,0:0:0:0:
288,128,283689,1,8,0:0:0:0:
288,128,283775,1,8,0:0:0:0:
288,128,283861,1,0,0:0:0:0:
288,128,283946,1,8,0:0:0:0:
288,128,284118,1,0,0:0:0:0:
288,128,284203,1,0,0:0:0:0:
288,128,284289,1,8,0:0:0:0:
288,128,284461,1,0,0:0:0:0:
288,128,284632,1,8,0:0:0:0:
288,128,284718,1,0,0:0:0:0:
288,128,284803,1,0,0:0:0:0:
288,128,284889,1,8,0:0:0:0:
288,128,284975,1,0,0:0:0:0:
288,128,285061,1,8,0:0:0:0:
288,128,285146,1,8,0:0:0:0:
288,128,285232,1,0,0:0:0:0:
288,128,285318,1,8,0:0:0:0:
288,128,285489,1,0,0:0:0:0:
288,128,285575,1,8,0:0:0:0:
288,128,285746,1,0,0:0:0:0:
288,128,285832,1,8,0:0:0:0:
288,128,285918,1,0,0:0:0:0:
288,128,286003,1,8,0:0:0:0:
288,128,286175,1,8,0:0:0:0:
288,128,286261,1,8,0:0:0:0:
288,128,286432,1,0,0:0:0:0:
288,128,286518,1,8,0:0:0:0:
288,128,286603,1,8,0:0:0:0:
288,128,286689,1,0,0:0:0:0:
288,128,286861,1,12,0:0:0:0:
288,128,287032,1,12,0:0:0:0:
288,128,287203,1,12,0:0:0:0:
288,128,287375,1,4,0:0:0:0:
288,128,287546,1,4,0:0:0:0:
288,128,287718,1,4,0:0:0:0:
288,128,287889,1,4,0:0:0:0:
288,128,288061,1,4,0:0:0:0:
256,192,288403,1,0,0:0:0:0:
256,192,288575,1,8,0:0:0:0:
256,192,288746,1,0,0:0:0:0:
256,192,288918,1,0,0:0:0:0:
256,192,289003,1,0,0:0:0:0:
256,192,289089,1,8,0:0:0:0:
256,192,289261,1,0,0:0:0:0:
256,192,289432,1,0,0:0:0:0:
256,192,289603,1,8,0:0:0:0:
256,192,289689,1,8,0:0:0:0:
256,192,289775,1,0,0:0:0:0:
256,192,289946,1,8,0:0:0:0:
256,192,290118,1,0,0:0:0:0:
256,192,290203,1,0,0:0:0:0:
256,192,290289,1,0,0:0:0:0:
256,192,290375,1,0,0:0:0:0:
256,192,290461,1,8,0:0:0:0:
256,192,290632,1,0,0:0:0:0:
256,192,290803,1,0,0:0:0:0:
256,192,290975,1,8,0:0:0:0:
256,192,291061,1,8,0:0:0:0:
256,192,291146,1,0,0:0:0:0:
256,192,291318,1,8,0:0:0:0:
256,192,291489,1,0,0:0:0:0:
256,192,291661,1,0,0:0:0:0:
256,192,291746,1,0,0:0:0:0:
256,192,291832,1,8,0:0:0:0:
256,192,292003,1,0,0:0:0:0:
256,192,292175,1,0,0:0:0:0:
256,192,292261,1,0,0:0:0:0:
256,192,292346,1,8,0:0:0:0:
256,192,292432,1,8,0:0:0:0:
256,192,292518,1,0,0:0:0:0:
256,192,292603,1,0,0:0:0:0:
256,192,292689,1,8,0:0:0:0:
256,192,292775,1,0,0:0:0:0:
256,192,292861,1,8,0:0:0:0:
256,192,292946,1,8,0:0:0:0:
256,192,293032,1,0,0:0:0:0:
256,192,293203,1,12,0:0:0:0:
256,192,293546,1,4,0:0:0:0:
256,192,293889,1,0,0:0:0:0:
256,192,294061,1,8,0:0:0:0:
256,192,294232,1,0,0:0:0:0:
256,192,294318,1,0,0:0:0:0:
256,192,294403,1,0,0:0:0:0:
256,192,294489,1,0,0:0:0:0:
256,192,294575,1,8,0:0:0:0:
256,192,294746,1,0,0:0:0:0:
256,192,294918,1,0,0:0:0:0:
256,192,295089,1,8,0:0:0:0:
256,192,295175,1,8,0:0:0:0:
256,192,295261,1,0,0:0:0:0:
256,192,295432,1,8,0:0:0:0:
256,192,295603,1,0,0:0:0:0:
256,192,295775,1,0,0:0:0:0:
256,192,295861,1,0,0:0:0:0:
256,192,295946,1,8,0:0:0:0:
256,192,296118,1,0,0:0:0:0:
256,192,296289,1,0,0:0:0:0:
256,192,296461,1,8,0:0:0:0:
256,192,296546,1,8,0:0:0:0:
256,192,296632,1,0,0:0:0:0:
256,192,296803,1,8,0:0:0:0:
256,192,296975,1,0,0:0:0:0:
256,192,297146,1,0,0:0:0:0:
256,192,297232,1,0,0:0:0:0:
256,192,297318,1,8,0:0:0:0:
256,192,297403,1,0,0:0:0:0:
256,192,297489,1,8,0:0:0:0:
256,192,297575,1,8,0:0:0:0:
256,192,297661,1,0,0:0:0:0:
256,192,297746,1,0,0:0:0:0:
256,192,297832,1,8,0:0:0:0:
256,192,297918,1,8,0:0:0:0:
256,192,298003,1,0,0:0:0:0:
256,192,298175,1,8,0:0:0:0:
256,192,298346,1,0,0:0:0:0:
256,192,298432,1,0,0:0:0:0:
256,192,298518,1,0,0:0:0:0:
256,192,298689,1,12,0:0:0:0:
256,192,299032,1,0,0:0:0:0:
256,192,299118,1,0,0:0:0:0:
256,192,299203,1,0,0:0:0:0:
256,192,299289,1,0,0:0:0:0:
256,192,299375,1,8,0:0:0:0:
256,192,299546,1,8,0:0:0:0:
256,192,299718,1,4,0:0:0:0:
256,192,300061,1,0,0:0:0:0:
256,192,300232,1,8,0:0:0:0:
256,192,300403,1,0,0:0:0:0:
256,192,300575,1,0,0:0:0:0:
256,192,300661,1,0,0:0:0:0:
256,192,300746,1,8,0:0:0:0:
256,192,300918,1,0,0:0:0:0:
256,192,301089,1,0,0:0:0:0:
256,192,301261,1,8,0:0:0:0:
256,192,301346,1,8,0:0:0:0:
256,192,301432,1,0,0:0:0:0:
256,192,301603,1,8,0:0:0:0:
256,192,301775,1,0,0:0:0:0:
256,192,301861,1,0,0:0:0:0:
256,192,301946,1,0,0:0:0:0:
256,192,302032,1,0,0:0:0:0:
256,192,302118,1,8,0:0:0:0:
256,192,302289,1,0,0:0:0:0:
256,192,302375,1,0,0:0:0:0:
256,192,302461,1,0,0:0:0:0:
256,192,302632,1,8,0:0:0:0:
256,192,302718,1,8,0:0:0:0:
256,192,302803,1,0,0:0:0:0:
256,192,302975,1,8,0:0:0:0:
256,192,303146,1,0,0:0:0:0:
256,192,303232,1,8,0:0:0:0:
256,192,303318,1,0,0:0:0:0:
256,192,303403,1,0,0:0:0:0:
256,192,303489,1,8,0:0:0:0:
256,192,303575,1,0,0:0:0:0:
256,192,303661,1,8,0:0:0:0:
256,192,303746,1,8,0:0:0:0:
256,192,303832,1,0,0:0:0:0:
256,192,303918,1,8,0:0:0:0:
256,192,304003,1,0,0:0:0:0:
256,192,304175,1,12,0:0:0:0:
256,192,304518,1,4,0:0:0:0:
256,192,304861,1,0,0:0:0:0:
256,192,305032,1,0,0:0:0:0:
256,192,305203,1,0,0:0:0:0:
256,192,305546,1,12,0:0:0:0:
256,192,305889,1,4,0:0:0:0:
256,192,306232,1,0,0:0:0:0:
256,192,306403,1,8,0:0:0:0:
256,192,306575,1,0,0:0:0:0:
256,192,306918,1,12,0:0:0:0:
256,192,307261,1,4,0:0:0:0:
256,192,307432,1,0,0:0:0:0:
256,192,307603,1,0,0:0:0:0:
256,192,307775,1,0,0:0:0:0:
256,192,307946,1,0,0:0:0:0:
256,192,308032,1,0,0:0:0:0:
256,192,308118,1,0,0:0:0:0:
256,192,308203,1,0,0:0:0:0:
256,192,308289,1,0,0:0:0:0:
256,192,308375,1,0,0:0:0:0:
256,192,308461,1,8,0:0:0:0:
256,192,308803,1,8,0:0:0:0:
256,192,309146,1,8,0:0:0:0:
256,192,309318,1,0,0:0:0:0:
256,192,309489,1,8,0:0:0:0:
256,192,309661,1,8,0:0:0:0:
256,192,309832,1,0,0:0:0:0:
256,192,310003,1,0,0:0:0:0:
256,192,310261,1,8,0:0:0:0:
256,192,310346,1,0,0:0:0:0:
256,192,310518,1,8,0:0:0:0:
256,192,310689,1,0,0:0:0:0:
256,192,310946,1,8,0:0:0:0:
256,192,311032,1,0,0:0:0:0:
256,192,311203,1,8,0:0:0:0:
256,192,311375,1,0,0:0:0:0:
256,192,311632,1,8,0:0:0:0:
256,192,311718,1,0,0:0:0:0:
256,192,311889,1,8,0:0:0:0:
256,192,312061,1,0,0:0:0:0:
256,192,312318,1,0,0:0:0:0:
256,192,312403,1,0,0:0:0:0:
256,192,312575,1,0,0:0:0:0:
256,192,312661,1,8,0:0:0:0:
256,192,312746,1,0,0:0:0:0:
256,192,313003,1,8,0:0:0:0:
256,192,313089,1,0,0:0:0:0:
256,192,313261,1,8,0:0:0:0:
256,192,313432,1,0,0:0:0:0:
256,192,313689,1,8,0:0:0:0:
256,192,313775,1,0,0:0:0:0:
256,192,313946,1,8,0:0:0:0:
256,192,314118,1,0,0:0:0:0:
256,192,314375,1,8,0:0:0:0:
256,192,314461,1,8,0:0:0:0:
256,192,314632,1,0,0:0:0:0:
256,192,314803,1,8,0:0:0:0:
256,192,315061,1,0,0:0:0:0:
256,192,315146,1,8,0:0:0:0:
256,192,315318,1,8,0:0:0:0:
256,192,315403,1,8,0:0:0:0:
256,192,315489,1,0,0:0:0:0:
256,192,315746,1,8,0:0:0:0:
256,192,315832,1,0,0:0:0:0:
256,192,316003,1,8,0:0:0:0:
256,192,316175,1,0,0:0:0:0:
256,192,316432,1,8,0:0:0:0:
256,192,316518,1,0,0:0:0:0:
256,192,316689,1,8,0:0:0:0:
256,192,316861,1,0,0:0:0:0:
256,192,317118,1,8,0:0:0:0:
256,192,317203,1,0,0:0:0:0:
256,192,317375,1,8,0:0:0:0:
256,192,317546,1,0,0:0:0:0:
256,192,317803,1,0,0:0:0:0:
256,192,317889,1,0,0:0:0:0:
256,192,318061,1,0,0:0:0:0:
256,192,318146,1,8,0:0:0:0:
256,192,318232,1,0,0:0:0:0:
256,192,318489,1,8,0:0:0:0:
256,192,318575,1,0,0:0:0:0:
256,192,318746,1,8,0:0:0:0:
256,192,318918,1,0,0:0:0:0:
256,192,319175,1,8,0:0:0:0:
256,192,319261,1,0,0:0:0:0:
256,192,319432,1,8,0:0:0:0:
256,192,319603,1,0,0:0:0:0:
256,192,319861,1,8,0:0:0:0:
256,192,319946,1,8,0:0:0:0:
256,192,320118,1,0,0:0:0:0:
256,192,320289,1,8,0:0:0:0:
256,192,320375,1,0,0:0:0:0:
256,192,320461,1,8,0:0:0:0:
256,192,320546,1,8,0:0:0:0:
256,192,320632,1,8,0:0:0:0:
256,192,320718,1,0,0:0:0:0:
256,192,320803,1,8,0:0:0:0:
256,192,320975,1,0,0:0:0:0:
256,192,321232,1,8,0:0:0:0:
256,192,321318,1,0,0:0:0:0:
256,192,321489,1,8,0:0:0:0:
256,192,321661,1,0,0:0:0:0:
256,192,321918,1,8,0:0:0:0:
256,192,322003,1,0,0:0:0:0:
256,192,322175,1,8,0:0:0:0:
256,192,322346,1,0,0:0:0:0:
256,192,322603,1,8,0:0:0:0:
256,192,322689,1,0,0:0:0:0:
256,192,322861,1,8,0:0:0:0:
256,192,323032,1,0,0:0:0:0:
256,192,323289,1,0,0:0:0:0:
256,192,323375,1,8,0:0:0:0:
256,192,323546,1,0,0:0:0:0:
256,192,323632,1,8,0:0:0:0:
256,192,323718,1,0,0:0:0:0:
256,192,323975,1,8,0:0:0:0:
256,192,324061,1,0,0:0:0:0:
256,192,324232,1,8,0:0:0:0:
256,192,324403,1,0,0:0:0:0:
256,192,324661,1,8,0:0:0:0:
256,192,324746,1,0,0:0:0:0:
256,192,324918,1,8,0:0:0:0:
256,192,325089,1,0,0:0:0:0:
256,192,325346,1,8,0:0:0:0:
256,192,325432,1,8,0:0:0:0:
256,192,325603,1,0,0:0:0:0:
256,192,325775,1,8,0:0:0:0:
256,192,326032,1,0,0:0:0:0:
256,192,326118,1,8,0:0:0:0:
256,192,326203,1,0,0:0:0:0:
256,192,326289,1,8,0:0:0:0:
256,192,326375,1,8,0:0:0:0:
256,192,326461,1,0,0:0:0:0:
256,192,326632,1,0,0:0:0:0:
256,192,326803,1,0,0:0:0:0:
256,192,326975,1,0,0:0:0:0:
256,192,327146,1,0,0:0:0:0:
256,192,327318,1,0,0:0:0:0:
256,192,327489,1,0,0:0:0:0:
256,192,327661,1,0,0:0:0:0:
256,192,327832,1,0,0:0:0:0:
256,192,328003,1,0,0:0:0:0:
256,192,328175,1,0,0:0:0:0:
256,192,328346,1,0,0:0:0:0:
256,192,328518,1,0,0:0:0:0:
256,192,328689,1,0,0:0:0:0:
256,192,328861,1,0,0:0:0:0:
256,192,329032,1,8,0:0:0:0:
256,192,329203,1,0,0:0:0:0:
256,192,329289,1,0,0:0:0:0:
256,192,329375,1,8,0:0:0:0:
256,192,329461,1,8,0:0:0:0:
256,192,329546,1,0,0:0:0:0:
256,192,329632,1,8,0:0:0:0:
256,192,329718,1,0,0:0:0:0:
256,192,329803,1,0,0:0:0:0:
256,192,329889,1,0,0:0:0:0:
256,192,329975,1,8,0:0:0:0:
256,192,330061,1,0,0:0:0:0:
256,192,330146,1,0,0:0:0:0:
256,192,330232,1,8,0:0:0:0:
256,192,330318,1,8,0:0:0:0:
256,192,330403,1,8,0:0:0:0:
256,192,330489,1,8,0:0:0:0:
256,192,331946,1,4,0:0:0:0:
