osu file format v14

[General]
AudioFilename: audio.mp3
AudioLeadIn: 0
PreviewTime: 242748
Countdown: 0
SampleSet: Normal
StackLeniency: 0.2
Mode: 0
LetterboxInBreaks: 0
WidescreenStoryboard: 1

[Editor]
Bookmarks: 142977,224148,264091,273005,308148
DistanceSpacing: 0.5
BeatDivisor: 12
GridSize: 4
TimelineZoom: 2.3

[Metadata]
Title:artefatto vita
TitleUnicode:artefatto vita
Artist:witch's slave
ArtistUnicode:witch's slave
Creator:09kami
Version:Master
Source:
Tags:of fighters 2010 bof gumtune lr2 gothic hardcore extended ver version BlackLotus C89 gmtn.
BeatmapID:1149423
BeatmapSetID:529749

[Difficulty]
HPDrainRate:3
CircleSize:4
OverallDifficulty:8.4
ApproachRate:9.4
SliderMultiplier:3.59999990463257
SliderTickRate:1

[Events]
//Background and Video events
0,0,"20160116165900_L2ChT.jpg",0,0
//Break Periods
2,158013,165494
//Storyboard Layer 0 (Background)
//Storyboard Layer 1 (Fail)
//Storyboard Layer 2 (Pass)
//Storyboard Layer 3 (Foreground)
//Storyboard Sound Samples

[TimingPoints]
1121,342.857142857143,4,2,1,35,1,0
1463,-1200,4,2,1,35,0,0
23063,-2400,4,2,1,35,0,0
23406,-100,4,1,1,35,0,0
42949,-80,4,1,1,35,0,0
43892,1200,4,1,1,35,1,0
43892,-1000,4,1,1,35,0,0
45349,342.857142857143,4,1,1,35,1,0
50491,-1000,4,1,1,35,0,0
50834,-100,4,1,1,35,0,0
56320,-200,4,1,1,35,0,0
57006,-100,4,1,1,35,0,0
61120,-50,4,1,1,35,0,0
61806,-100,4,1,1,35,0,0
63863,-50,4,1,1,35,0,0
64549,-100,4,1,1,35,0,0
65234,-72.463768115942,4,1,1,35,0,0
65749,-50,4,1,1,35,0,0
66177,-72.463768115942,4,1,1,35,0,0
66606,-50,4,1,1,35,0,0
67291,-100,4,1,1,35,0,0
77577,-50,4,1,1,35,0,0
78263,-100,4,1,1,35,0,0
83406,-66.6666666666667,4,1,1,35,0,0
83749,-100,4,1,1,35,0,0
86149,-66.6666666666667,4,1,1,35,0,0
89234,-80,4,1,1,35,0,0
91977,-66.6666666666667,4,1,1,35,0,0
93349,-80,4,1,1,35,0,0
93691,-800,4,1,1,35,0,0
94034,-80,4,1,1,35,0,0
95749,-50,4,1,1,35,0,0
96091,-80,4,1,1,35,0,0
96777,-50,4,1,1,35,0,0
97120,-45,4,1,1,35,0,0
97463,-40,4,1,1,35,0,0
98149,-30,4,1,1,35,0,0
98406,-64.5161290322581,4,1,1,35,0,0
98663,-30,4,1,1,35,0,0
98834,-20,4,1,1,35,0,0
99520,-66.6666666666667,4,1,1,35,0,0
99863,-800,4,1,1,35,0,0
100206,-80,4,1,1,35,0,0
103291,-66.6666666666667,4,1,1,35,0,0
104320,-80,4,1,1,35,0,0
104663,-1000,4,1,1,35,0,0
105006,-80,4,1,1,35,0,0
106377,-66.6666666666667,4,1,1,35,0,0
106891,-33,4,1,1,35,0,0
109806,-200,4,1,1,35,0,0
111177,-80,4,1,1,35,0,0
113920,-66.6666666666667,4,1,1,35,0,0
114263,-3000,4,1,1,35,0,0
114606,-66.6666666666667,4,1,1,35,0,0
115291,-80,4,1,1,35,0,0
115634,-1000,4,1,1,35,0,0
115977,-80,4,1,1,35,0,0
119920,-2000,4,1,1,35,0,0
120349,-80,4,1,1,35,0,0
120606,-2000,4,1,1,35,0,0
120949,-80,4,1,1,35,0,0
124891,-66.6666666666667,4,1,1,35,0,0
125920,-3000,4,1,1,35,0,0
126263,-66.6666666666667,4,1,1,35,0,0
129006,-50,4,1,1,35,0,0
137920,-1000,4,1,1,35,0,0
138606,-100,4,1,1,35,0,0
149234,-1000,4,1,1,35,0,0
153691,-1000,4,1,1,5,0,0
153863,-1000,4,1,1,35,0,0
154034,-1000,4,1,1,5,0,0
154206,-1000,4,1,1,35,0,0
154291,-1000,4,1,1,5,0,0
154377,-1000,4,1,1,35,0,0
155063,4000,4,1,1,35,1,0
155063,-1000,4,1,1,35,0,0
157813,-1000,4,1,1,5,0,0
166034,342.857142857143,4,1,1,35,1,0
168776,-200,4,1,1,35,0,0
172548,-2000,4,1,1,35,0,0
173234,-200,4,1,1,35,0,0
183691,-2000,4,1,1,35,0,0
184205,-200,4,1,1,35,0,0
189348,-100,4,1,1,35,0,0
190034,-200,4,1,1,35,0,0
192091,-100,4,1,1,35,0,0
192776,-200,4,1,1,35,0,0
194662,-2000,4,1,1,35,0,0
195176,-100,4,1,1,35,0,0
195519,-200,4,1,1,35,0,0
197576,-100,4,1,1,35,0,0
198262,-200,4,1,1,35,0,0
198948,-100,4,1,1,35,0,0
201519,-100,4,1,1,5,0,0
201691,-100,4,1,1,35,0,0
204262,-100,4,1,1,5,0,0
204434,-100,4,1,1,35,0,0
205462,-2000,4,1,1,35,0,0
215062,-200,4,1,1,35,0,0
219519,-700,4,1,1,35,0,0
219605,-700,4,1,1,5,0,0
222262,-66.6666666666667,4,1,1,35,0,0
222605,-100,4,1,1,35,0,0
225005,-66.6666666666667,4,1,1,35,0,0
226376,-50,4,1,1,35,0,0
227062,-200,4,1,1,35,0,0
227748,-66.6666666666667,4,1,1,35,0,0
228091,-100,4,1,1,35,0,0
230491,-66.6666666666667,4,1,1,35,0,0
231005,-33.3333333333334,4,1,1,35,0,0
231176,-66.6666666666667,4,1,1,35,0,0
231691,-33.3333333333334,4,1,1,35,0,0
231862,-2000,4,1,1,35,0,0
232548,-2000,4,1,1,15,0,0
232891,-2000,4,1,1,35,0,0
233234,-66.6666666666667,4,1,1,35,0,0
235634,-2000,4,1,1,35,0,0
235805,-2000,4,1,1,35,0,0
235848,-2000,4,1,1,5,0,0
235891,-2000,4,1,1,35,0,0
235976,-66.6666666666667,4,1,1,35,0,0
236662,-50,4,1,1,35,0,0
237348,-66.6666666666667,4,1,1,35,0,0
238034,-200,4,1,1,35,0,0
238719,-100,4,1,1,35,0,0
239062,-80,4,1,1,35,0,0
239405,-66.6666666666667,4,1,1,35,0,0
239748,-57.1428571428571,4,1,1,35,0,0
240776,-2000,4,1,1,35,0,0
244205,-74.0740740740741,4,1,1,35,0,0
248662,-1000,4,1,1,35,0,0
249005,-74.0740740740741,4,1,1,35,0,0
249691,-66.6666666666667,4,1,1,35,0,0
251062,-57.1428571428571,4,1,1,35,0,0
252948,-100,4,1,1,35,0,0
253119,-57.1428571428571,4,1,1,35,0,0
253634,-100,4,1,1,35,0,0
253805,-50,4,1,1,35,0,0
254319,-200,4,1,1,35,0,0
254491,-13.2,4,1,1,35,0,0
254834,-1000,4,1,1,35,0,0
255176,-74.0740740740741,4,1,1,35,0,0
257919,-66.6666666666667,4,1,1,35,0,0
259291,-80,4,1,1,35,0,0
259634,-1000,4,1,1,35,0,0
259976,-74.0740740740741,4,1,1,35,0,0
262034,-58.8235294117647,4,1,1,35,0,0
264776,-100,4,1,1,35,0,0
266148,-74.0740740740741,4,1,1,35,0,0
270605,-1000,4,1,1,35,0,0
270948,-74.0740740740741,4,1,1,35,0,0
281234,-1000,4,1,1,35,0,0
281576,-66.6666666666667,4,1,1,35,0,0
283291,-57.1428571428571,4,1,1,35,0,0
283976,-50,4,1,1,35,0,0
288091,-200,4,1,1,35,0,0
310034,1200,4,1,1,15,1,0
310034,-200,4,1,1,15,0,0

[Colours]
Combo1 : 213,213,213
Combo2 : 144,144,144

[HitObjects]
120,84,1463,6,0,L|120:120,1,35.9999990463257,2|0,0:0|0:0,0:0:0:0:
204,228,2149,6,0,L|204:264,1,35.9999990463257,2|0,0:0|0:0,0:0:0:0:
112,344,2835,5,2,0:0:0:0:
104,352,3521,6,0,L|140:344,1,35.9999990463257,2|0,0:0|0:0,0:0:0:0:
256,320,4206,5,2,0:0:0:0:
260,332,4892,6,0,L|300:336,1,35.9999990463257,2|0,0:0|0:0,0:0:0:0:
372,268,5578,6,0,L|412:264,1,35.9999990463257,2|0,0:0|0:0,0:0:0:0:
156,300,6263,6,0,L|120:303,1,35.9999990463257,2|0,0:0|0:0,0:0:0:0:
304,220,6949,6,0,L|308:184,1,35.9999990463257,2|0,0:0|0:0,0:0:0:0:
212,124,7635,6,0,L|208:88,1,35.9999990463257,2|0,0:0|0:0,0:0:0:0:
296,24,8321,5,2,0:0:0:0:
300,36,9006,6,0,L|296:76,1,35.9999990463257,2|0,0:0|0:0,0:0:0:0:
172,208,9692,5,2,0:0:0:0:
248,192,10035,1,0,0:0:0:0:
324,176,10378,1,2,0:0:0:0:
400,160,10721,1,0,0:0:0:0:
488,236,11063,5,2,0:0:0:0:
392,220,11406,1,0,0:0:0:0:
296,204,11749,1,2,0:0:0:0:
200,188,12092,1,0,0:0:0:0:
192,192,12178,1,0,0:0:0:0:
184,196,12263,1,0,0:0:0:0:
176,200,12349,1,0,0:0:0:0:
156,236,12435,6,0,L|164:276,1,35.9999990463257,2|0,0:0|0:0,0:0:0:0:
136,116,13121,6,0,L|128:80,2,35.9999990463257,2|0|2,0:0|0:0|0:0,0:0:0:0:
128,80,14492,6,0,L|136:116,1,35.9999990463257,2|0,0:0|0:0,0:0:0:0:
156,236,15178,6,0,L|172:312,1,71.9999980926514,2|2,0:0|0:0,0:0:0:0:
240,76,16206,5,0,0:0:0:0:
296,152,16549,6,0,L|292:188,1,35.9999990463257,2|0,0:0|0:0,0:0:0:0:
364,32,17235,6,0,L|368:68,1,35.9999990463257,2|0,0:0|0:0,0:0:0:0:
476,104,17921,5,2,0:0:0:0:
432,172,18263,1,0,0:0:0:0:
476,240,18606,5,2,0:0:0:0:
496,104,18949,1,0,0:0:0:0:
424,308,19292,5,2,0:0:0:0:
424,308,19978,5,2,0:0:0:0:
300,344,20321,1,0,0:0:0:0:
160,268,20663,6,0,L|196:276,1,35.9999990463257,2|0,0:0|0:0,0:0:0:0:
424,308,21349,5,2,0:0:0:0:
368,204,21692,1,0,0:0:0:0:
92,356,22035,6,0,L|132:352,1,35.9999990463257,2|0,0:0|0:0,0:0:0:0:
104,180,22721,1,2,0:0:0:0:
160,88,23063,6,0,L|156:120,1,26.9999992847443,0|0,0:0|0:0,0:0:0:0:
104,180,23406,6,0,B|92:196|92:196|224:176|320:272,1,269.999992847443,8|0,0:0|0:0,0:0:0:0:
232,136,23749,2,0,P|276:152|324:184,1,89.9999976158143
392,96,23921,2,0,P|437:106|495:105,1,89.9999976158143
484,272,24092,6,0,P|430:179|420:284,1,269.999992847443,8|0,0:0|0:0,0:0:0:0:
480,107,24435,2,0,P|435:106|392:95,1,89.9999976158143
164,84,24606,2,0,P|216:80|256:92,1,89.9999976158143,0|0,0:0|0:0,0:0:0:0:
328,60,24778,6,0,P|208:8|72:64,1,269.999992847443,8|0,0:0|0:0,0:0:0:0:
251,90,25121,2,0,P|208:79|164:84,1,89.9999976158143,0|0,0:0|0:0,0:0:0:0:
148,308,25292,2,0,P|191:318|235:314,1,89.9999976158143,0|0,0:0|0:0,0:0:0:0:
216,156,25463,6,0,P|152:188|236:172,1,269.999992847443,8|0,0:0|0:0,0:0:0:0:
84,136,25806,2,0,L|72:232,1,89.9999976158143,0|0,0:0|0:0,0:0:0:0:
72,225,25978,2,0,B|68:176|68:176|84:136,1,89.9999976158143,0|0,0:0|0:0,0:0:0:0:
48,336,26149,6,0,P|140:280|296:308,1,269.999992847443,8|0,0:0|0:0,0:0:0:0:
380,360,26492,2,0,L|392:264,1,89.9999976158143,0|0,0:0|0:0,0:0:0:0:
392,271,26664,2,0,B|396:320|396:320|380:360,1,89.9999976158143,0|0,0:0|0:0,0:0:0:0:
148,308,26835,6,0,P|207:218|360:177,1,269.999992847443,8|0,0:0|0:0,0:0:0:0:
459,189,27178,2,0,L|429:96,1,89.9999976158143,0|0,0:0|0:0,0:0:0:0:
432,103,27350,2,0,B|456:145|456:145|458:188,1,89.9999976158143,0|0,0:0|0:0,0:0:0:0:
256,324,27521,6,0,P|346:298|252:296,1,269.999992847443,8|0,0:0|0:0,0:0:0:0:
152,216,27863,2,0,P|216:204|256:184,1,89.9999976158143,0|0,0:0|0:0,0:0:0:0:
345,81,28035,2,0,P|409:93|449:113,1,89.9999976158143,0|0,0:0|0:0,0:0:0:0:
340,324,28206,6,0,P|249:298|343:296,1,269.999992847443,8|0,0:0|0:0,0:0:0:0:
238,194,28549,2,0,P|196:210|152:216,1,89.9999976158143,0|0,0:0|0:0,0:0:0:0:
345,81,28721,2,0,P|409:93|449:113,1,89.9999976158143,0|0,0:0|0:0,0:0:0:0:
252,56,28892,6,0,P|172:140|48:52,1,269.999992847443,8|0,0:0|0:0,0:0:0:0:
260,48,29235,2,0,P|236:108|208:132,1,89.9999976158143,0|0,0:0|0:0,0:0:0:0:
24,276,29406,2,0,P|48:216|76:192,1,89.9999976158143,0|0,0:0|0:0,0:0:0:0:
252,56,29578,6,0,P|172:140|48:52,1,269.999992847443,8|0,0:0|0:0,0:0:0:0:
260,48,29921,2,0,P|236:108|208:132,1,89.9999976158143,0|0,0:0|0:0,0:0:0:0:
24,276,30092,2,0,P|48:216|76:192,1,89.9999976158143,0|0,0:0|0:0,0:0:0:0:
252,56,30263,6,0,P|172:140|48:52,1,269.999992847443,8|0,0:0|0:0,0:0:0:0:
260,48,30606,2,0,P|236:108|208:132,1,89.9999976158143,0|0,0:0|0:0,0:0:0:0:
24,276,30777,2,0,P|48:216|76:192,1,89.9999976158143,0|0,0:0|0:0,0:0:0:0:
252,56,30949,6,0,P|172:140|48:52,1,269.999992847443,8|0,0:0|0:0,0:0:0:0:
260,48,31292,2,0,P|236:108|208:132,1,89.9999976158143,0|0,0:0|0:0,0:0:0:0:
65,199,31463,2,0,P|36:233|24:276,1,89.9999976158143,0|0,0:0|0:0,0:0:0:0:
128,344,31635,6,0,P|160:252|200:356,1,269.999992847443,8|0,0:0|0:0,0:0:0:0:
24,275,31978,2,0,P|36:233|65:199,1,89.9999976158143,0|0,0:0|0:0,0:0:0:0:
264,184,32149,2,0,P|292:218|305:260,1,89.9999976158143,0|0,0:0|0:0,0:0:0:0:
128,344,32321,6,0,P|160:252|200:356,1,269.999992847443,8|0,0:0|0:0,0:0:0:0:
24,275,32664,2,0,P|36:233|65:199,1,89.9999976158143,0|0,0:0|0:0,0:0:0:0:
264,184,32835,2,0,P|292:218|305:260,1,89.9999976158143,0|0,0:0|0:0,0:0:0:0:
128,344,33006,6,0,P|160:252|200:356,1,269.999992847443,8|0,0:0|0:0,0:0:0:0:
24,275,33349,2,0,P|36:233|65:199,1,89.9999976158143,0|0,0:0|0:0,0:0:0:0:
264,184,33520,2,0,P|292:218|305:260,1,89.9999976158143,0|0,0:0|0:0,0:0:0:0:
104,128,33692,6,0,P|140:140|200:128,1,89.9999976158143,8|0,0:0|0:0,0:0:0:0:
392,48,33863,2,0,P|356:36|296:48,1,89.9999976158143
264,184,34035,2,0,P|292:218|305:260,1,89.9999976158143,8|0,0:0|0:0,0:0:0:0:
24,275,34206,2,0,P|36:233|65:199,1,89.9999976158143,0|0,0:0|0:0,0:0:0:0:
204,352,34378,6,0,P|177:251|128:344,1,269.999992847443,8|0,0:0|0:0,0:0:0:0:
305,260,34721,2,0,P|292:218|264:184,1,89.9999976158143,0|0,0:0|0:0,0:0:0:0:
65,199,34892,2,0,P|36:233|24:275,1,89.9999976158143,0|0,0:0|0:0,0:0:0:0:
204,352,35063,6,0,P|177:251|128:344,1,269.999992847443,8|0,0:0|0:0,0:0:0:0:
305,260,35406,2,0,P|292:218|264:184,1,89.9999976158143,0|0,0:0|0:0,0:0:0:0:
65,199,35577,2,0,P|36:233|24:275,1,89.9999976158143,0|0,0:0|0:0,0:0:0:0:
204,352,35749,6,0,P|177:251|128:344,1,269.999992847443,8|0,0:0|0:0,0:0:0:0:
264,184,36092,2,0,P|292:218|305:260,1,89.9999976158143,0|0,0:0|0:0,0:0:0:0:
24,275,36263,2,0,P|36:233|65:199,1,89.9999976158143,0|0,0:0|0:0,0:0:0:0:
204,352,36435,6,0,B|176:304|176:304|173:269|173:269|160:308|160:308|128:344,1,179.999995231629,8|0,0:0|0:0,0:0:0:0:
288,347,36692,1,0,0:0:0:0:
295,343,36778,2,0,L|400:342,1,89.9999976158143,0|0,0:0|0:0,0:0:0:0:
155,199,36949,2,0,L|50:198,1,89.9999976158143
264,184,37121,6,0,B|292:136|292:136|295:101|295:101|308:140|308:140|340:176,1,179.999995231629,8|0,0:0|0:0,0:0:0:0:
207,124,37378,1,0,0:0:0:0:
200,120,37463,2,0,L|95:119,1,89.9999976158143
382,233,37635,2,0,L|487:232,1,89.9999976158143,0|0,0:0|0:0,0:0:0:0:
465,80,37806,6,0,P|453:129|436:64,1,179.999995231629,8|0,0:0|0:0,0:0:0:0:
478,224,38063,1,0,0:0:0:0:
471,232,38149,2,0,L|382:233,1,89.9999976158143,0|0,0:0|0:0,0:0:0:0:
234,41,38321,2,0,L|323:41,1,89.9999976158143,0|0,0:0|0:0,0:0:0:0:
465,80,38492,6,0,P|453:129|436:64,1,179.999995231629,8|0,0:0|0:0,0:0:0:0:
478,224,38749,1,0,0:0:0:0:
471,232,38835,2,0,L|382:233,1,89.9999976158143,0|0,0:0|0:0,0:0:0:0:
323,41,39007,2,0,L|234:41,1,89.9999976158143,0|0,0:0|0:0,0:0:0:0:
432,64,39178,6,0,P|420:130|465:80,1,179.999995231629,8|0,0:0|0:0,0:0:0:0:
478,224,39435,1,0,0:0:0:0:
471,232,39521,2,0,L|382:233,1,89.9999976158143,8|0,0:0|0:0,0:0:0:0:
382,233,39693,2,0,B|426:243|426:243|471:233,1,89.9999976158143,0|0,0:0|0:0,0:0:0:0:
402,326,39863,6,0,B|360:318|360:318|305:346,1,89.9999976158143,8|0,0:0|0:0,0:0:0:0:
117,343,40035,6,0,P|124:299|145:313,1,89.9999976158143,0|0,0:0|0:0,0:0:0:0:
247,195,40206,6,0,B|254:212|254:212|242:305,1,89.9999976158143,8|0,0:0|0:0,0:0:0:0:
77,46,40378,6,0,B|70:63|70:63|82:156,1,89.9999976158143,0|0,0:0|0:0,0:0:0:0:
349,135,40549,6,0,P|311:142|324:122,1,89.9999976158143,8|0,0:0|0:0,0:0:0:0:
131,205,40721,6,0,P|169:212|156:192,1,89.9999976158143,0|0,0:0|0:0,0:0:0:0:
251,100,40892,6,0,B|237:94|237:94|154:121,1,89.9999976158143,8|0,0:0|0:0,0:0:0:0:
382,233,41063,6,0,B|396:239|396:239|479:212,1,89.9999976158143,0|0,0:0|0:0,0:0:0:0:
445,52,41235,6,0,B|399:41|399:41|429:75,1,89.9999976158143,8|0,0:0|0:0,0:0:0:0:
445,52,41406,6,0,B|399:41|399:41|420:81,1,89.9999976158143,0|0,0:0|0:0,0:0:0:0:
445,52,41578,6,0,B|399:41|399:41|412:88,1,89.9999976158143,8|0,0:0|0:0,0:0:0:0:
445,52,41749,6,0,B|399:41|399:41|402:87,1,89.9999976158143,0|0,0:0|0:0,0:0:0:0:
445,52,41921,6,0,B|399:41|399:41|389:91|389:91|424:180,1,179.999995231629,8|0,0:0|0:0,0:0:0:0:
460,321,42178,1,0,0:0:0:0:
474,327,42263,2,0,L|380:314,1,89.9999976158143,8|0,0:0|0:0,0:0:0:0:
219,269,42435,5,8,0:0:0:0:
212,302,42521,1,0,0:0:0:0:
237,288,42606,5,8,0:0:0:0:
197,281,42692,1,0,0:0:0:0:
215,284,42778,5,8,0:0:0:0:
215,284,42863,1,0,0:0:0:0:
230,252,42949,5,8,0:0:0:0:
238,203,43035,1,0,0:0:0:0:
225,145,43121,1,8,0:0:0:0:
201,91,43206,1,0,0:0:0:0:
198,33,43292,1,8,0:0:0:0:
253,77,43378,1,0,0:0:0:0:
254,143,43463,1,8,0:0:0:0:
196,189,43549,1,0,0:0:0:0:
126,229,43635,5,8,0:0:0:0:
121,313,43721,1,0,0:0:0:0:
194,367,43806,1,8,0:0:0:0:
301,359,43892,6,0,L|332:340,1,35.9999990463257,0|0,0:0|0:0,0:0:0:0:
456,16,45349,6,0,L|476:384,1,359.999990463257,2|0,0:0|0:0,0:0:0:0:
380,17,46034,6,0,L|400:385,1,359.999990463257,2|0,0:0|0:0,0:0:0:0:
304,18,46720,6,0,L|324:386,1,359.999990463257,2|0,0:0|0:0,0:0:0:0:
228,19,47406,6,0,L|248:387,1,359.999990463257,2|0,0:0|0:0,0:0:0:0:
152,20,48091,6,0,L|172:388,1,359.999990463257,2|0,0:0|0:0,0:0:0:0:
76,21,48777,6,0,L|96:389,1,359.999990463257,2|0,0:0|0:0,0:0:0:0:
0,22,49463,6,0,L|20:390,2,359.999990463257,2|2|2,0:0|0:0|0:0,0:0:0:0:
76,21,50491,6,0,L|78:53,1,26.9999992847443,12|0,0:0|0:0,0:0:0:0:
134,118,50834,5,0,0:0:0:0:
206,124,50920,1,0,0:0:0:0:
277,132,51006,1,0,0:0:0:0:
347,142,51091,1,0,0:0:0:0:
418,150,51177,6,0,P|365:74|366:211,1,359.999990463257,2|0,0:0|0:0,0:0:0:0:
184,272,51863,6,0,P|103:225|162:349,1,359.999990463257,2|0,0:0|0:0,0:0:0:0:
456,256,52549,6,0,P|363:247|469:335,1,359.999990463257,2|0,0:0|0:0,0:0:0:0:
180,88,53234,6,0,P|51:129|135:23,1,359.999990463257,2|0,0:0|0:0,0:0:0:0:
200,232,53920,6,0,P|134:297|269:272,1,359.999990463257,2|0,0:0|0:0,0:0:0:0:
313,85,54606,6,0,P|281:172|392:92,1,359.999990463257,2|0,0:0|0:0,0:0:0:0:
412,277,55291,6,2,P|456:245|485:114,1,179.999995231629,12|2,0:0|0:0,0:0:0:0:
279,305,55549,1,0,0:0:0:0:
286,325,55634,2,0,P|327:347|376:351,1,89.9999976158143,2|0,0:0|0:0,0:0:0:0:
152,269,55806,2,0,P|170:311|206:344,2,89.9999976158143,2|0|2,0:0|0:0|0:0,0:0:0:0:
104,164,56149,6,0,L|94:218,1,44.9999988079071,0|0,0:0|0:0,0:0:0:0:
99,145,56234,6,0,L|89:199,1,44.9999988079071,0|0,0:0|0:0,0:0:0:0:
92,124,56320,6,0,L|58:330,1,179.999995231629,0|6,0:0|0:0,0:0:0:0:
62,301,56834,1,0,0:0:0:0:
194,66,57006,5,2,0:0:0:0:
242,55,57091,1,0,0:0:0:0:
210,34,57177,1,0,0:0:0:0:
224,81,57263,1,0,0:0:0:0:
216,58,57349,1,0,0:0:0:0:
437,50,57520,6,0,L|441:114,1,44.9999988079071
448,33,57606,6,0,L|452:97,1,44.9999988079071
458,19,57691,6,0,L|486:380,1,359.999990463257,2|0,0:0|0:0,0:0:0:0:
49,381,58377,6,0,L|21:22,1,359.999990463257,2|0,0:0|0:0,0:0:0:0:
458,19,59063,6,0,L|486:380,1,359.999990463257,2|0,0:0|0:0,0:0:0:0:
48,380,59749,6,0,L|20:21,1,359.999990463257,2|0,0:0|0:0,0:0:0:0:
458,19,60434,6,0,L|486:380,1,359.999990463257,2|0,0:0|0:0,0:0:0:0:
49,381,61120,6,0,L|21:22,2,359.999990463257,2|0|2,0:0|0:0|0:0,0:0:0:0:
485,377,61806,6,0,L|458:19,1,359.999990463257,2|0,0:0|0:0,0:0:0:0:
21,22,62492,6,0,L|49:381,1,359.999990463257,2|0,0:0|0:0,0:0:0:0:
485,377,63177,6,0,L|458:19,1,359.999990463257,2|0,0:0|0:0,0:0:0:0:
21,22,63863,6,0,L|49:381,1,359.999990463257,2|0,0:0|0:0,0:0:0:0:
260,380,64206,2,0,L|232:21,1,359.999990463257,2|0,0:0|0:0,0:0:0:0:
458,19,64549,6,0,L|485:377,1,359.999990463257,2|0,0:0|0:0,0:0:0:0:
44,377,65234,6,0,L|19:6,1,372.599990698013,2|0,0:0|0:0,0:0:0:0:
458,19,65749,6,0,L|485:377,1,359.999990463257,2|0,0:0|0:0,0:0:0:0:
44,377,66177,6,0,L|19:6,1,372.599990698013,2|0,0:0|0:0,0:0:0:0:
458,19,66606,6,0,L|485:377,1,359.999990463257,2|0,0:0|0:0,0:0:0:0:
492,294,66863,1,2,0:0:0:0:
458,230,66949,1,2,0:0:0:0:
402,185,67034,1,2,0:0:0:0:
332,164,67120,1,2,0:0:0:0:
259,168,67206,1,2,0:0:0:0:
194,199,67291,6,0,P|322:202|419:91,1,269.999992847443,8|0,0:0|0:0,0:0:0:0:
123,226,67634,2,0,P|162:266|217:274,1,89.9999976158143,0|0,0:0|0:0,0:0:0:0:
417,293,67806,2,0,P|367:278|314:287,1,89.9999976158143,0|0,0:0|0:0,0:0:0:0:
237,362,67977,6,0,P|338:276|362:355,1,269.999992847443,8|0,0:0|0:0,0:0:0:0:
237,362,68320,6,0,B|240:289|240:289|297:262|297:262|360:291|360:291|362:355,1,269.999992847443,0|0,0:0|0:0,0:0:0:0:
237,362,68663,6,0,B|252:318|252:318|245:296|245:296|276:286|276:286|297:262|297:262|321:286|321:286|357:295|357:295|348:321|348:321|362:355,1,269.999992847443,8|0,0:0|0:0,0:0:0:0:
162,313,69006,2,0,P|173:266|153:211,1,89.9999976158143,0|0,0:0|0:0,0:0:0:0:
150,281,69177,2,0,P|161:234|141:179,1,89.9999976158143,0|0,0:0|0:0,0:0:0:0:
127,62,69349,6,0,P|98:167|186:109,1,269.999992847443,8|0,0:0|0:0,0:0:0:0:
43,40,69691,2,0,P|73:38|137:73,1,89.9999976158143
271,144,69863,2,0,P|301:146|365:111,1,89.9999976158143,0|0,0:0|0:0,0:0:0:0:
480,45,70034,6,0,P|436:156|488:308,1,269.999992847443,8|0,0:0|0:0,0:0:0:0:
477,31,70377,2,0,P|444:80|436:121,1,89.9999976158143,0|0,0:0|0:0,0:0:0:0:
481,207,70549,2,0,P|486:250|476:294,1,89.9999976158143,0|0,0:0|0:0,0:0:0:0:
272,340,70720,6,0,P|396:296|376:368,1,269.999992847443,8|0,0:0|0:0,0:0:0:0:
389,357,71063,6,0,B|397:286|397:286|346:254|346:254|288:262|288:262|272:340,1,269.999992847443,0|0,0:0|0:0,0:0:0:0:
272,340,71406,6,0,P|396:296|376:368,1,269.999992847443,8|0,0:0|0:0,0:0:0:0:
389,357,71749,6,0,B|397:286|397:286|346:254|346:254|288:262|288:262|272:340,1,269.999992847443,0|0,0:0|0:0,0:0:0:0:
476,294,72091,2,0,P|463:251|436:216,1,89.9999976158143,8|0,0:0|0:0,0:0:0:0:
248,204,72263,2,0,P|220:168|207:125,1,89.9999976158143,0|0,0:0|0:0,0:0:0:0:
352,24,72434,5,0,0:0:0:0:
348,56,72520,1,0,0:0:0:0:
288,104,72606,5,0,0:0:0:0:
292,136,72692,1,0,0:0:0:0:
248,204,72777,2,0,P|216:152|368:112,1,269.999992847443,8|0,0:0|0:0,0:0:0:0:
240,296,73120,2,0,P|196:284|160:236,1,89.9999976158143,0|0,0:0|0:0,0:0:0:0:
404,256,73291,2,0,P|434:223|477:212,1,89.9999976158143,0|0,0:0|0:0,0:0:0:0:
404,108,73463,6,0,L|116:128,1,269.999992847443,8|0,0:0|0:0,0:0:0:0:
134,126,73806,6,0,L|403:144,1,269.999992847443,0|0,0:0|0:0,0:0:0:0:
403,144,74149,6,0,L|115:164,1,269.999992847443,8|0,0:0|0:0,0:0:0:0:
452,160,74491,2,0,L|341:168,1,89.9999976158143,0|0,0:0|0:0,0:0:0:0:
184,176,74663,2,0,L|73:184,1,89.9999976158143,0|0,0:0|0:0,0:0:0:0:
452,160,74834,6,0,P|417:67|363:167,1,269.999992847443,8|0,0:0|0:0,0:0:0:0:
362,166,75177,6,0,B|348:98|348:98|405:60|405:60|463:97|463:97|452:160,1,269.999992847443,0|0,0:0|0:0,0:0:0:0:
375,284,75520,6,0,P|327:255|278:261,1,89.9999976158143,8|0,0:0|0:0,0:0:0:0:
184,176,75691,2,0,P|136:205|87:199,1,89.9999976158143,0|0,0:0|0:0,0:0:0:0:
366,294,75863,6,0,P|321:260|271:262,1,89.9999976158143,0|0,0:0|0:0,0:0:0:0:
185,169,76034,2,0,P|135:194|87:184,1,89.9999976158143,0|0,0:0|0:0,0:0:0:0:
357,303,76206,6,0,P|314:266|265:263,1,89.9999976158143,8|0,0:0|0:0,0:0:0:0:
187,163,76377,2,0,P|135:183|88:169,1,89.9999976158143,0|0,0:0|0:0,0:0:0:0:
347,311,76549,6,0,P|308:271|259:264,1,89.9999976158143,0|0,0:0|0:0,0:0:0:0:
190,157,76720,2,0,P|136:173|90:155,1,89.9999976158143,0|0,0:0|0:0,0:0:0:0:
142,61,76891,6,0,L|162:356,1,269.999992847443,8|0,0:0|0:0,0:0:0:0:
160,330,77234,6,0,B|149:261|149:261|153:123|153:123|142:61,1,269.999992847443,0|0,0:0|0:0,0:0:0:0:
142,62,77577,6,0,L|184:264,1,179.999995231629,8|0,0:0|0:0,0:0:0:0:
347,311,77749,5,0,0:0:0:0:
308,303,77834,1,0,0:0:0:0:
320,336,77920,2,0,L|365:132,1,179.999995231629,8|0,0:0|0:0,0:0:0:0:
483,67,78091,5,0,0:0:0:0:
430,72,78177,1,0,0:0:0:0:
452,26,78263,6,0,L|469:319,1,269.999992847443,8|0,0:0|0:0,0:0:0:0:
452,26,78606,6,0,B|464:136|464:136|456:196|456:196|469:319,1,269.999992847443,0|0,0:0|0:0,0:0:0:0:
452,26,78949,6,0,B|468:136|468:136|452:192|452:192|469:319,1,269.999992847443,8|0,0:0|0:0,0:0:0:0:
452,26,79291,6,0,B|476:140|476:140|444:192|444:192|469:319,1,269.999992847443,0|0,0:0|0:0,0:0:0:0:
452,26,79634,6,0,P|396:100|424:24,1,269.999992847443,8|0,0:0|0:0,0:0:0:0:
500,172,79977,2,0,P|440:192|396:184,1,89.9999976158143,0|0,0:0|0:0,0:0:0:0:
328,128,80149,2,0,P|268:108|224:116,1,89.9999976158143,0|0,0:0|0:0,0:0:0:0:
119,171,80320,6,0,B|104:226|104:226|166:262|166:262|206:201|206:201|155:155,1,269.999992847443,8|0,0:0|0:0,0:0:0:0:
155,156,80663,6,0,P|176:250|120:172,1,269.999992847443,0|0,0:0|0:0,0:0:0:0:
36,233,81006,6,0,P|70:293|98:315,1,89.9999976158143,8|0,0:0|0:0,0:0:0:0:
228,306,81177,2,0,P|258:273|277:232,1,89.9999976158143,0|0,0:0|0:0,0:0:0:0:
289,49,81349,6,0,P|304:99|340:137,1,89.9999976158143,0|0,0:0|0:0,0:0:0:0:
277,232,81520,2,0,P|258:273|228:306,1,89.9999976158143,0|0,0:0|0:0,0:0:0:0:
85,306,81691,6,0,P|172:268|340:345,1,269.999992847443,8|0,0:0|0:0,0:0:0:0:
497,292,82034,2,0,P|407:251|487:254,1,269.999992847443,0|0,0:0|0:0,0:0:0:0:
362,371,82377,6,0,P|326:311|327:277,1,89.9999976158143,8|0,0:0|0:0,0:0:0:0:
415,156,82549,2,0,P|406:112|377:77,1,89.9999976158143,0|0,0:0|0:0,0:0:0:0:
208,27,82720,2,0,P|293:94|276:33,1,269.999992847443,0|0,0:0|0:0,0:0:0:0:
104,81,83063,5,8,0:0:0:0:
109,118,83149,1,0,0:0:0:0:
85,306,83234,5,0,0:0:0:0:
90,269,83320,1,0,0:0:0:0:
27,184,83406,6,0,L|452:239,1,405.000004720688,4|0,0:0|0:0,0:0:0:0:
481,333,83749,6,0,P|432:307|388:321,1,89.9999976158143,8|0,0:0|0:0,0:0:0:0:
356,150,83920,2,0,P|399:154|436:130,1,89.9999976158143,0|0,0:0|0:0,0:0:0:0:
270,373,84091,6,0,P|297:347|325:293,1,89.9999976158143,0|0,0:0|0:0,0:0:0:0:
279,135,84263,2,0,P|258:95|226:63,1,89.9999976158143,0|0,0:0|0:0,0:0:0:0:
135,329,84434,6,0,P|194:323|226:301,1,89.9999976158143,8|0,0:0|0:0,0:0:0:0:
193,139,84606,2,0,P|153:118|108:117,1,89.9999976158143,0|0,0:0|0:0,0:0:0:0:
17,278,84777,6,0,P|128:214|265:240,1,269.999992847443,0|0,0:0|0:0,0:0:0:0:
481,333,85120,6,0,P|433:323|391:288,3,89.9999976158143,8|0|0|0,0:0|0:0|0:0|0:0,0:0:0:0:
414,214,85463,2,0,P|374:184|351:135,1,89.9999976158143,8|0,0:0|0:0,0:0:0:0:
414,95,85635,2,0,P|390:51|390:-2,1,89.9999976158143,0|0,0:0|0:0,0:0:0:0:
483,181,85806,5,8,0:0:0:0:
491,172,85891,1,0,0:0:0:0:
499,162,85977,2,0,L|481:261,1,89.9999976158143,0|0,0:0|0:0,0:0:0:0:
329,343,86149,6,0,B|356:313|356:313|106:323,1,270.000003147125,8|0,0:0|0:0,0:0:0:0:
71,170,86406,1,0,0:0:0:0:
0,207,86491,2,0,B|26:249|26:249|281:245,1,270.000003147125,8|0,0:0|0:0,0:0:0:0:
414,214,86749,1,0,0:0:0:0:
424,308,86834,2,0,B|389:273|389:273|426:55,1,270.000003147125,8|0,0:0|0:0,0:0:0:0:
499,162,87177,5,8,0:0:0:0:
432,176,87263,1,0,0:0:0:0:
365,190,87349,1,8,0:0:0:0:
299,205,87434,1,0,0:0:0:0:
233,220,87520,1,8,0:0:0:0:
167,235,87606,1,0,0:0:0:0:
101,249,87691,1,8,0:0:0:0:
34,264,87777,1,0,0:0:0:0:
0,332,87863,5,0,0:0:0:0:
7,335,88034,1,0,0:0:0:0:
13,337,88206,1,0,0:0:0:0:
19,341,88377,1,0,0:0:0:0:
236,120,88549,5,0,0:0:0:0:
242,116,88720,1,0,0:0:0:0:
248,114,88892,1,0,0:0:0:0:
255,111,89063,1,0,0:0:0:0:
463,335,89234,6,0,P|353:277|253:331,1,224.999994039536,8|0,0:0|0:0,0:0:0:0:
442,210,89577,5,0,0:0:0:0:
458,212,89663,1,0,0:0:0:0:
446,226,89749,2,0,L|466:92,1,112.499997019768,0|0,0:0|0:0,0:0:0:0:
472,107,89920,6,0,L|433:337,1,224.999994039536,8|0,0:0|0:0,0:0:0:0:
232,332,90177,1,0,0:0:0:0:
267,313,90263,2,0,P|306:273|321:220,1,112.499997019768,0|0,0:0|0:0,0:0:0:0:
201,132,90434,2,0,P|195:77|217:26,1,112.499997019768
369,58,90606,5,8,0:0:0:0:
288,93,90691,1,0,0:0:0:0:
201,132,90777,2,0,P|195:77|217:26,1,112.499997019768
220,258,90949,5,0,0:0:0:0:
185,255,91034,1,0,0:0:0:0:
204,234,91120,2,0,L|195:351,1,112.499997019768,0|0,0:0|0:0,0:0:0:0:
218,28,91291,2,0,P|227:86|202:133,1,112.499997019768,8|0,0:0|0:0,0:0:0:0:
81,257,91463,5,0,0:0:0:0:
36,254,91549,1,0,0:0:0:0:
15,214,91634,1,0,0:0:0:0:
40,176,91720,1,0,0:0:0:0:
85,179,91806,1,0,0:0:0:0:
105,219,91891,1,0,0:0:0:0:
81,257,91977,6,0,B|156:349|278:313|372:206|466:264,1,405.000004720688,8|0,0:0|0:0,0:0:0:0:
287,363,92320,2,0,P|356:333|414:320,1,135.000001573563,0|0,0:0|0:0,0:0:0:0:
490,190,92491,2,0,P|424:174|363:146,1,135.000001573563,0|0,0:0|0:0,0:0:0:0:
123,144,92663,6,0,P|225:214|158:72,1,405.000004720688,8|0,0:0|0:0,0:0:0:0:
200,134,93006,1,0,0:0:0:0:
203,146,93091,1,0,0:0:0:0:
212,136,93177,1,0,0:0:0:0:
193,139,93263,1,0,0:0:0:0:
202,140,93349,6,0,B|233:219|160:304|160:304|188:356|188:356|221:354|221:354|243:315|243:315|225:277,1,337.499991059303,8|0,0:0|0:0,0:0:0:0:
73,224,93691,6,0,L|81:260,1,33.7499991059303,0|0,0:0|0:0,0:0:0:0:
92,348,94034,6,0,P|88:288|116:208,1,112.499997019768,8|0,0:0|0:0,0:0:0:0:
202,140,94206,2,0,P|206:80|178:0,1,112.499997019768,0|0,0:0|0:0,0:0:0:0:
80,28,94377,2,0,P|24:136|119:59,1,337.499991059303,0|0,0:0|0:0,0:0:0:0:
72,224,94720,5,8,0:0:0:0:
80,256,94806,1,0,0:0:0:0:
48,244,94891,2,0,L|164:224,1,112.499997019768,0|0,0:0|0:0,0:0:0:0:
316,180,95063,5,8,0:0:0:0:
324,124,95149,1,0,0:0:0:0:
284,148,95234,2,0,L|400:168,1,112.499997019768,0|0,0:0|0:0,0:0:0:0:
444,272,95406,5,8,0:0:0:0:
424,348,95491,1,0,0:0:0:0:
500,328,95577,2,0,L|376:296,1,112.499997019768,0|0,0:0|0:0,0:0:0:0:
184,236,95749,5,0,0:0:0:0:
208,348,95834,1,0,0:0:0:0:
116,308,95920,2,0,L|304:268,1,179.999995231629,0|0,0:0|0:0,0:0:0:0:
466,237,96091,5,8,0:0:0:0:
461,246,96177,1,0,0:0:0:0:
456,252,96263,2,0,P|452:264|452:240,1,112.499997019768,0|0,0:0|0:0,0:0:0:0:
372,42,96434,5,8,0:0:0:0:
377,33,96520,1,0,0:0:0:0:
380,24,96606,2,0,P|384:12|384:36,1,112.499997019768,0|0,0:0|0:0,0:0:0:0:
424,144,96777,5,8,0:0:0:0:
424,144,96863,1,0,0:0:0:0:
424,144,96949,2,0,P|319:147|228:117,1,179.999995231629,0|0,0:0|0:0,0:0:0:0:
80,80,97120,5,0,0:0:0:0:
80,80,97206,1,0,0:0:0:0:
80,80,97292,2,0,P|164:76|116:140,1,199.999994701809,0|0,0:0|0:0,0:0:0:0:
56,244,97463,6,0,P|229:204|454:358,1,449.999988079071,8|0,0:0|0:0,0:0:0:0:
185,320,97720,2,0,P|356:274|482:32,1,449.999988079071,8|0,0:0|0:0,0:0:0:0:
368,155,97977,2,0,P|312:213|160:240,1,224.999994039536,8|0,0:0|0:0,0:0:0:0:
56,244,98149,6,0,P|231:180|59:269,1,599.999984105428,8|0,0:0|0:0,0:0:0:0:
108,264,98406,6,0,P|190:216|106:240,1,278.999994737625,8|0,0:0|0:0,0:0:0:0:
281,364,98663,2,0,P|325:260|232:96,1,299.999992052714,8|0,0:0|0:0,0:0:0:0:
93,64,98834,6,0,B|101:145|168:189|168:189|299:156|415:188|415:188|499:138|512:96|503:27|425:12|425:12|346:36|341:100|408:175|408:175|421:226,1,899.999976158142,8|0,0:0|0:0,0:0:0:0:
460,342,99091,2,0,B|378:304|315:229|283:83|283:83|271:166|248:236|222:290|123:337|123:337|103:282|31:290|31:290|67:198|18:140,1,899.999976158142,8|0,0:0|0:0,0:0:0:0:
224,37,99349,2,0,B|317:77|321:199|300:290|300:290|397:343|468:343,1,449.999988079071,8|0,0:0|0:0,0:0:0:0:
211,320,99520,6,0,B|241:256|257:140|214:83|112:83|112:83|88:141|102:183,1,405.000004720688,8|0,0:0|0:0,0:0:0:0:
130,340,99863,6,0,L|136:322,1,11.2499997019768,0|0,0:0|0:0,0:0:0:0:
157,264,100034,6,0,L|163:246,1,11.2499997019768,0|0,0:0|0:0,0:0:0:0:
332,64,100206,6,0,P|308:168|364:292,1,224.999994039536,8|0,0:0|0:0,0:0:0:0:
464,140,100549,5,0,0:0:0:0:
456,188,100634,1,0,0:0:0:0:
492,168,100720,2,0,L|352:148,1,112.499997019768,0|0,0:0|0:0,0:0:0:0:
276,136,100891,6,0,L|32:108,1,224.999994039536,8|0,0:0|0:0,0:0:0:0:
20,264,101149,1,0,0:0:0:0:
47,280,101234,2,0,P|115:278|167:258,1,112.499997019768,0|0,0:0|0:0,0:0:0:0:
340,236,101406,2,0,P|286:219|230:218,1,112.499997019768,0|0,0:0|0:0,0:0:0:0:
272,324,101577,5,8,0:0:0:0:
308,284,101663,1,0,0:0:0:0:
340,236,101749,2,0,P|292:205|238:191,1,112.499997019768,0|0,0:0|0:0,0:0:0:0:
272,324,101920,5,0,0:0:0:0:
308,284,102006,1,0,0:0:0:0:
340,236,102092,2,0,P|302:194|253:166,1,112.499997019768,0|0,0:0|0:0,0:0:0:0:
52,110,102263,6,0,P|120:108|172:88,1,112.499997019768,8|0,0:0|0:0,0:0:0:0:
268,40,102434,2,0,P|335:42|387:62,1,112.499997019768,0|0,0:0|0:0,0:0:0:0:
480,148,102606,2,0,P|472:220|468:140,1,224.999994039536,0|0,0:0|0:0,0:0:0:0:
112,352,102949,5,8,0:0:0:0:
120,320,103034,1,0,0:0:0:0:
132,344,103120,1,0,0:0:0:0:
96,332,103206,1,0,0:0:0:0:
116,336,103291,6,0,B|180:264|164:216|164:216|104:172|96:100|96:100|176:56|176:56|156:112,1,405.000004720688
68,224,103634,2,0,P|48:192|32:152,6,67.5000007867814,8|0|0|0|0|0|0,0:0|0:0|0:0|0:0|0:0|0:0|0:0,0:0:0:0:
228,172,103977,6,0,P|256:192|376:172,1,135.000001573563
496,268,104149,2,0,P|430:255|371:285,1,135.000001573563,0|0,0:0|0:0,0:0:0:0:
496,268,104320,6,0,P|388:172|500:176,1,337.499991059303,12|0,0:0|0:0,0:0:0:0:
480,360,104663,6,0,L|448:364,1,26.9999992847443,0|0,0:0|0:0,0:0:0:0:
480,360,105006,6,0,P|416:344|344:344,1,112.499997019768,8|0,0:0|0:0,0:0:0:0:
200,360,105177,2,0,P|143:356|89:341,1,112.499997019768,0|0,0:0|0:0,0:0:0:0:
152,152,105349,2,0,P|229:253|106:219,1,337.499991059303,0|0,0:0|0:0,0:0:0:0:
200,360,105691,6,0,L|332:340,1,112.499997019768,8|0,0:0|0:0,0:0:0:0:
280,112,105863,1,0,0:0:0:0:
311,343,106034,6,0,L|179:323,1,112.499997019768,0|0,0:0|0:0,0:0:0:0:
248,32,106206,1,0,0:0:0:0:
400,60,106377,6,0,P|408:136|248:228,1,270.000003147125,8|0,0:0|0:0,0:0:0:0:
263,231,106634,2,0,P|344:192|496:284,1,270.000003147125,0|0,0:0|0:0,0:0:0:0:
490,271,106891,6,0,P|388:188|400:56,1,272.727265502467
504,140,107063,5,8,0:0:0:0:
504,140,107149,1,0,0:0:0:0:
504,140,107234,2,0,B|440:176|440:176|320:144|320:144|232:188,1,272.727265502467,0|0,0:0|0:0,0:0:0:0:
44,248,107406,5,8,0:0:0:0:
44,248,107491,1,0,0:0:0:0:
44,248,107577,2,0,B|58:196|58:196|204:120|204:120|128:84,1,272.727265502467,0|0,0:0|0:0,0:0:0:0:
384,20,107749,5,8,0:0:0:0:
384,20,107834,1,0,0:0:0:0:
384,20,107920,2,0,B|416:44|416:44|368:176|368:176|440:268,1,272.727265502467,0|0,0:0|0:0,0:0:0:0:
476,328,108091,6,0,B|516:340|540:312|540:312|500:300|480:328,1,136.363632751234
476,328,108177,6,0,B|512:308|509:271|509:271|473:291|478:325,1,136.363632751234,0|0,0:0|0:0,0:0:0:0:
476,328,108263,6,0,B|488:288|460:264|460:264|448:304|476:324,1,136.363632751234,0|0,0:0|0:0,0:0:0:0:
476,328,108349,6,0,B|456:291|419:294|419:294|439:330|473:325,1,136.363632751234,0|0,0:0|0:0,0:0:0:0:
476,328,108434,6,0,B|436:316|412:344|412:344|452:356|472:328,1,136.363632751234,12|0,0:0|0:0,0:0:0:0:
476,328,108520,6,0,B|439:347|442:384|442:384|478:364|473:330,1,136.363632751234
476,328,108606,6,0,B|464:368|492:392|492:392|504:352|476:332,1,136.363632751234
476,328,108691,6,0,B|495:364|532:361|532:361|512:325|478:330,1,136.363632751234,0|0,0:0|0:0,0:0:0:0:
476,328,108777,6,0,L|184:300,1,272.727265502467,0|0,0:0|0:0,0:0:0:0:
52,328,108949,2,0,P|128:276|16:288,1,272.727265502467,0|0,0:0|0:0,0:0:0:0:
203,301,109120,6,0,B|248:180|248:180|152:72|152:72|16:140|16:140|15:260,1,545.454531004935,8|0,0:0|0:0,0:0:0:0:
15,259,109377,2,0,P|153:88|204:301,1,545.454531004935,0|0,0:0|0:0,0:0:0:0:
80,212,109634,2,0,P|96:168|88:232,1,272.727265502467,0|0,0:0|0:0,0:0:0:0:
203,301,109806,6,0,L|259:301,1,44.9999988079071,0|0,0:0|0:0,0:0:0:0:
404,133,109977,2,0,L|348:133,1,44.9999988079071,0|0,0:0|0:0,0:0:0:0:
109,40,110149,6,0,L|114:90,1,44.9999988079071,0|0,0:0|0:0,0:0:0:0:
404,228,110320,2,0,L|399:278,1,44.9999988079071,0|0,0:0|0:0,0:0:0:0:
137,359,110491,6,0,L|80:362,1,44.9999988079071,2|0,0:0|0:0,0:0:0:0:
220,37,110663,2,0,L|277:40,1,44.9999988079071,0|0,0:0|0:0,0:0:0:0:
137,359,110834,6,0,L|80:362,1,44.9999988079071,4|0,0:0|0:0,0:0:0:0:
220,37,111006,2,0,L|277:40,1,44.9999988079071,0|0,0:0|0:0,0:0:0:0:
361,352,111177,6,0,L|117:359,1,224.999994039536,8|0,0:0|0:0,0:0:0:0:
72,172,111520,5,0,0:0:0:0:
80,208,111606,1,0,0:0:0:0:
44,196,111691,2,0,L|168:172,1,112.499997019768,0|0,0:0|0:0,0:0:0:0:
404,228,111863,2,0,P|288:176|264:236,1,224.999994039536,8|0,0:0|0:0,0:0:0:0:
376,268,112120,1,0,0:0:0:0:
404,228,112206,6,0,P|412:160|392:112,1,112.499997019768,0|0,0:0|0:0,0:0:0:0:
78,63,112377,6,0,P|61:116|71:171,1,112.499997019768,0|0,0:0|0:0,0:0:0:0:
260,248,112549,6,0,P|320:212|236:244,1,337.499991059303,8|0,0:0|0:0,0:0:0:0:
225,355,112891,2,0,L|260:248,1,112.499997019768,0|0,0:0|0:0,0:0:0:0:
297,151,113063,2,0,L|332:44,1,112.499997019768,0|0,0:0|0:0,0:0:0:0:
259,249,113234,6,0,B|252:304|252:304|225:355,1,112.499997019768,8|0,0:0|0:0,0:0:0:0:
297,151,113406,2,0,B|304:96|304:96|331:45,1,112.499997019768,0|0,0:0|0:0,0:0:0:0:
259,249,113577,6,0,P|235:295|225:355,1,112.499997019768,0|0,0:0|0:0,0:0:0:0:
297,151,113749,2,0,P|321:105|331:45,1,112.499997019768,0|0,0:0|0:0,0:0:0:0:
78,63,113920,5,8,0:0:0:0:
126,51,114006,1,0,0:0:0:0:
95,32,114091,1,0,0:0:0:0:
107,78,114177,1,0,0:0:0:0:
100,52,114263,1,0,0:0:0:0:
444,124,114434,1,0,0:0:0:0:
101,54,114606,6,0,B|128:132|49:218|87:334|87:334|122:349|122:349|161:335|161:335|150:292,1,405.000004720688,8|0,0:0|0:0,0:0:0:0:
34,122,114949,2,0,B|19:168|6:218|7:263,1,135.000001573563,0|0,0:0|0:0,0:0:0:0:
320,367,115120,2,0,B|335:321|348:271|347:226,1,135.000001573563,0|0,0:0|0:0,0:0:0:0:
150,295,115291,6,0,B|214:217|217:99|217:99|262:158|357:171,1,337.499991059303,8|0,0:0|0:0,0:0:0:0:
348,236,115634,6,0,L|358:266,1,26.9999992847443,0|0,0:0|0:0,0:0:0:0:
432,350,115977,6,0,P|452:290|450:233,1,112.499997019768,8|0,0:0|0:0,0:0:0:0:
322,164,116149,2,0,P|302:104|304:47,1,112.499997019768,0|0,0:0|0:0,0:0:0:0:
436,33,116320,2,0,P|492:64|413:39,1,337.499991059303,0|0,0:0|0:0,0:0:0:0:
451,241,116663,5,8,0:0:0:0:
447,247,116749,1,0,0:0:0:0:
441,254,116834,1,0,0:0:0:0:
437,262,116920,1,0,0:0:0:0:
382,291,117006,5,8,0:0:0:0:
327,281,117091,1,0,0:0:0:0:
271,270,117177,1,0,0:0:0:0:
215,259,117263,1,0,0:0:0:0:
167,284,117349,5,8,0:0:0:0:
172,292,117434,1,0,0:0:0:0:
175,297,117520,1,0,0:0:0:0:
178,304,117606,1,0,0:0:0:0:
213,345,117691,6,0,P|238:313|254:237,1,112.499997019768,0|0,0:0|0:0,0:0:0:0:
79,129,117863,2,0,P|54:97|38:21,1,112.499997019768,0|0,0:0|0:0,0:0:0:0:
149,50,118034,5,8,0:0:0:0:
154,45,118120,1,0,0:0:0:0:
162,41,118205,1,0,0:0:0:0:
169,35,118291,1,0,0:0:0:0:
230,26,118377,5,8,0:0:0:0:
279,54,118462,1,0,0:0:0:0:
328,84,118548,1,0,0:0:0:0:
376,113,118634,1,0,0:0:0:0:
430,106,118720,5,8,0:0:0:0:
428,97,118805,1,0,0:0:0:0:
427,91,118891,1,0,0:0:0:0:
427,84,118977,1,0,0:0:0:0:
408,33,119063,6,0,P|373:54|332:120,1,112.499997019768,0|0,0:0|0:0,0:0:0:0:
418,360,119234,2,0,P|464:328|492:280,1,112.499997019768,0|0,0:0|0:0,0:0:0:0:
178,176,119406,6,0,L|320:218,1,112.499997019768,8|0,0:0|0:0,0:0:0:0:
285,207,119663,6,0,L|178:176,1,112.499997019768,8|0,0:0|0:0,0:0:0:0:
48,40,119920,6,0,L|56:42,4,4.49999988079071,8|0|0|0|0,0:0|0:0|0:0|0:0|0:0,0:0:0:0:
176,175,120349,6,0,L|285:207,1,112.499997019768,8|0,0:0|0:0,0:0:0:0:
472,84,120606,6,0,L|470:84,8,2.24999994039536,8|0|0|0|0|0|0|0|0,0:0|0:0|0:0|0:0|0:0|0:0|0:0|0:0|0:0,0:0:0:0:
263,318,120949,5,8,0:0:0:0:
263,318,121206,1,8,0:0:0:0:
86,252,121291,5,8,0:0:0:0:
56,333,121463,5,8,0:0:0:0:
329,147,121720,1,8,0:0:0:0:
421,259,121977,6,0,L|426:203,1,56.2499985098839
427,280,122063,2,0,L|432:224,1,56.2499985098839,0|0,0:0|0:0,0:0:0:0:
436,300,122149,6,0,P|359:249|262:325,1,224.999994039536,8|0,0:0|0:0,0:0:0:0:
408,96,122491,5,0,0:0:0:0:
416,116,122577,1,0,0:0:0:0:
422,133,122663,2,0,L|297:82,1,112.499997019768,0|0,0:0|0:0,0:0:0:0:
109,73,122834,2,0,P|161:35|217:156,1,224.999994039536,8|0,0:0|0:0,0:0:0:0:
108,228,123091,1,0,0:0:0:0:
98,185,123177,6,0,L|110:58,1,112.499997019768,0|0,0:0|0:0,0:0:0:0:
79,376,123349,2,0,L|89:263,1,112.499997019768,0|0,0:0|0:0,0:0:0:0:
110,76,123520,6,0,B|66:180|66:180|129:284|129:284|79:377,1,337.499991059303,8|0,0:0|0:0,0:0:0:0:
80,374,123863,6,0,P|158:341|196:344,1,112.499997019768,0|0,0:0|0:0,0:0:0:0:
436,300,124034,2,0,P|380:295|332:267,1,112.499997019768,0|0,0:0|0:0,0:0:0:0:
384,136,124206,5,8,0:0:0:0:
396,112,124291,1,0,0:0:0:0:
422,133,124377,1,0,0:0:0:0:
404,152,124463,1,0,0:0:0:0:
401,133,124549,2,0,L|277:154,1,112.499997019768,0|0,0:0|0:0,0:0:0:0:
124,176,124720,1,0,0:0:0:0:
124,176,124806,1,0,0:0:0:0:
124,176,124891,6,0,B|140:248|140:248|208:196|208:196|280:260|280:365|280:365|217:349,1,405.000004720688,8|0,0:0|0:0,0:0:0:0:
52,380,125234,2,0,B|76:284|76:284|52:236,1,135.000001573563,0|0,0:0|0:0,0:0:0:0:
300,40,125406,2,0,B|283:72|283:72|307:168,1,135.000001573563,0|0,0:0|0:0,0:0:0:0:
436,296,125577,5,8,0:0:0:0:
416,272,125663,1,0,0:0:0:0:
440,276,125749,1,0,0:0:0:0:
412,296,125834,1,0,0:0:0:0:
425,283,125920,1,0,0:0:0:0:
300,40,126091,1,0,0:0:0:0:
425,283,126263,6,0,B|312:234|212:357|85:318|85:318|64:304|42:263,1,405.000004720688,8|0,0:0|0:0,0:0:0:0:
373,341,126606,2,0,P|311:355|226:389,1,135.000001573563,0|0,0:0|0:0,0:0:0:0:
49,276,126777,2,0,P|33:221|45:129,1,135.000001573563,0|0,0:0|0:0,0:0:0:0:
364,336,126949,6,0,P|302:350|217:384,1,135.000001573563,8|0,0:0|0:0,0:0:0:0:
40,272,127120,2,0,P|24:217|36:125,1,135.000001573563
110,48,127291,5,8,0:0:0:0:
176,58,127377,1,0,0:0:0:0:
242,68,127463,1,0,0:0:0:0:
308,79,127549,1,0,0:0:0:0:
374,90,127634,6,0,P|372:142|327:221,1,135.000001573563,8|0,0:0|0:0,0:0:0:0:
51,274,127806,1,0,0:0:0:0:
51,274,127891,1,0,0:0:0:0:
51,274,127977,2,0,P|35:219|47:127,1,135.000001573563
374,90,128149,1,0,0:0:0:0:
374,90,128234,1,0,0:0:0:0:
374,90,128320,6,0,P|356:204|245:65,1,405.000004720688,8|0,0:0|0:0,0:0:0:0:
285,142,128663,5,0,0:0:0:0:
311,143,128749,1,0,0:0:0:0:
299,128,128834,1,0,0:0:0:0:
300,150,128920,1,0,0:0:0:0:
297,139,129006,6,0,P|263:253|48:271,1,359.999990463257,8|0,0:0|0:0,0:0:0:0:
170,352,129263,1,0,0:0:0:0:
187,331,129349,6,0,P|382:278|501:387,1,359.999990463257,0|0,0:0|0:0,0:0:0:0:
428,230,129606,1,0,0:0:0:0:
415,251,129691,6,0,P|212:238|377:91,1,539.999985694885,8|0,0:0|0:0,0:0:0:0:
413,262,130034,6,0,P|377:297|251:292,1,179.999995231629,0|0,0:0|0:0,0:0:0:0:
102,68,130206,2,0,P|172:120|183:207,1,179.999995231629,0|0,0:0|0:0,0:0:0:0:
27,290,130377,5,8,0:0:0:0:
29,253,130463,1,0,0:0:0:0:
2,271,130549,2,0,L|203:282,1,179.999995231629,0|0,0:0|0:0,0:0:0:0:
428,230,130720,5,8,0:0:0:0:
426,193,130806,1,0,0:0:0:0:
453,211,130892,2,0,L|252:222,1,179.999995231629,0|0,0:0|0:0,0:0:0:0:
100,105,131063,5,8,0:0:0:0:
102,68,131149,1,0,0:0:0:0:
75,86,131235,2,0,L|276:97,1,179.999995231629,0|0,0:0|0:0,0:0:0:0:
492,84,131406,6,0,P|423:128|344:71,1,179.999995231629,0|0,0:0|0:0,0:0:0:0:
223,14,131577,2,0,P|127:26|72:92,1,179.999995231629,0|0,0:0|0:0,0:0:0:0:
122,245,131749,5,8,0:0:0:0:
131,248,131920,1,0,0:0:0:0:
138,250,132091,1,8,0:0:0:0:
144,252,132263,1,0,0:0:0:0:
464,322,132434,5,8,0:0:0:0:
361,330,132606,1,0,0:0:0:0:
258,338,132777,1,8,0:0:0:0:
155,346,132949,1,0,0:0:0:0:
214,46,133120,5,8,0:0:0:0:
244,52,133377,1,0,0:0:0:0:
248,224,133463,1,0,0:0:0:0:
248,224,133634,1,0,0:0:0:0:
214,46,133806,5,0,0:0:0:0:
244,52,134063,1,0,0:0:0:0:
180,172,134149,1,0,0:0:0:0:
180,172,134320,1,0,0:0:0:0:
214,46,134491,5,0,0:0:0:0:
244,52,134748,1,0,0:0:0:0:
280,140,134834,1,0,0:0:0:0:
280,140,135005,1,0,0:0:0:0:
214,46,135177,5,0,0:0:0:0:
244,52,135434,1,0,0:0:0:0:
172,260,135520,1,0,0:0:0:0:
172,260,135691,1,0,0:0:0:0:
214,46,135863,5,0,0:0:0:0:
244,52,136120,1,0,0:0:0:0:
264,304,136206,1,0,0:0:0:0:
264,304,136377,1,0,0:0:0:0:
214,46,136549,5,0,0:0:0:0:
244,52,136806,1,0,0:0:0:0:
372,168,136892,1,0,0:0:0:0:
372,168,137063,1,0,0:0:0:0:
214,46,137234,5,0,0:0:0:0:
244,52,137491,1,0,0:0:0:0:
140,96,137577,1,0,0:0:0:0:
140,96,137748,1,0,0:0:0:0:
214,46,137920,5,0,0:0:0:0:
244,52,138177,1,0,0:0:0:0:
284,380,138263,2,0,L|256:384,1,26.9999992847443,0|0,0:0|0:0,0:0:0:0:
88,320,138606,6,0,P|132:236|172:348,1,269.999992847443
19,234,138949,2,0,B|4:272|4:272|8:321,1,89.9999976158143,0|0,0:0|0:0,0:0:0:0:
8,321,139121,2,0,L|20:232,1,89.9999976158143,0|0,0:0|0:0,0:0:0:0:
176,138,139291,6,0,P|132:54|92:166,1,269.999992847443,0|0,0:0|0:0,0:0:0:0:
244,52,139634,2,0,B|259:89|259:89|255:138,1,89.9999976158143,0|0,0:0|0:0,0:0:0:0:
255,139,139806,2,0,L|243:49,1,89.9999976158143,0|0,0:0|0:0,0:0:0:0:
120,108,139977,6,0,B|95:135|95:135|216:120|328:200,1,269.999992847443,0|0,0:0|0:0,0:0:0:0:
396,340,140320,2,0,P|348:300|333:265,1,89.9999976158143,0|0,0:0|0:0,0:0:0:0:
392,112,140491,2,0,P|451:93|488:100,1,89.9999976158143,0|0,0:0|0:0,0:0:0:0:
476,272,140663,6,0,P|403:199|504:214,1,269.999992847443,0|0,0:0|0:0,0:0:0:0:
396,340,141006,2,0,P|336:304|312:300,1,89.9999976158143,0|0,0:0|0:0,0:0:0:0:
255,139,141177,2,0,P|195:175|171:179,1,89.9999976158143,0|0,0:0|0:0,0:0:0:0:
52,344,141349,6,0,P|60:260|172:336,1,269.999992847443,0|0,0:0|0:0,0:0:0:0:
8,208,141691,2,0,P|52:176|100:168,1,89.9999976158143,0|0,0:0|0:0,0:0:0:0:
255,139,141863,2,0,P|211:126|176:99,1,89.9999976158143,0|0,0:0|0:0,0:0:0:0:
280,216,142034,6,0,P|380:208|500:96,1,269.999992847443,0|0,0:0|0:0,0:0:0:0:
472,252,142377,2,0,P|432:240|364:248,1,89.9999976158143,0|0,0:0|0:0,0:0:0:0:
264,312,142549,2,0,P|224:324|156:316,1,89.9999976158143,0|0,0:0|0:0,0:0:0:0:
8,208,142720,2,0,P|144:224|140:128,1,269.999992847443,0|0,0:0|0:0,0:0:0:0:
92,60,143063,5,0,0:0:0:0:
76,48,143234,2,0,L|180:32,1,89.9999976158143,0|0,0:0|0:0,0:0:0:0:
320,12,143406,2,0,B|300:8|300:8|332:124|332:124|312:272,1,269.999992847443,0|0,0:0|0:0,0:0:0:0:
264,312,143749,2,0,P|324:224|332:332,1,269.999992847443,0|0,0:0|0:0,0:0:0:0:
156,348,144091,5,0,0:0:0:0:
168,268,144177,1,0,0:0:0:0:
180,188,144263,1,0,0:0:0:0:
196,108,144349,1,0,0:0:0:0:
212,28,144434,1,0,0:0:0:0:
212,28,144606,1,0,0:0:0:0:
212,28,144777,1,0,0:0:0:0:
156,348,145120,5,0,0:0:0:0:
212,28,145463,1,0,0:0:0:0:
156,348,145806,5,0,0:0:0:0:
212,28,146149,1,0,0:0:0:0:
156,348,146491,5,0,0:0:0:0:
212,28,146834,1,0,0:0:0:0:
212,280,147177,5,0,0:0:0:0:
176,96,147520,1,0,0:0:0:0:
204,196,147863,5,0,0:0:0:0:
200,172,148206,1,0,0:0:0:0:
200,184,148549,6,0,L|400:204,1,179.999995231629,0|0,0:0|0:0,0:0:0:0:
392,204,148891,6,0,P|312:224|296:252,1,89.9999976158143,0|0,0:0|0:0,0:0:0:0:
212,280,149063,2,0,P|132:260|116:232,1,89.9999976158143,0|0,0:0|0:0,0:0:0:0:
149,96,149234,2,0,L|181:96,1,26.9999992847443,0|0,0:0|0:0,0:0:0:0:
200,172,149577,5,0,0:0:0:0:
204,196,149920,1,0,0:0:0:0:
176,96,150263,5,0,0:0:0:0:
212,280,150606,2,0,L|180:280,1,26.9999992847443,0|0,0:0|0:0,0:0:0:0:
212,28,150949,5,0,0:0:0:0:
156,348,151292,1,0,0:0:0:0:
212,28,151463,6,0,L|192:28,1,17.9999995231628,0|0,0:0|0:0,0:0:0:0:
156,348,151977,6,0,L|188:348,1,26.9999992847443,0|0,0:0|0:0,0:0:0:0:
192,164,152320,5,0,0:0:0:0:
200,244,152491,1,0,0:0:0:0:
272,120,152663,5,0,0:0:0:0:
260,308,152834,1,0,0:0:0:0:
456,256,153006,5,0,0:0:0:0:
384,244,153091,1,0,0:0:0:0:
312,232,153177,1,0,0:0:0:0:
240,220,153263,1,0,0:0:0:0:
168,208,153349,1,0,0:0:0:0:
96,196,153434,1,0,0:0:0:0:
24,180,153520,6,0,L|20:200,1,17.9999995231628,0|0,0:0|0:0,0:0:0:0:
48,96,153863,2,0,L|44:116,1,17.9999995231628,0|0,0:0|0:0,0:0:0:0:
72,16,154206,2,0,L|68:28,1,8.99999976158142,0|0,0:0|0:0,0:0:0:0:
48,96,154377,5,0,0:0:0:0:
24,180,154549,1,0,0:0:0:0:
128,96,154720,5,0,0:0:0:0:
136,124,154891,1,0,0:0:0:0:
100,220,155063,6,0,L|96:196,1,24.7499993443489,0|0,0:0|0:0,0:0:0:0:
408,56,166034,5,0,0:0:0:0:
356,128,166376,1,0,0:0:0:0:
412,200,166719,1,0,0:0:0:0:
372,308,167062,1,0,0:0:0:0:
120,200,167405,5,0,0:0:0:0:
43,152,167576,1,0,0:0:0:0:
65,64,167748,1,0,0:0:0:0:
155,58,167919,1,0,0:0:0:0:
188,142,168091,1,0,0:0:0:0:
188,142,168434,1,0,0:0:0:0:
408,56,168776,5,0,0:0:0:0:
356,128,169118,1,0,0:0:0:0:
412,200,169461,1,0,0:0:0:0:
372,308,169804,1,0,0:0:0:0:
188,142,170148,5,0,0:0:0:0:
155,58,170320,1,0,0:0:0:0:
65,64,170491,1,0,0:0:0:0:
43,152,170663,1,0,0:0:0:0:
120,200,170834,1,0,0:0:0:0:
120,200,171177,1,0,0:0:0:0:
372,308,171519,5,0,0:0:0:0:
412,200,171862,1,0,0:0:0:0:
356,128,172205,1,0,0:0:0:0:
408,56,172547,5,0,0:0:0:0:
464,364,172719,2,0,L|424:372,1,35.9999990463257,0|0,0:0|0:0,0:0:0:0:
187,262,173234,5,0,0:0:0:0:
120,200,173406,1,0,0:0:0:0:
42,245,173577,1,0,0:0:0:0:
61,334,173919,5,0,0:0:0:0:
151,343,174262,5,0,0:0:0:0:
187,262,174605,1,0,0:0:0:0:
120,200,174948,1,0,0:0:0:0:
160,60,175291,1,0,0:0:0:0:
332,152,175634,5,0,0:0:0:0:
365,236,175806,1,0,0:0:0:0:
455,230,175977,1,0,0:0:0:0:
477,142,176149,1,0,0:0:0:0:
400,94,176320,1,0,0:0:0:0:
400,94,176662,1,0,0:0:0:0:
160,60,177005,5,0,0:0:0:0:
164,64,177348,1,0,0:0:0:0:
168,68,177691,1,0,0:0:0:0:
172,72,178034,1,0,0:0:0:0:
372,288,178376,5,0,0:0:0:0:
276,348,178548,1,0,0:0:0:0:
184,312,178719,1,0,0:0:0:0:
88,344,178891,1,0,0:0:0:0:
16,264,179062,1,0,0:0:0:0:
256,264,179405,1,0,0:0:0:0:
160,60,179748,5,0,0:0:0:0:
164,64,180091,1,0,0:0:0:0:
168,68,180434,1,0,0:0:0:0:
172,72,180777,1,0,0:0:0:0:
200,340,181119,5,0,0:0:0:0:
313,341,181291,1,0,0:0:0:0:
373,263,181462,1,0,0:0:0:0:
472,241,181634,1,0,0:0:0:0:
472,336,181805,1,0,0:0:0:0:
256,264,182148,1,0,0:0:0:0:
160,60,182491,5,0,0:0:0:0:
164,64,182834,1,0,0:0:0:0:
168,68,183177,1,0,0:0:0:0:
172,72,183520,5,0,0:0:0:0:
136,340,183691,6,0,L|96:348,1,35.9999990463257,0|0,0:0|0:0,0:0:0:0:
224,264,184205,6,0,L|332:284,2,89.9999976158143,0|0|0,0:0|0:0|0:0,0:0:0:0:
224,264,184891,5,0,0:0:0:0:
488,116,185234,5,0,0:0:0:0:
376,100,185576,1,0,0:0:0:0:
368,112,185919,5,0,0:0:0:0:
484,124,186262,1,0,0:0:0:0:
356,300,186605,5,0,0:0:0:0:
416,236,186776,1,0,0:0:0:0:
500,276,186948,1,0,0:0:0:0:
496,364,187119,1,0,0:0:0:0:
400,380,187291,1,0,0:0:0:0:
400,380,187634,1,0,0:0:0:0:
128,52,187976,6,0,P|76:172|92:240,1,179.999995231629,0|0,0:0|0:0,0:0:0:0:
208,360,188662,2,0,P|260:240|244:172,1,179.999995231629
128,52,189348,6,0,P|76:172|92:240,1,179.999995231629,0|0,0:0|0:0,0:0:0:0:
336,376,189691,2,0,P|388:256|372:188,1,179.999995231629
128,52,190034,6,0,P|76:172|92:240,1,179.999995231629,0|0,0:0|0:0,0:0:0:0:
272,56,190719,6,0,P|364:88|416:152,1,179.999995231629,0|0,0:0|0:0,0:0:0:0:
396,289,191405,2,0,P|304:257|252:193,1,179.999995231629,0|0,0:0|0:0,0:0:0:0:
272,56,192091,6,0,P|364:88|416:152,1,179.999995231629,0|0,0:0|0:0,0:0:0:0:
221,357,192434,2,0,P|129:325|77:261,1,179.999995231629,0|0,0:0|0:0,0:0:0:0:
272,56,192776,6,0,P|364:88|416:152,1,179.999995231629,0|0,0:0|0:0,0:0:0:0:
48,120,193462,2,0,P|48:84|128:128,1,179.999995231629,0|0,0:0|0:0,0:0:0:0:
88,368,194148,2,0,L|92:168,1,179.999995231629,0|0,0:0|0:0,0:0:0:0:
48,120,194662,6,0,L|88:116,1,35.9999990463257,0|0,0:0|0:0,0:0:0:0:
88,368,195176,6,0,L|92:168,1,179.999995231629,0|0,0:0|0:0,0:0:0:0:
132,119,195519,6,0,P|89:56|48:120,1,179.999995231629,0|0,0:0|0:0,0:0:0:0:
408,356,196205,6,0,P|324:348|268:268,1,179.999995231629,0|0,0:0|0:0,0:0:0:0:
316,184,196891,2,0,P|351:103|316:23,1,179.999995231629,0|0,0:0|0:0,0:0:0:0:
316,23,197576,6,0,P|351:103|316:184,1,179.999995231629,0|0,0:0|0:0,0:0:0:0:
269,275,197919,2,0,P|321:346|408:356,1,179.999995231629
80,272,198262,6,0,P|166:261|218:190,1,179.999995231629
429,143,198948,5,0,0:0:0:0:
429,143,199291,1,0,0:0:0:0:
429,143,199634,1,0,0:0:0:0:
429,143,199976,1,0,0:0:0:0:
128,260,200319,5,0,0:0:0:0:
84,181,200491,1,0,0:0:0:0:
145,115,200662,1,0,0:0:0:0:
227,153,200834,1,0,0:0:0:0:
216,242,201005,1,0,0:0:0:0:
216,242,201348,1,0,0:0:0:0:
429,143,201691,5,0,0:0:0:0:
429,143,202034,1,0,0:0:0:0:
429,143,202376,1,0,0:0:0:0:
429,143,202719,1,0,0:0:0:0:
216,242,203062,5,0,0:0:0:0:
248,141,203233,1,0,0:0:0:0:
162,79,203405,1,0,0:0:0:0:
77,142,203576,1,0,0:0:0:0:
110,243,203748,1,0,0:0:0:0:
110,243,204091,1,0,0:0:0:0:
429,143,204434,5,0,0:0:0:0:
456,224,204605,1,0,0:0:0:0:
429,143,204777,5,0,0:0:0:0:
396,284,204948,1,0,0:0:0:0:
429,143,205119,5,0,0:0:0:0:
464,340,205291,1,0,0:0:0:0:
429,143,205462,5,0,0:0:0:0:
380,376,205634,2,0,L|356:372,2,17.9999995231628,0|0|0,0:0|0:0|0:0,0:0:0:0:
240,204,206148,2,0,L|216:208,1,17.9999995231628,0|0,0:0|0:0,0:0:0:0:
64,356,206491,6,0,L|88:356,1,17.9999995231628,0|0,0:0|0:0,0:0:0:0:
128,296,206834,1,0,0:0:0:0:
164,160,207005,1,0,0:0:0:0:
429,143,207176,6,0,L|428:120,1,17.9999995231628,0|0,0:0|0:0,0:0:0:0:
392,60,207519,1,0,0:0:0:0:
164,160,207691,1,0,0:0:0:0:
88,100,207862,2,0,L|84:76,1,17.9999995231628,0|0,0:0|0:0,0:0:0:0:
136,24,208205,1,0,0:0:0:0:
429,143,208376,1,0,0:0:0:0:
352,64,208548,6,0,L|356:88,1,17.9999995231628,0|0,0:0|0:0,0:0:0:0:
484,228,208891,2,0,L|480:252,1,17.9999995231628,0|0,0:0|0:0,0:0:0:0:
296,344,209234,6,0,L|288:316,1,26.9999992847443,0|0,0:0|0:0,0:0:0:0:
348,192,209576,2,0,L|328:204,1,17.9999995231628
48,344,209919,5,0,0:0:0:0:
48,344,210262,1,0,0:0:0:0:
48,344,210605,1,0,0:0:0:0:
48,344,210948,1,0,0:0:0:0:
480,152,211291,5,0,0:0:0:0:
240,120,211462,1,0,0:0:0:0:
436,280,211634,1,0,0:0:0:0:
192,228,211805,1,0,0:0:0:0:
356,324,211976,1,0,0:0:0:0:
48,344,212319,1,0,0:0:0:0:
188,40,212662,5,0,0:0:0:0:
188,40,213005,1,0,0:0:0:0:
188,40,213348,1,0,0:0:0:0:
188,40,213691,1,0,0:0:0:0:
424,344,214034,5,0,0:0:0:0:
108,356,214205,1,0,0:0:0:0:
385,228,214376,1,0,0:0:0:0:
116,244,214548,1,0,0:0:0:0:
188,40,214719,5,0,0:0:0:0:
193,46,214805,1,0,0:0:0:0:
197,53,214891,1,0,0:0:0:0:
296,240,215062,6,0,L|395:227,1,89.9999976158143,0|0,0:0|0:0,0:0:0:0:
480,127,215405,5,0,0:0:0:0:
443,118,215576,1,0,0:0:0:0:
248,123,215748,5,0,0:0:0:0:
218,192,215919,1,0,0:0:0:0:
390,251,216091,5,0,0:0:0:0:
411,348,216262,1,0,0:0:0:0:
163,342,216434,5,0,0:0:0:0:
300,319,216605,1,0,0:0:0:0:
218,192,216776,5,0,0:0:0:0:
50,163,216948,1,0,0:0:0:0:
152,45,217119,5,0,0:0:0:0:
109,268,217291,1,0,0:0:0:0:
300,319,217462,5,0,0:0:0:0:
258,62,217634,2,0,L|268:128,1,44.9999988079071,0|0,0:0|0:0,0:0:0:0:
390,251,217805,5,0,0:0:0:0:
480,160,217976,2,0,L|474:209,1,44.9999988079071,0|0,0:0|0:0,0:0:0:0:
414,349,218148,5,0,0:0:0:0:
357,332,218234,1,0,0:0:0:0:
300,319,218319,1,0,0:0:0:0:
241,323,218405,1,0,0:0:0:0:
183,335,218491,1,0,0:0:0:0:
125,330,218576,1,0,0:0:0:0:
69,310,218662,1,0,0:0:0:0:
38,259,218748,1,0,0:0:0:0:
40,200,218834,1,0,0:0:0:0:
79,157,218919,1,0,0:0:0:0:
135,139,219005,1,0,0:0:0:0:
190,156,219091,1,0,0:0:0:0:
248,156,219176,1,0,0:0:0:0:
288,113,219262,1,0,0:0:0:0:
275,55,219348,1,0,0:0:0:0:
226,21,219434,1,0,0:0:0:0:
172,42,219519,6,0,L|322:78,1,154.285710198539,0|0,0:0|0:0,0:0:0:0:
256,192,220891,12,0,222091,0:0:0:0:
221,69,222262,6,0,L|285:354,1,270.000003147125,8|0,0:0|0:0,0:0:0:0:
155,259,222605,5,0,0:0:0:0:
165,223,222691,1,0,0:0:0:0:
320,165,222776,5,0,0:0:0:0:
310,129,222862,1,0,0:0:0:0:
221,69,222948,6,0,L|224:170,1,89.9999976158143,0|0,0:0|0:0,0:0:0:0:
241,331,223119,5,0,0:0:0:0:
206,330,223205,1,0,0:0:0:0:
375,59,223376,5,0,0:0:0:0:
410,60,223462,1,0,0:0:0:0:
456,348,223634,1,0,0:0:0:0:
456,348,223719,1,0,0:0:0:0:
456,348,223805,2,0,L|356:342,1,89.9999976158143,0|0,0:0|0:0,0:0:0:0:
50,307,223976,6,0,B|83:280|83:280|76:221,1,89.9999976158143,0|0,0:0|0:0,0:0:0:0:
119,22,224148,2,0,B|86:49|86:49|93:108,1,89.9999976158143,0|0,0:0|0:0,0:0:0:0:
121,349,224319,1,0,0:0:0:0:
379,297,224491,5,0,0:0:0:0:
389,261,224577,1,0,0:0:0:0:
91,96,224748,5,0,0:0:0:0:
96,131,224834,2,0,L|110:237,1,89.9999976158143,0|0,0:0|0:0,0:0:0:0:
121,349,225005,6,0,B|143:307|143:307|295:282|295:282|321:211,1,270.000003147125,8|0,0:0|0:0,0:0:0:0:
237,53,225262,2,0,P|292:146|309:37,1,270.000003147125,8|0,0:0|0:0,0:0:0:0:
163,199,225519,2,0,B|182:232|219:214|219:214|200:176|160:193,1,135.000001573563,8|0,0:0|0:0,0:0:0:0:
448,184,225691,6,0,P|425:99|472:183,1,270.000003147125,8|0,0:0|0:0,0:0:0:0:
448,352,225948,2,0,B|444:292|444:292|472:316|472:316|284:324,1,270.000003147125,8|0,0:0|0:0,0:0:0:0:
28,344,226205,2,0,P|32:296|44:332,1,135.000001573563,8|0,0:0|0:0,0:0:0:0:
82,49,226376,6,0,P|206:165|226:37,1,359.999990463257,8|0,0:0|0:0,0:0:0:0:
448,352,226634,6,0,P|324:236|304:364,1,359.999990463257,8|0,0:0|0:0,0:0:0:0:
372,304,226891,1,8,0:0:0:0:
372,304,226976,1,8,0:0:0:0:
372,304,227062,6,0,B|416:252|328:208|380:160,1,134.999996423721,8|0,0:0|0:0,0:0:0:0:
156,96,227405,2,0,B|200:148|112:192|164:240,1,134.999996423721,8|0,0:0|0:0,0:0:0:0:
284,152,227748,6,0,L|2:180,1,270.000003147125,8|0,0:0|0:0,0:0:0:0:
120,288,228091,5,0,0:0:0:0:
160,296,228176,1,0,0:0:0:0:
292,232,228262,5,0,0:0:0:0:
332,228,228347,1,0,0:0:0:0:
452,136,228434,2,0,L|360:144,1,89.9999976158143,0|0,0:0|0:0,0:0:0:0:
84,180,228605,5,0,0:0:0:0:
80,140,228691,1,0,0:0:0:0:
408,344,228862,5,0,0:0:0:0:
412,304,228948,1,0,0:0:0:0:
312,40,229119,5,0,0:0:0:0:
312,40,229205,1,0,0:0:0:0:
312,40,229291,2,0,L|208:32,1,89.9999976158143,0|0,0:0|0:0,0:0:0:0:
120,288,229462,2,0,L|224:268,1,89.9999976158143,0|0,0:0|0:0,0:0:0:0:
300,248,229634,2,0,L|404:228,2,89.9999976158143,0|0|0,0:0|0:0|0:0,0:0:0:0:
36,316,229976,5,0,0:0:0:0:
32,276,230062,1,0,0:0:0:0:
448,176,230234,5,0,0:0:0:0:
452,136,230319,2,0,L|464:44,1,89.9999976158143,0|0,0:0|0:0,0:0:0:0:
96,48,230491,6,0,P|132:96|24:236,1,270.000003147125,8|0,0:0|0:0,0:0:0:0:
24,236,230748,6,0,P|47:180|222:204,1,270.000003147125,8|0,0:0|0:0,0:0:0:0:
223,203,231005,6,0,P|163:210|96:46,1,270.000003147125,8|0,0:0|0:0,0:0:0:0:
404,176,231176,6,0,P|368:224|476:364,1,270.000003147125,8|0,0:0|0:0,0:0:0:0:
476,364,231434,6,0,P|453:308|278:332,1,270.000003147125,8|0,0:0|0:0,0:0:0:0:
277,331,231691,6,0,P|337:338|404:174,1,270.000003147125,8|0,0:0|0:0,0:0:0:0:
192,56,231862,6,8,L|192:60,4,4.49999988079071
304,156,232119,6,8,L|304:160,4,4.49999988079071
160,280,232376,6,8,L|160:284,12,4.49999988079071
396,76,233234,5,8,0:0:0:0:
396,76,233405,1,8,0:0:0:0:
428,276,233576,2,0,L|292:256,1,135.000001573563,0|0,0:0|0:0,0:0:0:0:
64,344,233748,2,0,B|80:320|80:320|68:200,1,135.000001573563,0|0,0:0|0:0,0:0:0:0:
144,16,233919,2,0,B|128:40|128:40|161:294,1,270.000003147125,0|0,0:0|0:0,0:0:0:0:
428,276,234176,1,0,0:0:0:0:
428,276,234262,2,0,L|452:128,1,135.000001573563,0|0,0:0|0:0,0:0:0:0:
320,156,234434,2,0,L|296:8,1,135.000001573563,0|0,0:0|0:0,0:0:0:0:
396,76,234605,5,8,0:0:0:0:
396,76,234776,1,8,0:0:0:0:
428,276,234948,2,0,L|292:256,1,135.000001573563,0|0,0:0|0:0,0:0:0:0:
64,344,235120,2,0,B|80:320|80:320|68:200,1,135.000001573563,0|0,0:0|0:0,0:0:0:0:
144,16,235291,2,0,B|128:40|128:40|161:294,1,270.000003147125,0|0,0:0|0:0,0:0:0:0:
420,364,235548,1,0,0:0:0:0:
388,348,235634,6,0,L|388:344,6,4.49999988079071
396,76,235976,5,8,0:0:0:0:
396,76,236147,1,8,0:0:0:0:
428,276,236319,2,0,L|292:256,1,135.000001573563,0|0,0:0|0:0,0:0:0:0:
64,344,236491,2,0,B|80:320|80:320|68:200,1,135.000001573563,0|0,0:0|0:0,0:0:0:0:
396,76,236662,5,8,0:0:0:0:
396,76,236833,1,8,0:0:0:0:
250,248,237005,2,0,L|428:276,1,179.999995231629
64,344,237177,2,0,B|80:320|80:320|61:169,1,179.999995231629
396,76,237348,5,8,0:0:0:0:
396,76,237519,1,8,0:0:0:0:
428,276,237691,2,0,L|292:256,1,135.000001573563,0|0,0:0|0:0,0:0:0:0:
64,344,237863,2,0,B|80:320|80:320|68:212,1,135.000001573563,0|0,0:0|0:0,0:0:0:0:
396,76,238034,5,8,0:0:0:0:
396,76,238205,1,8,0:0:0:0:
428,276,238376,2,0,L|364:268,1,44.9999988079071,0|0,0:0|0:0,0:0:0:0:
64,344,238548,2,0,B|80:320|80:320|76:276,1,44.9999988079071,0|0,0:0|0:0,0:0:0:0:
112,56,238719,6,0,L|164:252,1,179.999995231629,8|0,0:0|0:0,0:0:0:0:
112,56,239062,6,0,L|240:256,1,224.999994039536,8|0,0:0|0:0,0:0:0:0:
112,56,239405,6,0,L|312:240,1,270.000003147125,8|0,0:0|0:0,0:0:0:0:
112,56,239748,6,0,L|400:216,1,314.999994659424,8|0,0:0|0:0,0:0:0:0:
464,80,240091,5,8,0:0:0:0:
464,80,240176,1,8,0:0:0:0:
464,80,240262,1,8,0:0:0:0:
464,80,240348,1,8,0:0:0:0:
444,80,240434,5,8,0:0:0:0:
484,80,240519,1,8,0:0:0:0:
464,56,240605,1,8,0:0:0:0:
464,100,240691,1,8,0:0:0:0:
464,80,240776,6,0,L|464:148,1,62.99999833107,0|0,0:0|0:0,0:0:0:0:
488,280,241462,5,0,0:0:0:0:
428,304,241548,1,0,0:0:0:0:
364,312,241634,1,0,0:0:0:0:
304,300,241719,1,0,0:0:0:0:
248,272,241805,1,0,0:0:0:0:
192,240,241891,1,0,0:0:0:0:
136,216,241976,1,0,0:0:0:0:
72,208,242062,1,0,0:0:0:0:
16,240,242148,1,0,0:0:0:0:
4,304,242234,1,0,0:0:0:0:
48,348,242319,1,0,0:0:0:0:
112,348,242405,1,0,0:0:0:0:
140,292,242491,1,0,0:0:0:0:
116,236,242576,1,0,0:0:0:0:
84,180,242662,1,0,0:0:0:0:
60,120,242748,1,0,0:0:0:0:
76,60,242834,5,2,0:0:0:0:
84,52,243005,1,2,0:0:0:0:
92,48,243176,1,2,0:0:0:0:
100,44,243348,1,2,0:0:0:0:
112,40,243519,6,2,L|148:44,1,35.9999990463257
440,248,244205,5,8,0:0:0:0:
444,232,244291,1,0,0:0:0:0:
448,216,244376,1,0,0:0:0:0:
452,200,244462,1,0,0:0:0:0:
480,168,244548,2,0,B|424:156|368:184|368:184|304:160|264:112|264:112|196:88|112:132,1,364.499991734505,0|0,0:0|0:0,0:0:0:0:
48,208,244891,6,0,B|84:192|84:192|180:208,1,121.499997244835,8|0,0:0|0:0,0:0:0:0:
344,84,245062,2,0,B|380:100|380:100|476:84,1,121.499997244835,0|0,0:0|0:0,0:0:0:0:
248,32,245234,6,0,P|324:112|224:128,1,242.99999448967,0|0,0:0|0:0,0:0:0:0:
384,24,245491,1,0,0:0:0:0:
400,36,245576,6,0,B|413:71|413:71|356:300,1,242.99999448967,8|0,0:0|0:0,0:0:0:0:
380,352,245834,1,0,0:0:0:0:
300,320,245919,2,0,P|416:272|308:332,1,364.499991734505
71,288,246262,5,8,0:0:0:0:
103,280,246348,1,0,0:0:0:0:
91,304,246434,1,0,0:0:0:0:
79,264,246519,1,0,0:0:0:0:
84,283,246605,1,0,0:0:0:0:
452,264,246776,1,0,0:0:0:0:
86,282,246948,6,0,B|140:205|34:147|100:37,1,242.99999448967,8|0,0:0|0:0,0:0:0:0:
155,121,247205,1,0,0:0:0:0:
14,192,247291,2,0,P|2:142|9:66,1,121.499997244835,0|0,0:0|0:0,0:0:0:0:
238,54,247462,5,0,0:0:0:0:
274,61,247548,1,0,0:0:0:0:
261,22,247634,2,0,P|255:88|226:157,1,121.499997244835,8|0,0:0|0:0,0:0:0:0:
331,200,247805,5,0,0:0:0:0:
369,208,247891,1,0,0:0:0:0:
359,167,247977,6,0,B|317:264|372:368|372:368|275:327,1,242.99999448967,0|0,0:0|0:0,0:0:0:0:
260,260,248234,1,0,0:0:0:0:
264,160,248319,2,0,B|273:113|313:89|313:89|345:105|385:89|385:89|424:112|436:144|436:144|468:120|476:84|476:84|472:52|432:16,1,364.499991734505,8|0,0:0|0:0,0:0:0:0:
238,54,248662,6,0,L|208:57,1,26.9999992847443,0|0,0:0|0:0,0:0:0:0:
73,27,249005,6,0,P|114:55|16:288,1,364.499991734505,8|0,0:0|0:0,0:0:0:0:
16,292,249348,6,0,P|80:272|152:276,1,121.499997244835,8|0,0:0|0:0,0:0:0:0:
241,147,249519,2,0,P|305:167|377:163,1,121.499997244835,8|0,0:0|0:0,0:0:0:0:
452,356,249691,5,8,0:0:0:0:
452,356,249776,1,0,0:0:0:0:
452,356,249862,2,0,L|300:344,1,135.000001573563,8|0,0:0|0:0,0:0:0:0:
56,220,250034,5,8,0:0:0:0:
56,220,250119,1,0,0:0:0:0:
56,220,250205,2,0,L|208:232,1,135.000001573563,0|0,0:0|0:0,0:0:0:0:
469,163,250376,5,8,0:0:0:0:
469,163,250461,1,0,0:0:0:0:
469,163,250548,2,0,L|317:151,1,135.000001573563,0|0,0:0|0:0,0:0:0:0:
73,27,250719,5,8,0:0:0:0:
48,24,250804,1,0,0:0:0:0:
73,27,250890,2,0,L|225:39,1,135.000001573563,0|0,0:0|0:0,0:0:0:0:
432,64,251062,5,8,0:0:0:0:
432,64,251148,1,0,0:0:0:0:
432,64,251234,2,0,P|384:132|384:224,1,157.499997329712,8|0,0:0|0:0,0:0:0:0:
96,324,251405,5,8,0:0:0:0:
96,324,251491,1,0,0:0:0:0:
96,324,251577,2,0,P|144:256|144:164,1,157.499997329712,0|0,0:0|0:0,0:0:0:0:
48,24,251748,5,8,0:0:0:0:
92,44,251834,1,0,0:0:0:0:
136,52,251919,1,0,0:0:0:0:
184,52,252005,1,0,0:0:0:0:
228,40,252091,5,8,0:0:0:0:
292,40,252176,1,0,0:0:0:0:
352,56,252262,1,0,0:0:0:0:
404,96,252348,1,0,0:0:0:0:
424,156,252434,6,0,P|360:252|168:272,1,314.999994659424,8|0,0:0|0:0,0:0:0:0:
12,320,252691,6,0,P|71:182|224:120,1,314.999994659424,8|0,0:0|0:0,0:0:0:0:
484,208,252948,6,0,P|464:248|432:288,1,89.9999976158143,8|0,0:0|0:0,0:0:0:0:
80,360,253119,6,0,P|40:180|108:48,1,314.999994659424,8|0,0:0|0:0,0:0:0:0:
496,348,253376,2,0,P|311:359|192:271,1,314.999994659424,8|0,0:0|0:0,0:0:0:0:
91,66,253634,6,0,P|116:44|172:24,1,89.9999976158143,8|0,0:0|0:0,0:0:0:0:
503,199,253805,6,0,P|418:47|248:12,1,359.999990463257,8|0,0:0|0:0,0:0:0:0:
8,320,254062,2,0,P|18:144|136:12,1,359.999990463257,8|0,0:0|0:0,0:0:0:0:
452,30,254319,6,0,B|451:30|451:30|452:31|452:31|452:28|452:28|452:30|452:30|453:30|453:30|452:30|452:30|452:28|452:28|452:32|452:32|452:31|452:31|452:30|452:30|452:30|452:30|451:28|451:28|454:32|454:32|451:29|451:29|454:33|454:33|451:29|451:29|454:33|454:33|451:29|451:29,1,44.9999988079071,8|0,0:0|0:0,0:0:0:0:
304,186,254491,6,0,B|231:68|231:68|308:0|308:0|380:68|380:68|301:199|301:199|220:306|220:306|296:391|296:391|383:313|383:313|304:176|304:176|435:257|435:257|527:188|527:188|440:117|440:117|308:163|308:163|172:112|172:112|93:171|93:171|174:254|174:254|308:187|308:187,1,2045.45452082453,8|0,0:0|0:0,0:0:0:0:
160,332,254834,6,0,L|144:332,1,8.99999976158142,8|0,0:0|0:0,0:0:0:0:
92,284,255005,6,0,L|76:284,1,8.99999976158142,8|0,0:0|0:0,0:0:0:0:
24,80,255176,6,0,B|75:102|75:102|214:88|214:88|280:112,1,242.99999448967,8|0,0:0|0:0,0:0:0:0:
448,256,255519,5,0,0:0:0:0:
456,304,255604,1,0,0:0:0:0:
484,276,255690,2,0,L|336:296,1,121.499997244835,0|0,0:0|0:0,0:0:0:0:
264,308,255862,6,0,L|4:344,1,242.99999448967,8|0,0:0|0:0,0:0:0:0:
12,180,256119,1,0,0:0:0:0:
39,164,256205,2,0,P|107:166|168:192,1,121.499997244835,0|0,0:0|0:0,0:0:0:0:
263,307,256376,2,0,P|324:307|381:287,1,121.499997244835,0|0,0:0|0:0,0:0:0:0:
320,76,256548,6,0,P|252:199|383:147,1,364.499991734505,8|0,0:0|0:0,0:0:0:0:
244,12,256891,6,0,P|184:64|160:120,1,121.499997244835,0|0,0:0|0:0,0:0:0:0:
380,287,257062,2,0,P|436:232|456:180,1,121.499997244835,0|0,0:0|0:0,0:0:0:0:
136,296,257234,5,8,0:0:0:0:
172,284,257319,1,0,0:0:0:0:
148,268,257405,1,0,0:0:0:0:
160,312,257491,1,0,0:0:0:0:
152,288,257576,5,0,0:0:0:0:
451,384,257748,1,0,0:0:0:0:
152,288,257919,6,0,B|176:224|176:224|152:104|152:104|184:16,1,270.000003147125,8|0,0:0|0:0,0:0:0:0:
96,212,258176,1,0,0:0:0:0:
96,212,258262,2,0,L|68:68,1,135.000001573563,0|0,0:0|0:0,0:0:0:0:
328,32,258434,2,0,L|302:164,1,135.000001573563,0|0,0:0|0:0,0:0:0:0:
72,348,258605,6,0,P|216:240|432:340,1,405.000004720688,8|0,0:0|0:0,0:0:0:0:
504,136,258948,2,0,P|440:168|364:160,1,135.000001573563,0|0,0:0|0:0,0:0:0:0:
275,310,259119,2,0,P|208:315|154:355,1,135.000001573563,0|0,0:0|0:0,0:0:0:0:
411,310,259291,6,0,P|314:223|114:203,1,337.499991059303,8|0,0:0|0:0,0:0:0:0:
44,71,259634,6,0,L|72:80,1,26.9999992847443,0|0,0:0|0:0,0:0:0:0:
114,202,259976,6,0,P|215:174|240:155,1,121.499997244835,8|0,0:0|0:0,0:0:0:0:
335,38,260148,2,0,P|438:58|464:76,1,121.499997244835
476,236,260319,5,0,0:0:0:0:
476,236,260405,1,0,0:0:0:0:
400,204,260491,5,0,0:0:0:0:
400,204,260577,1,0,0:0:0:0:
367,124,260662,6,0,P|369:129|315:218,1,121.499997244835,8|0,0:0|0:0,0:0:0:0:
158,117,260834,2,0,P|156:112|210:23,1,121.499997244835
345,97,261005,6,0,P|348:101|319:201,1,121.499997244835,8|0,0:0|0:0,0:0:0:0:
141,144,261177,2,0,P|138:140|167:40,1,121.499997244835,0|0,0:0|0:0,0:0:0:0:
318,77,261348,6,0,P|322:80|320:185,1,121.499997244835,8|0,0:0|0:0,0:0:0:0:
133,176,261520,2,0,P|129:172|131:68,1,121.499997244835
317,166,261691,6,0,P|326:108|286:65,1,121.499997244835,8|0,0:0|0:0,0:0:0:0:
102,107,261863,2,0,P|93:165|133:208,1,121.499997244835,0|0,0:0|0:0,0:0:0:0:
327,323,262034,6,0,B|290:309|290:309|7:348,1,305.999997730255,8|0,0:0|0:0,0:0:0:0:
133,208,262291,1,0,0:0:0:0:
133,208,262376,6,0,B|170:194|170:194|453:233,1,305.999997730255,8|0,0:0|0:0,0:0:0:0:
475,103,262634,1,0,0:0:0:0:
475,103,262719,6,0,B|438:89|438:89|316:113,1,152.999998865128,8|0,0:0|0:0,0:0:0:0:
326,322,262891,2,0,B|438:344|438:344|475:330,1,152.999998865128,0|0,0:0|0:0,0:0:0:0:
470,82,263062,6,0,B|433:68|433:68|160:119,1,305.999997730255,8|0,0:0|0:0,0:0:0:0:
138,335,263405,5,8,0:0:0:0:
131,289,263491,1,0,0:0:0:0:
121,244,263576,1,0,0:0:0:0:
111,198,263662,1,0,0:0:0:0:
172,117,263748,5,8,0:0:0:0:
200,81,263834,1,0,0:0:0:0:
243,69,263919,1,0,0:0:0:0:
288,77,264005,1,0,0:0:0:0:
371,154,264091,5,8,0:0:0:0:
399,190,264177,1,0,0:0:0:0:
442,202,264262,1,0,0:0:0:0:
487,194,264348,1,0,0:0:0:0:
496,94,264434,5,0,0:0:0:0:
486,86,264519,1,0,0:0:0:0:
479,80,264605,1,0,0:0:0:0:
472,75,264691,1,0,0:0:0:0:
444,34,264776,6,0,L|426:122,1,89.9999976158143,8|0,0:0|0:0,0:0:0:0:
396,252,264948,2,0,L|379:341,1,89.9999976158143
266,336,265119,6,0,L|283:247,1,89.9999976158143
313,117,265291,2,0,L|331:29,1,89.9999976158143,8|0,0:0|0:0,0:0:0:0:
64,244,265462,6,0,L|47:333,1,89.9999976158143,8|0,0:0|0:0,0:0:0:0:
94,114,265634,2,0,L|112:26,1,89.9999976158143,0|0,0:0|0:0,0:0:0:0:
160,338,265805,6,0,L|177:249,1,89.9999976158143,8|0,0:0|0:0,0:0:0:0:
207,119,265977,2,0,L|225:31,1,89.9999976158143,0|0,0:0|0:0,0:0:0:0:
451,136,266148,6,0,P|488:249|447:361,1,242.99999448967,8|0,0:0|0:0,0:0:0:0:
176,249,266491,1,0,0:0:0:0:
187,207,266576,1,0,0:0:0:0:
152,221,266662,2,0,L|285:253,1,121.499997244835,0|0,0:0|0:0,0:0:0:0:
432,212,266834,6,0,L|29:251,1,364.499991734505,8|0,0:0|0:0,0:0:0:0:
272,342,267176,2,0,P|352:325|394:287,1,121.499997244835,0|0,0:0|0:0,0:0:0:0:
499,78,267348,2,0,P|448:44|388:37,1,121.499997244835,0|0,0:0|0:0,0:0:0:0:
137,64,267519,5,8,0:0:0:0:
148,84,267605,1,0,0:0:0:0:
132,90,267691,1,0,0:0:0:0:
120,72,267776,1,0,0:0:0:0:
136,79,267862,6,0,B|159:132|159:132|119:238|119:238|153:343|153:343|193:262,1,364.499991734505,0|0,0:0|0:0,0:0:0:0:
47,190,268205,6,0,P|41:250|60:308,1,121.499997244835,8|0,0:0|0:0,0:0:0:0:
292,365,268376,2,0,P|310:307|304:247,1,121.499997244835,0|0,0:0|0:0,0:0:0:0:
47,190,268548,6,0,P|41:250|60:308,1,121.499997244835,0|0,0:0|0:0,0:0:0:0:
408,258,268719,2,0,P|394:199|358:150,1,121.499997244835,0|0,0:0|0:0,0:0:0:0:
47,190,268891,6,0,P|41:250|60:308,1,121.499997244835,8|0,0:0|0:0,0:0:0:0:
460,122,269062,2,0,P|421:75|368:47,1,121.499997244835,0|0,0:0|0:0,0:0:0:0:
68,161,269234,5,0,0:0:0:0:
56,175,269319,1,0,0:0:0:0:
47,190,269405,6,0,P|41:250|60:308,1,121.499997244835,0|0,0:0|0:0,0:0:0:0:
194,256,269576,5,8,0:0:0:0:
197,274,269661,1,0,0:0:0:0:
205,290,269748,6,0,P|249:330|306:350,1,121.499997244835,0|0,0:0|0:0,0:0:0:0:
358,236,269919,5,0,0:0:0:0:
373,245,270004,1,0,0:0:0:0:
391,249,270090,6,0,P|450:241|502:210,1,121.499997244835,0|0,0:0|0:0,0:0:0:0:
426,127,270262,5,8,0:0:0:0:
442,121,270347,1,0,0:0:0:0:
457,110,270433,6,0,P|489:59|499:0,1,121.499997244835,0|0,0:0|0:0,0:0:0:0:
342,33,270605,6,0,L|316:43,1,26.9999992847443,4|0,0:0|0:0,0:0:0:0:
173,34,270948,6,0,P|215:47|257:110,1,121.499997244835,8|0,0:0|0:0,0:0:0:0:
223,275,271119,2,0,P|251:327|306:349,1,121.499997244835
412,246,271291,2,0,P|382:160|407:255,1,364.499991734505,4|0,0:0|0:0,0:0:0:0:
474,114,271634,5,8,0:0:0:0:
470,106,271719,1,0,0:0:0:0:
466,100,271805,1,0,0:0:0:0:
462,92,271891,1,0,0:0:0:0:
414,55,271976,5,8,0:0:0:0:
353,44,272062,1,0,0:0:0:0:
292,49,272148,1,0,0:0:0:0:
237,75,272234,1,0,0:0:0:0:
211,100,272319,5,8,0:0:0:0:
174,106,272405,1,0,0:0:0:0:
137,100,272491,1,0,0:0:0:0:
106,81,272576,1,0,0:0:0:0:
86,49,272662,2,0,P|88:107|68:185,1,121.499997244835,0|0,0:0|0:0,0:0:0:0:
68,361,272834,2,0,P|34:313|9:237,1,121.499997244835,0|0,0:0|0:0,0:0:0:0:
26,108,273005,5,8,0:0:0:0:
30,100,273090,1,0,0:0:0:0:
34,94,273176,1,0,0:0:0:0:
38,86,273262,1,0,0:0:0:0:
86,49,273347,5,8,0:0:0:0:
147,38,273433,1,0,0:0:0:0:
208,43,273519,1,0,0:0:0:0:
263,69,273605,1,0,0:0:0:0:
289,94,273690,5,8,0:0:0:0:
326,100,273776,1,0,0:0:0:0:
363,94,273862,1,0,0:0:0:0:
394,75,273947,1,0,0:0:0:0:
414,43,274033,2,0,P|412:101|432:179,1,121.499997244835,0|0,0:0|0:0,0:0:0:0:
432,355,274205,2,0,P|465:307|490:231,1,121.499997244835,0|0,0:0|0:0,0:0:0:0:
490,102,274376,5,8,0:0:0:0:
39,136,274634,1,8,0:0:0:0:
67,298,274891,5,8,0:0:0:0:
67,298,274934,1,0,0:0:0:0:
67,298,274976,1,0,0:0:0:0:
67,298,275019,1,0,0:0:0:0:
67,298,275062,1,8,0:0:0:0:
432,355,275319,1,8,0:0:0:0:
438,40,275576,6,0,L|400:41,1,30.3749993112087,8|0,0:0|0:0,0:0:0:0:
438,40,275619,6,0,L|400:44,1,30.3749993112087,0|0,0:0|0:0,0:0:0:0:
438,40,275662,6,0,L|400:47,1,30.3749993112087,0|0,0:0|0:0,0:0:0:0:
438,40,275705,6,0,L|401:50,1,30.3749993112087,0|0,0:0|0:0,0:0:0:0:
438,40,275748,5,0,0:0:0:0:
432,355,275919,1,8,0:0:0:0:
337,332,276005,1,0,0:0:0:0:
190,63,276176,5,8,0:0:0:0:
190,63,276262,1,8,0:0:0:0:
265,16,276434,5,8,0:0:0:0:
254,368,276691,1,8,0:0:0:0:
89,321,276948,6,0,L|25:352,1,60.7499986224175,0|0,0:0|0:0,0:0:0:0:
89,321,277034,6,0,L|153:352,1,60.7499986224175,0|0,0:0|0:0,0:0:0:0:
89,321,277119,6,0,B|128:255|39:166|94:50,1,242.99999448967,8|0,0:0|0:0,0:0:0:0:
349,25,277462,5,0,0:0:0:0:
357,62,277548,1,0,0:0:0:0:
383,35,277634,2,0,L|245:53,1,121.499997244835,0|0,0:0|0:0,0:0:0:0:
81,82,277805,6,0,P|206:41|154:210,1,364.499991734505,8|0,0:0|0:0,0:0:0:0:
399,74,278148,6,0,P|359:111|332:210,1,121.499997244835,0|0,0:0|0:0,0:0:0:0:
106,265,278319,2,0,P|146:302|173:401,1,121.499997244835,0|0,0:0|0:0,0:0:0:0:
424,329,278491,6,0,L|285:312,1,121.499997244835,8|0,0:0|0:0,0:0:0:0:
55,290,278662,2,0,L|194:307,1,121.499997244835,0|0,0:0|0:0,0:0:0:0:
435,313,278834,6,0,L|295:309,1,121.499997244835,0|0,0:0|0:0,0:0:0:0:
64,307,279005,2,0,L|204:311,1,121.499997244835,0|0,0:0|0:0,0:0:0:0:
445,297,279176,6,0,L|305:305,1,121.499997244835,8|0,0:0|0:0,0:0:0:0:
196,316,279348,2,0,L|75:323,1,121.499997244835,0|0,0:0|0:0,0:0:0:0:
453,280,279519,6,0,L|315:300,1,121.499997244835,0|0,0:0|0:0,0:0:0:0:
207,321,279690,2,0,L|87:338,1,121.499997244835,0|0,0:0|0:0,0:0:0:0:
58,159,279862,6,0,P|189:235|147:87,1,364.499991734505,8|0,0:0|0:0,0:0:0:0:
141,169,280205,1,0,0:0:0:0:
141,169,280291,1,0,0:0:0:0:
141,169,280376,1,0,0:0:0:0:
141,169,280462,1,0,0:0:0:0:
141,169,280548,6,0,L|263:196,1,121.499997244835,8|0,0:0|0:0,0:0:0:0:
453,233,280719,5,0,0:0:0:0:
439,264,280805,1,0,0:0:0:0:
462,253,280891,1,0,0:0:0:0:
429,242,280976,1,0,0:0:0:0:
440,248,281062,2,0,P|424:159|442:98,1,121.499997244835
389,24,281234,6,0,L|383:53,1,26.9999992847443,8|0,0:0|0:0,0:0:0:0:
430,130,281576,6,0,P|435:200|402:283,1,135.000001573563,8|0,0:0|0:0,0:0:0:0:
174,368,281748,2,0,P|169:298|202:215,1,135.000001573563,0|0,0:0|0:0,0:0:0:0:
430,130,281919,6,0,P|435:200|402:283,1,135.000001573563,8|0,0:0|0:0,0:0:0:0:
174,368,282091,2,0,P|169:298|202:215,1,135.000001573563,0|0,0:0|0:0,0:0:0:0:
420,354,282262,5,8,0:0:0:0:
352,346,282348,1,0,0:0:0:0:
284,337,282434,1,0,0:0:0:0:
217,326,282519,1,0,0:0:0:0:
150,314,282605,6,0,P|119:250|136:169,1,135.000001573563,8|0,0:0|0:0,0:0:0:0:
285,42,282776,1,0,0:0:0:0:
285,42,282862,1,0,0:0:0:0:
285,42,282948,2,0,P|206:178|136:10,1,405.000004720688
210,90,283291,5,8,0:0:0:0:
187,87,283376,1,0,0:0:0:0:
200,64,283462,2,0,L|176:248,1,157.499997329712
313,354,283634,5,0,0:0:0:0:
336,351,283719,1,0,0:0:0:0:
329,377,283805,2,0,L|307:221,1,157.499997329712,0|0,0:0|0:0,0:0:0:0:
411,41,283976,6,0,B|431:23|431:23|399:165|399:165|436:302|436:302|421:354,1,359.999990463257,8|0,0:0|0:0,0:0:0:0:
37,266,284234,1,0,0:0:0:0:
130,360,284319,6,0,B|147:328|147:328|134:181|134:181|92:138|92:138|87:70|87:70|115:27,1,359.999990463257,8|0,0:0|0:0,0:0:0:0:
409,125,284576,1,0,0:0:0:0:
330,38,284662,6,0,L|308:230,1,179.999995231629,8|0,0:0|0:0,0:0:0:0:
501,357,284834,2,0,L|480:178,1,179.999995231629,0|0,0:0|0:0,0:0:0:0:
194,64,285005,6,0,B|210:102|210:102|177:262|177:262|213:359|213:359|289:370,1,359.999990463257,0|0,0:0|0:0,0:0:0:0:
398,84,285262,1,0,0:0:0:0:
480,178,285348,6,0,P|381:194|289:161,1,179.999995231629,8|0,0:0|0:0,0:0:0:0:
193,63,285519,2,0,P|106:46|20:70,1,179.999995231629,0|0,0:0|0:0,0:0:0:0:
457,84,285691,6,0,P|381:150|286:170,1,179.999995231629,8|0,0:0|0:0,0:0:0:0:
152,138,285862,2,0,P|68:170|8:235,1,179.999995231629,0|0,0:0|0:0,0:0:0:0:
390,18,286034,6,0,P|359:113|288:180,1,179.999995231629,8|0,0:0|0:0,0:0:0:0:
155,221,286205,2,0,P|100:291|81:378,1,179.999995231629,0|0,0:0|0:0,0:0:0:0:
438,363,286376,6,0,P|314:211|82:399,1,539.999985694885,8|0,0:0|0:0,0:0:0:0:
262,374,286719,5,8,0:0:0:0:
390,18,286891,1,8,0:0:0:0:
262,374,287062,5,8,0:0:0:0:
285,82,287234,1,8,0:0:0:0:
262,374,287405,5,8,0:0:0:0:
182,31,287576,1,8,0:0:0:0:
262,374,287748,5,8,0:0:0:0:
86,106,287919,1,8,0:0:0:0:
262,374,288091,5,8,0:0:0:0:
250,10,288434,1,0,0:0:0:0:
214,369,288776,5,0,0:0:0:0:
297,14,289119,1,0,0:0:0:0:
170,352,289462,5,0,0:0:0:0:
341,31,289805,1,0,0:0:0:0:
131,324,290148,5,0,0:0:0:0:
380,59,290491,1,0,0:0:0:0:
101,288,290834,5,0,0:0:0:0:
410,95,291177,1,0,0:0:0:0:
81,244,291519,5,0,0:0:0:0:
430,139,291862,1,0,0:0:0:0:
74,198,292205,5,0,0:0:0:0:
438,186,292548,1,0,0:0:0:0:
78,150,292891,5,0,0:0:0:0:
433,233,293234,2,0,L|281:197,1,134.999996423721,0|0,0:0|0:0,0:0:0:0:
78,150,293576,5,0,0:0:0:0:
433,233,293919,1,0,0:0:0:0:
77,229,294262,5,0,0:0:0:0:
433,154,294605,1,0,0:0:0:0:
110,301,294948,5,0,0:0:0:0:
401,82,295291,1,0,0:0:0:0:
170,352,295634,5,0,0:0:0:0:
341,31,295977,1,0,0:0:0:0:
246,373,296319,5,0,0:0:0:0:
265,10,296662,1,0,0:0:0:0:
323,360,297005,5,0,0:0:0:0:
188,23,297348,1,0,0:0:0:0:
388,316,297691,5,0,0:0:0:0:
123,67,298034,2,0,L|205:145,1,89.9999976158143,0|0,0:0|0:0,0:0:0:0:
388,316,298291,1,0,0:0:0:0:
429,248,298376,6,0,L|291:221,1,134.999996423721,0|0,0:0|0:0,0:0:0:0:
82,135,298719,2,0,L|221:163,1,134.999996423721,0|0,0:0|0:0,0:0:0:0:
436,169,299062,5,0,0:0:0:0:
410,95,299148,1,0,0:0:0:0:
354,39,299234,1,0,0:0:0:0:
281,11,299319,1,0,0:0:0:0:
202,18,299405,1,0,0:0:0:0:
309,365,299576,1,0,0:0:0:0:
134,57,299748,5,0,0:0:0:0:
377,326,300091,1,0,0:0:0:0:
88,121,300434,5,0,0:0:0:0:
423,262,300777,1,0,0:0:0:0:
74,198,301119,5,0,0:0:0:0:
437,185,301462,1,0,0:0:0:0:
94,274,301805,5,0,0:0:0:0:
417,109,302148,1,0,0:0:0:0:
144,335,302491,5,0,0:0:0:0:
367,48,302834,1,0,0:0:0:0:
215,369,303176,5,0,0:0:0:0:
296,14,303519,2,0,L|272:120,1,89.9999976158143,0|0,0:0|0:0,0:0:0:0:
215,369,303776,1,0,0:0:0:0:
294,369,303862,2,0,L|279:274,1,89.9999976158143,0|0,0:0|0:0,0:0:0:0:
217,14,304119,1,0,0:0:0:0:
146,46,304205,6,0,L|228:176,1,134.999996423721,0|0,0:0|0:0,0:0:0:0:
365,337,304548,1,0,0:0:0:0:
95,106,304891,5,0,0:0:0:0:
416,277,305234,1,0,0:0:0:0:
74,201,305576,6,0,L|222:188,1,134.999996423721,0|0,0:0|0:0,0:0:0:0:
485,165,305919,1,0,0:0:0:0:
485,165,306262,6,0,L|423:174,1,44.9999988079071,0|0,0:0|0:0,0:0:0:0:
209,189,306434,6,0,L|321:211,2,89.9999976158143,0|0|0,0:0|0:0|0:0,0:0:0:0:
62,55,306948,6,0,L|210:91,1,134.999996423721,0|0,0:0|0:0,0:0:0:0:
219,360,307291,5,0,0:0:0:0:
269,12,307462,1,0,0:0:0:0:
193,86,307634,5,0,0:0:0:0:
319,298,307805,1,0,0:0:0:0:
301,197,307976,5,0,0:0:0:0:
301,197,308062,1,0,0:0:0:0:
211,187,308148,5,0,0:0:0:0:
211,187,308234,1,0,0:0:0:0:
256,193,308319,5,0,0:0:0:0:
256,193,308405,1,0,0:0:0:0:
256,193,308491,2,0,L|251:256,2,44.9999988079071
268,72,308834,2,0,L|263:135,2,44.9999988079071
316,330,309176,6,0,L|311:393,1,44.9999988079071,0|0,0:0|0:0,0:0:0:0:
328,209,309348,2,0,L|323:272,1,44.9999988079071,0|0,0:0|0:0,0:0:0:0:
494,154,309519,6,0,L|489:217,1,44.9999988079071,0|0,0:0|0:0,0:0:0:0:
506,33,309691,2,0,L|501:96,1,44.9999988079071,0|0,0:0|0:0,0:0:0:0:
430,333,309862,6,0,L|422:281,1,44.9999988079071,0|0,0:0|0:0,0:0:0:0:
327,172,310034,6,0,L|311:388,1,202.499994635582
